osu file format v14

[General]
AudioFilename: audio.mp3
AudioLeadIn: 0
PreviewTime: 42186
Countdown: 0
SampleSet: Soft
StackLeniency: 0.7
Mode: 0
LetterboxInBreaks: 0
WidescreenStoryboard: 0

[Editor]
DistanceSpacing: 0.9
BeatDivisor: 4
GridSize: 32
TimelineZoom: 1.5

[Metadata]
Title:sky & blue (TV Size)
TitleUnicode:sky & blue (TV Size)
Artist:GIRLFRIEND
ArtistUnicode:GIRLFRIEND
Creator:-Cronik
Version:Blessed by Any Magic
Source:ブラッククローバー
Tags:AyameMyMommy cjstmdals koldnoodl pile black clover japanese anime rock jrock j-rock op opening 8 female vocals MINA MIREI SAKIKA NAGISA
BeatmapID:3864006
BeatmapSetID:1877293

[Difficulty]
HPDrainRate:5.5
CircleSize:4.6
OverallDifficulty:8
ApproachRate:9
SliderMultiplier:1.9
SliderTickRate:1

[Events]
//Background and Video events
0,0,"bg nero.jpg",0,0
Video,0,"video.mp4"
//Break Periods
//Storyboard Layer 0 (Background)
//Storyboard Layer 1 (Fail)
//Storyboard Layer 2 (Pass)
//Storyboard Layer 3 (Foreground)
//Storyboard Layer 4 (Overlay)
//Storyboard Sound Samples

[TimingPoints]
-2813,382.165605095541,4,2,5,60,1,0
53,-142.857142857143,4,2,5,60,0,0
339,-142.857142857143,4,2,5,60,0,0
3110,-111.111111111111,4,2,5,70,0,0
3301,-111.111111111111,4,2,5,70,0,0
3396,-111.111111111111,4,2,5,70,0,0
15339,-125,4,2,5,60,0,0
27568,-117.647058823529,4,2,5,70,0,0
33874,-125,4,2,5,70,0,0
36931,-125,4,2,5,70,0,0
39797,-111.111111111111,4,2,5,70,0,0
42855,-99.9999999999999,4,2,5,80,0,1
73620,-166.666666666667,4,2,5,53,0,0
76485,-111.111111111111,4,2,5,70,0,0

[Colours]
Combo1 : 255,128,64
Combo2 : 207,207,207
Combo3 : 202,0,0
Combo4 : 128,255,255

[HitObjects]
26,36,53,6,0,P|68:47|72:133,1,132.999995941162,0|0,3:2|3:2,0:0:0:0:
0,218,626,2,0,P|87:204|144:198,1,132.999995941162,0|0,3:2|3:2,0:0:0:0:
172,211,1104,1,0,0:0:0:0:
172,211,1199,2,0,P|179:178|159:151,1,66.4999979705811,0|0,3:2|3:2,0:0:0:0:
215,48,1581,6,0,P|294:62|350:71,1,132.999995941162,0|0,3:2|3:2,0:0:0:0:
433,132,2155,1,0,3:2:0:0:
347,234,2346,5,8,3:2:0:0:
363,219,2441,1,8,0:0:0:0:
357,188,2537,1,8,3:2:0:0:
228,262,2728,1,8,3:3:0:0:
212,294,2823,1,8,0:3:0:0:
242,320,2919,1,4,0:3:0:0:
271,294,3015,1,4,0:3:0:0:
268,259,3110,6,0,P|256:171|245:67,1,170.999994781494,4|0,1:2|1:1,0:0:0:0:
388,24,3683,2,0,P|381:83|379:119,1,85.4999973907472,8|0,2:2|0:0,0:0:0:0:
453,224,4065,1,0,1:1:0:0:
276,183,4257,1,0,1:1:0:0:
398,370,4448,6,0,P|410:281|421:187,1,170.999994781494,8|0,2:2|1:1,0:0:0:0:
311,68,5021,1,0,1:1:0:0:
230,214,5212,2,0,P|290:204|326:197,1,85.4999973907472,8|0,2:2|0:0,0:0:0:0:
150,98,5594,1,0,1:1:0:0:
76,262,5785,1,0,1:1:0:0:
0,119,5976,1,8,2:2:0:0:
225,220,6167,6,0,B|324:198|294:259|409:227,1,170.999994781494,4|0,1:2|1:1,0:0:0:0:
352,62,6741,2,0,P|353:108|356:160,1,85.4999973907472,8|0,2:2|0:0,0:0:0:0:
322,313,7123,1,0,1:1:0:0:
230,149,7314,1,0,1:1:0:0:
344,335,7505,6,0,P|442:316|520:302,1,170.999994781494,8|0,2:2|1:1,0:0:0:0:
417,145,8078,1,0,1:1:0:0:
276,361,8269,2,0,P|213:359|157:357,1,85.4999973907472,8|0,2:2|0:0,0:0:0:0:
83,348,8651,1,0,1:1:0:0:
183,257,8843,1,0,1:1:0:0:
98,143,9034,1,8,2:2:0:0:
255,266,9225,6,0,B|355:245|324:308|436:282,1,170.999994781494,4|0,1:2|1:1,0:0:0:0:
318,108,9798,2,0,P|327:158|333:202,1,85.4999973907472,8|0,2:2|0:0,0:0:0:0:
409,88,10180,1,0,1:1:0:0:
221,24,10371,1,0,1:1:0:0:
324,204,10562,6,0,B|241:186|258:235|135:197,1,170.999994781494,8|0,2:2|1:1,0:0:0:0:
77,73,11136,1,0,1:1:0:0:
164,158,11327,2,0,P|156:216|153:253,1,85.4999973907472,8|0,2:2|0:0,0:0:0:0:
256,358,11709,1,0,1:1:0:0:
279,190,11900,1,0,1:1:0:0:
419,274,12091,1,8,2:2:0:0:
174,374,12282,6,0,P|162:284|150:185,1,170.999994781494,4|0,1:2|1:1,0:0:0:0:
37,35,12855,2,0,P|33:86|30:128,1,85.4999973907472,8|0,2:2|0:0,0:0:0:0:
94,292,13237,1,0,1:1:0:0:
184,123,13429,1,0,1:1:0:0:
360,247,13620,6,0,B|453:239|408:178|534:181,1,170.999994781494,8|0,2:2|1:1,0:0:0:0:
401,314,14193,1,0,1:1:0:0:
307,196,14384,2,0,P|234:207|184:214,1,85.4999973907472,8|0,2:2|0:0,0:0:0:0:
107,311,14766,1,0,3:1:0:0:
228,172,14957,1,0,0:0:0:0:
228,172,15053,1,0,0:0:0:0:
228,172,15148,1,8,2:2:0:0:
46,35,15339,6,0,P|54:90|65:205,1,152,4|2,1:2|1:2,0:0:0:0:
4,288,15913,2,0,B|87:273|66:329|178:316,1,152,8|0,2:2|1:1,0:0:0:0:
222,371,16486,1,2,2:2:0:0:
222,371,16677,1,10,2:2:0:0:
303,323,16868,6,0,P|312:246|322:158,1,152,2|2,1:2|1:2,0:0:0:0:
283,70,17441,2,0,P|235:87|234:132,1,76,8|2,2:2|2:2,0:0:0:0:
377,28,17823,2,0,P|447:65|423:145,1,152,2|10,1:2|2:2,0:0:0:0:
342,232,18397,6,0,P|330:153|309:61,1,152,0|2,1:1|1:2,0:0:0:0:
235,4,18970,1,8,2:2:0:0:
235,4,19161,1,2,2:2:0:0:
164,90,19352,2,0,P|117:88|76:84,1,76,2|2,1:2|2:2,0:0:0:0:
205,214,19734,1,10,2:2:0:0:
205,214,19925,6,0,P|219:85|226:35,1,152,2|2,1:2|1:2,0:0:0:0:
359,169,20499,2,0,P|301:156|267:151,1,76,10|2,2:2|2:2,0:0:0:0:
371,275,20881,2,0,P|430:271|458:268,1,76,2|0,1:2|0:0,0:0:0:0:
289,358,21263,1,10,2:2:0:0:
289,358,21454,1,0,0:0:0:0:
195,289,21645,6,0,P|134:295|103:299,1,76,6|0,1:2|0:0,0:0:0:0:
265,167,22027,2,0,P|259:218|254:261,1,76,10|0,2:2|0:0,0:0:0:0:
341,353,22409,2,0,P|333:293|329:262,1,76,2|0,1:2|0:0,0:0:0:0:
412,163,22792,2,0,P|404:223|401:257,1,76,10|0,2:2|0:0,0:0:0:0:
278,126,23174,2,0,B|336:119|336:119|358:128|358:128|432:122,1,152,2|8,1:2|2:2,0:0:0:0:
499,27,23747,2,0,B|436:22|436:22|415:29|415:29|341:27,1,152,2|2,1:2|1:2,0:0:0:0:
192,7,24320,1,10,2:2:0:0:
292,85,24511,6,0,P|289:179|288:260,1,152,2|2,1:2|1:2,0:0:0:0:
312,347,25085,1,10,2:2:0:0:
219,301,25276,2,0,B|128:300|165:349|52:339,1,152,2|2,1:2|1:2,0:0:0:0:
140,249,25849,1,10,2:2:0:0:
225,374,26040,6,0,P|288:364|321:361,1,76,2|0,1:2|0:0,0:0:0:0:
414,237,26422,1,2,1:2:0:0:
349,302,26613,2,0,P|201:287|165:284,1,152,10|0,2:2|1:1,0:0:0:0:
80,239,27186,1,2,1:2:0:0:
200,159,27378,1,10,2:2:0:0:
29,111,27569,6,0,P|40:188|48:277,1,161.500003080368,6|2,1:2|1:2,0:0:0:0:
129,372,28142,2,0,P|137:325|142:279,1,80.750001540184,10|2,2:2|2:2,0:0:0:0:
278,362,28524,1,2,1:2:0:0:
278,362,28715,1,2,1:2:0:0:
199,268,28906,1,10,2:2:0:0:
116,309,29097,2,0,P|68:306|13:303,1,80.750001540184,6|0,1:2|0:0,0:0:0:0:
214,261,29479,2,0,P|253:255|314:251,1,80.750001540184,6|0,1:2|0:0,0:0:0:0:
453,272,29862,1,0,1:2:0:0:
342,169,30053,5,8,2:2:0:0:
361,140,30148,1,8,2:2:0:0:
391,120,30244,1,2,3:2:0:0:
427,118,30339,1,0,3:3:0:0:
461,129,30435,1,0,3:3:0:0:
483,157,30530,1,0,3:3:0:0:
499,189,30626,6,0,P|488:302|489:356,1,161.500003080368,6|2,1:2|1:2,0:0:0:0:
320,276,31199,2,0,P|386:268|421:266,1,80.750001540184,10|2,2:2|2:2,0:0:0:0:
254,361,31581,2,0,P|204:364|91:374,1,161.500003080368,2|10,1:2|2:2,0:0:0:0:
115,221,32155,2,0,P|117:269|118:306,1,80.750001540184,6|0,1:2|0:0,0:0:0:0:
1,139,32537,2,0,P|80:125|185:102,1,161.500003080368,6|0,1:2|1:2,0:0:0:0:
310,26,33110,5,8,2:2:0:0:
333,51,33206,1,8,2:2:0:0:
338,84,33301,1,2,3:2:0:0:
328,117,33397,1,0,3:3:0:0:
310,146,33492,1,2,3:2:0:0:
307,179,33588,1,0,3:2:0:0:
315,212,33683,1,2,3:2:0:0:
333,240,33779,1,0,3:2:0:0:
361,258,33874,6,0,P|404:256|451:255,1,76,6|0,1:2|0:0,0:0:0:0:
506,144,34257,2,0,P|449:152|409:156,1,76,8|0,2:2|0:0,0:0:0:0:
355,64,34639,1,2,1:2:0:0:
268,136,34830,1,0,1:1:0:0:
204,26,35021,2,0,P|197:74|194:111,1,76,8|0,2:2|0:0,0:0:0:0:
200,132,35308,1,0,2:2:0:0:
200,132,35403,6,0,P|146:116|114:132,1,76,2|0,1:2|0:0,0:0:0:0:
26,201,35785,2,0,P|81:208|125:215,1,76,8|2,2:2|2:2,0:0:0:0:
128,235,36072,1,0,2:2:0:0:
128,235,36167,1,2,1:2:0:0:
218,303,36358,1,0,3:3:0:0:
295,226,36550,1,8,2:2:0:0:
295,226,36645,1,0,0:0:0:0:
295,226,36741,1,2,3:2:0:0:
188,171,36932,6,0,P|194:86|202:-12,1,152,6|10,1:2|2:2,0:0:0:0:
329,16,37505,1,0,0:0:0:0:
329,16,37696,2,0,P|324:65|322:94,1,76,2|0,1:2|0:0,0:0:0:0:
447,181,38078,2,0,P|443:119|441:90,1,76,10|0,2:2|0:0,0:0:0:0:
486,289,38460,2,0,P|414:282|332:272,1,152,2|8,1:2|2:2,0:0:0:0:
155,261,39034,1,2,2:2:0:0:
248,354,39225,1,10,2:2:0:0:
293,195,39416,1,2,1:2:0:0:
108,332,39607,1,10,2:2:0:0:
311,310,39798,6,0,B|405:310|375:362|489:354,1,170.999994781494,6|2,1:2|2:2,0:0:0:0:
398,176,40371,1,2,1:2:0:0:
273,355,40562,1,0,1:2:0:0:
199,118,40753,1,10,2:2:0:0:
435,263,40944,1,10,2:2:0:0:
130,333,41136,1,10,2:2:0:0:
409,139,41327,6,0,P|460:145|513:151,1,85.4999973907472,6|0,1:2|0:0,0:0:0:0:
286,301,41709,1,8,2:2:0:0:
270,277,41804,1,8,2:2:0:0:
276,247,41900,1,8,2:2:0:0:
394,105,42091,1,0,1:1:0:0:
448,275,42282,1,10,2:2:0:0:
266,174,42473,2,0,P|271:125|274:78,1,85.4999973907472,10|2,2:2|2:2,0:0:0:0:
61,308,42855,6,0,B|165:318|128:256|259:269,1,190,6|0,1:2|1:1,0:0:0:0:
417,179,43429,1,10,2:2:0:0:
173,114,43620,1,0,1:1:0:0:
315,337,43811,2,0,P|325:240|337:134,1,190,10|8,2:2|2:2,0:0:0:0:
155,81,44384,1,0,1:1:0:0:
348,274,44575,2,0,P|358:177|370:71,1,190,0|8,0:0|2:2,0:0:0:0:
167,177,45148,5,2,1:2:0:0:
317,277,45339,1,10,2:2:0:0:
433,129,45530,1,2,1:2:0:0:
305,255,45722,1,10,2:2:0:0:
490,336,45913,1,6,1:2:0:0:
318,112,46104,2,0,P|315:166|308:221,1,95,2|0,2:2|1:1,0:0:0:0:
423,96,46486,1,10,2:2:0:0:
212,27,46677,1,0,1:1:0:0:
321,235,46868,6,0,B|433:234|395:268|513:261,1,190,10|8,2:2|2:2,0:0:0:0:
333,367,47441,1,0,1:1:0:0:
190,201,47632,2,0,P|140:205|84:212,1,95,0|0,0:0|1:1,0:0:0:0:
209,333,48015,1,8,2:2:0:0:
337,143,48206,1,0,1:1:0:0:
381,371,48397,1,10,2:2:0:0:
185,248,48588,1,2,1:2:0:0:
420,150,48779,1,10,2:2:0:0:
201,359,48970,6,0,P|190:287|175:169,1,190,6|2,1:2|1:2,0:0:0:0:
282,77,49543,1,8,2:2:0:0:
217,354,49734,6,0,P|206:282|191:164,1,190,6|2,1:2|1:2,0:0:0:0:
294,67,50308,1,8,2:2:0:0:
238,349,50499,6,0,P|227:277|212:159,1,190,6|2,1:2|1:2,0:0:0:0:
319,67,51072,1,8,2:2:0:0:
254,344,51263,6,0,P|243:272|228:148,1,190,6|2,1:2|1:2,0:0:0:0:
317,43,51836,1,8,2:2:0:0:
317,43,51932,1,8,2:2:0:0:
317,43,52027,6,0,B|419:46|400:79|513:83,1,190,6|2,1:2|1:2,0:0:0:0:
295,222,52601,1,10,2:2:0:0:
295,222,52696,1,8,2:2:0:0:
295,222,52792,2,0,P|226:126|272:62,1,190,6|2,1:2|1:2,0:0:0:0:
436,168,53365,1,10,2:2:0:0:
436,168,53460,1,8,2:2:0:0:
436,168,53556,2,0,P|377:162|339:158,1,95,6|0,1:2|0:0,0:0:0:0:
158,127,53938,5,8,2:2:0:0:
138,154,54034,1,8,2:2:0:0:
153,190,54129,1,8,2:2:0:0:
250,322,54320,1,8,2:2:0:0:
260,292,54416,1,8,2:2:0:0:
265,258,54511,1,10,2:2:0:0:
360,130,54702,1,10,2:2:0:0:
385,155,54798,1,8,2:2:0:0:
379,189,54894,1,10,2:2:0:0:
275,358,55085,1,10,2:2:0:0:
141,201,55276,6,0,P|89:191|25:180,1,95,4|0,1:2|0:0,0:0:0:0:
280,134,55658,2,0,P|339:127|380:122,1,95,10|0,2:2|1:1,0:0:0:0:
263,284,56040,1,10,2:2:0:0:
198,89,56231,1,0,1:1:0:0:
259,263,56422,1,8,2:2:0:0:
191,62,56613,6,0,B|76:55|100:86|-1:78,1,190,0|0,1:1|1:1,0:0:0:0:
97,212,57186,2,0,P|105:156|109:109,1,95,8|2,2:2|1:2,0:0:0:0:
264,32,57569,1,10,2:2:0:0:
329,241,57760,1,2,1:2:0:0:
446,52,57951,1,10,2:2:0:0:
224,167,58142,1,6,1:2:0:0:
458,245,58333,6,0,P|471:184|481:131,1,95,2|0,2:2|1:1,0:0:0:0:
305,16,58715,2,0,P|316:70|321:117,1,95,10|0,2:2|1:1,0:0:0:0:
323,326,59097,1,10,2:2:0:0:
182,155,59288,1,0,1:1:0:0:
103,342,59479,1,8,2:2:0:0:
323,155,59671,6,0,P|422:166|520:175,1,190,0|0,1:1|1:1,0:0:0:0:
388,373,60244,2,0,P|374:308|366:262,1,95,8|0,2:2|1:1,0:0:0:0:
272,122,60626,1,10,2:2:0:0:
163,247,60817,1,2,1:2:0:0:
96,66,61008,1,10,2:2:0:0:
324,260,61199,6,0,P|395:251|527:236,1,190,6|2,1:2|1:2,0:0:0:0:
398,86,61772,1,8,2:2:0:0:
320,235,61964,6,0,P|391:226|523:211,1,190,6|2,1:2|1:2,0:0:0:0:
394,61,62537,1,8,2:2:0:0:
316,207,62728,6,0,P|387:198|519:183,1,190,6|2,1:2|1:2,0:0:0:0:
390,33,63301,1,8,2:2:0:0:
279,220,63492,6,0,B|373:194|363:260|477:235,1,190,4|2,1:2|1:2,0:0:0:0:
354,22,64065,1,8,2:2:0:0:
354,22,64161,1,8,2:2:0:0:
354,22,64257,6,0,P|273:38|286:138,1,190,6|2,1:2|1:2,0:0:0:0:
413,217,64830,1,10,2:2:0:0:
413,217,64925,1,8,2:2:0:0:
413,217,65021,2,0,B|295:220|333:247|209:250,1,190,6|2,1:2|1:2,0:0:0:0:
68,328,65594,1,10,2:2:0:0:
68,328,65690,1,8,2:2:0:0:
68,328,65785,2,0,P|80:265|74:224,1,95,6|0,1:2|0:0,0:0:0:0:
144,76,66167,5,8,2:2:0:0:
131,108,66263,1,8,2:2:0:0:
155,132,66358,1,8,2:2:0:0:
277,221,66550,1,8,2:2:0:0:
294,192,66645,1,8,2:2:0:0:
283,165,66741,1,10,2:2:0:0:
409,96,66932,5,2,1:2:0:0:
434,130,67027,1,8,2:2:0:0:
434,172,67123,1,10,2:2:0:0:
415,210,67218,1,8,0:0:0:0:
406,251,67314,1,2,3:2:0:0:
414,293,67409,1,0,3:3:0:0:
440,326,67505,6,0,P|369:315|346:313,1,95,14|0,2:2|1:1,0:0:0:0:
180,168,67887,2,0,P|249:185|280:189,1,95,10|0,2:2|1:1,0:0:0:0:
466,99,68269,1,10,2:2:0:0:
273,199,68460,1,2,1:2:0:0:
449,327,68651,1,10,2:2:0:0:
353,139,68843,1,2,1:2:0:0:
261,337,69034,6,0,P|270:273|274:227,1,95,2|2,2:2|1:2,0:0:0:0:
104,327,69416,2,0,P|111:256|114:203,1,95,10|0,2:2|1:1,0:0:0:0:
195,49,69798,1,10,2:2:0:0:
289,260,69989,1,2,1:2:0:0:
331,127,70180,1,10,2:2:0:0:
127,216,70371,1,6,1:2:0:0:
302,294,70562,6,0,P|380:312|417:322,1,95,2|0,2:2|1:1,0:0:0:0:
206,207,70944,2,0,P|136:191|106:184,1,95,10|0,2:2|1:1,0:0:0:0:
325,121,71327,1,10,2:2:0:0:
192,299,71518,1,2,1:2:0:0:
223,93,71709,1,10,2:2:0:0:
366,244,71900,1,2,1:2:0:0:
154,185,72091,1,2,2:2:0:0:
295,58,72282,1,2,1:2:0:0:
366,244,72473,2,0,P|423:240|477:236,1,95,10|0,2:2|0:0,0:0:0:0:
353,370,72855,5,2,3:2:0:0:
264,269,73046,1,2,3:2:0:0:
351,217,73237,1,2,3:2:0:0:
408,286,73429,1,2,2:2:0:0:
479,156,73620,6,0,P|291:183|16:218,1,455.999986083985,6|2,1:2|2:2,0:0:0:0:
19,323,76486,6,0,B|115:332|83:360|192:360,1,170.999994781494,4|0,1:2|1:1,0:0:0:0:
290,212,77059,2,0,P|285:262|281:300,1,85.4999973907472,8|0,2:2|0:0,0:0:0:0:
388,190,77441,1,0,1:1:0:0:
185,122,77632,1,0,1:1:0:0:
283,325,77823,6,0,P|365:317|483:304,1,170.999994781494,8|0,2:2|1:1,0:0:0:0:
304,172,78397,1,0,1:1:0:0:
429,91,78588,2,0,P|420:151|416:195,1,85.4999973907472,8|0,2:2|0:0,0:0:0:0:
306,22,78970,1,0,1:1:0:0:
228,201,79161,1,0,1:1:0:0:
121,57,79352,1,8,2:2:0:0:
342,192,79543,6,0,P|438:174|518:163,1,170.999994781494,4|0,1:2|1:1,0:0:0:0:
443,357,80116,2,0,P|431:298|420:253,1,85.4999973907472,8|0,2:2|0:0,0:0:0:0:
188,362,80499,1,0,1:1:0:0:
401,332,80690,1,0,1:1:0:0:
166,356,80881,6,0,P|56:335|-29:322,1,170.999994781494,8|0,2:2|1:1,0:0:0:0:
162,201,81454,1,0,1:1:0:0:
257,339,81645,2,0,P|309:332|379:325,1,85.4999973907472,8|0,2:2|0:0,0:0:0:0:
503,291,82027,1,0,1:1:0:0:
500,129,82218,1,0,1:1:0:0:
336,108,82409,1,8,2:2:0:0:
444,343,82601,6,0,P|448:262|461:153,1,170.999994781494,4|0,1:2|1:1,0:0:0:0:
324,26,83174,2,0,P|336:95|339:120,1,85.4999973907472,8|0,2:2|0:0,0:0:0:0:
322,300,83556,1,0,1:1:0:0:
144,161,83747,1,0,1:1:0:0:
270,358,83938,6,0,P|284:257|295:165,1,170.999994781494,8|0,2:2|1:1,0:0:0:0:
321,35,84511,1,0,1:1:0:0:
201,126,84702,2,0,P|216:202|223:227,1,85.4999973907472,8|0,2:2|0:0,0:0:0:0:
252,67,85085,1,0,1:1:0:0:
166,260,85276,1,0,1:1:0:0:
70,93,85467,1,8,2:2:0:0:
286,209,85658,6,0,P|265:340|259:386,1,170.999994781494,4|0,1:2|1:1,0:0:0:0:
434,212,86231,2,0,P|448:285|449:309,1,85.4999973907472,8|0,2:2|0:0,0:0:0:0:
297,157,86613,1,0,1:1:0:0:
489,99,86804,1,0,1:1:0:0:
364,306,86995,6,0,P|234:292|180:291,1,170.999994781494,8|0,2:2|1:1,0:0:0:0:
43,361,87569,1,0,1:1:0:0:
156,231,87760,1,8,2:2:0:0:
10,139,87951,1,0,0:0:0:0:
231,58,88142,5,8,2:2:0:0:
150,266,88333,1,8,2:2:0:0:
224,33,88524,1,8,2:2:0:0:
371,237,88715,5,4,1:2:0:0:
