osu file format v14

[General]
AudioFilename: audio.mp3
AudioLeadIn: 0
PreviewTime: 65437
Countdown: 0
SampleSet: Soft
StackLeniency: 0.4
Mode: 0
LetterboxInBreaks: 0
WidescreenStoryboard: 1

[Editor]
Bookmarks: 39,4057,8546,32087,46637,59220,64997,77797,105319,117462,178992
DistanceSpacing: 1.3
BeatDivisor: 2
GridSize: 16
TimelineZoom: 2.500005

[Metadata]
Title:When The Catholic Girls Go Camping, The Nicotine Vampires Rule Supreme.
TitleUnicode:When The Catholic Girls Go Camping, The Nicotine Vampires Rule Supreme.
Artist:GIRAFFES? GIRAFFES!
ArtistUnicode:GIRAFFES? GIRAFFES!
Creator:inuu
Version:Insane
Source:
Tags:More Skin With Milk-Mouth Math Rock
BeatmapID:1406386
BeatmapSetID:663914

[Difficulty]
HPDrainRate:4.6
CircleSize:4.1
OverallDifficulty:7.1
ApproachRate:9
SliderMultiplier:0.700000005960464
SliderTickRate:1

[Events]
//Background and Video events
0,0,"giraffescatholicbg.jpg",0,0
//Break Periods
2,104911,116412
//Storyboard Layer 0 (Background)
//Storyboard Layer 1 (Fail)
//Storyboard Layer 2 (Pass)
//Storyboard Layer 3 (Foreground)
//Storyboard Layer 4 (Overlay)
//Storyboard Sound Samples

[TimingPoints]
39,221.769230769231,4,2,0,40,1,0
909,220.369230769231,5,2,0,40,1,0
2006,221.201831825204,4,2,0,40,1,0
2871,229.600162153599,5,2,0,40,1,0
3330,219.100162153599,5,2,0,40,1,0
4057,287.069230769231,4,2,0,40,1,0
4057,-59.8802395209581,4,2,0,60,0,0
4663,320.509230769233,4,2,0,45,1,0
4663,-59.8802395209581,4,2,0,45,0,0
4983,286.269230769231,4,2,0,60,1,0
4983,-59.8802395209581,4,2,0,45,0,0
5555,267.369230769231,4,2,0,60,1,0
5822,251.969230769231,4,2,0,75,1,0
6073,241.469230769231,4,2,0,60,1,0
6314,220.369230769231,4,2,0,60,1,0
6750,449.154676258993,4,2,0,5,1,0
8546,205.088235294117,4,1,0,27,1,0
8972,219.422222222222,5,1,0,27,1,0
10082,212.422222222222,4,2,0,40,1,0
10543,219.622222222222,4,2,0,40,1,0
10982,211.422222222222,5,2,0,40,1,0
12039,218.122222222223,4,2,0,40,1,0
12890,221.022222222223,5,2,0,40,1,0
13332,219.022222222223,5,2,0,40,1,0
13778,205.022222222223,5,2,0,40,1,0
13992,224.922222222223,4,2,0,40,1,0
14891,217.722222222223,5,2,0,40,1,0
15981,218.722222222223,4,2,0,40,1,0
16855,224.722222222223,5,2,0,40,1,0
17978,207.722222222223,4,2,0,40,1,0
18393,215.822222222223,5,2,0,40,1,0
19472,223.822222222223,4,2,0,40,1,0
19919,220.022222222223,5,2,0,40,1,0
21019,219.022222222223,4,2,0,40,1,0
21505,218.822222222223,5,2,0,40,1,0
22599,224.422222222223,4,2,0,40,1,0
23496,220.422222222223,5,2,0,40,1,0
24598,220.422222222223,4,2,0,40,1,0
25479,220.422222222223,5,1,0,30,1,0
26140,-100,5,2,0,40,0,0
26581,227.422222222223,4,2,0,40,1,0
27490,218.422222222223,5,2,0,40,1,0
28582,217.422222222223,4,2,0,40,1,0
29451,222.322222222223,5,2,0,40,1,0
30562,212.922222222223,4,2,0,40,1,0
30987,220.122222222223,5,2,0,40,1,0
32087,222.722222222223,3,2,0,60,1,0
32087,-80,3,1,0,25,0,0
32755,218.722222222223,5,1,0,25,1,0
32755,-80,5,1,0,25,0,0
33848,211.662222222223,3,1,0,25,1,0
33848,-80,3,1,0,25,0,0
34501,215.122222222223,5,1,0,25,1,0
34501,-80,5,1,0,25,0,0
35576,211.922222222223,3,1,0,25,1,0
35576,-80,3,1,0,25,0,0
36211,212.922222222223,4,1,0,25,1,0
36211,-80,4,1,0,25,0,0
37062,215.922222222223,3,1,0,25,1,0
37062,-80,3,1,0,25,0,0
37709,214.832222222223,5,1,0,25,1,0
37709,-80,5,1,0,25,0,0
38783,212.162222222223,3,1,0,25,1,0
38783,-80,3,1,0,25,0,0
39419,210.862222222223,4,1,0,25,1,0
39419,-80,4,1,0,25,0,0
40262,206.262222222223,3,1,0,25,1,0
40262,-80,3,1,0,25,0,0
40911,206.262222222223,4,1,0,25,1,0
40911,-80,4,1,0,25,0,0
41736,212.162222222223,3,1,0,25,1,0
41736,-80,3,1,0,25,0,0
42372,213.662222222223,5,1,0,25,1,0
42372,-80,5,1,0,25,0,0
43440,214.162222222223,3,1,0,25,1,0
43440,-80,3,1,0,25,0,0
44082,208.562222222223,4,1,0,25,1,0
44082,-80,4,1,0,25,0,0
44916,216.362222222223,3,1,0,25,1,0
44916,-80,3,1,0,25,0,0
45565,214.562222222223,5,1,0,25,1,0
45565,-66.6666666666667,5,3,0,40,0,0
45779,-57.1428571428571,5,3,0,40,0,0
46637,220.562222222223,4,2,0,42,1,0
47519,224.162222222223,5,2,0,42,1,0
48639,217.662222222223,4,2,0,42,1,0
49074,218.262222222223,5,2,0,42,1,0
49510,-100,5,3,0,42,0,0
50165,224.862222222223,4,2,0,42,1,0
51064,217.062222222223,5,2,0,42,1,0
52149,222.262222222223,4,2,0,42,1,0
52593,224.262222222223,5,2,0,42,1,0
53714,232.162222222223,4,2,0,42,1,0
54178,221.862222222223,5,2,0,42,1,0
54843,-100,5,3,0,37,0,0
55287,221.362222222223,4,2,0,42,1,0
56172,216.662222222223,5,2,0,42,1,0
57255,218.862222222223,4,2,0,42,1,0
58130,218.062222222223,5,2,0,42,1,0
59220,291.362222222223,4,2,0,60,1,0
59739,287.262222222222,4,2,0,60,1,0
60026,275.262222222222,4,2,0,40,1,0
60851,226.262222222222,4,2,0,60,1,0
61077,215.262222222222,4,3,0,23,1,0
61292,238.662222222222,4,2,0,35,1,0
61649,232.862222222222,4,2,0,50,1,0
61998,260.962222222222,4,2,0,60,1,0
62128,258.662222222222,4,2,0,60,1,0
62257,203.662222222222,4,3,0,25,1,0
62358,201.462222222222,4,3,0,20,1,0
62559,292.662222222222,4,2,0,60,1,0
62705,227.262222222222,4,3,0,30,1,0
62932,234.862222222222,4,2,0,60,1,0
63049,260.362222222221,4,2,0,60,1,0
63309,223.162222222221,4,2,0,30,1,0
63755,270.162222222221,4,3,0,25,1,0
64041,254.362222222221,4,3,0,25,1,0
64168,203.362222222221,4,3,0,45,1,0
64269,302.362222222221,4,3,0,30,1,0
64420,288.66222222222,4,2,0,40,1,0
64997,220.26222222222,4,1,0,27,1,0
65437,222.26222222222,5,1,0,27,1,0
66548,228.76222222222,4,2,0,50,1,0
67029,211.76222222222,5,2,0,50,1,0
67452,-100,5,3,0,45,0,0
68087,225.76222222222,4,1,0,27,1,0
68538,217.46222222222,5,1,0,27,1,0
69625,221.46222222222,4,2,0,45,1,0
70510,216.36222222222,5,2,0,45,1,0
71591,221.56222222222,4,2,0,45,1,0
72477,221.56222222222,5,2,0,45,1,0
72920,-142.857142857143,5,2,0,45,0,0
73584,214.36222222222,4,2,0,45,1,0
74012,219.16222222222,5,2,0,45,1,0
75107,224.66222222222,4,2,0,45,1,0
76005,223.56222222222,5,2,0,45,1,0
77122,233.56222222222,4,1,0,34,1,0
77797,223.76222222222,4,3,0,37,1,0
78692,213.16222222222,4,3,0,37,1,0
80396,208.76222222222,4,3,0,37,1,0
81231,220.76222222222,4,3,0,37,1,0
82114,213.66222222222,4,3,0,37,1,0
82968,220.66222222222,4,3,0,37,1,0
83850,215.26222222222,4,3,0,37,1,0
84711,219.46222222222,4,3,0,37,1,0
86465,217.66222222222,4,3,0,37,1,0
87335,212.06222222222,4,3,0,37,1,0
88183,218.96222222222,4,3,0,37,1,0
89933,217.46222222222,4,3,0,37,1,0
90802,212.86222222222,4,3,0,40,1,0
91653,209.66222222222,4,3,0,45,1,0
92491,206.76222222222,4,3,0,45,1,0
93318,206.46222222222,4,3,0,45,1,0
94143,210.26222222222,4,3,0,45,1,0
94984,206.76222222222,4,3,0,30,1,0
95811,204.66222222222,4,3,0,30,1,0
96629,208.96222222222,4,3,0,30,1,0
97464,209.96222222222,4,3,0,30,1,0
98303,208.96222222222,4,3,0,40,1,0
99138,208.76222222222,4,3,0,40,1,0
99973,204.86222222222,4,3,0,40,1,0
100792,210.26222222222,4,3,0,42,1,0
101633,210.26222222222,4,3,0,45,1,0
102474,204.16222222222,4,3,0,45,1,0
103290,202.36222222222,4,3,0,50,1,0
103290,-80,4,3,0,50,0,0
104099,204.16222222222,4,3,0,55,1,0
105319,400,4,2,0,55,1,0
106519,379.446835443038,4,2,0,55,1,0
108451,374.446835443038,4,2,0,55,1,0
109607,368.146835443038,4,2,0,55,1,0
111501,404.146835443038,4,2,0,55,1,0
112659,361.446835443038,4,2,0,55,1,0
113201,364.446835443038,4,2,0,55,1,0
113443,410.746835443038,4,2,0,55,1,0
113716,483.446835443038,4,2,0,55,1,0
114038,570.1,4,2,0,55,1,0
114608,388.3,4,2,0,55,1,0
115761,370.3,4,2,0,55,1,0
116316,394.3,4,2,0,55,1,0
117462,435.3,4,2,0,60,1,0
117679,376,4,2,0,60,1,0
118807,383.6,4,2,0,60,1,0
120341,374.6,4,2,0,60,1,0
121839,370.6,4,2,0,60,1,0
123321,369.6,4,2,0,50,1,0
124799,396.1,4,2,0,50,1,0
126361,377.3,4,2,0,50,1,0
127870,384.1,4,2,0,50,1,0
129022,-100,4,2,0,50,0,0
129403,376,4,3,0,60,1,0
129403,-66.6666666666667,4,3,0,60,0,0
130155,-151.515151515152,4,2,0,60,0,0
130907,387.8,4,2,0,60,1,0
132458,363.9,4,2,0,60,1,0
132458,-50,4,2,0,60,0,0
133549,-66.6666666666667,4,2,0,60,0,0
133913,373.399999999999,4,2,0,60,1,0
133913,-66.6666666666667,4,2,0,60,0,0
135406,383.1,4,2,0,60,1,0
135406,-66.6666666666667,4,2,0,60,0,0
136172,-133.333333333333,4,2,0,65,0,0
136938,384.1,4,2,0,65,1,0
136938,-66.6666666666667,4,2,0,65,0,0
138474,373.6,4,2,0,65,1,0
138474,-66.6666666666667,4,2,0,65,0,0
139221,-133.333333333333,4,2,0,65,0,0
139968,376.3,4,2,0,65,1,0
139968,-66.6666666666667,4,2,0,65,0,0
141457,379.6,4,2,0,65,1,0
142216,-54.0540540540541,4,2,0,65,0,0
142975,390.6,4,2,0,65,1,0
142975,-100,4,2,0,65,0,0
143756,-80,4,2,0,65,0,0
144537,363.9,4,2,0,65,1,0
144537,-50,4,2,0,65,0,0
145992,379.9,4,2,0,65,1,0
145992,-50,4,2,0,65,0,0
147511,369.9,4,2,0,45,1,0
147880,-114.285714285714,4,2,0,65,0,0
148435,-75.0000187500047,4,2,0,65,0,0
148990,387.9,4,2,0,65,1,0
148990,-50,4,2,0,65,0,0
149571,-57.1428571428571,4,2,0,65,0,0
149765,374.9,4,2,0,65,1,0
150139,-57.1428571428571,4,2,0,65,0,0
150514,373.7,4,2,0,65,1,0
150887,-133.333333333333,4,2,0,65,0,0
152008,369.7,4,2,0,65,1,0
153486,372.8,4,2,0,65,1,0
154977,384.8,4,2,0,65,1,0
154977,-80,4,2,0,65,0,0
156105,376.000000000001,4,2,0,65,1,0
156481,377.3,4,2,0,65,1,0
156481,-66.6666666666667,4,2,0,65,0,0
157990,368.1,4,2,0,65,1,0
157990,-50,4,2,0,65,0,0
159094,-66.6666666666667,4,2,0,65,0,0
159462,383.1,4,2,0,65,1,0
159462,-66.6666666666667,4,2,0,65,0,0
160228,361.1,4,2,0,65,1,0
160228,-66.6666666666667,4,2,0,65,0,0
160950,379.1,4,2,0,65,1,0
160950,-66.6666666666667,4,2,0,65,0,0
161708,-100,4,2,0,65,0,0
162466,380.1,4,2,0,65,1,0
163226,368.1,4,2,0,65,1,0
163226,-80,4,2,0,65,0,0
163962,375.1,4,2,0,65,1,0
165087,344.1,4,1,0,33,1,0
165087,-50,4,1,0,33,0,0
165431,369.1,4,1,0,35,1,0
165431,-50,4,1,0,35,0,0
166195,329.1,4,1,0,37,1,0
166195,-50,4,1,0,37,0,0
166524,-50,4,1,0,40,0,0
166853,313.1,4,1,0,43,1,0
166853,-50,4,1,0,43,0,0
167479,336.1,4,1,0,45,1,0
167479,-50,4,1,0,45,0,0
168151,345.1,4,1,0,45,1,0
168151,-50,4,1,0,45,0,0
168841,345.1,4,1,0,45,1,0
168841,-50,4,1,0,45,0,0
169887,374.1,4,2,0,65,1,0
169887,-66.6666666666667,4,2,0,65,0,0
171383,375.3,4,2,0,65,1,0
172133,370.9,4,2,0,65,1,0
172874,372,4,2,0,65,1,0
172874,-57.1428571428571,4,2,0,65,0,0
174362,355,4,2,0,65,1,0
174894,404,4,2,0,65,1,0
175096,374,4,2,0,65,1,0
175844,327,4,2,0,65,1,0
176007,438,4,2,0,65,1,0
176226,366,4,2,0,65,1,0
176775,422,4,2,0,65,1,0
177428,391.096774193548,4,2,0,65,1,0
178992,373.096774193548,4,2,0,65,1,1
180204,-100,4,2,0,40,0,1
181603,-100,4,2,0,65,0,1
183468,374.096774193548,4,2,0,65,1,1
184964,379.096774193548,4,2,0,65,1,1
186480,378.096774193548,4,2,0,65,1,1
187992,375.096774193548,4,2,0,65,1,1
190992,379.096774193548,4,2,0,65,1,1
192508,375.096774193548,4,2,0,65,1,1
194008,373.096774193548,4,2,0,65,1,1
196994,402.096774193548,4,2,0,65,1,1
197396,373.096774193548,4,2,0,65,1,1
197769,352.096774193548,4,2,0,65,1,1
198121,382.096774193548,4,2,0,65,1,1
199649,354.096774193548,4,2,0,65,1,1
200357,370.096774193548,4,2,0,65,1,1
201097,370.096774193548,4,2,0,65,1,1
201097,-50,4,2,0,65,0,1
202577,364.796774193548,4,2,0,65,1,1
202577,-50,4,2,0,65,0,1
204036,366.796774193548,4,2,0,65,1,1
204036,-50,4,2,0,65,0,1
204586,-66.6666666666667,4,2,0,65,0,1
204952,-57.1428571428571,4,2,0,65,0,1
205503,362.096774193548,4,2,0,65,1,1
205503,-100,4,2,0,65,0,1
206589,-50,4,2,0,65,0,1
206951,360.096774193548,4,2,0,65,1,1
206951,-50,4,2,0,65,0,1
208391,371.096774193548,4,2,0,65,1,1
208391,-50,4,2,0,65,0,1
209875,377.096774193548,4,2,0,65,1,1
209875,-66.6666666666667,4,2,0,65,0,1
211383,348.096774193548,4,2,0,65,1,1
211383,-50,4,2,0,65,0,1
212803,368.196774193548,4,2,0,65,1,1
214275,358.196774193548,4,2,0,65,1,1
215707,379.196774193548,4,2,0,65,1,1
216465,364.196774193548,4,2,0,65,1,1
217193,375.196774193548,4,2,0,65,1,1
217943,362.196774193548,4,2,0,65,1,1
218667,388.196774193548,4,2,0,65,1,1
220219,355.196774193548,4,2,0,65,1,1
221639,429.196774193548,4,2,0,65,1,1
221853,407.196774193548,4,2,0,65,1,1
222056,353.196774193548,4,2,0,65,1,1
222056,-50,4,2,0,65,0,1
223115,385.996774193548,4,2,0,65,1,1
223115,-50,4,2,0,65,0,1
223886,369.996774193548,4,2,0,65,1,1
224625,362.796774193548,4,2,0,65,1,1
224625,-20,4,2,0,65,0,1
225713,-100,4,2,0,65,0,0

[HitObjects]
74,111,39,5,2,0:0:0:0:
83,115,149,1,0,0:0:0:0:
93,119,260,1,0,0:0:0:0:
103,122,371,1,0,0:0:0:0:
113,125,482,2,0,L|147:126,3,35.0000002980232,2|0|0|0,0:0|0:0|0:0|0:0,0:0:0:0:
180,53,909,5,2,0:0:0:0:
198,62,1019,1,0,0:0:0:0:
214,76,1129,1,2,0:0:0:0:
224,94,1239,1,0,0:0:0:0:
230,115,1349,1,0,0:0:0:0:
229,136,1459,1,0,0:0:0:0:
222,155,1570,2,0,L|200:189,3,35.0000002980232,2|0|0|0,0:0|0:0|0:0|0:0,0:0:0:0:
214,267,2006,5,2,0:0:0:0:
193,266,2116,1,0,0:0:0:0:
172,261,2227,1,0,0:0:0:0:
154,249,2337,1,0,0:0:0:0:
141,234,2448,2,0,L|122:197,3,35.0000002980232,2|0|0|0,0:0|0:0|0:0|0:0,0:0:0:0:
41,160,2871,5,2,0:0:0:0:
46,194,2985,1,0,0:0:0:0:
50,225,3100,1,2,0:0:0:0:
54,252,3215,1,0,0:0:0:0:
57,276,3330,1,0,0:0:0:0:
60,296,3439,1,0,0:0:0:0:
62,313,3549,1,2,0:0:0:0:
63,326,3658,1,0,0:0:0:0:
64,336,3768,1,0,0:0:0:0:
189,231,4057,6,0,B|187:267|217:289|217:289|216:350,1,116.899997338705,2|4,0:0|0:0,0:0:0:0:
345,151,4663,6,0,B|301:175|301:175|297:212|265:228,1,116.899997338705,2|0,0:0|0:0,0:0:0:0:
115,154,5269,2,0,P|171:142|224:164,1,116.899997338705,0|2,0:0|0:0,0:0:0:0:
160,253,5822,5,0,0:0:0:0:
82,323,6073,1,0,0:0:0:0:
262,275,6314,2,0,L|333:268,1,70.0000005960464,2|0,0:0|0:0,0:0:0:0:
256,192,6750,12,0,8082,0:0:0:0:
389,170,8546,5,4,0:0:0:0:
384,204,8648,1,0,0:0:0:0:
368,235,8751,1,0,0:0:0:0:
342,258,8853,1,0,0:0:0:0:
309,270,8972,2,0,P|284:271|259:271,3,35.0000002980232,4|0|0|0,0:0|0:0|0:0|0:0,0:0:0:0:
188,301,9410,5,8,0:0:0:0:
192,259,9520,1,0,0:0:0:0:
196,217,9630,1,8,0:0:0:0:
200,174,9739,1,0,0:0:0:0:
204,132,9849,1,8,0:0:0:0:
208,90,9959,1,0,0:0:0:0:
213,49,10082,5,4,0:1:0:0:
237,34,10188,1,0,0:0:0:0:
264,27,10294,1,0,0:0:0:0:
292,29,10400,1,0,0:0:0:0:
318,41,10543,1,0,0:0:0:0:
344,53,10652,1,0,0:0:0:0:
372,55,10762,1,4,0:3:0:0:
399,48,10872,1,0,0:0:0:0:
423,33,10982,1,8,0:0:0:0:
399,18,11087,1,0,0:0:0:0:
372,11,11193,1,0,0:0:0:0:
344,13,11299,1,0,0:0:0:0:
318,25,11404,5,6,0:3:0:0:
307,54,11510,1,0,0:0:0:0:
297,83,11616,1,8,0:0:0:0:
287,112,11721,1,0,0:0:0:0:
277,142,11827,1,0,0:0:0:0:
267,172,11933,1,2,0:0:0:0:
257,201,12039,2,0,L|257:236,3,35.0000002980232,8|0|0|0,0:0|0:0|0:0|0:0,0:0:0:0:
182,281,12475,2,0,L|182:246,3,35.0000002980232,8|0|0|0,0:0|0:0|0:0|0:0,0:0:0:0:
107,201,12890,5,8,0:0:0:0:
121,184,13000,1,0,0:0:0:0:
139,172,13111,1,0,0:0:0:0:
160,165,13221,1,0,0:0:0:0:
182,162,13332,1,4,0:3:0:0:
203,165,13441,1,0,0:0:0:0:
224,172,13551,1,4,0:3:0:0:
242,184,13660,1,0,0:0:0:0:
257,200,13778,5,4,0:3:0:0:
289,179,13880,1,0,0:0:0:0:
326,178,13992,2,0,P|342:182|363:193,3,35.0000002980232,4|0|0|8,0:0|0:0|0:0|0:0,0:0:0:0:
436,200,14441,2,0,P|431:216|421:237,3,35.0000002980232,4|0|4|0,0:3|0:0|0:3|0:0,0:0:0:0:
414,310,14891,1,8,0:0:0:0:
392,320,14999,1,0,0:0:0:0:
367,320,15108,1,0,0:0:0:0:
345,310,15217,1,0,0:0:0:0:
330,290,15326,5,4,0:3:0:0:
315,270,15435,1,0,0:0:0:0:
293,260,15544,1,8,0:0:0:0:
267,283,15653,1,0,0:0:0:0:
241,306,15761,1,0,0:0:0:0:
215,330,15870,1,0,0:0:0:0:
189,354,15981,2,0,L|145:365,3,35.0000002980232,8|0|0|0,0:0|0:0|0:0|0:0,0:0:0:0:
126,288,16418,2,0,L|82:276,3,35.0000002980232,8|0|0|0,0:0|0:0|0:0|0:0,0:0:0:0:
189,222,16855,5,8,0:0:0:0:
210,209,16967,1,0,0:0:0:0:
233,202,17079,1,0,0:0:0:0:
258,202,17192,1,0,0:0:0:0:
281,209,17304,1,4,0:3:0:0:
304,216,17416,1,0,0:0:0:0:
329,216,17529,1,4,0:3:0:0:
352,209,17641,1,0,0:0:0:0:
373,196,17753,5,4,0:3:0:0:
364,230,17866,1,0,0:0:0:0:
354,266,17978,2,0,L|345:299,1,35.0000002980232,4|0,0:0|0:0,0:0:0:0:
471,156,18185,1,0,0:0:0:0:
462,190,18289,1,0,0:0:0:0:
452,226,18393,2,0,L|443:259,1,35.0000002980232,4|0,0:0|0:0,0:0:0:0:
354,333,18608,2,0,L|345:300,1,35.0000002980232,4|0,0:0|0:0,0:0:0:0:
256,226,18824,5,8,0:0:0:0:
225,243,18932,1,0,0:0:0:0:
194,260,19040,1,8,0:0:0:0:
163,277,19148,1,0,0:0:0:0:
132,294,19256,1,8,0:0:0:0:
102,312,19364,1,0,0:0:0:0:
73,329,19472,2,0,L|42:346,3,35.0000002980232,4|0|0|0,0:0|0:0|0:0|0:0,0:0:0:0:
0,234,19919,2,0,L|31:251,3,35.0000002980232,2|0|0|0,0:0|0:0|0:0|0:0,0:0:0:0:
73,139,20359,5,8,0:0:0:0:
163,189,20579,1,4,0:3:0:0:
178,184,20652,1,0,0:0:0:0:
193,179,20725,1,0,0:0:0:0:
208,174,20799,1,4,0:3:0:0:
393,181,21019,6,0,L|434:175,3,35.0000002980232,4|0|0|0,0:0|0:0|0:0|0:0,0:0:0:0:
383,97,21505,2,0,L|357:63,3,35.0000002980232,2|0|0|0,0:0|0:0|0:0|0:0,0:0:0:0:
315,147,21942,5,4,0:3:0:0:
211,59,22161,1,4,0:3:0:0:
211,59,22270,1,4,0:3:0:0:
186,193,22489,1,4,0:3:0:0:
186,193,22599,6,0,L|179:227,3,35.0000002980232,4|0|0|0,0:0|0:0|0:0|0:0,0:0:0:0:
266,281,23047,2,0,L|259:246,3,35.0000002980232,0|0|4|0,0:0|0:0|0:3|0:0,0:0:0:0:
364,176,23496,1,8,0:0:0:0:
374,154,23606,1,0,0:0:0:0:
374,129,23716,1,0,0:0:0:0:
364,107,23826,1,0,0:0:0:0:
346,91,23936,5,4,0:3:0:0:
312,82,24047,1,0,0:0:0:0:
278,73,24157,1,8,0:0:0:0:
244,64,24267,1,0,0:0:0:0:
210,55,24377,1,0,0:0:0:0:
176,46,24487,1,8,0:0:0:0:
141,37,24598,2,0,L|107:26,1,35.0000002980232,4|0,0:0|0:0,0:0:0:0:
257,163,24818,5,0,0:0:0:0:
223,154,24928,1,0,0:0:0:0:
189,145,25038,2,0,L|155:134,1,35.0000002980232,4|0,0:0|0:0,0:0:0:0:
237,253,25259,2,0,L|203:242,1,35.0000002980232,4|0,0:0|0:0,0:0:0:0:
285,361,25479,1,0,0:0:0:0:
310,337,25589,1,0,0:0:0:0:
336,313,25699,1,0,0:0:0:0:
361,289,25809,1,0,0:0:0:0:
387,265,25919,1,0,0:0:0:0:
456,169,26140,5,4,0:3:0:0:
422,158,26250,1,8,0:0:0:0:
388,148,26360,1,4,0:3:0:0:
355,138,26470,1,8,0:0:0:0:
321,128,26581,2,0,L|287:118,3,35.0000002980232,4|0|0|0,0:0|0:0|0:0|0:0,0:0:0:0:
231,205,27035,2,0,L|264:195,3,35.0000002980232,2|0|4|0,0:0|0:0|0:3|0:0,0:0:0:0:
356,45,27490,1,8,0:0:0:0:
335,32,27599,1,0,0:0:0:0:
311,30,27708,1,0,0:0:0:0:
287,38,27817,1,0,0:0:0:0:
269,54,27926,5,4,0:3:0:0:
251,70,28036,1,0,0:0:0:0:
227,78,28145,1,8,0:0:0:0:
192,74,28254,1,0,0:0:0:0:
157,70,28363,1,0,0:0:0:0:
122,66,28472,1,0,0:0:0:0:
86,62,28582,2,0,L|50:57,3,35.0000002980232,2|0|0|0,0:0|0:0|0:0|0:0,0:0:0:0:
0,143,29016,2,0,L|35:138,3,35.0000002980232,8|0|0|0,0:0|0:0|0:0|0:0,0:0:0:0:
119,174,29451,5,8,0:0:0:0:
142,180,29562,1,0,0:0:0:0:
167,180,29673,1,0,0:0:0:0:
190,174,29784,1,0,0:0:0:0:
212,162,29895,1,4,0:3:0:0:
234,150,30006,1,0,0:0:0:0:
257,144,30117,1,4,0:3:0:0:
282,144,30229,1,0,0:0:0:0:
305,150,30340,5,8,0:0:0:0:
292,184,30451,1,0,0:0:0:0:
296,219,30562,2,0,P|299:237|306:253,1,35.0000002980232,4|0,0:0|0:0,0:0:0:0:
414,307,30774,1,0,0:0:0:0:
426,272,30881,1,0,0:0:0:0:
422,236,30987,2,0,P|419:218|412:202,1,35.0000002980232,4|0,0:0|0:0,0:0:0:0:
296,219,31207,2,0,P|299:237|306:253,1,35.0000002980232,4|0,0:0|0:0,0:0:0:0:
422,236,31427,5,8,0:0:0:0:
408,191,31537,1,0,0:0:0:0:
385,150,31647,1,8,0:0:0:0:
355,115,31757,1,0,0:0:0:0:
318,87,31867,1,8,0:0:0:0:
276,67,31977,1,0,0:0:0:0:
230,56,32087,6,0,L|172:52,3,43.750000372529,4|0|4|0,0:1|0:3|0:3|0:3,0:3:0:0:
48,34,32532,1,8,0:3:0:0:
48,34,32643,1,0,0:3:0:0:
48,34,32755,2,0,L|73:85,1,43.750000372529,4|0,0:3|0:3,0:3:0:0:
120,202,32973,5,4,0:3:0:0:
120,202,33083,1,0,0:3:0:0:
120,202,33192,2,0,L|151:153,1,43.750000372529,8|0,0:3|0:3,0:3:0:0:
206,312,33411,1,4,0:3:0:0:
206,312,33520,1,0,0:3:0:0:
206,312,33629,2,0,L|171:363,1,43.750000372529,8|0,0:3|0:3,0:3:0:0:
28,355,33848,6,0,L|0:312,3,43.750000372529,4|0|4|0,0:3|0:3|0:3|0:3,0:3:0:0:
0,178,34271,1,8,0:3:0:0:
0,178,34377,1,0,0:3:0:0:
0,178,34501,2,0,L|43:149,1,43.750000372529,4|0,0:3|0:3,0:3:0:0:
220,177,34716,5,4,0:3:0:0:
220,177,34823,1,0,0:3:0:0:
220,177,34931,2,0,L|176:148,1,43.750000372529,8|0,0:3|0:3,0:3:0:0:
323,111,35146,1,4,0:3:0:0:
323,111,35253,1,0,0:3:0:0:
323,111,35361,2,0,L|366:139,1,43.750000372529,8|0,0:3|0:3,0:3:0:0:
254,249,35576,6,0,L|295:216,3,43.750000372529,4|0|4|8,0:1|0:3|0:3|0:3,0:3:0:0:
363,357,35999,1,0,0:3:0:0:
363,357,36105,1,0,0:3:0:0:
363,357,36211,6,0,L|344:307,1,43.750000372529,10|0,0:3|0:3,0:3:0:0:
499,286,36423,1,4,0:3:0:0:
499,286,36530,1,0,0:3:0:0:
499,286,36636,2,0,L|446:288,1,43.750000372529,10|0,0:3|0:3,0:3:0:0:
473,135,36849,1,4,0:3:0:0:
473,135,36956,1,0,0:3:0:0:
473,135,37062,6,0,L|459:185,3,43.750000372529,4|0|4|0,0:1|0:3|0:3|0:3,0:3:0:0:
359,134,37493,1,8,0:3:0:0:
359,134,37601,1,0,0:3:0:0:
359,134,37709,2,0,L|323:111,1,43.750000372529,4|0,0:3|0:3,0:3:0:0:
254,249,37923,5,4,0:3:0:0:
254,249,38031,1,0,0:3:0:0:
254,249,38138,2,0,L|295:216,1,43.750000372529,8|0,0:3|0:3,0:3:0:0:
130,220,38353,1,4,0:3:0:0:
130,220,38460,1,0,0:3:0:0:
130,220,38568,2,0,L|89:253,1,43.750000372529,8|0,0:3|0:3,0:3:0:0:
0,336,38783,6,0,L|49:355,3,43.750000372529,4|0|0|0,0:1|0:3|0:3|0:3,0:3:0:0:
232,257,39207,1,0,0:3:0:0:
232,257,39313,1,0,0:3:0:0:
232,257,39419,6,0,L|182:276,1,43.750000372529,10|0,0:3|0:3,0:3:0:0:
0,178,39629,1,4,0:3:0:0:
0,178,39735,1,0,0:3:0:0:
0,178,39840,2,0,L|49:197,1,43.750000372529,10|0,0:3|0:3,0:3:0:0:
232,99,40051,1,4,0:3:0:0:
232,99,40157,1,0,0:3:0:0:
232,99,40262,6,0,L|182:118,3,43.750000372529,4|0|4|0,0:1|0:3|0:3|0:3,0:3:0:0:
349,168,40674,1,8,0:3:0:0:
349,168,40777,1,0,0:3:0:0:
349,168,40911,6,0,L|330:118,1,43.750000372529,10|0,0:3|0:3,0:3:0:0:
280,285,41117,1,4,0:3:0:0:
280,285,41220,1,0,0:3:0:0:
280,285,41323,2,0,L|330:266,1,43.750000372529,10|0,0:3|0:3,0:3:0:0:
163,216,41529,1,4,0:3:0:0:
163,216,41632,1,0,0:3:0:0:
163,216,41736,6,0,L|182:266,3,43.750000372529,4|0|4|0,0:1|0:3|0:3|0:3,0:3:0:0:
280,285,42160,1,8,0:3:0:0:
280,285,42266,1,0,0:3:0:0:
280,285,42372,2,0,L|330:266,1,43.750000372529,4|8,0:3|0:3,0:3:0:0:
349,168,42585,5,4,0:3:0:0:
349,168,42692,1,0,0:3:0:0:
349,168,42799,2,0,L|330:118,1,43.750000372529,8|0,0:3|0:3,0:3:0:0:
476,244,43012,1,4,0:3:0:0:
476,244,43119,1,0,0:3:0:0:
476,244,43226,2,0,L|495:294,1,43.750000372529,8|0,0:3|0:3,0:3:0:0:
370,303,43440,6,0,L|336:344,3,43.750000372529,4|0|4|8,0:1|0:3|0:3|0:3,0:3:0:0:
265,240,43868,1,0,0:3:0:0:
265,240,43975,1,0,0:3:0:0:
265,240,44082,6,0,L|212:231,1,43.750000372529,10|0,0:3|0:3,0:3:0:0:
267,117,44290,1,4,0:3:0:0:
267,117,44394,1,0,0:3:0:0:
267,117,44499,2,0,L|247:66,1,43.750000372529,10|0,0:3|0:3,0:3:0:0:
374,57,44707,1,4,0:3:0:0:
374,57,44811,1,0,0:3:0:0:
374,57,44916,6,0,L|407:15,3,43.750000372529,4|0|4|8,0:1|0:3|0:3|0:3,0:3:0:0:
438,167,45348,1,4,0:3:0:0:
438,167,45456,1,0,0:3:0:0:
438,167,45565,6,8,B|445:143|445:143|467:128,1,52.500002449751,4|0,0:3|0:3,0:3:0:0:
498,232,45779,1,8,0:0:0:0:
473,262,45886,1,8,0:0:0:0:
435,278,45994,1,8,0:0:0:0:
401,257,46101,1,8,0:0:0:0:
362,255,46208,2,0,B|353:283|353:283|327:301,1,61.2500011056661,2|0,0:3|0:3,0:3:0:0:
287,163,46423,2,0,B|308:144|308:144|340:141,1,61.2500011056661,0|4,0:3|0:2,0:3:0:0:
172,190,46637,6,0,B|155:203|140:204,3,35.0000002980232,4|0|0|0,0:0|0:0|0:0|0:0,0:0:0:0:
111,106,47078,2,0,B|105:83|112:71,3,35.0000002980232,0|0|4|0,0:0|0:0|0:3|0:0,0:0:0:0:
214,95,47519,1,8,0:0:0:0:
233,79,47631,1,0,0:0:0:0:
256,70,47743,1,0,0:0:0:0:
280,70,47855,1,0,0:0:0:0:
303,79,47967,5,4,0:3:0:0:
298,113,48079,1,0,0:0:0:0:
293,147,48191,1,8,0:0:0:0:
288,181,48303,1,0,0:0:0:0:
283,215,48415,1,0,0:0:0:0:
278,249,48527,1,0,0:0:0:0:
273,284,48639,2,0,L|267:317,1,35.0000002980232,4|0,0:0|0:0,0:0:0:0:
183,266,48856,5,0,0:0:0:0:
178,300,48965,1,0,0:0:0:0:
173,335,49074,2,0,L|167:368,1,35.0000002980232,4|0,0:0|0:0,0:0:0:0:
83,317,49292,2,0,L|88:283,1,35.0000002980232,4|0,0:0|0:0,0:0:0:0:
2,190,49510,5,0,0:0:0:0:
124,161,49728,1,4,0:0:0:0:
247,131,49947,1,4,0:0:0:0:
160,40,50165,6,0,L|125:32,3,35.0000002980232,4|0|0|0,0:0|0:0|0:0|0:0,0:0:0:0:
28,104,50614,2,0,L|62:96,3,35.0000002980232,0|0|4|0,0:0|0:0|0:3|0:0,0:0:0:0:
124,161,51064,1,8,0:0:0:0:
127,185,51172,1,0,0:0:0:0:
120,208,51281,1,0,0:0:0:0:
107,229,51389,1,0,0:0:0:0:
87,242,51498,5,4,0:3:0:0:
121,243,51606,1,0,0:0:0:0:
155,251,51715,1,8,0:0:0:0:
188,265,51823,1,0,0:0:0:0:
217,284,51932,1,0,0:0:0:0:
242,308,52040,1,0,0:0:0:0:
263,336,52149,2,0,B|272:350|277:369,1,35.0000002980232,4|0,0:0|0:0,0:0:0:0:
360,308,52371,5,0,0:0:0:0:
373,275,52482,1,0,0:0:0:0:
394,247,52593,2,0,P|405:233|419:223,1,35.0000002980232,4|0,0:0|0:0,0:0:0:0:
293,195,52817,1,0,0:0:0:0:
280,162,52929,1,0,0:0:0:0:
259,134,53041,2,0,P|247:120|233:110,3,35.0000002980232,4|0|0|0,0:0|0:0|0:0|0:0,0:0:0:0:
139,63,53490,1,0,0:0:0:0:
101,197,53714,6,0,L|92:230,1,35.0000002980232,4|0,0:0|0:0,0:0:0:0:
199,304,53946,1,0,0:0:0:0:
199,304,54062,1,8,0:0:0:0:
199,304,54178,2,2,L|189:270,3,35.0000002980232,2|0|0|0,0:0|0:0|0:0|0:0,0:0:0:0:
296,197,54621,2,0,L|286:230,1,35.0000002980232,8|0,0:1|0:0,0:0:0:0:
393,304,54843,1,4,0:0:0:0:
402,270,54954,1,4,0:0:0:0:
411,236,55065,1,4,0:0:0:0:
420,202,55176,1,4,0:0:0:0:
430,167,55287,6,0,L|425:133,3,35.0000002980232,4|0|0|0,0:0|0:0|0:0|0:0,0:0:0:0:
337,131,55729,2,0,L|332:97,3,35.0000002980232,0|0|4|0,0:0|0:0|0:3|0:0,0:0:0:0:
244,95,56172,1,8,0:0:0:0:
221,85,56280,1,0,0:0:0:0:
197,83,56388,1,0,0:0:0:0:
173,89,56496,1,0,0:0:0:0:
153,103,56605,5,4,0:3:0:0:
138,134,56713,1,0,0:0:0:0:
123,165,56821,1,8,0:0:0:0:
108,196,56930,1,0,0:0:0:0:
93,227,57038,1,0,0:0:0:0:
78,258,57146,1,0,0:0:0:0:
63,289,57255,2,0,L|50:321,1,35.0000002980232,4|0,0:0|0:0,0:0:0:0:
185,278,57473,5,0,0:0:0:0:
219,275,57583,1,0,0:0:0:0:
253,272,57692,2,0,L|287:267,1,35.0000002980232,4|0,0:0|0:0,0:0:0:0:
183,172,57911,2,0,L|161:144,1,35.0000002980232,4|0,0:0|0:0,0:0:0:0:
151,281,58130,2,0,L|137:313,3,35.0000002980232,8|0|4|0,0:0|0:0|0:3|0:0,0:0:0:0:
207,368,58566,5,4,0:3:0:0:
241,362,58675,1,0,0:0:0:0:
275,356,58784,1,8,0:0:0:0:
309,350,58893,1,0,0:0:0:0:
343,344,59002,1,8,0:0:0:0:
377,338,59111,1,0,0:0:0:0:
436,281,59220,6,0,P|450:248|447:214,1,70.0000005960464,4|2,0:3|0:3,0:0:0:0:
338,133,59739,6,0,B|333:169|333:169|353:204,1,70.0000005960464,2|4,0:0|0:3,0:0:0:0:
379,45,60438,5,0,0:0:0:0:
379,45,60507,2,0,B|315:49|315:49|294:37,1,87.500000745058,0|2,0:0|0:0,0:0:0:0:
213,119,61077,5,4,0:0:0:0:
213,119,61184,1,4,0:0:0:0:
213,119,61292,2,0,P|187:102|115:108,1,105.00000089407,2|2,0:3|0:0,0:0:0:0:
156,225,61998,5,2,0:0:0:0:
184,245,62128,1,0,0:0:0:0:
212,265,62257,2,0,L|179:277,1,35.0000002980232,4|4,0:0|0:0,0:0:0:0:
305,267,62559,6,0,L|298:229,1,35.0000002980232,2|4,0:0|0:0,0:0:0:0:
246,116,62932,5,0,0:0:0:0:
246,116,63049,2,0,L|330:130,1,70.0000005960464,2|4,0:0|0:0,0:0:0:0:
422,212,63755,6,4,L|449:196,2,23.3333335320155
421,177,64041,2,0,L|421:212,1,35.0000002980232,4|8,0:0|0:0,0:0:0:0:
390,194,64269,2,0,L|420:176,1,35.0000002980232
121,74,64997,5,4,0:0:0:0:
141,91,65107,1,0,0:0:0:0:
152,113,65217,1,0,0:0:0:0:
156,137,65327,1,0,0:0:0:0:
89,180,65437,5,4,0:0:0:0:
106,200,65548,1,0,0:0:0:0:
128,211,65659,1,0,0:0:0:0:
152,215,65770,1,0,0:0:0:0:
176,212,65881,5,8,0:0:0:0:
210,204,65992,1,0,0:0:0:0:
244,196,66103,1,8,0:0:0:0:
278,188,66214,1,0,0:0:0:0:
312,180,66326,1,8,0:0:0:0:
346,172,66437,1,0,0:0:0:0:
379,164,66548,6,0,L|412:155,3,35.0000002980232,4|0|0|0,0:0|0:0|0:0|0:0,0:0:0:0:
473,249,67029,2,0,L|439:240,3,35.0000002980232,0|0|4|0,0:0|0:0|0:3|0:0,0:0:0:0:
372,306,67452,1,4,0:0:0:0:
253,228,67664,1,4,0:0:0:0:
379,164,67876,1,4,0:0:0:0:
246,369,68087,5,4,0:0:0:0:
219,366,68199,1,0,0:0:0:0:
198,354,68312,1,0,0:0:0:0:
181,337,68425,1,0,0:0:0:0:
215,265,68538,5,2,0:2:0:0:
190,256,68646,1,0,0:0:0:0:
165,257,68755,1,4,0:3:0:0:
142,266,68864,1,0,0:0:0:0:
123,280,68972,5,8,0:0:0:0:
88,280,69081,1,0,0:0:0:0:
60,259,69190,1,4,0:3:0:0:
49,226,69299,1,0,0:0:0:0:
60,193,69407,1,4,0:3:0:0:
88,172,69516,1,0,0:0:0:0:
123,172,69625,6,0,P|138:180|151:191,3,35.0000002980232,4|0|0|0,0:0|0:0|0:0|0:0,0:0:0:0:
234,160,70067,2,0,P|239:176|243:193,3,35.0000002980232,0|0|4|0,0:0|0:0|0:3|0:0,0:0:0:0:
326,222,70510,1,8,0:0:0:0:
345,238,70618,1,0,0:0:0:0:
368,246,70726,1,0,0:0:0:0:
392,246,70834,1,0,0:0:0:0:
415,238,70942,5,4,0:3:0:0:
402,205,71050,1,0,0:0:0:0:
389,171,71159,1,8,0:0:0:0:
377,138,71267,1,0,0:0:0:0:
365,105,71375,1,0,0:0:0:0:
353,72,71483,1,0,0:0:0:0:
341,39,71591,2,0,L|304:19,3,35.0000002980232,4|0|0|0,0:0|0:0|0:0|0:0,0:0:0:0:
272,142,72034,2,0,L|279:100,3,35.0000002980232,8|0|0|0,0:0|0:0|0:0|0:0,0:0:0:0:
152,108,72477,5,8,0:0:0:0:
127,113,72587,1,0,0:0:0:0:
103,108,72698,1,0,0:0:0:0:
83,95,72809,1,8,0:0:0:0:
69,75,72920,2,0,L|65:51,1,24.4999994609356,4|0,0:3|0:0,0:0:0:0:
42,188,73141,2,0,L|38:164,1,24.4999994609356,4|0,0:3|0:0,0:0:0:0:
11,262,73363,5,4,0:3:0:0:
45,269,73474,1,0,0:0:0:0:
79,261,73584,2,0,L|106:239,1,35.0000002980232,4|0,0:0|0:0,0:0:0:0:
163,308,73798,1,0,0:0:0:0:
191,288,73905,1,0,0:0:0:0:
210,259,74012,2,0,L|214:224,1,35.0000002980232,4|0,0:0|0:0,0:0:0:0:
301,164,74231,2,0,L|279:136,1,35.0000002980232,4|0,0:0|0:0,0:0:0:0:
198,145,74450,5,8,0:0:0:0:
166,162,74559,1,0,0:0:0:0:
132,164,74669,1,4,0:3:0:0:
99,155,74779,1,0,0:0:0:0:
70,132,74888,1,4,0:3:0:0:
53,103,74998,1,0,0:0:0:0:
46,68,75107,2,0,L|51:34,3,35.0000002980232,4|0|0|0,0:0|0:0|0:0|0:0,0:0:0:0:
144,51,75556,2,0,L|165:24,3,35.0000002980232,0|0|4|0,0:0|0:0|0:3|0:0,0:0:0:0:
266,36,76005,5,8,0:0:0:0:
288,36,76116,1,0,0:0:0:0:
312,45,76228,1,0,0:0:0:0:
329,61,76340,1,8,0:0:0:0:
340,82,76452,2,0,P|351:96|357:112,2,35.0000002980232,4|0|4,0:3|0:0|0:3,0:0:0:0:
260,135,76899,1,8,0:0:0:0:
421,30,77122,1,0,0:0:0:0:
453,42,77238,1,0,0:0:0:0:
260,135,77797,6,0,L|149:220,1,140.000001192093,4|4,0:2|0:0,0:0:0:0:
14,263,78468,1,8,0:0:0:0:
98,149,78692,1,4,0:0:0:0:
98,291,78905,1,0,0:0:0:0:
14,176,79118,6,0,P|7:108|58:64,1,140.000001192093,2|4,0:0|0:0,0:0:0:0:
211,89,79757,1,8,0:0:0:0:
98,149,79970,1,4,0:0:0:0:
179,199,80184,1,0,0:0:0:0:
96,245,80396,5,8,0:3:0:0:
225,282,80604,1,0,0:0:0:0:
262,153,80813,1,8,0:0:0:0:
133,116,81022,1,0,0:0:0:0:
95,245,81231,6,0,P|107:312|162:354,1,140.000001192093,4|4,0:2|0:0,0:0:0:0:
284,201,81893,1,8,0:0:0:0:
196,257,82114,1,4,0:0:0:0:
288,305,82327,1,0,0:0:0:0:
284,201,82541,6,0,P|272:133|217:91,1,140.000001192093,8|4,0:0|0:0,0:0:0:0:
95,245,83188,1,2,0:0:0:0:
183,189,83409,1,4,0:0:0:0:
91,141,83629,1,0,0:0:0:0:
98,298,83850,5,8,0:0:0:0:
94,144,84065,1,0,0:0:0:0:
230,214,84280,1,8,0:0:0:0:
97,147,84495,1,0,0:0:0:0:
98,298,84711,6,0,P|140:351|207:366,1,140.000001192093,4|4,0:2|0:0,0:0:0:0:
344,351,85369,1,8,0:0:0:0:
359,254,85588,1,4,0:0:0:0:
268,290,85808,1,0,0:0:0:0:
435,315,86027,2,0,P|493:282|498:215,1,140.000001192093,2|4,0:0|0:0,0:0:0:0:
283,192,86682,1,8,0:0:0:0:
359,254,86900,1,4,0:0:0:0:
373,156,87117,1,0,0:0:0:0:
297,94,87335,5,8,0:0:0:0:
275,241,87547,1,0,0:0:0:0:
300,97,87759,1,8,0:0:0:0:
413,186,87971,1,0,0:0:0:0:
303,100,88183,6,0,P|240:69|171:74,1,140.000001192093,4|4,0:2|0:0,0:0:0:0:
53,152,88839,1,8,0:0:0:0:
195,158,89058,1,4,0:0:0:0:
83,71,89277,1,0,0:0:0:0:
123,208,89496,6,0,L|142:275,2,70.0000005960464,8|0|4,0:0|0:0|0:0,0:0:0:0:
83,71,90150,1,8,0:0:0:0:
195,158,90367,1,0,0:0:0:0:
53,152,90585,1,4,0:0:0:0:
171,74,90802,5,8,0:0:0:0:
123,208,91014,1,4,0:0:0:0:
93,48,91227,5,8,0:1:0:0:
200,233,91440,1,4,0:0:0:0:
31,102,91653,6,0,L|49:207,1,105.00000089407,4|0,0:1|0:0,0:0:0:0:
55,239,92072,1,4,0:0:0:0:
63,340,92281,2,0,L|123:288,1,70.0000005960464,8|0,0:0|0:0,0:0:0:0:
133,212,92697,5,4,0:0:0:0:
248,311,92904,2,0,L|194:264,1,70.0000005960464,8|0,0:0|0:0,0:0:0:0:
309,364,93318,1,4,0:0:0:0:
338,215,93524,2,0,L|325:285,1,70.0000005960464,8|0,0:0|0:0,0:0:0:0:
354,135,93937,1,4,0:0:0:0:
210,184,94143,5,8,0:0:0:0:
357,132,94353,1,4,0:0:0:0:
325,284,94563,1,8,0:0:0:0:
360,129,94773,1,4,0:0:0:0:
174,164,94984,6,0,P|152:192|139:224,1,70.0000005960464,4|8,0:1|0:1,0:0:0:0:
143,259,95294,1,8,0:1:0:0:
159,290,95397,1,4,0:1:0:0:
187,312,95500,1,4,0:0:0:0:
220,322,95604,2,0,P|255:317|287:304,1,70.0000005960464,12|4,0:1|0:0,0:0:0:0:
308,276,95913,1,8,0:0:0:0:
318,242,96015,1,4,0:0:0:0:
315,207,96117,1,4,0:0:0:0:
298,177,96220,6,0,P|270:155|238:142,1,70.0000005960464,12|4,0:1|0:0,0:0:0:0:
204,147,96527,1,8,0:0:0:0:
174,164,96629,1,4,0:0:0:0:
150,190,96733,1,0,0:0:0:0:
139,223,96837,2,0,P|143:258|156:290,1,70.0000005960464,12|4,0:1|0:0,0:0:0:0:
182,313,97151,1,8,0:0:0:0:
217,321,97255,1,2,0:0:0:0:
252,320,97360,1,4,0:0:0:0:
282,306,97464,6,0,P|304:278|317:245,1,70.0000005960464,12|0,0:1|0:0,0:0:0:0:
313,209,97778,1,4,0:0:0:0:
300,179,97883,2,0,P|272:156|239:144,1,70.0000005960464,12|4,0:1|0:0,0:0:0:0:
203,148,98198,1,0,0:0:0:0:
172,164,98303,5,4,0:1:0:0:
125,163,98407,1,0,0:0:0:0:
85,143,98511,1,8,0:0:0:0:
57,108,98616,1,0,0:0:0:0:
44,65,98720,2,4,P|45:48|49:31,1,35.0000002980232
138,76,98929,5,4,0:1:0:0:
162,35,99034,1,0,0:0:0:0:
199,11,99138,1,8,0:0:0:0:
243,4,99242,1,0,0:0:0:0:
286,14,99346,2,4,P|300:23|313:35,1,35.0000002980232
231,90,99555,5,4,0:1:0:0:
254,131,99659,1,0,0:0:0:0:
257,175,99764,1,8,0:0:0:0:
241,217,99868,1,0,0:0:0:0:
210,249,99973,2,4,P|194:256|177:261,1,35.0000002980232
172,164,100177,5,4,0:1:0:0:
125,163,100280,1,0,0:0:0:0:
85,143,100382,1,8,0:0:0:0:
57,108,100485,1,0,0:0:0:0:
44,65,100587,2,4,P|45:48|49:31,1,35.0000002980232
155,52,100792,6,0,P|164:37|176:24,3,35.0000002980232,4|0|8|0,0:1|0:0|0:0|0:0,0:0:0:0:
258,95,101212,2,0,P|273:87|290:82,3,35.0000002980232,4|0|8|0,0:1|0:0|0:0|0:0,0:0:0:0:
325,183,101633,5,4,0:1:0:0:
369,192,101738,1,0,0:0:0:0:
407,217,101843,1,8,0:0:0:0:
433,255,101948,1,0,0:0:0:0:
441,300,102053,2,8,P|440:317|436:334,1,35.0000002980232
259,262,102263,5,4,0:1:0:0:
215,253,102368,1,0,0:0:0:0:
177,228,102474,1,8,0:0:0:0:
151,190,102576,1,0,0:0:0:0:
142,144,102678,2,8,P|142:126|146:109,1,35.0000002980232
331,255,102882,5,4,0:1:0:0:
322,299,102984,1,0,0:0:0:0:
297,337,103086,1,8,0:0:0:0:
259,363,103188,1,0,0:0:0:0:
206,372,103290,2,0,P|185:370|164:362,1,43.750000372529,4|8,0:1|0:0,0:0:0:0:
252,189,103492,5,4,0:0:0:0:
261,145,103593,1,8,0:0:0:0:
286,107,103694,1,4,0:0:0:0:
324,81,103795,1,8,0:0:0:0:
370,72,103897,1,4,0:0:0:0:
414,81,103998,1,8,0:0:0:0:
452,106,104099,5,4,0:0:0:0:
480,147,104201,1,8,0:0:0:0:
490,197,104303,1,4,0:0:0:0:
480,245,104405,1,8,0:0:0:0:
453,287,104507,1,4,0:0:0:0:
406,318,104609,1,8,0:0:0:0:
350,329,104711,1,8,0:1:0:0:
256,192,117462,12,0,122950,0:0:0:0:
212,114,123321,6,0,L|185:91,1,35.0000002980232,8|0,0:0|0:0,0:0:0:0:
176,192,123690,2,0,L|164:261,1,70.0000005960464,4|4,0:3|0:0,0:0:0:0:
281,205,124429,1,0,0:0:0:0:
284,209,124799,2,0,L|382:172,2,105.00000089407,4|4|4,0:1|0:3|0:3,0:0:0:0:
243,103,126361,5,0,0:0:0:0:
245,107,126738,2,0,L|190:62,1,70.0000005960464,4|8,0:3|0:3,0:0:0:0:
362,64,127492,1,0,0:0:0:0:
365,68,127870,2,0,L|381:171,2,105.00000089407,4|4|4,0:1|0:1|0:1,0:0:0:0:
351,87,129150,1,0,0:0:0:0:
329,95,129278,1,0,0:0:0:0:
307,103,129403,6,4,L|254:98,1,52.500002449751
97,84,129779,1,4,0:0:0:0:
99,86,130155,6,0,P|141:104|166:143,1,92.4000005047988,4|8,0:1|0:0,0:0:0:0:
173,272,131100,1,0,0:0:0:0:
281,202,131294,1,0,0:0:0:0:
281,201,131488,6,0,P|332:197|374:227,1,105.00000089407,8|8,0:0|0:0,0:0:0:0:
297,72,132264,1,0,0:0:0:0:
201,216,132458,1,0,0:0:0:0:
312,270,132639,6,0,P|226:305|200:216,1,210.000001788139,8|4,0:0|0:0,0:0:0:0:
111,55,133549,5,4,0:3:0:0:
111,55,133731,1,0,0:0:0:0:
111,55,133913,2,0,L|53:92,1,52.500002449751,4|0,0:3|0:0,0:0:0:0:
216,113,134286,2,0,L|274:76,1,52.500002449751,0|4,0:0|0:3,0:0:0:0:
380,22,134659,2,0,P|373:72|401:116,1,105.000004899502,8|8,0:3|0:3,0:0:0:0:
423,142,135157,1,0,0:0:0:0:
430,176,135282,1,0,0:0:0:0:
420,210,135406,2,0,P|396:255|348:274,1,105.000004899502,8|4,0:0|0:3,0:0:0:0:
239,152,136172,6,0,P|290:150|331:182,1,105.000004899502,4|4,0:1|0:3,0:0:0:0:
191,69,137130,5,4,0:3:0:0:
62,198,137322,2,0,L|117:166,1,52.500002449751,0|4,0:0|0:3,0:0:0:0:
239,152,137706,6,0,L|183:183,1,52.500002449751,8|0,0:3|0:0,0:0:0:0:
110,281,138090,2,0,L|165:249,1,52.500002449751
287,235,138474,6,0,L|231:267,1,52.500002449751,4|0,0:3|0:0,0:0:0:0:
158,364,138847,2,0,L|213:332,1,52.500002449751,4|0,0:3|0:0,0:0:0:0:
367,283,139221,6,0,P|418:274|469:285,1,105.000004899502,4|4,0:1|0:3,0:0:0:0:
459,276,140062,1,0,0:0:0:0:
450,266,140156,1,8,0:3:0:0:
442,256,140250,1,0,0:0:0:0:
436,245,140344,1,0,0:0:0:0:
430,233,140438,1,0,0:0:0:0:
425,221,140532,1,4,0:3:0:0:
422,208,140626,1,0,0:0:0:0:
420,195,140720,5,8,0:3:0:0:
407,199,140814,1,0,0:0:0:0:
394,201,140908,1,4,0:3:0:0:
381,203,141002,1,0,0:0:0:0:
368,203,141096,1,8,0:3:0:0:
355,202,141190,1,0,0:0:0:0:
342,200,141285,5,4,0:3:0:0:
316,194,141379,1,0,0:0:0:0:
292,184,141457,1,4,0:3:0:0:
303,210,141551,1,0,0:0:0:0:
303,238,141646,1,8,0:3:0:0:
291,265,141741,1,0,0:0:0:0:
269,285,141836,1,0,0:0:0:0:
242,293,141931,1,0,0:0:0:0:
213,291,142026,1,4,0:3:0:0:
188,276,142121,1,0,0:0:0:0:
170,251,142216,6,0,P|123:211|63:226,2,129.500000608683,4|0|0,0:1|0:0|0:0,0:0:0:0:
176,268,143072,2,0,P|199:230|230:199,1,87.500000745058,0|4,0:0|0:3,0:0:0:0:
246,192,143658,1,0,0:0:0:0:
261,184,143756,2,0,P|292:153|314:115,1,87.500000745058,4|0,0:0|0:0,0:0:0:0:
195,12,144537,5,4,0:0:0:0:
122,112,144718,1,0,0:0:0:0:
239,74,144900,1,0,0:0:0:0:
122,36,145082,1,0,0:0:0:0:
195,136,145264,2,0,L|189:208,3,70.0000005960464,12|0|0|0,0:0|0:0|0:0|0:0,0:0:0:0:
137,291,145992,5,4,0:0:0:0:
137,291,146181,2,0,P|197:294|268:344,1,140.000001192093,8|0,0:0|0:0,0:0:0:0:
428,312,146751,1,4,0:3:0:0:
337,325,146941,1,0,0:0:0:0:
366,171,147131,5,8,0:3:0:0:
444,222,147321,1,0,0:0:0:0:
296,242,147511,1,4,0:3:0:0:
192,111,147880,6,0,L|182:170,1,61.2500011056661,4|8,0:3|0:3,0:0:0:0:
123,355,148435,2,0,L|138:263,1,93.3333151393503
223,223,148990,6,0,L|354:174,1,140.000001192093,4|0,0:3|0:0,0:0:0:0:
122,231,149571,2,0,L|65:253,1,61.2500011056661,4|8,0:3|0:3,0:0:0:0:
119,247,150139,2,0,L|62:269,1,61.2500011056661,8|0,0:3|0:0,0:0:0:0:
15,169,150514,1,4,0:3:0:0:
15,169,150887,6,0,B|32:155|32:155|56:156|56:156|84:140|112:143,1,105.000004899502,2|0,0:0|0:0,0:0:0:0:
334,46,152008,5,4,2:3:0:0:
415,67,152192,1,8,0:3:0:0:
295,188,152377,5,0,0:0:0:0:
273,105,152562,1,4,0:3:0:0:
437,149,152747,5,8,0:3:0:0:
376,210,152932,1,0,0:0:0:0:
356,127,153117,5,8,0:3:0:0:
110,63,153486,5,4,0:3:0:0:
126,70,153579,1,0,0:0:0:0:
140,81,153672,1,8,0:3:0:0:
150,95,153765,1,8,0:3:0:0:
157,111,153858,1,4,0:3:0:0:
159,128,153952,1,0,0:0:0:0:
157,146,154045,1,4,0:3:0:0:
150,162,154138,1,0,0:0:0:0:
140,176,154231,5,8,0:3:0:0:
154,165,154324,1,0,0:0:0:0:
170,159,154418,1,4,0:3:0:0:
187,157,154511,1,0,0:0:0:0:
205,159,154604,1,8,0:3:0:0:
220,166,154697,1,0,0:0:0:0:
235,176,154790,1,4,0:3:0:0:
245,190,154884,1,0,0:0:0:0:
251,206,154977,6,0,L|293:196,1,43.750000372529,4|0,0:3|0:0,0:0:0:0:
413,254,155361,2,0,L|370:244,1,43.750000372529,8|4,0:3|0:3,0:0:0:0:
251,302,155746,2,0,L|293:292,1,43.750000372529,8|4,0:3|0:3,0:0:0:0:
413,350,156105,1,4,0:3:0:0:
301,284,156293,5,8,0:3:0:0:
297,288,156387,1,8,0:3:0:0:
293,292,156481,2,0,L|241:303,7,52.500002449751,4|4|8|0|8|0|4|0,0:3|0:3|0:3|0:0|0:3|0:0|0:3|0:0,0:0:0:0:
119,333,157990,6,0,L|140:263,1,70.0000005960464,8|0,0:3|0:0,0:0:0:0:
64,206,158358,1,4,0:3:0:0:
84,188,158450,1,0,0:0:0:0:
107,176,158542,1,8,0:3:0:0:
133,172,158634,1,0,0:0:0:0:
159,174,158726,1,0,0:0:0:0:
184,184,158818,1,0,0:0:0:0:
204,200,158910,1,4,0:3:0:0:
220,220,159002,1,0,0:0:0:0:
230,245,159094,2,0,L|227:297,1,52.500002449751,8|0,0:3|0:0,0:0:0:0:
268,370,159462,5,4,0:3:0:0:
358,275,159653,2,8,L|349:251,1,26.2500012248755,8|8,0:3|0:3,0:3:0:0:
300,180,159845,1,4,0:3:0:0:
323,169,159940,1,0,0:0:0:0:
349,166,160036,1,4,0:3:0:0:
374,170,160132,1,0,0:0:0:0:
398,182,160228,6,0,P|414:201|428:224,1,52.500002449751,4|0,0:1|0:0,0:0:0:0:
460,310,160589,1,4,0:3:0:0:
494,189,160769,1,4,0:3:0:0:
473,323,160950,6,0,P|464:347|451:370,1,52.500002449751,4|0,0:1|0:0,0:0:0:0:
443,252,161329,1,4,0:3:0:0:
391,314,161518,1,8,0:3:0:0:
438,240,161708,6,0,L|464:172,1,70.0000005960464,0|8,0:0|0:3,0:0:0:0:
351,237,162276,1,0,0:0:0:0:
391,314,162466,1,4,0:3:0:0:
304,311,162656,5,8,0:3:0:0:
304,311,162751,1,0,0:0:0:0:
304,311,162846,2,0,L|291:343,1,35.0000002980232,0|4,0:0|0:3,0:0:0:0:
220,291,163226,2,0,P|179:273|136:271,1,87.500000745058,8|0,0:3|0:0,0:0:0:0:
59,282,163778,1,4,0:3:0:0:
37,147,163962,5,8,0:3:0:0:
164,196,164149,1,0,0:0:0:0:
142,61,164337,1,0,0:0:0:0:
43,133,164524,5,8,0:3:0:0:
148,196,164712,1,0,0:0:0:0:
150,73,164899,1,0,0:0:0:0:
254,136,165087,6,0,P|231:136|209:129,2,46.6666670640309,8|0|0,0:3|0:0|0:0,0:0:0:0:
295,177,165431,2,0,P|289:160|280:146,3,35.0000002980232,4|0|4|0,0:3|0:0|0:3|0:0,0:0:0:0:
294,54,165800,5,8,0:3:0:0:
319,57,165892,1,8,0:3:0:0:
342,71,165984,1,4,0:3:0:0:
358,91,166076,1,0,0:0:0:0:
367,116,166195,2,0,P|371:137|378:162,2,46.6666670640309,4|0|0,0:3|0:0|0:0,0:0:0:0:
384,95,166524,2,0,P|402:110|418:126,3,46.6666670640309
445,197,166957,5,10,0:0:0:0:
456,242,167061,1,0,0:0:0:0:
445,287,167166,1,2,0:0:0:0:
414,322,167270,1,0,0:0:0:0:
371,339,167374,1,2,0:0:0:0:
324,333,167479,5,8,0:0:0:0:
286,307,167591,1,2,0:0:0:0:
264,265,167703,1,0,0:0:0:0:
264,219,167815,1,2,0:0:0:0:
286,177,167927,1,0,0:0:0:0:
324,151,168039,5,10,0:0:0:0:
371,145,168151,1,0,0:0:0:0:
414,162,168266,1,2,0:0:0:0:
445,197,168381,1,0,0:0:0:0:
456,242,168496,2,0,L|445:287,1,46.6666670640309,2|0,0:0|0:0,0:0:0:0:
370,324,168726,2,0,L|359:279,1,46.6666670640309,2|0,0:0|0:0,0:0:0:0:
284,242,168956,6,0,L|273:287,1,46.6666670640309,2|0,0:0|0:0,0:0:0:0:
198,324,169186,2,0,L|187:279,1,46.6666670640309,2|0,0:0|0:0,0:0:0:0:
112,242,169416,2,0,L|101:287,1,46.6666670640309,2|0,0:0|0:0,0:0:0:0:
26,324,169646,2,0,L|15:279,1,46.6666670640309,2|0,0:0|0:0,0:0:0:0:
37,194,169887,5,4,0:1:0:0:
82,76,170074,2,0,L|77:46,2,26.2500012248755,8|8|4,0:3|0:3|0:1,0:0:0:0:
161,173,170448,2,0,L|165:202,2,26.2500012248755,8|8|4,0:3|0:3|0:3,0:0:0:0:
206,55,170822,1,4,0:3:0:0:
285,152,171009,1,8,0:3:0:0:
329,35,171196,1,4,0:3:0:0:
408,132,171383,5,8,0:3:0:0:
363,248,171570,1,8,0:3:0:0:
285,152,171758,5,4,0:3:0:0:
259,217,172133,2,0,L|285:152,1,70.0000005960464,4|8,0:1|0:3,0:0:0:0:
164,173,172689,1,4,0:3:0:0:
164,173,172874,2,0,P|103:172|55:208,1,122.500002211332,4|4,0:3|0:3,0:0:0:0:
34,318,173432,5,4,0:3:0:0:
141,281,173618,2,0,L|122:226,2,30.6250005528331,8|8|4,0:3|0:3|0:3,0:0:0:0:
248,318,173990,1,4,0:3:0:0:
292,189,174176,1,8,0:3:0:0:
287,203,174269,1,8,0:3:0:0:
282,217,174362,5,4,0:3:0:0:
380,162,174539,1,4,0:3:0:0:
468,135,174717,1,8,0:3:0:0:
473,121,174805,1,8,0:3:0:0:
478,107,174894,1,4,0:3:0:0:
432,28,175096,1,4,0:3:0:0:
339,69,175283,5,8,0:3:0:0:
421,255,175470,1,8,0:3:0:0:
287,203,175657,1,4,0:3:0:0:
473,121,175844,5,8,0:3:0:0:
421,255,176007,1,4,0:3:0:0:
331,143,176226,1,4,0:3:0:0:
473,137,176409,5,8,0:3:0:0:
406,247,176592,1,4,0:3:0:0:
396,119,176775,1,4,0:3:0:0:
480,217,176986,1,8,0:3:0:0:
355,188,177197,1,0,0:0:0:0:
256,192,177428,12,0,178601,0:0:0:0:
192,272,178992,5,4,0:1:0:0:
198,273,179085,1,0,0:0:0:0:
204,274,179178,1,0,0:0:0:0:
210,275,179271,1,0,0:0:0:0:
216,278,179365,1,8,0:3:0:0:
222,279,179458,1,0,0:0:0:0:
228,283,179551,1,0,0:0:0:0:
233,285,179644,1,0,0:0:0:0:
239,289,179738,1,4,0:3:0:0:
244,292,179831,1,0,0:0:0:0:
249,296,179924,1,4,0:3:0:0:
253,301,180018,1,0,0:0:0:0:
258,305,180111,5,4,0:1:0:0:
259,301,180204,1,8,0:3:0:0:
262,295,180297,1,8,0:3:0:0:
264,289,180391,1,8,0:3:0:0:
268,284,180484,1,8,0:3:0:0:
271,279,180577,1,8,0:3:0:0:
275,274,180670,1,4,0:1:0:0:
280,269,180764,1,8,0:3:0:0:
285,265,180857,1,8,0:3:0:0:
289,261,180950,1,8,0:3:0:0:
294,257,181044,1,4,0:3:0:0:
300,254,181137,1,8,0:3:0:0:
305,250,181230,1,8,0:3:0:0:
311,248,181323,1,4,0:3:0:0:
317,245,181417,1,4,0:3:0:0:
323,244,181510,1,4,0:3:0:0:
329,243,181603,1,4,0:3:0:0:
335,242,181696,1,0,0:0:0:0:
341,241,181790,1,0,0:0:0:0:
348,241,181883,1,0,0:0:0:0:
354,241,181976,5,4,0:1:0:0:
357,245,182070,1,0,0:0:0:0:
358,251,182163,1,0,0:0:0:0:
359,257,182256,1,0,0:0:0:0:
359,265,182349,1,8,0:3:0:0:
360,269,182443,1,0,0:0:0:0:
358,277,182536,1,0,0:0:0:0:
357,283,182629,1,0,0:0:0:0:
353,287,182722,1,4,0:3:0:0:
349,293,182816,1,0,0:0:0:0:
346,298,182909,1,4,0:3:0:0:
341,303,183002,1,0,0:0:0:0:
336,305,183096,5,8,0:3:0:0:
339,298,183189,1,0,0:0:0:0:
343,293,183282,1,4,0:3:0:0:
347,290,183375,1,0,0:0:0:0:
353,287,183469,1,4,0:3:0:0:
359,283,183561,1,0,0:0:0:0:
365,283,183655,1,8,0:3:0:0:
372,281,183748,1,0,0:0:0:0:
377,281,183842,1,4,0:3:0:0:
384,281,183935,1,0,0:0:0:0:
390,281,184029,1,4,0:3:0:0:
396,284,184122,1,0,0:0:0:0:
401,286,184216,1,4,0:3:0:0:
408,291,184309,1,0,0:0:0:0:
412,296,184403,1,4,0:3:0:0:
415,299,184496,1,0,0:0:0:0:
418,304,184590,1,8,0:3:0:0:
421,310,184683,1,0,0:0:0:0:
425,315,184777,1,4,0:3:0:0:
426,322,184870,1,0,0:0:0:0:
426,329,184964,5,4,0:1:0:0:
418,331,185058,1,0,0:0:0:0:
409,332,185153,1,0,0:0:0:0:
401,333,185248,1,0,0:0:0:0:
393,334,185343,1,4,0:3:0:0:
384,335,185437,1,0,0:0:0:0:
376,337,185532,1,0,0:0:0:0:
367,338,185627,1,0,0:0:0:0:
359,340,185722,1,4,0:3:0:0:
351,343,185816,1,0,0:0:0:0:
342,345,185911,1,0,0:0:0:0:
334,347,186006,1,0,0:0:0:0:
325,350,186101,5,4,0:3:0:0:
317,352,186196,1,0,0:0:0:0:
309,356,186290,1,0,0:0:0:0:
301,358,186385,1,0,0:0:0:0:
293,361,186480,1,0,0:0:0:0:
285,361,186574,1,0,0:0:0:0:
277,358,186669,1,4,0:3:0:0:
268,357,186763,1,0,0:0:0:0:
259,353,186858,1,8,0:3:0:0:
253,351,186952,1,0,0:0:0:0:
245,346,187047,1,0,0:0:0:0:
240,340,187141,1,0,0:0:0:0:
234,333,187236,1,0,0:0:0:0:
229,327,187330,1,0,0:0:0:0:
226,321,187425,1,0,0:0:0:0:
222,313,187519,1,0,0:0:0:0:
221,304,187614,5,4,0:3:0:0:
219,314,187708,1,0,0:0:0:0:
215,323,187803,1,0,0:0:0:0:
210,333,187897,1,0,0:0:0:0:
204,341,187992,1,4,0:1:0:0:
197,350,188085,1,0,0:0:0:0:
189,356,188179,1,0,0:0:0:0:
179,362,188273,1,0,0:0:0:0:
169,365,188367,1,8,0:3:0:0:
160,369,188460,1,0,0:0:0:0:
149,370,188554,1,0,0:0:0:0:
139,370,188648,1,0,0:0:0:0:
129,369,188742,1,0,0:0:0:0:
119,365,188835,1,0,0:0:0:0:
108,362,188929,1,0,0:0:0:0:
100,356,189023,1,0,0:0:0:0:
91,350,189117,5,4,0:3:0:0:
96,340,189211,1,0,0:0:0:0:
101,331,189304,1,0,0:0:0:0:
106,321,189398,1,0,0:0:0:0:
111,311,189492,1,0,0:0:0:0:
115,302,189586,1,0,0:0:0:0:
120,292,189679,1,4,0:3:0:0:
125,283,189773,1,0,0:0:0:0:
130,273,189867,1,8,0:3:0:0:
135,263,189961,1,0,0:0:0:0:
139,254,190055,1,0,0:0:0:0:
144,244,190148,1,0,0:0:0:0:
149,235,190242,1,0,0:0:0:0:
155,225,190336,1,0,0:0:0:0:
161,215,190430,1,4,0:3:0:0:
167,206,190523,1,0,0:0:0:0:
173,196,190617,1,4,0:3:0:0:
179,187,190711,1,0,0:0:0:0:
185,177,190805,1,0,0:0:0:0:
191,167,190899,1,0,0:0:0:0:
197,159,190992,5,4,0:1:0:0:
209,152,191086,1,0,0:0:0:0:
223,147,191181,1,0,0:0:0:0:
238,146,191276,1,0,0:0:0:0:
252,147,191371,1,8,0:3:0:0:
267,152,191465,1,0,0:0:0:0:
280,159,191560,1,0,0:0:0:0:
293,166,191655,1,0,0:0:0:0:
307,171,191750,1,0,0:0:0:0:
322,172,191844,1,0,0:0:0:0:
336,171,191939,1,0,0:0:0:0:
351,166,192034,1,0,0:0:0:0:
363,159,192129,5,0,0:0:0:0:
364,145,192224,1,0,0:0:0:0:
363,129,192318,1,0,0:0:0:0:
358,116,192413,1,0,0:0:0:0:
351,104,192508,1,0,0:0:0:0:
340,93,192601,1,0,0:0:0:0:
327,85,192695,1,4,0:3:0:0:
313,80,192789,1,0,0:0:0:0:
299,79,192883,1,8,0:3:0:0:
285,80,192976,1,0,0:0:0:0:
270,85,193070,1,0,0:0:0:0:
258,93,193164,1,0,0:0:0:0:
247,103,193258,1,0,0:0:0:0:
239,116,193351,1,0,0:0:0:0:
234,129,193445,1,0,0:0:0:0:
233,145,193539,1,0,0:0:0:0:
234,159,193633,5,4,0:3:0:0:
220,160,193727,1,0,0:0:0:0:
204,159,193820,1,0,0:0:0:0:
191,154,193914,1,0,0:0:0:0:
178,146,194008,1,4,0:1:0:0:
168,135,194101,1,0,0:0:0:0:
160,123,194194,1,0,0:0:0:0:
155,109,194287,1,0,0:0:0:0:
154,94,194381,1,8,0:3:0:0:
155,80,194474,1,0,0:0:0:0:
160,67,194567,1,0,0:0:0:0:
168,53,194660,1,0,0:0:0:0:
179,43,194754,1,0,0:0:0:0:
191,35,194847,1,0,0:0:0:0:
204,31,194940,1,0,0:0:0:0:
220,29,195034,1,0,0:0:0:0:
234,31,195127,5,0,0:0:0:0:
232,45,195220,1,0,0:0:0:0:
229,59,195313,1,0,0:0:0:0:
228,74,195407,1,0,0:0:0:0:
227,88,195500,1,0,0:0:0:0:
226,103,195593,1,0,0:0:0:0:
225,117,195686,1,4,0:3:0:0:
223,131,195780,1,0,0:0:0:0:
222,146,195873,1,8,0:3:0:0:
221,160,195966,1,0,0:0:0:0:
220,175,196060,1,0,0:0:0:0:
219,189,196153,1,0,0:0:0:0:
217,203,196246,1,0,0:0:0:0:
216,218,196339,1,0,0:0:0:0:
215,232,196433,1,4,0:3:0:0:
214,247,196526,1,0,0:0:0:0:
213,261,196619,5,4,0:3:0:0:
226,255,196712,1,0,0:0:0:0:
238,249,196806,1,8,0:3:0:0:
251,243,196899,1,0,0:0:0:0:
264,237,196992,1,0,0:0:0:0:
262,251,197094,1,0,0:0:0:0:
262,265,197195,1,4,0:3:0:0:
259,279,197295,1,0,0:0:0:0:
258,293,197396,5,4,0:1:0:0:
274,296,197489,1,0,0:0:0:0:
288,293,197582,1,0,0:0:0:0:
301,287,197675,1,0,0:0:0:0:
313,279,197769,1,0,0:0:0:0:
322,267,197857,1,0,0:0:0:0:
328,254,197945,1,4,0:3:0:0:
329,239,198033,1,0,0:0:0:0:
328,224,198121,5,4,0:3:0:0:
315,231,198216,1,0,0:0:0:0:
301,235,198312,1,0,0:0:0:0:
286,236,198407,1,0,0:0:0:0:
270,235,198503,1,0,0:0:0:0:
258,230,198598,1,0,0:0:0:0:
244,224,198694,1,4,0:3:0:0:
233,214,198789,1,0,0:0:0:0:
223,203,198885,1,8,0:3:0:0:
217,189,198980,1,0,0:0:0:0:
211,176,199076,1,0,0:0:0:0:
211,161,199171,1,0,0:0:0:0:
213,146,199267,1,0,0:0:0:0:
216,133,199362,1,0,0:0:0:0:
223,119,199458,1,0,0:0:0:0:
232,107,199553,1,0,0:0:0:0:
244,98,199649,5,4,0:3:0:0:
261,110,199737,1,0,0:0:0:0:
273,128,199826,1,0,0:0:0:0:
276,148,199914,1,0,0:0:0:0:
273,169,200003,1,4,0:1:0:0:
261,187,200091,1,0,0:0:0:0:
244,197,200180,1,4,0:3:0:0:
222,202,200268,1,0,0:0:0:0:
202,197,200357,1,8,0:3:0:0:
185,187,200449,1,0,0:0:0:0:
173,169,200542,1,0,0:0:0:0:
168,148,200634,1,0,0:0:0:0:
173,128,200727,1,0,0:0:0:0:
185,110,200819,1,0,0:0:0:0:
202,98,200912,1,4,0:3:0:0:
222,94,201004,1,0,0:0:0:0:
246,100,201097,6,0,B|290:138|296:92|301:128,2,70.0000005960464,4|8|4,0:2|0:3|0:3,0:0:0:0:
157,33,201652,2,0,B|43:11|78:97|33:40,1,140.000001192093,4|4,0:3|0:3,0:0:0:0:
125,112,202207,5,8,0:3:0:0:
239,68,202392,1,8,0:3:0:0:
315,164,202577,1,4,0:3:0:0:
248,266,202759,1,8,0:3:0:0:
130,233,202941,5,8,0:3:0:0:
212,168,203124,1,4,0:3:0:0:
157,366,203306,2,0,P|213:326|281:326,1,140.000001192093,4|4,0:1|0:3,0:0:0:0:
350,324,203853,2,0,P|316:331|281:326,1,70.0000005960464,8|0,0:3|0:0,0:0:0:0:
429,270,204219,2,0,P|463:263|497:268,1,70.0000005960464,4|8,0:3|0:3,0:0:0:0:
350,215,204586,6,0,L|315:177,1,52.500002449751,0|4,0:0|0:3,0:0:0:0:
198,140,204952,2,0,L|314:176,1,122.500002211332,8|4,0:3|0:3,0:0:0:0:
451,146,205503,6,0,L|314:176,1,140.000001192093,8|4,0:3|0:3,0:0:0:0:
290,41,206589,6,0,B|276:52|276:52|243:48|243:48|220:56,1,70.0000005960464,8|0,0:3|0:0,0:0:0:0:
142,37,206951,6,0,P|156:104|215:137,1,140.000001192093,4|4,0:1|0:3,0:0:0:0:
244,217,207491,2,0,P|294:171|293:103,1,140.000001192093,4|4,0:1|0:3,0:0:0:0:
348,40,208031,2,0,P|283:19|224:53,1,140.000001192093,4|4,0:1|0:3,0:0:0:0:
214,136,208576,5,4,0:3:0:0:
214,136,208762,2,0,P|155:103|142:37,1,140.000001192093,4|8,0:1|0:3,0:0:0:0:
292,102,209504,2,0,P|294:170|244:217,1,140.000001192093,8|0,0:3|0:0,0:0:0:0:
224,52,210063,1,8,0:3:0:0:
250,29,210157,1,8,0:3:0:0:
283,19,210252,1,4,0:3:0:0:
214,136,210440,1,4,0:3:0:0:
147,17,210629,2,0,L|172:62,1,52.500002449751,8|0,0:3|0:0,0:0:0:0:
158,201,211006,2,0,L|132:155,1,52.500002449751,4|8,0:3|0:3,0:0:0:0:
243,217,211383,5,0,0:0:0:0:
243,217,211557,1,4,0:3:0:0:
242,216,211731,2,0,P|275:230|299:255,1,70.0000005960464,8|4,0:3|0:3,0:0:0:0:
367,318,212079,2,0,P|339:339|305:347,1,70.0000005960464,4|8,0:3|0:3,0:0:0:0:
217,374,212427,2,0,P|212:339|222:306,1,70.0000005960464,4|4,0:3|0:3,0:0:0:0:
324,143,212803,5,8,0:3:0:0:
299,255,212987,1,4,0:3:0:0:
299,255,213171,1,4,0:3:0:0:
339,137,213355,5,8,0:3:0:0:
222,306,213539,1,4,0:3:0:0:
222,306,213723,1,4,0:3:0:0:
354,131,213907,5,8,0:3:0:0:
107,278,214091,1,4,0:3:0:0:
281,199,214275,5,4,0:1:0:0:
303,202,214364,1,0,0:0:0:0:
324,210,214454,1,4,0:3:0:0:
343,223,214543,1,0,0:0:0:0:
359,239,214633,1,4,0:3:0:0:
371,258,214722,1,0,0:0:0:0:
379,280,214812,1,4,0:3:0:0:
383,303,214901,1,0,0:0:0:0:
397,321,214991,1,8,0:3:0:0:
417,332,215080,1,0,0:0:0:0:
439,335,215170,1,0,0:0:0:0:
461,328,215260,1,0,0:0:0:0:
478,312,215349,1,0,0:0:0:0:
487,292,215439,1,0,0:0:0:0:
487,269,215528,1,0,0:0:0:0:
478,248,215618,1,0,0:0:0:0:
461,233,215707,5,4,0:1:0:0:
441,242,215801,1,0,0:0:0:0:
418,247,215896,1,0,0:0:0:0:
396,245,215991,1,0,0:0:0:0:
374,238,216086,1,0,0:0:0:0:
355,226,216180,1,0,0:0:0:0:
339,209,216275,1,4,0:3:0:0:
328,189,216370,1,0,0:0:0:0:
323,167,216465,1,8,0:3:0:0:
318,145,216556,1,0,0:0:0:0:
307,125,216647,1,0,0:0:0:0:
291,108,216738,1,0,0:0:0:0:
272,96,216829,1,0,0:0:0:0:
249,89,216920,1,0,0:0:0:0:
227,89,217011,1,0,0:0:0:0:
205,95,217102,1,0,0:0:0:0:
185,105,217193,1,4,0:3:0:0:
167,120,217286,1,0,0:0:0:0:
155,139,217380,1,0,0:0:0:0:
148,161,217474,1,0,0:0:0:0:
146,183,217568,5,4,0:1:0:0:
164,169,217661,1,0,0:0:0:0:
178,151,217755,1,0,0:0:0:0:
188,131,217849,1,0,0:0:0:0:
191,107,217943,1,8,0:3:0:0:
188,85,218033,1,0,0:0:0:0:
181,64,218124,1,0,0:0:0:0:
169,45,218214,1,0,0:0:0:0:
151,30,218305,1,0,0:0:0:0:
130,20,218395,1,0,0:0:0:0:
107,16,218486,1,0,0:0:0:0:
85,18,218576,1,0,0:0:0:0:
63,25,218667,5,4,0:1:0:0:
77,44,218764,1,0,0:0:0:0:
90,62,218861,1,0,0:0:0:0:
103,80,218958,1,0,0:0:0:0:
116,98,219055,1,0,0:0:0:0:
129,116,219152,1,0,0:0:0:0:
142,134,219249,1,4,0:3:0:0:
163,141,219346,1,0,0:0:0:0:
184,148,219443,1,8,0:3:0:0:
205,155,219540,1,0,0:0:0:0:
226,162,219637,1,0,0:0:0:0:
247,169,219734,1,0,0:0:0:0:
268,176,219831,1,0,0:0:0:0:
289,183,219928,1,0,0:0:0:0:
310,190,220025,1,0,0:0:0:0:
331,198,220122,1,0,0:0:0:0:
354,206,220219,1,4,0:3:0:0:
375,214,220307,1,0,0:0:0:0:
396,222,220396,1,0,0:0:0:0:
417,230,220485,1,0,0:0:0:0:
438,238,220574,5,4,0:1:0:0:
440,260,220662,1,0,0:0:0:0:
438,283,220751,1,0,0:0:0:0:
431,305,220840,1,0,0:0:0:0:
420,324,220929,1,8,0:3:0:0:
404,341,221018,1,0,0:0:0:0:
386,355,221106,1,0,0:0:0:0:
365,364,221195,1,0,0:0:0:0:
343,369,221284,1,0,0:0:0:0:
320,369,221373,1,0,0:0:0:0:
298,364,221462,1,4,0:3:0:0:
277,355,221550,1,0,0:0:0:0:
259,341,221639,5,4,0:1:0:0:
261,318,221746,1,0,0:0:0:0:
264,294,221853,1,8,0:3:0:0:
266,271,221954,1,0,0:0:0:0:
269,244,222056,1,4,0:3:0:0:
248,253,222144,1,0,0:0:0:0:
225,263,222232,1,4,0:3:0:0:
204,272,222320,1,0,0:0:0:0:
179,283,222409,1,8,0:3:0:0:
158,259,222497,1,0,0:0:0:0:
143,232,222585,1,0,0:0:0:0:
137,201,222674,1,0,0:0:0:0:
138,170,222762,1,8,0:3:0:0:
148,141,222850,1,0,0:0:0:0:
165,114,222938,1,4,0:3:0:0:
188,94,223027,1,0,0:0:0:0:
215,79,223115,5,4,0:1:0:0:
246,73,223211,1,0,0:0:0:0:
277,74,223307,1,8,0:3:0:0:
306,84,223404,1,0,0:0:0:0:
333,100,223500,1,0,0:0:0:0:
353,124,223597,1,0,0:0:0:0:
368,151,223693,1,4,0:3:0:0:
374,182,223790,1,0,0:0:0:0:
373,213,223886,1,8,0:3:0:0:
363,242,223978,1,0,0:0:0:0:
347,269,224070,1,4,0:3:0:0:
323,289,224163,1,0,0:0:0:0:
296,304,224255,1,2,0:3:0:0:
265,310,224348,1,0,0:0:0:0:
234,309,224440,1,4,0:3:0:0:
205,299,224533,1,0,0:0:0:0:
179,283,224625,5,4,0:1:0:0:
256,192,224806,1,4,0:3:0:0:
333,101,224987,1,4,0:3:0:0:
347,269,225169,5,4,0:1:0:0:
256,192,225350,1,4,0:3:0:0:
165,115,225531,1,4,0:3:0:0:
11,297,225713,5,4,0:1:0:0:
