osu file format v14

[General]
AudioFilename: audio.mp3
AudioLeadIn: 0
PreviewTime: 336830
Countdown: 0
SampleSet: Drum
StackLeniency: 0.4
Mode: 0
LetterboxInBreaks: 0
WidescreenStoryboard: 1

[Editor]
Bookmarks: 186195,287349,421362,500964,571458
DistanceSpacing: 0.5
BeatDivisor: 8
GridSize: 32
TimelineZoom: 3.099999

[Metadata]
Title:I Am S/H(im)e[r] As You Am S/H(im)e[r] As You Are Me And We Am I And I...
TitleUnicode:I Am S/H(im)e[r] As You Am S/H(im)e[r] As You Are Me And We Am I And I...
Artist:GIRAFFES? GIRAFFES!
ArtistUnicode:GIRAFFES? GIRAFFES!
Creator:squirrelpascals
Version:Chapter 2: Satori
Source:
Tags:All Our Together Our Collective Consciousness Psychogenic Fugue More Skin With Milk-Mouth Milk Mouth math rock Davvyforte Davvy _underjoy neyoru shimmer shimer she him her identity reality
BeatmapID:2173053
BeatmapSetID:1039602

[Difficulty]
HPDrainRate:4
CircleSize:5
OverallDifficulty:9.7
ApproachRate:10
SliderMultiplier:1.4
SliderTickRate:1

[Events]
//Background and Video events
0,0,"giraffes.jpg",0,0
//Break Periods
//Storyboard Layer 0 (Background)
//Storyboard Layer 1 (Fail)
//Storyboard Layer 2 (Pass)
//Storyboard Layer 3 (Foreground)
//Storyboard Layer 4 (Overlay)
//Storyboard Sound Samples

[TimingPoints]
100,227.272727272727,4,3,1,40,1,0
1690,-66.6666666666667,4,3,1,40,0,0
1918,229.007633587786,4,3,1,40,1,8
3292,222.222222222222,4,3,1,40,1,8
3736,220.588235294118,5,3,1,40,1,8
4838,-250,5,3,5,40,0,0
5721,244.897959183673,5,3,5,40,1,8
5965,221.40221402214,5,3,5,40,1,8
5965,-250,5,3,5,40,0,0
8843,227.272727272727,5,3,5,40,1,8
9297,220.588235294118,5,3,5,40,1,8
9297,-250,5,3,5,40,0,0
9407,-250,5,3,5,30,0,0
9627,-250,5,3,5,40,0,0
9737,-250,5,3,5,30,0,0
9958,-250,5,3,5,40,0,0
10068,-250,5,3,5,30,0,0
10179,-250,5,3,5,40,0,0
10289,-250,5,3,5,30,0,0
10399,-250,5,3,5,40,0,0
10509,-250,5,3,5,30,0,0
10730,-250,5,3,5,40,0,0
10840,-250,5,3,5,30,0,0
11061,-250,5,3,5,40,0,0
11171,-250,5,3,5,30,0,0
11282,-250,5,3,5,40,0,0
11392,-250,5,3,5,30,0,0
11502,218.181818181818,5,3,5,40,1,8
11502,-250,5,3,5,40,0,0
11611,-250,5,3,5,30,0,0
11829,-250,5,3,5,40,0,0
11938,-250,5,3,5,30,0,0
12156,-250,5,3,5,40,0,0
12265,-250,5,3,5,30,0,0
12374,-250,5,3,5,40,0,0
12483,-250,5,3,5,30,0,0
12592,-250,5,3,5,40,0,0
12701,-250,5,3,5,30,0,0
12811,226.415094339623,5,3,5,30,1,8
12811,-250,5,3,5,30,0,0
12924,-250,5,3,5,40,0,0
13037,-250,5,3,5,30,0,0
13263,-250,5,3,5,40,0,0
13376,-250,5,3,5,30,0,0
13490,-250,5,3,5,40,0,0
13603,-250,5,3,5,30,0,0
13716,218.181818181818,5,3,5,40,1,8
13716,-250,5,3,5,40,0,0
13825,-250,5,3,5,30,0,0
14043,-250,5,3,5,40,0,0
14152,-250,5,3,5,30,0,0
14370,-250,5,3,5,40,0,0
14479,-250,5,3,5,30,0,0
14589,230.769230769231,5,3,1,40,1,8
14589,-66.6666666666667,5,3,1,40,0,0
14756,-66.6666666666667,5,3,1,5,0,0
14819,250,5,3,2,40,1,8
15069,226.415094339623,5,3,1,5,1,8
15125,226.415094339623,5,3,1,40,1,8
15125,-200,5,3,1,40,0,0
16257,235.294117647059,5,3,1,40,1,8
16335,-100,5,3,1,30,0,0
16492,-100,5,3,1,40,0,0
16570,-100,5,3,1,30,0,0
16727,216.606498194946,5,3,1,40,1,8
16727,-200,5,3,1,40,0,0
17160,226.415094339623,5,3,1,40,1,8
17160,-200,5,3,1,40,0,0
17386,223.880597014925,5,3,1,40,1,8
17386,-200,5,3,1,40,0,0
18505,230.769230769231,5,3,1,40,1,8
18505,-200,5,3,1,40,0,0
18908,-200,5,3,1,30,0,0
18966,218.181818181818,5,3,1,40,1,8
18966,-200,5,3,1,40,0,0
19402,235.294117647059,5,3,1,40,1,8
19402,-200,5,3,1,40,0,0
19637,214.285714285714,5,3,1,40,1,8
19637,-200,5,3,1,40,0,0
20244,-200,5,3,1,40,0,0
20279,-200,5,3,1,25,0,0
20494,240,5,3,1,40,1,8
20494,-200,5,3,1,40,0,0
20734,222.222222222222,5,3,1,40,1,8
20734,-200,5,3,1,40,0,0
21067,363.636363636364,5,3,1,40,1,8
21248,304.568527918782,5,3,1,40,1,8
21248,-75.187969924812,5,3,1,40,0,0
21400,230.769230769231,5,3,1,40,1,8
21400,-200,5,3,1,40,0,0
21515,-200,5,3,1,5,0,0
21630,-200,5,3,1,40,0,0
21861,218.181818181818,5,3,1,40,1,8
21861,-200,5,3,1,40,0,0
22297,206.896551724138,5,3,1,40,1,8
22297,-200,5,3,1,40,0,0
22400,240,5,3,1,40,1,8
22400,-98.0392156862745,5,3,1,40,0,0
22640,-98.0392156862745,5,3,1,5,0,0
22760,253.164556962025,5,3,1,40,1,8
23013,214.285714285714,5,3,1,40,1,8
23334,203.389830508475,5,3,1,40,1,8
23537,230.769230769231,5,3,1,40,1,8
23767,-100,5,3,1,5,0,0
23883,240,5,3,1,40,1,8
24124,222.222222222222,5,3,1,40,1,8
24457,206.896551724138,5,3,1,40,1,8
24663,240,5,3,1,40,1,8
24903,-100,5,3,1,5,0,0
25023,227.272727272727,5,3,1,40,1,8
25251,222.222222222222,5,3,1,40,1,8
25584,200,5,3,1,40,1,8
25784,232.558139534884,5,3,1,40,1,8
26016,-100,5,3,1,5,0,0
26132,263.157894736842,5,3,1,40,1,8
26396,233.463035019455,5,3,1,40,1,8
26425,-100,5,3,1,5,0,0
26630,228.136882129278,5,3,1,40,1,8
27542,-200,5,3,1,40,0,0
27770,235.294117647059,5,3,1,40,1,8
27770,-166.666666666667,5,3,1,40,0,0
28122,244.897959183673,5,3,1,40,1,8
28122,-166.666666666667,5,3,1,40,0,0
28183,-166.666666666667,5,3,1,30,0,0
28244,226.415094339623,5,3,1,40,1,8
28244,-166.666666666667,5,3,1,40,0,0
28923,223.880597014925,5,3,1,40,1,8
28923,-200,5,3,1,40,0,0
30265,235.294117647059,5,3,1,40,1,8
30266,-200,5,3,1,40,0,0
30500,214.285714285714,5,3,1,40,1,8
30500,-200,5,3,1,40,0,0
30928,244.897959183673,5,3,1,40,1,8
30928,-200,5,3,1,40,0,0
31172,225.563909774436,5,3,1,40,1,8
31172,-200,5,3,1,40,0,0
31848,-133.333333333333,5,3,1,40,0,0
32299,230.769230769231,4,3,2,40,1,9
32414,-200,4,3,2,40,0,0
32760,240,4,3,2,40,1,8
33240,226.415094339623,4,3,2,40,1,8
34145,222.222222222222,5,3,2,40,1,8
34145,-76.9230769230769,5,3,2,40,0,0
34811,230.769230769231,5,3,2,40,1,8
35041,244.897959183673,5,3,2,40,1,8
35285,226.415094339623,5,3,2,40,1,8
35285,-76.9230769230769,5,3,2,40,0,0
35737,240,5,3,2,40,1,8
36217,188.679245283019,5,3,1,40,1,8
36217,-200,5,3,1,40,0,0
36311,-200,5,3,1,25,0,0
36406,235.294117647059,4,3,2,40,1,9
36523,-100,4,3,2,40,0,0
36876,228.136882129278,4,3,2,40,1,8
37332,222.222222222222,4,3,2,40,1,8
37776,214.285714285714,4,3,2,40,1,8
38204,222.222222222222,5,3,2,40,1,8
38204,-76.9230769230769,5,3,2,40,0,0
38426,-76.9230769230769,5,3,2,40,0,0
39537,218.181818181818,5,3,2,40,1,8
39537,-76.9230769230769,5,3,2,40,0,0
40082,235.294117647059,5,3,2,40,1,8
40434,219.78021978022,4,3,2,40,1,9
40543,-100,4,3,2,40,0,0
40873,228.136882129278,4,3,2,40,1,8
41329,228.136882129278,4,3,2,40,1,8
41785,210.526315789474,4,3,2,40,1,8
42100,292.682926829268,4,3,2,40,1,8
42247,210.526315789474,5,3,2,40,1,8
42668,222.222222222222,5,3,2,40,1,8
42668,-76.9230769230769,5,3,2,40,0,0
43113,240,5,3,2,40,1,8
43113,-76.9230769230769,5,3,2,40,0,0
43353,214.285714285714,5,3,2,40,1,8
43353,-76.9230769230769,5,3,2,40,0,0
43781,230.769230769231,5,3,2,40,1,8
43781,-76.9230769230769,5,3,2,40,0,0
44242,214.285714285714,5,3,1,40,1,8
44456,235.294117647059,5,3,2,40,1,9
44456,-66.6666666666667,5,3,2,40,0,1
44573,-66.6666666666667,5,3,2,40,0,0
44682,-76.9230769230769,5,3,2,40,0,0
45132,-76.9230769230769,5,3,2,40,0,0
45161,215.827338129496,5,3,2,30,1,8
45161,-76.9230769230769,5,3,2,30,0,0
45376,-76.9230769230769,5,3,1,40,0,0
45700,266.666666666667,5,3,1,40,1,8
45834,223.880597014925,5,3,2,40,1,8
45834,-76.9230769230769,5,3,2,40,0,0
46169,223.880597014925,5,3,2,40,1,8
46280,-76.9230769230769,5,3,2,40,0,0
46729,214.285714285714,5,3,1,40,1,8
46729,-76.9230769230769,5,3,1,40,0,0
46836,-76.9230769230769,5,3,2,40,0,0
46943,253.164556962025,5,3,2,40,1,8
47196,218.181818181818,5,3,2,40,1,8
47196,-76.9230769230769,5,3,2,40,0,0
47632,229.445506692161,5,3,2,40,1,8
47632,-76.9230769230769,5,3,2,40,0,0
48090,-76.9230769230769,5,3,1,40,0,0
48205,-76.9230769230769,5,3,2,25,0,0
48262,-76.9230769230769,5,3,2,30,0,0
48320,-76.9230769230769,5,3,2,40,0,0
48550,218.181818181818,5,3,2,40,1,8
48550,-76.9230769230769,5,3,2,40,0,0
49095,240,5,3,2,40,1,8
49095,-76.9230769230769,5,3,2,40,0,0
49455,-76.9230769230769,5,3,1,40,0,0
49695,214.285714285714,5,3,2,40,1,8
49695,-76.9230769230769,5,3,2,40,0,0
50230,244.897959183673,5,3,2,40,1,8
50597,240,5,3,1,40,1,8
50597,-76.9230769230769,5,3,1,40,0,0
50837,232.558139534884,4,3,2,40,1,9
50953,-100,4,3,2,40,0,0
51767,222.222222222222,4,3,2,40,1,8
52655,230.769230769231,4,3,1,40,1,8
52655,-71.4285714285714,4,3,1,40,0,0
54039,-71.4285714285714,4,3,2,40,0,0
54270,218.181818181818,4,3,2,40,1,8
54488,222.222222222222,4,3,2,40,1,9
54599,-100,4,3,2,40,0,0
55376,226.415094339623,4,3,2,40,1,8
56281,231.660231660232,4,3,1,40,1,8
57208,223.880597014925,4,3,1,40,1,8
57879,-76.9230769230769,4,3,1,40,0,0
58103,235.294117647059,4,3,2,40,1,9
58220,-100,4,3,2,40,0,0
58338,226.415094339623,4,3,2,40,1,8
59017,223.880597014925,4,3,2,40,1,8
59464,218.181818181818,4,3,2,40,1,8
59791,260.869565217391,4,3,2,40,1,8
59921,214.285714285714,4,3,1,40,1,8
59921,-71.4285714285714,4,3,1,40,0,0
60135,232.558139534884,4,3,1,40,1,8
60135,-71.4285714285714,4,3,1,40,0,0
60832,223.048327137546,4,3,1,40,1,8
60832,-71.4285714285714,4,3,1,40,0,0
61278,-71.4285714285714,4,3,2,40,0,0
61725,224.719101123595,4,3,2,40,1,9
61837,-100,4,3,2,40,0,0
62174,228.136882129278,4,3,2,40,1,8
62630,228.136882129278,4,3,2,40,1,8
63086,224.719101123595,4,3,2,40,1,8
63423,250,4,3,2,40,1,8
63548,226.415094339623,4,3,1,40,1,8
64453,223.880597014925,4,3,1,40,1,8
65124,-76.9230769230769,4,3,1,40,0,0
65349,226.415094339623,4,3,2,40,1,9
65349,-66.6666666666667,4,3,2,40,0,1
65801,244.897959183673,4,3,2,40,1,9
65801,-66.6666666666667,4,3,2,40,0,1
66291,226.415094339623,4,3,2,40,1,9
66291,-66.6666666666667,4,3,2,40,0,1
66970,-66.6666666666667,4,3,1,40,0,1
67423,240,4,3,2,40,1,9
67423,-66.6666666666667,4,3,2,40,0,1
67903,230.769230769231,4,3,1,40,1,9
67903,-66.6666666666667,4,3,1,40,0,1
68133,-66.6666666666667,4,3,2,40,0,1
68594,219.78021978022,4,3,2,40,1,9
68703,-100,4,3,1,40,0,1
69033,240,6,3,3,40,1,8
69033,-200,6,3,3,40,0,0
69753,222.222222222222,6,3,3,40,1,8
69753,-400,6,3,3,40,0,0
70197,247.933884297521,6,3,3,40,1,8
70445,233.463035019455,6,3,3,40,1,8
70445,-200,6,3,3,40,0,0
72546,-400,6,3,3,40,0,0
72779,240,6,3,3,40,1,8
73259,240,6,3,3,40,1,8
73259,-200,6,3,3,40,0,0
73979,235.294117647059,6,3,3,40,1,8
73979,-200,6,3,3,40,0,0
74449,226.415094339623,6,3,3,40,1,8
74675,-200,6,3,3,40,0,0
75241,285.714285714286,6,3,3,40,1,8
75383,230.769230769231,6,3,3,40,1,8
75383,-400,6,3,3,40,0,0
75844,235.294117647059,6,3,3,40,1,8
76079,222.222222222222,6,3,3,40,1,8
76079,-200,6,3,2,40,0,0
76301,-200,6,3,3,40,0,0
76412,-200,6,3,2,40,0,0
76523,255.31914893617,6,3,2,40,1,8
76523,-200,6,3,2,40,0,0
76778,223.880597014925,6,3,2,40,1,8
76778,-200,6,3,2,40,0,0
77001,-200,6,3,3,40,0,0
77113,-200,6,3,1,40,0,0
77450,231.660231660232,6,3,3,40,1,8
77450,-200,6,3,3,40,0,0
78144,-400,6,3,3,40,0,0
78839,-200,6,3,3,40,0,0
79534,228.136882129278,6,3,3,40,1,8
79534,-200,6,3,3,40,0,0
80218,235.294117647059,6,3,3,40,1,8
80218,-200,6,3,3,40,0,0
80923,-400,6,3,3,40,0,0
81629,-200,6,3,3,40,0,0
82100,255.31914893617,6,3,3,40,1,8
82100,-200,6,3,3,40,0,0
82355,234.375,6,3,3,40,1,8
82355,-200,6,3,3,40,0,0
83058,236.220472440945,6,3,3,40,1,8
83058,-200,6,3,3,40,0,0
83530,248.96265560166,6,3,3,40,1,8
83530,-200,6,3,3,40,0,0
83778,232.558139534884,6,3,3,40,1,8
83778,-400,6,3,3,40,0,0
84475,218.181818181818,6,3,3,40,1,8
84475,-200,6,3,2,40,0,0
84911,260.869565217391,6,3,2,40,1,8
85172,228.136882129278,6,3,2,40,1,8
85172,-200,6,3,2,40,0,0
85400,-200,6,3,3,40,0,0
85628,-200,6,3,1,40,0,0
85856,230.769230769231,6,3,2,40,1,8
85856,-200,6,3,2,40,0,0
86779,240,6,3,2,40,1,8
86779,-200,6,3,3,40,0,0
87019,-200,6,3,1,40,0,0
87259,232.558139534884,6,3,2,40,1,8
87259,-200,6,3,2,40,0,0
87956,228.136882129278,6,3,2,40,1,8
87956,-200,6,3,2,40,0,0
88412,-200,6,3,1,40,0,0
88640,241.935483870968,6,3,2,40,1,8
88640,-200,6,3,2,40,0,0
89003,244.897959183673,6,3,2,40,1,8
89003,-200,6,3,2,40,0,0
89370,226.415094339623,6,3,2,40,1,8
89370,-200,6,3,2,40,0,0
89822,-200,6,3,1,40,0,0
90049,226.415094339623,6,3,2,40,1,8
90049,-200,6,3,2,40,0,0
90275,255.31914893617,6,3,2,40,1,8
90402,217.391304347826,6,3,2,40,1,8
90402,-133.333333333333,6,3,2,40,0,0
90728,235.294117647059,6,3,1,40,1,8
91433,232.558139534884,6,3,3,40,1,8
91433,-200,6,3,3,40,0,0
92130,-400,6,3,3,40,0,0
92595,241.935483870968,6,3,3,40,1,8
92836,228.136882129278,6,3,3,40,1,8
92836,-200,6,3,3,40,0,0
93520,214.285714285714,6,3,3,40,1,8
93520,-200,6,3,3,40,0,0
93734,235.294117647059,6,3,3,40,1,8
93734,-200,6,3,3,40,0,0
94204,235.294117647059,6,3,3,40,1,8
94204,-200,6,3,3,40,0,0
94909,238.095238095238,6,3,3,40,1,8
94909,-400,6,3,3,40,0,0
95625,235.294117647059,6,3,3,40,1,8
95625,-200,6,3,3,40,0,0
96801,240,6,3,3,40,1,8
97041,231.660231660232,6,3,3,40,1,8
97041,-133.333333333333,6,3,3,40,0,0
97735,240,6,3,3,40,1,8
97735,-400,6,3,3,40,0,0
97855,-400,6,3,3,20,0,0
97975,-200,6,3,3,40,0,0
98215,222.222222222222,6,3,3,40,1,8
98437,244.897959183673,4,3,1,40,1,9
98926,237.154150197628,4,3,1,40,1,9
99401,225.563909774436,4,3,1,40,1,9
100303,229.007633587786,4,3,1,40,1,9
101219,229.007633587786,5,3,1,40,1,9
101219,-66.6666666666667,5,3,1,40,0,1
102135,255.31914893617,5,3,2,30,1,9
102305,-100,5,3,1,5,0,1
102390,230.769230769231,4,3,1,40,1,9
104236,225.563909774436,4,3,1,40,1,9
105138,225.563909774436,5,3,1,40,1,9
106040,250,5,3,1,40,1,9
106290,250,7,3,1,40,1,8
106477,-100,7,3,1,5,0,0
106540,240.963855421687,7,3,1,40,1,8
106961,-100,7,3,1,5,0,0
107021,-100,7,3,1,40,0,0
107261,226.415094339623,7,3,1,40,1,8
107430,-100,7,3,1,5,0,0
107487,-66.6666666666667,7,3,1,40,0,0
107713,235.294117647059,7,3,1,40,1,8
107713,-66.6666666666667,7,3,1,40,0,0
107949,237.154150197628,7,3,1,40,1,8
108126,-100,7,3,1,5,0,0
108186,-100,7,3,1,40,0,0
108601,-100,7,3,1,5,0,0
108660,-100,7,3,1,40,0,0
108897,240,7,3,1,40,1,8
109077,-100,7,3,1,5,0,0
109137,-66.6666666666667,7,3,1,40,0,0
109617,230.769230769231,7,3,1,40,1,8
109788,-100,7,3,1,5,0,0
109847,233.463035019455,7,3,1,40,1,8
109847,-66.6666666666667,7,3,1,40,0,0
110080,-100,7,3,1,40,0,0
110255,-100,7,3,1,5,0,0
110313,-66.6666666666667,7,3,1,40,0,0
110547,-100,7,3,1,40,0,0
110722,-100,7,3,1,5,0,0
110780,-66.6666666666667,7,3,1,40,0,0
111014,240,7,3,1,40,1,8
111014,-66.6666666666667,7,3,1,40,0,0
111254,240,7,3,1,40,1,8
111434,-100,7,3,1,5,0,0
111494,-66.6666666666667,7,3,1,40,0,0
111734,-100,7,3,1,40,0,0
111914,-100,7,3,1,5,0,0
111974,-66.6666666666667,7,3,1,40,0,0
112214,233.463035019455,7,3,1,40,1,8
112389,-100,7,3,1,5,0,0
112447,-66.6666666666667,7,3,1,40,0,0
112680,242.424242424242,7,3,1,40,1,8
112680,-66.6666666666667,7,3,1,40,0,0
112922,-100,7,3,1,40,0,0
113164,229.007633587786,7,3,1,40,1,8
113164,-55.5555555555556,7,3,1,40,0,0
113393,-100,7,3,1,40,0,0
113622,-55.5555555555556,7,3,1,40,0,0
113851,-100,7,3,1,40,0,0
114080,-55.5555555555556,7,3,1,40,0,0
114309,238.095238095238,7,3,1,40,1,8
114309,-55.5555555555556,7,3,1,40,0,0
114548,232.558139534884,7,3,1,40,1,8
114722,-100,7,3,1,5,0,0
114779,-55.5555555555556,7,3,1,40,0,0
115013,-100,7,3,1,40,0,0
115187,-100,7,3,1,5,0,0
115244,-55.5555555555556,7,3,1,40,0,0
115478,-100,7,3,1,40,0,0
115710,229.007633587786,7,3,1,40,1,8
115710,-55.5555555555556,7,3,1,40,0,0
115939,-71.4285714285714,7,3,1,40,0,0
116168,237.154150197628,4,3,1,40,1,8
116345,-100,4,3,1,5,0,0
116405,-100,4,3,1,40,0,0
116820,-100,4,3,1,5,0,0
116880,-100,4,3,1,40,0,0
117116,241.935483870968,4,3,1,40,1,8
117297,-100,4,3,1,5,0,0
117357,-100,4,3,1,40,0,0
117599,235.294117647059,4,3,1,40,1,8
117775,-100,4,3,1,5,0,0
117834,-100,4,3,1,40,0,0
118069,228.136882129278,4,3,1,40,1,8
118240,-100,4,3,1,5,0,0
118297,-100,4,3,1,40,0,0
118468,-100,4,3,1,5,0,0
118525,-100,4,3,1,40,0,0
118696,-100,4,3,1,5,0,0
118753,-100,4,3,1,40,0,0
118924,-100,4,3,1,5,0,0
118981,-100,4,3,1,40,0,0
119152,-100,4,3,1,5,0,0
119209,-100,4,3,1,40,0,0
119437,255.31914893617,4,3,1,40,1,8
119692,228.136882129278,4,3,1,40,1,8
119920,447.761194029851,4,3,1,40,1,9
119920,-28.5714285714286,4,3,1,40,0,1
120367,-28.5714285714286,4,3,1,5,0,1
120591,-28.5714285714286,4,3,1,40,0,1
121039,-28.5714285714286,4,3,1,5,0,1
121263,-28.5714285714286,4,3,1,40,0,1
121431,-28.5714285714286,4,3,1,5,0,1
121487,-57.1428571428571,4,3,5,40,0,1
121599,-57.1428571428571,4,3,5,5,0,1
121711,458.015267175573,4,3,5,40,1,9
121711,-57.1428571428571,4,3,5,40,0,1
121825,-57.1428571428571,4,3,5,5,0,1
121940,-57.1428571428571,4,3,5,40,0,1
122169,-57.1428571428571,4,3,5,5,0,1
122284,-57.1428571428571,4,3,5,40,0,1
122512,-57.1428571428571,4,3,5,5,0,1
122627,-57.1428571428571,4,3,5,40,0,1
122741,-57.1428571428571,4,3,5,5,0,1
122856,-57.1428571428571,4,3,5,40,0,1
122970,-57.1428571428571,4,3,5,5,0,1
123085,-114.285714285714,4,3,5,40,0,1
123542,444.444444444444,5,3,1,40,1,9
123542,-28.5714285714286,5,3,1,40,0,1
123986,-28.5714285714286,5,3,1,5,0,1
124208,-28.5714285714286,5,3,1,40,0,1
124652,-28.5714285714286,5,3,1,5,0,1
124875,428.571428571429,5,3,1,40,1,9
124875,-28.5714285714286,5,3,1,40,0,1
125196,-28.5714285714286,5,3,1,5,0,1
125303,461.538461538462,5,3,1,30,1,9
125360,-100,5,3,1,40,0,1
125533,-100,5,3,2,40,0,1
125764,441.176470588235,4,3,1,40,1,9
125764,-28.5714285714286,4,3,1,40,0,1
126205,-28.5714285714286,4,3,1,5,0,1
126425,413.793103448276,4,3,1,40,1,9
126425,-28.5714285714286,4,3,1,40,0,1
126838,-28.5714285714286,4,3,1,5,0,1
127045,508.474576271186,4,3,1,40,1,9
127045,-28.5714285714286,4,3,1,40,0,1
127426,-28.5714285714286,4,3,1,5,0,1
127555,428.571428571429,4,3,1,40,1,9
128412,461.538461538462,4,3,2,40,1,9
128873,444.444444444444,4,3,2,40,1,9
129095,-100,4,3,2,25,0,1
129206,560.747663551402,4,3,1,40,1,9
129346,441.176470588235,5,3,1,40,1,9
129346,-32.6797385620915,5,3,1,40,0,1
129787,-32.6797385620915,5,3,1,5,0,1
130007,413.793103448276,5,3,1,40,1,9
130007,-32.6797385620915,5,3,1,40,0,1
130420,497.92531120332,5,3,1,5,1,9
130669,413.793103448276,5,3,1,40,1,9
130669,-28.5714285714286,5,3,1,40,0,1
130979,-28.5714285714286,5,3,1,5,0,1
131082,454.545454545455,5,3,1,40,1,9
131536,447.761194029851,4,3,1,40,1,9
131536,-28.5714285714286,4,3,1,40,0,1
131983,-28.5714285714286,4,3,1,5,0,1
132207,-28.5714285714286,4,3,1,40,0,1
132654,-28.5714285714286,4,3,1,5,0,1
132879,437.956204379562,4,3,1,40,1,9
132988,-50,4,3,1,40,0,1
133207,-50,4,3,1,5,0,1
133316,521.739130434783,4,3,5,30,1,9
133489,-100,4,3,5,40,0,1
133837,-133.333333333333,4,3,5,40,0,1
133968,-133.333333333333,4,3,5,5,0,1
134098,600,4,3,5,40,1,9
134398,392.156862745098,4,3,5,40,1,9
134398,-66.6666666666667,4,3,5,40,0,1
135084,-66.6666666666667,4,3,5,5,0,1
135182,441.176470588235,5,3,1,40,1,9
135182,-27.7777777777778,5,3,1,40,0,1
135623,-27.7777777777778,5,3,1,5,0,1
135843,-27.7777777777778,5,3,1,40,0,1
136284,-27.7777777777778,5,3,1,5,0,1
136505,431.654676258993,5,3,1,40,1,9
136505,-28.5714285714286,5,3,1,40,0,1
136828,-28.5714285714286,5,3,1,5,0,1
136936,500,5,3,1,30,1,9
136977,-100,5,3,1,40,0,1
137186,444.444444444444,5,3,1,40,1,9
137408,461.538461538462,4,3,1,40,1,9
137408,-28.5714285714286,4,3,1,40,0,1
137869,-28.5714285714286,4,3,1,5,0,1
138100,428.571428571429,4,3,1,40,1,9
138100,-28.5714285714286,4,3,1,40,0,1
138367,-28.5714285714286,4,3,1,5,0,1
138421,-38.1679389312977,4,3,5,40,0,1
138582,-38.1679389312977,4,3,2,5,0,1
138742,466.926070038911,4,3,1,40,1,9
138742,-28.5714285714286,4,3,1,40,0,1
139092,-28.5714285714286,4,3,1,5,0,1
139208,461.538461538462,4,3,1,40,1,9
139208,-66.6666666666667,4,3,1,40,0,1
139438,428.571428571429,4,3,1,40,1,9
139866,-100,4,3,2,40,0,1
139973,-100,4,3,1,40,0,1
140295,-100,4,3,2,40,0,1
140509,444.444444444444,4,3,1,40,1,9
140620,-100,4,3,3,40,0,1
140842,-100,4,3,1,40,0,1
140953,437.956204379562,5,3,1,40,1,9
140953,-25,5,3,1,40,0,1
141390,-25,5,3,1,5,0,1
141609,447.761194029851,5,3,1,40,1,9
141609,-25,5,3,1,40,0,1
142056,-25,5,3,1,5,0,1
142280,434.782608695652,5,3,1,40,1,9
142280,-28.5714285714286,5,3,1,40,0,1
142606,-28.5714285714286,5,3,1,5,0,1
142714,-100,5,3,1,40,0,0
142751,-100,5,3,1,30,0,0
142932,451.127819548872,5,3,1,40,1,8
143157,427.046263345196,5,3,2,40,1,9
143157,-40,5,3,2,40,0,1
143744,-40,5,3,2,5,0,1
143797,-40,5,3,2,40,0,1
143904,-40,5,3,2,5,0,1
144011,-40,5,3,2,40,0,1
144865,434.782608695652,5,3,2,40,1,9
144865,-40,5,3,2,40,0,1
145028,-40,5,3,2,5,0,1
145082,-40,5,3,2,40,0,1
145191,-40,5,3,2,5,0,1
145299,-40,5,3,2,40,0,1
145408,-40,5,3,2,5,0,1
145517,-40,5,3,2,40,0,1
145734,397.350993377483,5,3,2,40,1,9
145833,-40,5,3,2,5,0,1
145932,-40,5,3,2,40,0,1
146132,422.535211267606,5,3,2,40,1,9
146237,-100,5,3,2,5,0,1
146343,-40,5,3,2,40,0,1
146501,-40,5,3,2,5,0,1
146554,-40,5,3,2,40,0,1
146871,-40,5,3,2,5,0,1
146977,-40,5,3,2,40,0,1
147135,-40,5,3,2,5,0,1
147188,-40,5,3,2,40,0,1
147399,428.571428571429,5,3,2,40,1,9
147399,-40,5,3,2,40,0,1
147827,-40,5,3,2,40,0,1
147934,-40,5,3,2,5,0,1
148041,-40,5,3,2,40,0,1
148256,-25.6410256410256,5,3,2,40,0,1
148470,419.58041958042,5,3,2,40,1,9
148470,-25.6410256410256,5,3,2,40,0,1
148784,-25.6410256410256,5,3,2,5,0,1
148889,-25.6410256410256,5,3,2,40,0,1
149099,414.9377593361,5,3,1,40,1,8
149099,-149.097957357984,5,3,1,40,0,0
156982,610.376398779247,3,3,1,40,1,0
158813,600,3,3,1,40,1,0
160613,598.503740648379,3,3,1,40,1,0
164203,600,3,3,1,5,1,8
166003,576.923076923077,3,2,1,20,1,8
167733,591.133004926108,3,2,1,20,1,8
171279,606.060606060606,3,2,1,20,1,8
173097,571.428571428571,3,2,1,20,1,8
174239,631.578947368421,3,2,1,20,1,8
174870,600,3,2,1,20,1,8
178470,582.52427184466,3,2,1,20,1,8
180217,606.060606060606,3,2,1,20,1,8
182035,588.235294117647,3,2,1,20,1,8
184976,631.578947368421,3,2,1,20,1,8
185607,588.235294117647,3,2,1,20,1,8
186195,571.428571428571,3,2,5,10,1,8
186766,-100,3,2,5,12,0,0
187337,600,3,2,5,14,1,8
187937,-100,3,2,5,16,0,0
188537,-100,3,2,5,18,0,0
188837,666.666666666667,3,2,5,18,1,8
189170,606.060606060606,3,2,5,20,1,8
189170,-200,3,2,5,20,0,0
189473,-200,3,2,5,5,0,0
189776,-200,3,2,5,20,0,0
191291,-200,3,2,5,5,0,0
191594,-200,3,2,5,20,0,0
192806,618.556701030928,3,2,5,20,1,8
192806,-200,3,2,5,20,0,0
193115,-200,3,2,5,5,0,0
193424,-200,3,2,5,20,0,0
194661,600,3,2,5,20,1,8
194661,-200,3,2,5,20,0,0
194961,-200,3,2,5,5,0,0
195261,-200,3,2,5,20,0,0
195861,666.666666666667,3,2,5,20,1,8
196527,600,3,2,5,20,1,8
196527,-200,3,2,5,20,0,0
198327,588.235294117647,3,2,5,20,1,8
198327,-200,3,2,5,20,0,0
199503,645.161290322581,3,2,5,20,1,8
199503,-200,3,2,5,20,0,0
200148,594.059405940594,3,2,5,20,1,8
200148,-200,3,2,5,20,0,0
201336,618.556701030928,3,2,5,20,1,8
201336,-200,3,2,5,20,0,0
201954,645.161290322581,3,2,5,20,1,8
201954,-200,3,2,5,20,0,0
202276,-200,3,2,5,5,0,0
202599,612.244897959184,3,2,5,10,1,8
202599,-200,3,2,5,10,0,0
203211,-200,3,2,5,15,0,0
203823,571.428571428571,3,2,5,20,1,8
203823,-200,3,2,5,20,0,0
204108,-200,3,2,5,5,0,0
204394,-200,3,2,5,20,0,0
204965,631.578947368421,3,2,5,20,1,8
204965,-200,3,2,5,20,0,0
205596,594.059405940594,3,2,5,20,1,8
205596,-200,3,2,5,20,0,0
205893,-200,3,2,5,5,0,0
206190,-200,3,2,5,20,0,0
206784,612.244897959184,3,2,5,20,1,8
206784,-200,3,2,5,20,0,0
207396,588.235294117647,3,2,5,20,1,8
207396,-200,3,2,5,20,0,0
207690,-200,3,2,5,5,0,0
207984,-200,3,2,5,20,0,0
208572,631.578947368421,3,2,5,20,1,8
208572,-200,3,2,5,20,0,0
209203,618.556701030928,3,2,5,20,1,8
209203,-200,3,2,5,20,0,0
209512,-200,3,2,5,5,0,0
209821,-200,3,2,5,20,0,0
210440,594.059405940594,3,2,5,20,1,8
210440,-200,3,2,5,20,0,0
211034,631.578947368421,3,2,5,20,1,8
211034,-200,3,2,5,20,0,0
211665,600,3,2,5,20,1,8
211665,-200,3,2,5,20,0,0
212265,-200,3,2,5,15,0,0
212865,612.244897959184,3,2,5,20,1,8
212865,-200,3,2,5,20,0,0
214089,594.059405940594,3,2,5,20,1,8
214089,-200,3,2,5,15,0,0
214683,-200,3,2,5,20,0,0
215277,645.161290322581,3,2,5,20,1,8
215277,-200,3,2,5,20,0,0
215922,576.923076923077,3,2,5,15,1,8
215922,-200,3,2,5,15,0,0
216499,618.556701030928,3,2,5,20,1,8
216499,-200,3,2,5,20,0,0
217736,594.059405940594,3,2,5,15,1,8
217736,-200,3,2,5,15,0,0
218330,-200,3,2,5,20,0,0
218923,606.060606060606,3,2,5,10,1,8
218923,-200,3,2,5,10,0,0
219529,-200,3,2,5,12,0,0
220135,608.210846426761,3,2,5,14,1,8
220135,-200,3,2,5,14,0,0
220743,-200,3,2,5,16,0,0
221351,-200,3,2,5,18,0,0
221959,-200,3,2,5,20,0,0
223176,-200,3,2,5,10,0,0
223784,659.340659340659,3,2,5,20,1,8
223784,-211.416490486258,3,2,5,20,0,0
224443,609.137055837563,3,2,5,20,1,8
224443,-200,3,2,5,20,0,0
225052,-200,3,2,5,10,0,0
225661,652.173913043478,3,2,5,20,1,8
225661,-200,3,2,5,20,0,0
226313,588.235294117647,3,2,5,20,1,8
226313,-200,3,2,5,20,0,0
226901,-200,3,2,5,15,0,0
227489,645.161290322581,3,2,5,20,1,8
227489,-200,3,2,5,20,0,0
228134,645.161290322581,3,2,5,20,1,8
228134,-200,3,2,5,20,0,0
228779,-200,3,2,5,15,0,0
229424,645.161290322581,3,2,5,20,1,8
229424,-192.307692307692,3,2,5,20,0,0
230069,600,3,2,5,20,1,8
230069,-200,3,2,5,20,0,0
230669,-200,3,2,5,15,0,0
231269,615.384615384615,3,2,5,20,1,8
231269,-200,3,2,5,20,0,0
234345,-200,3,2,5,15,0,0
234961,628.272251308901,3,2,5,20,1,8
234961,-200,3,2,5,20,0,0
235589,-200,3,2,5,10,0,0
236217,-200,3,2,5,15,0,0
236845,-200,3,2,5,20,0,0
238730,612.244897959184,3,2,5,20,1,8
238730,-200,3,2,5,20,0,0
239954,582.52427184466,3,2,5,20,1,8
239954,-200,3,2,5,20,0,0
240536,606.060606060606,3,2,5,20,1,8
240536,-200,3,2,5,20,0,0
240839,-200,3,2,5,5,0,0
241142,-200,3,2,5,20,0,0
241748,638.297872340426,3,2,5,20,1,8
241748,-200,3,2,5,20,0,0
242386,615.384615384615,3,2,5,20,1,8
242386,-200,3,2,5,20,0,0
242693,-200,3,2,5,5,0,0
243001,-200,3,2,5,20,0,0
244232,638.297872340426,3,2,5,20,1,8
244232,-200,3,2,5,20,0,0
244870,588.235294117647,3,2,5,20,1,8
244870,-200,3,2,5,20,0,0
245458,-200,3,2,5,15,0,0
246046,588.235294117647,3,2,5,20,1,8
246046,-210.084033613445,3,2,5,20,0,0
246634,603.015075376884,3,2,5,20,1,8
246634,-200,3,2,5,20,0,0
247237,-200,3,2,5,15,0,0
247840,603.015075376884,3,2,5,20,1,8
247840,-200,3,2,5,20,0,0
248443,618.556701030928,3,2,5,20,1,8
248443,-200,3,2,5,20,0,0
249061,576.923076923077,3,2,5,15,1,8
249061,-200,3,2,5,20,0,0
249637,612.244897959184,3,2,5,20,1,8
249637,-200,3,2,5,20,0,0
250861,-200,3,2,5,15,0,0
251473,606.060606060606,3,2,5,20,1,8
251473,-200,3,2,5,20,0,0
252079,-200,3,2,5,10,0,0
252685,-200,3,2,5,12,0,0
253291,-200,3,2,5,14,0,0
253897,-200,3,2,5,16,0,0
254503,-200,3,2,5,18,0,0
255109,631.578947368421,3,2,5,20,1,8
255109,-136.798905608755,3,2,5,20,0,0
257003,600,3,2,5,20,1,8
257003,-200,3,2,5,20,0,0
258203,612.244897959184,3,2,5,20,1,8
258203,-200,3,2,5,20,0,0
258509,-200,3,2,5,5,0,0
258815,618.556701030928,3,2,5,20,1,8
258815,-132.450331125828,3,2,5,20,0,0
260052,638.297872340426,3,2,5,20,1,8
260052,-200,3,2,5,20,0,0
260690,606.060606060606,3,2,5,20,1,8
260690,-200,3,2,5,20,0,0
261902,588.235294117647,3,2,5,5,1,8
261902,-200,3,2,5,5,0,0
262490,625,3,2,5,20,1,8
262490,-136.054421768707,3,2,5,20,0,0
263115,578.313253012048,3,2,5,20,1,8
263115,-200,3,2,5,20,0,0
263693,-200,3,2,5,15,0,0
264271,578.313253012048,3,2,5,20,1,8
264271,-133.333333333333,3,2,5,20,0,0
265427,645.161290322581,3,2,5,20,1,8
265427,-200,3,2,5,20,0,0
266072,588.235294117647,3,2,5,20,1,8
266072,-136.054421768707,3,2,5,20,0,0
266660,600,3,2,5,20,1,8
266660,-200,3,2,5,20,0,0
267222,-200,3,2,5,5,0,0
267260,-200,3,2,5,15,0,0
267860,600,3,2,5,20,1,8
267860,-152.671755725191,3,2,5,20,0,0
268460,-152.671755725191,3,2,5,10,0,0
269060,636.26723223754,3,2,5,15,1,8
269060,-200,3,2,5,15,0,0
269696,600,3,2,5,20,1,8
269696,-132.802124833997,3,2,5,20,0,0
272096,588.235294117647,3,2,5,20,1,8
272096,-200,3,2,5,20,0,0
272684,-200,3,2,5,5,0,0
273272,594.059405940594,3,2,5,20,1,8
273272,-132.362673726009,3,2,5,20,0,0
275054,588.235294117647,3,2,5,20,1,8
275054,-200,3,2,5,20,0,0
276230,-200,3,2,5,5,0,0
276818,-200,3,2,5,20,0,0
277995,560.747663551402,3,2,5,15,1,8
277995,-200,3,2,5,15,0,0
278555,600,3,2,5,20,1,8
278555,-200,3,2,5,20,0,0
279755,571.428571428571,3,2,5,15,1,8
279755,-200,3,2,5,15,0,0
280326,606.060606060606,3,2,5,20,1,8
280326,-200,3,2,5,20,0,0
281538,545.454545454546,3,2,5,15,1,8
281538,-200,3,2,5,15,0,0
282083,594.059405940594,3,2,5,20,1,8
282083,-200,3,2,5,20,0,0
283271,566.037735849057,3,2,5,5,1,8
283271,-200,3,2,5,5,0,0
283837,585.365853658537,3,2,5,20,1,8
283837,-200,3,2,5,20,0,0
284422,-200,3,2,5,10,0,0
285007,-200,3,2,5,12,0,0
285593,-200,3,2,5,14,0,0
286178,-200,3,2,5,16,0,0
286763,-200,3,2,5,18,0,0
287349,387.096774193548,4,3,4,20,1,8
287349,-66.6666666666667,4,3,4,40,0,0
287639,-66.6666666666667,4,3,4,5,0,0
287736,-100,4,3,4,40,0,0
288123,-66.6666666666667,4,3,4,40,0,0
288413,-66.6666666666667,4,3,4,5,0,0
288510,-66.6666666666667,4,3,4,40,0,0
288897,405.405405405405,4,3,4,40,1,8
288897,-66.6666666666667,4,3,4,40,0,0
289206,-66.6666666666667,4,3,4,5,0,0
289302,382.165605095541,4,3,4,40,1,8
289302,-100,4,3,4,40,0,0
289684,-100,4,3,4,40,0,0
289970,-100,4,3,4,5,0,0
290066,-100,4,3,4,40,0,0
290352,-100,4,3,4,5,0,0
290448,384.615384615385,4,3,4,40,1,8
290448,-66.6666666666667,4,3,4,40,0,0
290736,-66.6666666666667,4,3,4,5,0,0
290832,-100,4,3,4,40,0,0
291217,384.615384615385,4,3,4,40,1,8
291217,-66.6666666666667,4,3,4,40,0,0
291505,-66.6666666666667,4,3,4,5,0,0
291601,-66.6666666666667,4,3,4,40,0,0
292274,-66.6666666666667,4,3,4,5,0,0
292371,-100,4,3,4,40,0,0
292755,387.096774193548,4,3,4,40,1,8
293045,-100,4,3,4,5,0,0
293142,-100,4,3,4,40,0,0
293432,-100,4,3,4,5,0,0
293529,387.096774193548,4,3,4,40,1,8
293529,-66.6666666666667,4,3,4,40,0,0
293819,-66.6666666666667,4,3,4,5,0,0
293916,-100,4,3,4,40,0,0
294303,-66.6666666666667,4,3,4,40,0,0
294593,-66.6666666666667,4,3,4,5,0,0
294690,-66.6666666666667,4,3,4,40,0,0
295078,382.165605095541,4,3,4,40,1,8
295078,-66.6666666666667,4,3,4,40,0,0
295842,394.736842105263,4,3,4,40,1,8
296138,-100,4,3,4,5,0,0
296236,370.37037037037,4,3,4,40,1,8
296513,-100,4,3,4,5,0,0
296606,387.096774193548,4,3,4,40,1,8
296606,-66.6666666666667,4,3,4,40,0,0
296896,-66.6666666666667,4,3,4,5,0,0
296993,-100,4,3,4,40,0,0
297380,-66.6666666666667,4,3,4,40,0,0
297670,-66.6666666666667,4,3,4,5,0,0
297767,-66.6666666666667,4,3,4,40,0,0
298928,400,4,3,4,40,1,8
299228,-100,4,3,4,5,0,0
299328,365.853658536585,4,3,4,40,1,8
299602,-100,4,3,4,5,0,0
299692,400,4,3,4,40,1,8
299692,-66.6666666666667,4,3,4,40,0,0
299992,-66.6666666666667,4,3,4,5,0,0
300092,383.386581469649,4,3,4,40,1,8
300475,-66.6666666666667,4,3,4,40,0,0
300762,-66.6666666666667,4,3,4,5,0,0
300858,-66.6666666666667,4,3,4,40,0,0
301243,388.349514563107,4,3,4,40,1,8
301243,-66.6666666666667,4,3,4,40,0,0
301534,-66.6666666666667,4,3,4,5,0,0
301631,-100,4,3,4,40,0,0
302310,-100,4,3,4,5,0,0
302408,-100,4,3,4,40,0,0
302699,-100,4,3,4,5,0,0
302796,392.156862745098,4,3,4,40,1,8
302796,-66.6666666666667,4,3,4,40,0,0
303090,-66.6666666666667,4,3,4,5,0,0
303188,-100,4,3,4,40,0,0
303580,379.746835443038,4,3,4,40,1,8
303864,-66.6666666666667,4,3,4,5,0,0
303959,-100,4,3,4,40,0,0
304339,384.615384615385,4,3,4,40,1,8
304339,-66.6666666666667,4,3,4,40,0,0
304627,-66.6666666666667,4,3,4,5,0,0
304723,-100,4,3,4,40,0,0
305396,-100,4,3,4,5,0,0
305492,-100,4,3,4,40,0,0
305781,-100,4,3,4,5,0,0
305877,397.350993377483,4,3,4,40,1,8
305877,-66.6666666666667,4,3,4,40,0,0
306181,-66.6666666666667,4,3,4,5,0,0
306275,375,4,3,4,40,1,8
306275,-100,4,3,4,40,0,0
306651,385.852090032154,4,3,4,40,1,8
306651,-66.6666666666667,4,3,4,40,0,0
306940,-66.6666666666667,4,3,4,5,0,0
307036,-66.6666666666667,4,3,4,40,0,0
307422,385.852090032154,4,3,4,40,1,8
307422,-66.6666666666667,4,3,4,40,0,0
308194,382.165605095541,4,3,4,40,1,8
308480,-100,4,3,4,5,0,0
308576,-100,4,3,4,40,0,0
308862,-100,4,3,4,5,0,0
308960,390.879478827362,4,3,4,40,1,8
310132,382.165605095541,4,3,4,40,1,8
310514,392.156862745098,4,3,4,40,1,8
311200,-100,4,3,4,5,0,0
311298,-100,4,3,4,40,0,0
311592,-100,4,3,4,5,0,0
311690,365.853658536585,4,3,4,40,1,8
312055,392.156862745098,4,3,4,40,1,8
312349,-100,4,3,4,5,0,0
312447,-100,4,3,4,40,0,0
312741,-100,4,3,4,5,0,0
312839,387.096774193548,4,3,4,40,1,8
312839,-66.6666666666667,4,3,4,40,0,0
313226,-100,4,3,4,40,0,0
313613,386.349001931745,4,3,4,40,1,8
313613,-66.6666666666667,4,3,4,40,0,0
315158,-66.6666666666667,4,3,4,40,0,0
316317,394.736842105263,4,3,4,40,1,8
316711,390.879478827362,4,3,4,40,1,8
316711,-66.6666666666667,4,3,4,40,0,0
317297,-100,4,3,4,40,0,0
317395,-100,4,3,4,5,0,0
317492,-100,4,3,4,40,0,0
317787,-100,4,3,4,5,0,0
317883,382.165605095541,4,3,4,40,1,8
318265,389.61038961039,4,3,4,40,1,8
318265,-66.6666666666667,4,3,4,40,0,0
319435,379.746835443038,4,3,4,40,1,8
319814,389.61038961039,4,3,4,40,1,8
319814,-66.6666666666667,4,3,4,40,0,0
320593,387.096774193548,4,3,4,40,1,8
320883,-100,4,3,4,5,0,0
320980,-100,4,3,4,40,0,0
321270,-100,4,3,4,5,0,0
321366,387.096774193548,4,3,4,40,1,8
321366,-66.6666666666667,4,3,4,40,0,0
322527,-100,4,3,4,40,0,0
322914,390.879478827362,4,3,4,40,1,8
322914,-66.6666666666667,4,3,4,40,0,0
323695,-100,4,3,4,40,0,0
324086,384.615384615385,4,3,4,40,1,8
324370,-100,4,3,4,5,0,0
324470,400,4,3,4,40,1,8
324470,-66.6666666666667,4,3,4,40,0,0
324870,387.096774193548,4,3,4,40,1,8
325257,-66.6666666666667,4,3,4,40,0,0
326028,392.156862745098,4,3,4,40,1,8
326028,-66.6666666666667,4,3,4,40,0,0
326616,384.615384615385,4,3,4,40,1,8
326712,-100,4,3,4,5,0,0
326808,-100,4,3,4,40,0,0
327096,-100,4,3,4,5,0,0
327192,-66.6666666666667,4,3,4,40,0,0
327577,384.615384615385,4,3,4,40,1,8
327577,-66.6666666666667,4,3,4,40,0,0
328346,389.61038961039,4,3,4,40,1,8
328735,375,4,3,4,40,1,8
328735,-66.6666666666667,4,3,4,40,0,0
329110,383.386581469649,4,3,4,40,1,8
329110,-66.6666666666667,4,3,4,40,0,0
329685,-100,4,3,4,40,0,0
329780,-100,4,3,4,5,0,0
329876,405.405405405405,4,3,4,40,1,8
330180,-100,4,3,4,5,0,0
330281,392.156862745098,4,3,4,40,1,8
330674,387.096774193548,4,3,4,40,1,8
330674,-66.6666666666667,4,3,4,40,0,0
331544,-100,4,3,4,40,0,0
331835,392.156862745098,4,3,4,40,1,8
331835,-66.6666666666667,4,3,4,40,0,0
333011,389.61038961039,4,3,4,40,1,8
333790,-66.6666666666667,4,3,4,40,0,0
334179,384.615384615385,4,3,4,40,1,8
334467,-100,4,3,4,5,0,0
334563,-100,4,3,4,40,0,0
334852,-100,4,3,4,5,0,0
334948,-100,4,3,4,40,0,0
335140,400,4,3,4,40,1,8
335140,-66.6666666666667,4,3,4,40,0,0
335240,-66.6666666666667,4,3,4,5,0,0
335340,397.350993377483,4,3,4,40,1,8
335340,-66.6666666666667,4,3,4,40,0,0
335439,-66.6666666666667,4,3,4,5,0,0
335538,-50,4,3,4,40,0,0
335836,-50,4,3,4,5,0,0
335936,-50,4,3,4,40,0,0
336234,-50,4,3,4,5,0,0
336334,-50,4,3,4,40,0,0
336631,-50,4,3,4,5,0,0
336731,-50,4,3,4,40,0,0
336929,394.736842105263,4,3,6,40,1,9
336929,-40,4,3,6,40,0,1
337225,-40,4,3,6,5,0,1
337323,-66.6666666666667,4,3,6,40,0,1
337422,-66.6666666666667,4,3,6,5,0,1
337521,-66.6666666666667,4,3,6,40,0,1
337718,-40,4,3,6,40,0,1
338017,-40,4,3,6,5,0,1
338113,382.165605095541,4,3,6,40,1,9
338113,-66.6666666666667,4,3,6,40,0,1
338208,-66.6666666666667,4,3,6,5,0,1
338304,-66.6666666666667,4,3,6,40,0,1
338495,398.671096345515,4,3,6,40,1,9
338495,-40,4,3,6,40,0,1
338794,-40,4,3,6,5,0,1
338893,-66.6666666666667,4,3,6,40,0,1
338993,-66.6666666666667,4,3,6,5,0,1
339093,-66.6666666666667,4,3,6,40,0,1
339292,-40,4,3,6,40,0,1
339591,-40,4,3,6,5,0,1
339692,382.165605095541,4,3,6,40,1,9
339692,-66.6666666666667,4,3,6,40,0,1
339787,-66.6666666666667,4,3,6,5,0,1
339883,-66.6666666666667,4,3,6,40,0,1
340074,392.156862745098,4,3,6,40,1,9
340074,-40,4,3,6,40,0,1
340368,-40,4,3,6,5,0,1
340466,-66.6666666666667,4,3,6,40,0,1
340564,-66.6666666666667,4,3,6,5,0,1
340662,-66.6666666666667,4,3,6,40,0,1
340858,-40,4,3,6,40,0,1
341152,-40,4,3,6,5,0,1
341250,-66.6666666666667,4,3,6,40,0,1
341348,-66.6666666666667,4,3,6,5,0,1
341446,-66.6666666666667,4,3,6,40,0,1
341642,379.746835443038,4,3,1,40,1,9
341642,-40,4,3,1,40,0,1
342781,352.941176470588,4,3,1,40,1,9
342957,422.535211267606,4,3,2,40,1,9
342957,-66.6666666666667,4,3,2,40,0,1
343115,-66.6666666666667,4,3,2,5,0,1
343168,389.61038961039,4,3,6,40,1,9
343168,-40,4,3,6,40,0,1
343460,-40,4,3,6,5,0,1
343557,-66.6666666666667,4,3,6,40,0,1
343655,-66.6666666666667,4,3,6,5,0,1
343752,-66.6666666666667,4,3,6,40,0,1
343947,-40,4,3,6,40,0,1
344239,-40,4,3,6,5,0,1
344336,-66.6666666666667,4,3,6,40,0,1
344726,-40,4,3,6,40,0,1
345018,-40,4,3,6,5,0,1
345115,-66.6666666666667,4,3,6,40,0,1
345213,-66.6666666666667,4,3,6,5,0,1
345310,-66.6666666666667,4,3,6,40,0,1
345603,-66.6666666666667,4,3,6,5,0,1
345700,-66.6666666666667,4,3,6,40,0,1
346284,397.350993377483,4,3,6,40,1,9
346284,-40,4,3,6,40,0,1
346582,-40,4,3,6,5,0,1
346681,-66.6666666666667,4,3,6,40,0,1
347078,389.61038961039,4,3,6,40,1,9
347078,-40,4,3,6,40,0,1
347370,-40,4,3,6,5,0,1
347467,-66.6666666666667,4,3,6,40,0,1
347857,389.61038961039,4,3,6,40,1,9
347857,-40,4,3,6,40,0,1
348149,-40,4,3,6,5,0,1
348246,-66.6666666666667,4,3,6,40,0,1
348538,-66.6666666666667,4,3,1,40,0,1
348636,375,4,3,1,40,1,9
349011,-50,4,3,1,40,0,1
349198,400,4,3,1,40,1,9
349398,383.386581469649,4,3,1,40,1,9
349398,-40,4,3,1,40,0,1
349685,-40,4,3,1,5,0,1
349781,-66.6666666666667,4,3,6,40,0,1
350164,-40,4,3,6,40,0,1
350452,-40,4,3,6,5,0,1
350548,-66.6666666666667,4,3,6,40,0,1
350644,-66.6666666666667,4,3,6,5,0,1
350739,-66.6666666666667,4,3,6,40,0,1
350931,394.736842105263,4,3,6,40,1,9
350931,-66.6666666666667,4,3,6,40,0,1
351029,-66.6666666666667,4,3,6,5,0,1
351128,-66.6666666666667,4,3,6,40,0,1
351720,384.615384615385,4,3,6,40,1,9
351720,-66.6666666666667,4,3,6,40,0,1
351816,-66.6666666666667,4,3,6,5,0,1
351912,-66.6666666666667,4,3,6,40,0,1
352489,389.61038961039,4,3,6,40,1,9
352489,-40,4,3,6,40,0,1
352781,-40,4,3,6,5,0,1
352878,-66.6666666666667,4,3,6,40,0,1
352976,-66.6666666666667,4,3,6,5,0,1
353073,-66.6666666666667,4,3,6,40,0,1
353268,-40,4,3,6,40,0,1
353560,-40,4,3,6,5,0,1
353657,-66.6666666666667,4,3,6,40,0,1
353755,-66.6666666666667,4,3,6,5,0,1
353852,-66.6666666666667,4,3,6,40,0,1
354047,-40,4,3,6,40,0,1
354341,-40,4,3,6,5,0,1
354437,382.165605095541,4,3,6,40,1,9
354437,-66.6666666666667,4,3,6,40,0,1
354532,-66.6666666666667,4,3,6,5,0,1
354628,-66.6666666666667,4,3,6,40,0,1
355201,380.348652931854,4,3,6,40,1,9
355201,-66.6666666666667,4,3,6,40,0,1
355296,-66.6666666666667,4,3,6,5,0,1
355391,-66.6666666666667,4,3,6,40,0,1
355581,-40,4,3,6,40,0,1
355866,-40,4,3,6,5,0,1
355961,-66.6666666666667,4,3,6,40,0,1
356056,-66.6666666666667,4,3,6,5,0,1
356151,-66.6666666666667,4,3,6,40,0,1
356342,375,4,3,6,40,1,9
356342,-66.6666666666667,4,3,6,40,0,1
356435,-66.6666666666667,4,3,6,5,0,1
356529,-66.6666666666667,4,3,6,40,0,1
356622,-66.6666666666667,4,3,6,5,0,1
356717,-66.6666666666667,4,3,6,40,0,1
356810,-66.6666666666667,4,3,6,5,0,1
356904,-66.6666666666667,4,3,6,40,0,1
357092,375,4,3,6,40,1,9
357092,-40,4,3,6,40,0,1
357373,-40,4,3,6,5,0,1
357467,-66.6666666666667,4,3,6,40,0,1
357560,-66.6666666666667,4,3,6,5,0,1
357654,-66.6666666666667,4,3,6,40,0,1
357842,-40,4,3,6,40,0,1
358126,-40,4,3,6,5,0,1
358217,363.636363636364,4,3,6,40,1,9
358217,-66.6666666666667,4,3,6,40,0,1
358307,-66.6666666666667,4,3,6,5,0,1
358398,-66.6666666666667,4,3,6,40,0,1
358580,382.165605095541,4,3,6,40,1,9
358580,-40,4,3,6,40,0,1
358866,-40,4,3,6,5,0,1
358962,-66.6666666666667,4,3,6,40,0,1
359057,-66.6666666666667,4,3,6,5,0,1
359153,-66.6666666666667,4,3,6,40,0,1
359344,-40,4,3,6,40,0,1
359630,-40,4,3,6,5,0,1
359726,-66.6666666666667,4,3,6,40,0,1
359821,-66.6666666666667,4,3,6,5,0,1
359917,-66.6666666666667,4,3,6,40,0,1
360108,372.670807453416,4,3,6,40,1,9
360108,-40,4,3,6,40,0,1
360853,361.44578313253,4,3,1,40,1,9
360853,-40,4,3,1,40,0,1
361577,389.61038961039,4,3,2,40,1,9
361577,-40,4,3,2,40,0,1
361869,-40,4,3,2,5,0,1
361966,-66.6666666666667,4,3,6,40,0,1
362064,-66.6666666666667,4,3,6,5,0,1
362161,-66.6666666666667,4,3,6,40,0,1
362356,375,4,3,6,40,1,9
362356,-40,4,3,6,40,0,1
362637,-40,4,3,6,5,0,1
362731,-66.6666666666667,4,3,6,40,0,1
362824,-66.6666666666667,4,3,6,5,0,1
362918,-66.6666666666667,4,3,6,40,0,1
363105,382.165605095541,4,3,6,40,1,9
363105,-66.6666666666667,4,3,6,40,0,1
363200,-66.6666666666667,4,3,6,5,0,1
363296,-66.6666666666667,4,3,6,40,0,1
363582,-66.6666666666667,4,3,6,5,0,1
363678,-66.6666666666667,4,3,6,40,0,1
363869,370.37037037037,4,3,6,40,1,9
364239,-66.6666666666667,4,3,6,40,0,1
364331,-66.6666666666667,4,3,6,5,0,1
364424,-66.6666666666667,4,3,6,40,0,1
364609,382.165605095541,4,3,6,40,1,9
364609,-40,4,3,6,40,0,1
364895,-40,4,3,6,5,0,1
364991,-50,4,3,6,40,0,1
365373,-40,4,3,6,40,0,1
365659,-40,4,3,6,5,0,1
365755,-50,4,3,6,40,0,1
366046,-50,4,3,1,40,0,1
366137,363.636363636364,4,3,1,40,1,9
366137,-40,4,3,1,40,0,1
367591,382.165605095541,4,3,2,40,1,9
367591,-40,4,3,2,40,0,1
367877,-40,4,3,2,5,0,1
367973,-66.6666666666667,4,3,6,40,0,1
368068,-66.6666666666667,4,3,6,5,0,1
368164,-66.6666666666667,4,3,6,40,0,1
369119,375,4,3,6,40,1,9
369119,-40,4,3,6,40,0,1
369400,-40,4,3,6,5,0,1
369494,-66.6666666666667,4,3,6,40,0,1
369587,-66.6666666666667,4,3,6,5,0,1
369681,-66.6666666666667,4,3,6,40,0,1
369869,-40,4,3,6,40,0,1
370150,-40,4,3,6,5,0,1
370244,-50,4,3,6,40,0,1
370619,379.746835443038,4,3,6,40,1,9
370619,-66.6666666666667,4,3,6,40,0,1
370713,-66.6666666666667,4,3,6,5,0,1
370808,-66.6666666666667,4,3,6,40,0,1
371473,-66.6666666666667,4,3,6,5,0,1
371568,-66.6666666666667,4,3,6,40,0,1
371663,-66.6666666666667,4,3,6,5,0,1
371758,-40,4,3,6,40,0,1
372137,370.37037037037,4,3,1,40,1,9
372137,-40,4,3,1,40,0,1
372692,359.281437125748,4,3,1,40,1,9
372692,-40,4,3,1,40,0,1
373590,377.358490566038,4,3,1,40,1,9
373590,-40,4,3,1,40,0,1
373873,-40,4,3,1,5,0,1
373967,-50,4,3,6,40,0,1
374344,-40,4,3,6,40,0,1
374629,-40,4,3,6,5,0,1
374722,368.098159509202,4,3,6,40,1,9
374722,-66.6666666666667,4,3,6,40,0,1
374814,-66.6666666666667,4,3,6,5,0,1
374906,-66.6666666666667,4,3,6,40,0,1
375090,377.358490566038,4,3,6,40,1,9
375090,-40,4,3,6,40,0,1
375278,-40,4,3,6,30,0,1
375467,-40,4,3,6,40,0,1
375844,-66.6666666666667,4,3,6,40,0,1
375939,-66.6666666666667,4,3,6,5,0,1
376033,-66.6666666666667,4,3,6,40,0,1
376599,-40,4,3,6,40,0,1
376882,-40,4,3,6,5,0,1
376976,-50,4,3,6,40,0,1
377354,-40,4,3,6,40,0,1
377637,-40,4,3,6,5,0,1
377731,-50,4,3,6,40,0,1
378108,361.44578313253,4,3,1,40,1,9
378108,-40,4,3,1,40,0,1
379553,380.952380952381,4,3,2,40,1,9
379553,-40,4,3,2,40,0,1
379838,-40,4,3,2,5,0,1
379933,-66.6666666666667,4,3,6,40,0,1
380029,-66.6666666666667,4,3,6,5,0,1
380124,-66.6666666666667,4,3,6,40,0,1
380314,392.156862745098,4,3,6,40,1,9
380314,-66.6666666666667,4,3,6,40,0,1
380412,-66.6666666666667,4,3,6,5,0,1
380510,-66.6666666666667,4,3,6,40,0,1
380608,-66.6666666666667,4,3,6,5,0,1
380706,370.37037037037,4,3,6,40,1,9
381076,376.175548589342,4,3,6,40,1,9
381076,-40,4,3,6,40,0,1
381358,-40,4,3,6,5,0,1
381452,-50,4,3,6,40,0,1
381828,-44.4444444444445,4,3,6,40,0,1
382581,375,4,3,6,40,1,9
382581,-40,4,3,6,40,0,1
382862,-40,4,3,6,5,0,1
382956,-50,4,3,6,40,0,1
383331,-66.6666666666667,4,3,6,40,0,1
383424,-66.6666666666667,4,3,6,5,0,1
383518,-66.6666666666667,4,3,6,40,0,1
383611,-66.6666666666667,4,3,6,5,0,1
383706,-33.3333333333333,4,3,6,40,0,1
383987,-33.3333333333333,4,3,6,5,0,1
384081,-33.3333333333333,4,3,6,40,0,1
384362,-33.3333333333333,4,3,6,5,0,1
384456,-33.3333333333333,4,3,6,40,0,1
384737,-33.3333333333333,4,3,6,5,0,1
384831,365.853658536585,4,3,6,40,1,9
384831,-40,4,3,6,40,0,1
384922,-40,4,3,6,5,0,1
385013,-40,4,3,6,40,0,1
385104,-40,4,3,6,5,0,1
385196,-40,4,3,6,40,0,1
385287,-40,4,3,6,5,0,1
385379,-40,4,3,6,40,0,1
385470,-40,4,3,6,5,0,1
385565,366.300366300366,4,3,1,40,1,8
385565,-186.219739292365,4,3,1,40,0,0
399118,-186.219739292365,4,3,1,5,0,0
399484,361.44578313253,4,3,5,40,1,8
399484,-238.095238095238,4,3,5,20,0,0
403098,369.230769230769,4,3,5,20,1,8
404390,-285.714285714286,4,3,5,5,0,0
405128,-383.141762452107,4,3,5,20,0,0
408451,-383.141762452107,4,3,5,10,0,0
408513,-250,4,3,5,15,0,0
408636,357.142857142857,4,3,5,20,1,8
408636,-500,4,3,5,20,0,0
410421,458.015267175573,4,3,5,10,1,8
410421,-250,4,3,5,10,0,0
410879,-250,4,3,5,20,0,0
411031,-250,4,3,5,15,0,0
411184,-250,4,3,5,10,0,0
411791,400,4,3,5,10,1,8
411791,-298.06259314456,4,3,5,10,0,0
412091,-298.06259314456,4,3,5,20,0,0
413391,422.535211267606,4,3,5,20,1,8
417193,-100,4,3,5,5,0,0
417616,394.736842105263,4,3,5,20,1,8
417616,-133.333333333333,4,3,5,20,0,0
418010,-133.333333333333,4,3,5,5,0,0
418405,422.535211267606,4,3,5,20,1,8
418405,-476.190476190476,4,3,5,20,0,0
420940,-476.190476190476,4,3,5,5,0,0
421362,1990.04975124378,4,3,5,10,1,8
421362,-206.483584555028,4,3,5,10,0,0
500963,1990.04975124378,4,3,5,10,1,8
501373,224.719101123595,4,3,1,40,1,9
504069,226.415094339623,4,3,1,40,1,9
505880,222.634508348794,4,3,1,40,1,9
507660,225.563909774436,4,3,1,40,1,9
508336,-100,4,3,1,40,0,0
508487,272.727272727273,4,3,1,40,1,8
508578,214.285714285714,4,3,2,40,1,9
509006,226.201696512724,4,3,2,40,1,9
510364,240,5,3,1,40,1,8
510844,222.222222222222,5,3,1,40,1,8
510844,-200,5,3,1,40,0,0
511510,226.415094339623,5,3,1,40,1,8
511510,-200,5,3,1,40,0,0
511906,-200,5,3,1,30,0,0
511962,-200,5,3,1,40,0,0
512189,230.769230769231,5,3,1,40,1,8
512650,219.78021978022,5,3,1,40,1,8
512650,-200,5,3,1,40,0,0
513748,221.40221402214,5,3,1,40,1,8
513969,-200,5,3,1,40,0,0
514135,-200,5,3,1,30,0,0
514190,-200,5,3,1,40,0,0
514635,235.294117647059,5,3,1,40,1,8
514870,226.415094339623,5,3,1,40,1,8
514870,-200,5,3,1,40,0,0
515436,210.526315789474,5,3,1,40,1,8
515436,-200,5,3,1,40,0,0
515751,230.326295585413,5,3,1,40,1,8
515981,222.222222222222,5,3,1,40,1,8
516425,187.5,5,3,1,40,1,8
516518,-117.233294255569,5,3,1,40,0,0
516612,250,5,3,1,40,1,8
516862,217.391304347826,5,3,1,40,1,8
517077,218.181818181818,5,3,1,40,1,8
517513,184.615384615385,5,3,1,40,1,8
517605,222.222222222222,5,3,1,40,1,8
517605,-83.3333333333333,5,3,1,40,0,0
517716,242.914979757085,5,3,1,40,1,8
517958,230.769230769231,5,3,1,40,1,8
518188,215.05376344086,5,3,1,40,1,8
518725,230.769230769231,5,3,1,40,1,8
518725,-86.9565217391304,5,3,1,40,0,0
519071,222.222222222222,5,3,1,40,1,8
519293,203.389830508475,5,3,1,40,1,8
519496,240,5,3,1,40,1,8
519616,203.389830508475,5,3,1,40,1,8
519819,233.918128654971,5,3,1,40,1,8
520404,210.526315789474,6,3,1,40,1,8
520614,230.769230769231,6,3,1,40,1,8
520960,-84.0336134453781,6,3,1,40,0,0
521075,235.294117647059,6,3,1,40,1,8
521310,226.415094339623,6,3,1,40,1,8
521536,235.294117647059,6,3,1,35,1,8
521565,-100,6,3,1,40,0,0
521771,229.885057471264,5,3,1,40,1,8
522460,-200,5,3,1,40,0,0
522692,222.222222222222,5,3,1,40,1,8
522914,226.415094339623,5,3,1,40,1,8
523140,-200,5,3,1,40,0,0
523253,255.31914893617,5,3,1,40,1,8
523316,-100,5,3,1,30,0,0
523380,214.285714285714,5,3,1,40,1,8
523380,-166.666666666667,5,3,1,40,0,0
523808,222.222222222222,5,3,1,40,1,8
524030,226.415094339623,5,3,1,40,1,8
524030,-200,5,3,1,40,0,0
524369,222.634508348794,5,3,1,40,1,8
524369,-200,5,3,1,40,0,0
524702,-133.333333333333,5,3,1,40,0,0
525148,230.769230769231,5,3,1,40,1,8
525378,-200,5,3,1,40,0,0
525551,-200,5,3,1,30,0,0
525609,214.285714285714,5,3,1,40,1,8
525609,-166.666666666667,5,3,1,40,0,0
526037,230.769230769231,5,3,1,40,1,8
526037,-200,5,3,1,40,0,0
526267,223.880597014925,5,3,1,40,1,8
526267,-133.333333333333,5,3,1,40,0,0
526602,-181.818181818182,5,3,1,40,0,0
526938,-133.333333333333,5,3,1,40,0,0
527162,228.136882129278,5,3,1,40,1,8
527390,232.558139534884,4,3,2,40,1,9
527506,-100,4,3,2,40,0,0
528320,222.222222222222,4,3,2,40,1,8
528764,218.181818181818,4,3,2,40,1,8
529200,219.78021978022,5,3,2,40,1,8
529200,-76.9230769230769,5,3,2,40,0,0
529859,223.880597014925,5,3,2,40,1,8
529859,-83.3333333333333,5,3,2,40,0,0
530306,218.181818181818,5,3,2,40,1,8
530306,-71.4285714285714,5,3,2,40,0,0
530742,230.769230769231,5,3,2,40,1,8
530742,-71.4285714285714,5,3,2,40,0,0
531203,218.181818181818,5,3,1,40,1,8
531203,-76.9230769230769,5,3,1,40,0,0
531421,210.526315789474,4,3,2,40,1,9
531526,-100,4,3,2,40,0,0
531631,235.294117647059,4,3,2,40,1,8
532336,217.391304347826,4,3,2,40,1,8
533207,214.285714285714,5,3,2,40,1,8
533207,-76.9230769230769,5,3,2,40,0,0
533635,229.007633587786,5,3,2,40,1,8
533635,-76.9230769230769,5,3,2,40,0,0
534322,226.415094339623,5,3,2,40,1,8
534322,-76.9230769230769,5,3,2,40,0,0
535001,220.183486238532,5,3,2,40,1,8
535441,222.222222222222,4,3,2,40,1,9
535552,-100,4,3,2,40,0,0
535885,240,4,3,2,40,1,8
536363,218.181818181818,4,3,2,40,1,8
537235,218.181818181818,5,3,2,40,1,8
537235,-66.6666666666667,5,3,2,40,0,0
537889,-76.9230769230769,5,3,2,40,0,0
538107,230.769230769231,5,3,2,40,1,8
538107,-76.9230769230769,5,3,2,40,0,0
538337,222.222222222222,5,3,2,40,1,8
538337,-76.9230769230769,5,3,2,40,0,0
539003,230.769230769231,5,3,2,40,1,8
539233,214.285714285714,5,3,1,40,1,8
539233,-76.9230769230769,5,3,1,40,0,0
539448,226.415094339623,6,3,2,40,1,9
539448,-66.6666666666667,6,3,2,40,0,1
539561,-66.6666666666667,6,3,2,40,0,0
539787,-76.9230769230769,6,3,2,40,0,0
540127,235.294117647059,6,3,2,30,1,8
540127,-71.4285714285714,6,3,2,30,0,0
540166,-71.4285714285714,6,3,2,40,0,0
540362,218.181818181818,6,3,2,40,1,8
540362,-76.9230769230769,6,3,1,40,0,0
540798,230.769230769231,6,3,2,40,1,8
540798,-76.9230769230769,6,3,2,40,0,0
541490,218.181818181818,6,3,2,40,1,8
541490,-76.9230769230769,6,3,2,40,0,0
541817,-76.9230769230769,6,3,1,30,0,0
541926,240,6,3,2,40,1,8
541926,-76.9230769230769,6,3,2,40,0,0
542166,226.415094339623,6,3,2,40,1,8
542166,-76.9230769230769,6,3,2,40,0,0
542845,218.181818181818,6,3,2,40,1,8
542845,-76.9230769230769,6,3,2,40,0,0
543063,-76.9230769230769,6,3,1,40,0,0
543172,-76.9230769230769,6,3,1,25,0,0
543226,-76.9230769230769,6,3,1,30,0,0
543281,-76.9230769230769,6,3,1,40,0,0
543499,221.40221402214,5,3,2,40,1,8
543499,-76.9230769230769,6,3,2,40,0,0
544163,227.272727272727,6,3,2,40,1,8
544163,-76.9230769230769,6,3,2,40,0,0
544390,215.827338129496,6,3,1,40,1,8
544390,-76.9230769230769,6,3,1,40,0,0
544607,229.885057471264,5,3,2,40,1,8
544607,-76.9230769230769,6,3,2,40,0,0
545296,-66.6666666666667,6,3,2,30,0,0
545325,-66.6666666666667,6,3,2,40,0,0
545497,-66.6666666666667,6,3,2,40,0,0
545526,-100,6,3,1,40,0,0
545756,230.769230769231,4,3,2,40,1,9
545871,-100,4,3,2,40,0,0
546679,218.181818181818,4,3,2,40,1,8
547551,227.272727272727,4,3,1,40,1,8
547551,-76.9230769230769,4,3,1,40,0,0
548005,224.719101123595,4,3,1,40,1,8
548005,-76.9230769230769,4,3,1,40,0,0
548454,224.719101123595,4,3,1,40,1,8
548454,-76.9230769230769,4,3,1,40,0,0
548903,220.588235294118,4,3,2,40,1,8
549013,-100,4,3,1,40,0,0
549344,229.007633587786,4,3,2,40,1,9
549458,-100,4,3,2,40,0,0
549802,232.558139534884,4,3,2,40,1,8
550267,220.183486238532,4,3,2,40,1,8
551148,226.415094339623,4,3,1,40,1,8
552053,222.222222222222,4,3,1,40,1,8
552719,-76.9230769230769,4,3,1,40,0,0
552941,223.880597014925,4,3,2,40,1,9
553052,-100,4,3,2,40,0,0
553612,234.375,4,3,2,40,1,8
553846,222.222222222222,4,3,2,40,1,8
554512,235.294117647059,4,3,2,40,1,8
554747,229.007633587786,4,3,1,40,1,8
554747,-76.9230769230769,4,3,1,40,0,0
555663,222.222222222222,4,3,1,40,1,8
555663,-76.9230769230769,4,3,1,40,0,0
556107,-76.9230769230769,4,3,2,40,0,0
556218,-76.9230769230769,4,3,1,40,0,0
556551,230.769230769231,4,3,2,40,1,9
556666,-100,4,3,2,40,0,0
557474,218.181818181818,4,3,2,40,1,8
558128,226.415094339623,4,3,2,40,1,8
558354,225.988700564972,4,3,1,40,1,8
559935,-76.9230769230769,4,3,1,40,0,0
560161,230.769230769231,4,3,1,40,1,9
560161,-66.6666666666667,4,3,1,40,0,1
560391,-66.6666666666667,4,3,2,40,0,1
560622,-66.6666666666667,4,3,1,40,0,1
560737,-66.6666666666667,4,3,2,40,0,1
561084,221.40221402214,4,3,1,40,1,9
561084,-66.6666666666667,4,3,1,40,0,1
561305,-66.6666666666667,4,3,2,40,0,1
561527,240,4,3,1,40,1,9
561527,-66.6666666666667,4,3,1,40,0,1
561767,211.267605633803,4,3,1,40,1,9
561767,-66.6666666666667,4,3,1,40,0,1
561978,232.558139534884,4,3,2,40,1,9
561978,-66.6666666666667,4,3,2,40,0,1
562443,220.588235294118,4,3,1,40,1,9
562443,-66.6666666666667,4,3,1,40,0,1
562663,-66.6666666666667,4,3,2,40,0,1
562884,230.769230769231,4,3,1,40,1,9
562884,-66.6666666666667,4,3,1,40,0,1
563230,-66.6666666666667,4,3,1,30,0,1
563345,222.222222222222,4,3,1,40,1,9
563345,-66.6666666666667,4,3,1,40,0,1
563678,-100,4,3,1,40,0,0
563789,319.573901464714,4,3,1,40,1,8
565067,-92.9368029739777,4,3,1,40,0,1
565386,-92.9368029739777,4,3,1,40,0,0
571458,-92.9368029739777,4,3,1,5,0,0

[Colours]
Combo1 : 193,193,193
Combo2 : 118,172,182
Combo3 : 235,225,105
Combo4 : 169,84,152
Combo5 : 129,193,89
Combo6 : 222,222,222

[HitObjects]
40,67,186195,69,2,0:0:0:0:
56,49,186480,1,0,0:0:0:0:
97,23,186766,1,2,0:0:0:0:
173,17,187052,1,0,0:0:0:0:
237,85,187337,5,2,0:0:0:0:
222,194,187637,1,0,0:0:0:0:
291,296,187937,1,2,0:0:0:0:
420,316,188237,1,0,0:0:0:0:
512,220,188537,69,2,0:0:0:0:
495,81,188837,1,0,0:0:0:0:
371,0,189170,6,0,P|378:27|377:49,1,35,2|0,0:0|0:0,0:0:0:0:
327,76,189776,1,0,0:0:0:0:
260,68,190079,1,0,0:0:0:0:
211,113,190382,1,2,0:0:0:0:
26,143,190988,70,0,P|22:170|26:192,1,35,2|0,0:0|0:0,0:0:0:0:
75,217,191594,1,0,0:0:0:0:
142,223,191897,1,0,0:0:0:0:
180,277,192200,1,2,0:0:0:0:
476,232,192806,6,0,P|477:259|471:281,1,35,2|0,0:0|0:0,0:0:0:0:
405,315,193424,1,0,0:0:0:0:
447,339,193733,1,0,0:0:0:0:
464,384,194043,1,2,0:0:0:0:
249,377,194661,70,0,P|242:350|231:330,1,35,2|0,0:0|0:0,0:0:0:0:
164,309,195261,1,0,0:0:0:0:
126,338,195561,1,0,0:0:0:0:
79,340,195861,1,2,0:0:0:0:
102,259,196527,5,0,0:0:0:0:
102,259,197127,1,2,0:0:0:0:
102,259,197727,1,2,0:0:0:0:
39,198,198327,2,0,P|44:158|61:123,2,70,2|0|2,0:0|0:0|0:0,0:0:0:0:
331,115,200148,69,0,0:0:0:0:
331,115,200742,1,2,0:0:0:0:
331,115,201336,1,2,0:0:0:0:
377,19,201954,2,0,P|384:41|383:62,1,35,2|0,0:0|0:0,0:0:0:0:
399,132,202599,5,2,0:0:0:0:
331,115,202905,1,2,0:0:0:0:
244,116,203211,1,2,0:0:0:0:
143,141,203517,1,2,0:0:0:0:
24,228,203823,70,0,P|30:253|29:281,1,35,2|0,0:0|0:0,0:0:0:0:
27,329,204394,1,0,0:0:0:0:
75,379,204680,1,0,0:0:0:0:
143,376,204965,1,2,0:0:0:0:
489,155,205596,6,0,P|479:179|475:207,1,35,2|0,0:0|0:0,0:0:0:0:
456,255,206190,1,0,0:0:0:0:
394,291,206487,1,0,0:0:0:0:
326,279,206784,1,2,0:0:0:0:
233,89,207396,70,0,P|232:69|240:42,1,35,2|0,0:0|0:0,0:0:0:0:
304,4,207984,1,0,0:0:0:0:
351,12,208278,1,0,0:0:0:0:
387,44,208572,1,2,0:0:0:0:
150,206,209203,6,0,P|147:189|140:173,1,35,2|0,0:0|0:0,0:0:0:0:
91,116,209821,1,0,0:0:0:0:
42,119,210130,1,0,0:0:0:0:
8,157,210440,1,2,0:0:0:0:
93,283,211034,69,2,0:0:0:0:
93,283,211665,1,0,0:0:0:0:
134,276,211965,1,0,0:0:0:0:
175,268,212265,1,2,0:0:0:0:
446,335,212865,5,2,0:0:0:0:
446,335,213477,1,0,0:0:0:0:
379,322,213783,1,0,0:0:0:0:
313,310,214089,2,0,P|318:292|320:268,1,35,2|0,0:0|0:0,0:0:0:0:
286,92,214683,70,0,P|290:57|305:26,1,70,2|0,0:0|0:0,0:0:0:0:
371,40,215599,1,0,0:0:0:0:
305,26,215922,1,2,0:0:0:0:
114,92,216499,6,0,P|82:74|36:72,1,70,2|0,0:0|0:0,0:0:0:0:
0,120,217426,1,0,0:0:0:0:
49,70,217736,1,2,0:0:0:0:
394,191,218330,69,2,0:0:0:0:
431,258,218923,5,2,0:0:0:0:
418,257,219226,1,0,0:0:0:0:
395,256,219529,1,2,0:0:0:0:
361,254,219832,1,0,0:0:0:0:
270,203,220135,69,2,0:0:0:0:
242,94,220439,1,0,0:0:0:0:
145,37,220743,1,2,0:0:0:0:
15,98,221047,5,0,0:0:0:0:
52,245,221351,1,2,0:0:0:0:
184,323,221655,1,0,0:0:0:0:
431,259,221959,70,0,B|432:184|483:219|475:122,1,140,2|0,0:0|0:0,0:0:0:0:
302,26,223784,6,0,B|272:17|228:22|207:52|207:52|225:58|240:49,1,127.399999222412,2|0,0:0|0:0,0:0:0:0:
37,99,225661,70,0,P|48:131|47:166,1,70,2|0,0:0|0:0,0:0:0:0:
13,231,226607,1,0,0:0:0:0:
13,231,226901,1,2,0:0:0:0:
313,260,227489,6,0,P|280:293|281:328,1,70,2|0,0:0|0:0,0:0:0:0:
311,380,228456,1,0,0:0:0:0:
311,380,228779,1,2,0:0:0:0:
464,294,229424,70,0,B|466:244|440:250|429:214|445:184|445:184|453:194|450:208,1,140.5075050169,0|0,0:0|0:0,0:0:0:0:
494,58,231269,6,0,P|470:59|424:81,2,70,2|0|2,0:0|0:0|0:0,0:0:0:0:
294,16,233115,69,0,0:0:0:0:
294,16,233730,2,0,P|303:40|304:93,1,70,2|0,0:0|0:0,0:0:0:0:
183,156,234961,1,2,0:0:0:0:
183,156,235589,5,2,0:0:0:0:
136,167,235903,1,0,0:0:0:0:
82,252,236217,1,2,0:0:0:0:
155,372,236531,1,0,0:0:0:0:
322,358,236845,70,0,B|360:381|402:337|419:369|419:369|402:363|383:378,1,140,2|0,0:0|0:0,0:0:0:0:
478,289,238730,6,0,P|486:266|482:221,1,70,2|0,0:0|0:0,0:0:0:0:
449,156,239648,1,0,0:0:0:0:
453,86,239954,1,2,0:0:0:0:
261,0,240536,70,0,P|262:24|254:47,1,35,2|0,0:0|0:0,0:0:0:0:
218,93,241142,1,0,0:0:0:0:
167,138,241445,1,0,0:0:0:0:
163,205,241748,1,2,0:0:0:0:
15,304,242386,6,0,P|33:306|53:313,1,35,2|0,0:0|0:0,0:0:0:0:
114,342,243001,1,0,0:0:0:0:
156,371,243309,1,0,0:0:0:0:
208,368,243616,1,2,0:0:0:0:
369,359,244232,69,2,0:0:0:0:
369,359,244870,1,0,0:0:0:0:
373,308,245164,1,0,0:0:0:0:
401,265,245458,1,2,0:0:0:0:
441,143,246046,5,2,0:0:0:0:
446,135,246340,2,0,B|456:115|432:87|406:89|401:118|380:93|384:79,1,101.639999007422,0|2,0:0|0:0,0:0:0:0:
185,26,247840,69,2,0:0:0:0:
185,26,248443,1,0,0:0:0:0:
154,68,248752,1,0,0:0:0:0:
149,120,249061,1,2,0:0:0:0:
29,213,249637,5,2,0:0:0:0:
30,228,249943,2,0,B|36:261|53:248|58:280|24:275|34:329,1,105,0|2,0:0|0:0,0:0:0:0:
170,373,251473,70,0,P|190:355|243:341,1,70,2|2,0:0|0:0,0:0:0:0:
232,349,252382,1,0,0:0:0:0:
234,357,252685,1,2,0:0:0:0:
236,365,252988,1,0,0:0:0:0:
329,384,253291,5,2,0:0:0:0:
419,361,253594,1,0,0:0:0:0:
480,272,253897,69,2,0:0:0:0:
445,127,254200,1,0,0:0:0:0:
313,38,254503,1,2,0:0:0:0:
174,65,254806,1,0,0:0:0:0:
78,330,255109,6,0,B|58:304|21:316|21:316|76:272|196:274|200:404|276:320|216:245|311:187|438:221|417:354|324:386|288:325,1,551.250021028519,6|0,0:0|0:0,0:0:0:0:
420,209,258815,2,0,B|460:253|457:305|457:305|482:251|526:234|526:234|475:200|471:144|471:144|524:132|546:68|511:14|457:11|430:34,1,527.800011436096,2|0,0:0|0:0,0:0:0:0:
327,65,262490,70,0,B|291:56|262:101|294:135|294:135|243:115|249:150|200:131,1,198.012505438576,0|2,0:0|0:0,0:0:0:0:
29,28,264271,2,0,P|94:108|87:216,1,210.000008010865,2|2,0:0|0:0,0:0:0:0:
301,216,266072,6,0,B|329:231|372:238|403:230|403:230|372:223|351:190|361:159|378:145,1,208.039990667151,0|2,0:0|0:0,0:0:0:0:
469,273,267860,2,0,P|486:283|488:358,1,91.8750035047532,2|2,0:0|0:0,0:0:0:0:
419,384,268760,1,0,0:0:0:0:
300,384,269060,1,2,0:0:0:0:
126,322,269378,1,0,0:0:0:0:
69,68,269696,70,0,B|46:61|25:74|25:74|54:13|122:17|205:77|133:120|118:182|176:233|256:255|337:207|315:113|242:83|207:130,1,525.000020027161,2|0,0:0|0:0,0:0:0:0:
420,7,273272,2,0,B|387:35|323:34|323:34|376:65|408:136|383:221|383:221|409:173|482:146|539:226|503:273,1,526.889993544118,2|0,0:0|0:0,0:0:0:0:
463,365,276818,5,2,0:0:0:0:
463,365,277406,1,0,0:0:0:0:
399,343,277701,1,0,0:0:0:0:
333,345,277995,1,2,0:0:0:0:
36,240,278555,69,2,0:0:0:0:
33,253,278855,2,0,B|31:288|50:287|62:313|44:355|10:338,1,105,0|0,0:0|0:0,0:0:0:0:
77,150,280326,5,2,0:0:0:0:
77,150,280932,1,0,0:0:0:0:
53,83,281235,1,0,0:0:0:0:
66,17,281538,1,2,0:0:0:0:
244,0,282083,69,2,0:0:0:0:
246,13,282380,2,0,B|248:48|229:47|217:73|235:115|269:98,1,105,0|0,0:0|0:0,0:0:0:0:
357,197,283837,5,2,0:0:0:0:
358,196,284422,69,2,0:0:0:0:
356,198,284715,1,0,0:0:0:0:
370,193,285007,1,2,0:0:0:0:
344,201,285300,1,0,0:0:0:0:
400,188,285593,1,2,0:0:0:0:
314,206,285886,1,0,0:0:0:0:
447,193,286178,1,2,0:0:0:0:
267,201,286471,1,0,0:0:0:0:
506,228,286763,1,2,0:0:0:0:
208,166,287056,1,0,0:0:0:0:
482,27,287349,54,0,B|479:107|479:107|456:136|456:136|455:190,1,157.500006008148,12|0,0:1|0:0,0:0:0:0:
506,228,287736,2,0,L|494:313,1,70,12|8,0:0|0:0,0:0:0:0:
199,366,288123,6,0,L|363:356,1,157.500006008148,12|0,0:0|0:0,0:0:0:0:
367,368,288510,1,12,0:0:0:0:
281,279,288703,1,2,0:0:0:0:
33,321,288897,38,0,B|36:241|36:241|59:212|59:212|60:158,1,157.500006008148,12|0,0:0|0:0,0:0:0:0:
11,109,289302,2,0,L|-2:29,1,70,12|8,0:0|0:0,0:0:0:0:
135,20,289684,5,12,0:0:0:0:
173,139,289875,2,0,L|164:92,1,35,8|0,0:2|0:2,0:2:0:0:
267,29,290066,1,4,0:2:0:0:
300,150,290257,2,0,L|313:93,1,35,10|0,0:2|0:2,0:2:0:0:
512,20,290448,6,0,B|432:25|432:25|403:49|403:49|350:52,1,157.500006008148,12|0,0:0|0:0,0:0:0:0:
308,116,290832,2,0,L|316:190,1,70,12|8,0:0|0:0,0:0:0:0:
176,354,291217,6,0,L|188:192,1,157.500006008148,12|0,0:0|0:0,0:0:0:0:
180,183,291601,1,12,0:0:0:0:
267,254,291794,1,2,0:0:0:0:
453,113,291986,38,0,L|445:282,1,157.500006008148,12|0,0:0|0:0,0:0:0:0:
505,315,292371,2,0,L|513:386,1,70,12|8,0:0|0:0,0:0:0:0:
224,384,292755,5,12,0:0:0:0:
313,303,292948,2,0,L|307:359,1,35,8|0,0:2|0:2,0:2:0:0:
96,359,293142,1,4,0:2:0:0:
168,271,293335,2,0,L|173:329,1,35,10|0,0:2|0:2,0:2:0:0:
2,257,293529,6,0,B|9:143|9:143|50:102,1,157.500006008148,12|0,0:0|0:0,0:0:0:0:
102,69,293916,2,0,L|93:-10,1,70,12|8,0:0|0:0,0:0:0:0:
272,43,294303,6,0,L|262:200,1,157.500006008148,12|0,0:0|0:0,0:0:0:0:
272,210,294690,1,12,0:0:0:0:
391,174,294883,1,2,0:0:0:0:
411,374,295078,38,0,P|411:334|379:270,1,105.000004005432,12|8,0:0|0:0,0:0:0:0:
272,210,295460,2,0,P|247:163|245:111,1,105.000004005432,12|8,0:0|0:0,0:0:0:0:
403,0,295842,5,12,0:0:0:0:
317,71,296039,2,0,L|326:25,1,35,8|0,0:2|0:2,0:2:0:0:
234,5,296236,1,4,0:2:0:0:
165,86,296421,2,0,L|154:36,1,35,10|0,0:2|0:2,0:2:0:0:
30,50,296606,6,0,B|23:170|23:170|-3:203,1,157.500006008148,12|0,0:0|0:0,0:0:0:0:
7,272,296993,2,0,L|99:263,1,70,12|8,0:0|0:0,0:0:0:0:
235,383,297380,6,0,L|223:218,1,157.500006008148,12|0,0:0|0:0,0:0:0:0:
231,215,297767,1,12,0:0:0:0:
300,299,297960,1,2,0:0:0:0:
488,134,298154,38,0,P|427:145|399:190,1,105.000004005432,12|8,0:0|0:0,0:0:0:0:
231,215,298541,2,0,P|176:222|133:189,1,105.000004005432,12|8,0:0|0:0,0:0:0:0:
242,22,298928,5,12,0:0:0:0:
326,101,299128,2,0,L|318:51,1,35,8|0,0:2|0:2,0:2:0:0:
389,7,299328,1,4,0:2:0:0:
458,85,299510,2,0,L|468:46,1,35,10|0,0:2|0:2,0:2:0:0:
464,185,299692,6,0,B|477:304|477:304|525:340,1,157.500006008148,12|0,0:0|0:0,0:0:0:0:
447,377,300092,2,0,L|367:383,1,70,12|8,0:0|0:0,0:0:0:0:
127,293,300475,6,0,L|310:301,1,157.500006008148,12|0,0:0|0:0,0:0:0:0:
295,306,300858,1,12,0:0:0:0:
230,206,301050,1,2,0:0:0:0:
19,213,301243,38,0,P|-2:153|5:41,1,157.500006008148,12|0,0:0|0:0,0:0:0:0:
71,12,301631,2,0,L|81:106,1,70,12|8,0:0|0:0,0:0:0:0:
195,187,302019,5,12,0:0:0:0:
274,109,302213,2,0,L|278:155,1,35,8|0,0:2|0:2,0:2:0:0:
339,224,302408,1,4,0:2:0:0:
418,146,302602,2,0,L|408:205,1,35,10|0,0:2|0:2,0:2:0:0:
331,353,302796,6,0,B|251:358|251:358|222:382|222:382|169:385,1,157.500006008148,12|0,0:0|0:0,0:0:0:0:
119,335,303188,2,0,L|127:247,1,70,12|8,0:0|0:0,0:0:0:0:
5,37,303580,6,0,L|-3:161,1,105,12|0,0:0|0:0,0:0:0:0:
22,205,303959,1,12,0:0:0:0:
132,184,304149,1,2,0:0:0:0:
336,260,304339,38,0,B|345:145|345:145|389:110,1,157.500006008148,12|0,0:0|0:0,0:0:0:0:
443,79,304723,2,0,L|433:1,1,70,12|8,0:0|0:0,0:0:0:0:
256,35,305108,5,12,0:0:0:0:
242,122,305300,2,0,L|235:168,1,35,8|0,0:2|0:2,0:2:0:0:
135,87,305492,1,4,0:2:0:0:
115,181,305685,2,0,L|124:239,1,35,10|0,0:2|0:2,0:2:0:0:
182,325,305877,6,0,B|151:349|151:349|26:354,1,157.500006008148,12|0,0:0|0:0,0:0:0:0:
0,287,306275,2,0,L|10:189,1,70,12|8,0:0|0:0,0:0:0:0:
229,240,306651,6,0,L|415:251,1,157.500006008148,12|0,0:0|0:0,0:0:0:0:
398,240,307036,1,12,0:0:0:0:
321,155,307229,1,2,0:0:0:0:
475,20,307422,38,0,P|494:94|471:137,1,105.000004005432,12|8,0:0|0:0,0:0:0:0:
398,240,307807,2,0,P|448:274|466:334,1,105.000004005432,12|8,0:0|0:0,0:0:0:0:
319,384,308194,5,12,0:0:0:0:
258,317,308385,2,0,L|262:283,1,35,8|0,0:2|0:2,0:2:0:0:
164,367,308576,1,4,0:2:0:0:
100,299,308767,2,0,L|95:264,1,35,8|0,0:2|0:2,0:2:0:0:
227,171,308958,5,12,0:0:0:0:
61,81,309155,1,8,0:0:0:0:
73,34,309253,1,2,0:0:0:0:
111,5,309350,1,14,0:0:0:0:
146,179,309546,5,2,0:0:0:0:
309,84,309741,1,12,0:0:0:0:
307,111,309839,1,2,0:0:0:0:
469,41,310034,1,2,0:0:0:0:
465,12,310132,1,12,0:0:0:0:
436,209,310323,37,2,0:0:0:0:
338,325,310514,2,0,L|326:225,1,70,14|8,0:0|0:0,0:0:0:0:
512,360,310906,1,12,0:0:0:0:
427,381,311102,6,0,L|419:337,1,35,10|0,0:2|0:2,0:2:0:0:
436,209,311298,1,4,0:2:0:0:
245,284,311494,2,0,L|248:243,1,35,8|0,0:2|0:2,0:2:0:0:
229,126,311690,1,4,0:2:0:0:
31,268,311872,5,10,0:0:0:0:
79,267,311964,1,4,0:0:0:0:
128,264,312055,1,10,0:0:0:0:
27,115,312251,6,0,L|86:143,1,35,10|0,0:2|0:2,0:2:0:0:
139,173,312447,1,4,0:2:0:0:
204,25,312643,2,0,L|265:17,1,35,8|0,0:2|0:2,0:2:0:0:
331,9,312839,38,0,B|334:81|334:81|355:108,1,105.000004005432,10|8,0:0|0:0,0:0:0:0:
476,106,313226,1,12,0:0:0:0:
474,117,313419,1,8,0:0:0:0:
492,264,313613,6,0,B|479:338|479:338|536:328,1,105.000004005432,12|8,0:0|0:0,0:0:0:0:
214,310,313999,1,12,0:0:0:0:
368,363,314192,1,10,0:0:0:0:
349,153,314385,6,0,L|358:259,1,105.000004005432,12|10,0:0|0:0,0:0:0:0:
204,282,314772,5,12,0:0:0:0:
228,87,314965,1,10,0:0:0:0:
73,101,315158,38,0,B|77:27|77:27|57:-10,1,105.000004005432,12|8,0:0|0:0,0:0:0:0:
7,162,315544,1,12,0:0:0:0:
0,168,315737,1,10,0:0:0:0:
101,324,315931,6,0,B|96:250|96:250|116:212,1,105.000004005432,12|8,0:0|0:0,0:0:0:0:
13,378,316317,1,12,0:0:0:0:
20,384,316514,1,10,0:0:0:0:
234,363,316711,6,0,B|272:358|272:358|221:282,1,105,12|8,0:0|0:0,0:0:0:0:
348,166,317101,1,12,0:0:0:0:
364,294,317297,6,0,L|370:244,1,35,8|0,0:2|0:2,0:2:0:0:
496,104,317492,1,4,0:2:0:0:
490,230,317688,38,0,L|485:191,1,35,8|0,0:2|0:2,0:2:0:0:
341,11,317883,2,0,P|327:50|332:100,1,70,4|10,0:0|0:0,0:0:0:0:
230,142,318265,6,0,B|156:147|156:147|128:172,1,105.000004005432,14|8,0:0|0:0,0:0:0:0:
14,130,318654,1,12,0:0:0:0:
20,137,318849,1,8,0:0:0:0:
294,283,319044,6,0,B|219:278|219:278|189:300,1,105.000004005432,12|10,0:0|0:0,0:0:0:0:
98,333,319435,1,12,0:0:0:0:
91,337,319624,1,10,0:0:0:0:
139,122,319814,6,0,L|146:8,1,105.000004005432,12|8,0:0|0:0,0:0:0:0:
31,217,320203,1,12,0:0:0:0:
201,179,320398,1,8,0:0:0:0:
294,283,320593,37,12,0:0:0:0:
461,245,320786,2,0,L|440:297,1,35,8|0,0:2|0:2,0:2:0:0:
401,364,320980,5,4,0:2:0:0:
351,135,321173,2,0,L|401:145,1,35,8|0,0:2|0:2,0:2:0:0:
504,161,321366,6,0,L|514:44,1,105.000004005432,14|8,0:0|0:0,0:0:0:0:
391,5,321753,1,12,0:0:0:0:
286,62,321946,1,10,0:0:0:0:
197,40,322140,6,0,L|204:150,1,105.000004005432,14|10,0:0|0:0,0:0:0:0:
33,53,322527,1,12,0:0:0:0:
26,60,322624,1,2,0:0:0:0:
83,173,322817,1,2,0:0:0:0:
91,180,322914,38,0,L|84:303,1,105.000004005432,12|10,0:0|0:0,0:0:0:0:
0,333,323304,1,12,0:0:0:0:
131,384,323500,1,10,0:0:0:0:
253,327,323695,5,12,0:0:0:0:
264,332,323793,2,0,P|268:353|266:376,2,35,2|2|2,0:0|0:0|0:0,0:0:0:0:
233,252,324086,1,12,0:0:0:0:
462,359,324278,6,0,L|473:311,1,35,8|0,0:2|0:2,0:2:0:0:
495,210,324470,6,0,B|419:213|419:213|397:238,1,105.000004005432,14|8,0:0|0:0,0:0:0:0:
267,135,324870,1,12,0:0:0:0:
273,144,325063,1,8,0:0:0:0:
439,32,325257,38,0,B|362:29|362:29|334:47,1,105.000004005432,14|10,0:0|0:0,0:0:0:0:
160,8,325644,1,12,0:0:0:0:
154,16,325837,1,10,0:0:0:0:
159,142,326028,6,0,L|170:268,1,105.000004005432,12|8,0:0|0:0,0:0:0:0:
6,329,326420,1,12,0:0:0:0:
60,206,326616,6,0,L|77:258,1,35,8|0,0:2|0:2,0:2:0:0:
119,375,326808,1,4,0:2:0:0:
272,268,327000,6,0,L|236:295,1,35,8|0,0:2|0:2,0:2:0:0:
281,384,327192,2,0,L|415:374,1,105.000004005432,4|10,0:0|0:0,0:0:0:0:
512,203,327577,38,0,B|490:226|490:226|481:321,1,105.000004005432,14|8,0:0|0:0,0:0:0:0:
362,184,327961,1,12,0:0:0:0:
373,193,328153,1,8,0:0:0:0:
448,27,328346,5,12,0:0:0:0:
281,101,328540,1,10,0:0:0:0:
425,14,328735,2,0,L|318:10,1,105.000004005432,12|10,0:0|0:0,0:0:0:0:
154,160,329110,6,0,L|163:47,1,105,14|10,0:0|0:0,0:0:0:0:
273,254,329493,1,12,0:0:0:0:
429,147,329685,6,0,L|374:154,1,35,8|0,0:2|0:2,0:2:0:0:
305,164,329876,1,4,0:2:0:0:
460,370,330078,38,0,L|405:363,1,35,8|0,0:2|0:2,0:2:0:0:
301,344,330281,2,0,P|261:355|226:389,1,70,12|10,0:0|0:0,0:0:0:0:
49,364,330674,6,0,L|44:259,1,105.000004005432,14|2,0:0|0:0,0:0:0:0:
50,264,330964,1,2,0:0:0:0:
55,268,331061,1,12,0:0:0:0:
184,187,331254,1,2,0:0:0:0:
14,52,331448,5,12,0:0:0:0:
25,57,331544,2,0,P|32:78|30:104,2,35,2|2|2,0:0|0:0|0:0,0:0:0:0:
97,7,331835,5,12,0:0:0:0:
82,177,332031,1,2,0:0:0:0:
332,31,332227,38,0,L|208:39,1,105.000004005432,12|2,0:0|0:0,0:0:0:0:
226,43,332521,1,2,0:0:0:0:
225,48,332619,1,12,0:0:0:0:
340,161,332815,1,2,0:0:0:0:
307,330,333011,5,12,0:0:0:0:
286,332,333108,1,2,0:0:0:0:
266,338,333205,1,2,0:0:0:0:
249,349,333303,1,2,0:0:0:0:
234,364,333400,5,12,0:0:0:0:
201,255,333595,1,2,0:0:0:0:
470,276,333790,6,0,L|462:160,1,105.000004005432,12|2,0:0|0:0,0:0:0:0:
493,108,334082,1,2,0:0:0:0:
499,97,334179,1,12,0:0:0:0:
273,2,334371,38,0,L|305:44,1,35,8|0,0:2|0:2,0:2:0:0:
301,124,334563,1,4,0:2:0:0:
54,31,334755,6,0,L|32:58,1,35,8|0,0:2|0:2,0:2:0:0:
19,244,334948,1,4,0:2:0:0:
165,184,335140,6,0,L|226:203,1,52.5000020027161,10|0,0:2|0:2,0:2:0:0:
64,351,335340,2,0,L|-2:362,1,52.5000020027161,10|0,0:2|0:2,0:2:0:0:
334,300,335538,5,4,0:2:0:0:
268,330,335638,1,4,0:2:0:0:
347,320,335737,2,0,L|421:311,1,70,10|0,0:2|0:2,0:2:0:0:
146,164,335935,37,4,0:2:0:0:
215,199,336035,1,4,0:2:0:0:
140,188,336134,2,0,L|70:178,1,70,10|0,0:2|0:2,0:2:0:0:
375,25,336333,5,4,0:2:0:0:
302,72,336433,1,4,0:2:0:0:
389,59,336532,2,0,L|465:48,1,70,10|0,0:2|0:2,0:2:0:0:
19,0,336730,5,4,0:2:0:0:
13,89,336830,1,4,0:2:0:0:
5,181,336929,6,0,B|1:237|1:237|121:305|121:305|115:375,1,262.5,10|0,0:0|0:0,0:0:0:0:
197,367,337323,54,0,L|254:359,1,52.5000020027161,6|0,0:0|0:0,0:0:0:0:
129,224,337521,1,8,0:0:0:0:
481,14,337718,70,0,B|473:131|473:131|437:159|437:159|429:287,1,262.5,10|0,0:0|0:0,0:0:0:0:
425,338,338113,22,0,L|362:360,1,52.5000020027161,6|0,0:0|0:0,0:0:0:0:
506,244,338304,1,8,0:0:0:0:
0,107,338495,6,0,B|163:95|163:95|53:6,1,262.5,10|0,0:0|0:0,0:0:0:0:
172,6,338893,54,0,L|255:0,1,52.5000020027161,6|0,0:0|0:0,0:0:0:0:
95,138,339093,1,8,0:0:0:0:
481,161,339292,70,0,B|438:123|438:123|424:343,1,262.5,10|0,0:0|0:0,0:0:0:0:
358,372,339692,22,0,L|291:382,1,52.5000020027161,6|0,0:0|0:0,0:0:0:0:
508,270,339883,1,8,0:0:0:0:
61,357,340074,6,0,B|-13:352|-13:352|102:184,1,262.5,10|0,0:0|0:0,0:0:0:0:
133,280,340466,54,0,L|139:356,1,52.5000020027161,6|0,0:0|0:0,0:0:0:0:
0,156,340662,1,8,0:0:0:0:
262,77,340858,70,0,B|370:82|370:82|404:52|404:52|532:57,1,262.5,10|0,0:0|0:0,0:0:0:0:
501,134,341250,22,0,L|488:200,1,52.5000020027161,6|0,0:0|0:0,0:0:0:0:
266,0,341446,1,8,0:0:0:0:
53,43,341642,6,0,L|66:165,1,87.5,4|0,0:2|0:2,0:2:0:0:
131,282,341831,37,8,0:2:0:0:
198,274,341926,1,8,0:2:0:0:
192,205,342021,1,8,0:2:0:0:
124,213,342116,1,8,0:2:0:0:
105,299,342211,6,0,L|83:404,1,87.5,2|0,0:2|0:2,0:2:0:0:
404,339,342401,5,8,0:2:0:0:
462,280,342496,1,8,0:2:0:0:
504,299,342591,6,0,L|490:142,1,87.5,4|0,0:2|0:2,0:2:0:0:
369,23,342781,37,8,0:2:0:0:
317,47,342869,1,8,0:2:0:0:
267,73,342957,54,0,P|226:83|187:114,1,78.7500030040742,8|0,0:0|0:0,0:0:0:0:
179,103,343168,70,0,B|10:94|10:94|82:176,1,262.5,6|0,0:0|0:0,0:0:0:0:
26,225,343557,54,0,L|12:311,1,52.5000020027161,6|0,0:0|0:0,0:0:0:0:
119,377,343752,1,8,0:0:0:0:
462,280,343947,70,0,B|471:173|471:173|499:137|499:137|508:22,1,262.5,14|0,0:0|0:0,0:0:0:0:
404,0,344336,22,0,L|416:119,1,105.000004005432,6|8,0:0|0:0,0:0:0:0:
186,354,344726,6,0,B|138:378|138:378|73:164,1,262.5,14|0,0:0|0:0,0:0:0:0:
8,227,345116,54,0,L|-4:299,1,52.5000020027161,6|0,0:0|0:0,0:0:0:0:
185,93,345310,1,8,0:0:0:0:
349,365,345505,6,0,L|287:312,1,52.5000020027161,6|0,0:0|0:0,0:0:0:0:
172,206,345700,1,8,0:0:0:0:
512,43,345895,5,6,0:0:0:0:
392,277,346090,1,8,0:0:0:0:
262,15,346284,38,0,B|434:33|434:33|375:151,1,262.5,14|0,0:0|0:0,0:0:0:0:
317,134,346681,22,0,L|191:119,1,105.000004005432,6|8,0:0|0:0,0:0:0:0:
72,384,347078,6,0,B|92:188|92:188|10:280,1,262.5,14|0,0:0|0:0,0:0:0:0:
0,146,347467,54,0,L|22:0,1,105.000004005432,6|8,0:0|0:0,0:0:0:0:
502,20,347857,70,0,B|494:130|494:130|466:173|466:173|454:323,1,262.5,14|0,0:0|0:0,0:3:0:0:
485,370,348246,22,0,L|339:344,1,105.000004005432,6|8,0:0|0:0,0:0:0:0:
276,328,348538,1,8,0:2:0:0:
255,339,348636,5,10,0:2:0:0:
257,252,348729,1,8,0:2:0:0:
228,170,348823,1,8,0:2:0:0:
169,105,348917,1,8,0:2:0:0:
117,174,349011,54,0,L|108:317,1,140,4|8,0:2|0:2,0:2:0:0:
0,38,349298,1,8,0:2:0:0:
16,51,349398,22,0,B|218:36|218:36|149:133,1,262.5,10|0,0:2|0:0,0:0:0:0:
117,174,349781,54,0,L|5:182,1,105.000004005432,6|8,0:0|0:0,0:0:0:0:
484,362,350164,70,0,B|497:286|497:286|283:369,1,262.5,14|0,0:0|0:0,0:0:0:0:
248,384,350548,22,0,L|195:362,1,52.5000020027161,6|0,0:0|0:0,0:0:0:0:
5,272,350739,1,8,0:0:0:0:
207,17,350931,6,0,L|193:97,1,52.5000020027161,6|0,0:0|0:0,0:0:0:0:
149,305,351128,1,8,0:0:0:0:
64,98,351325,53,6,0:0:0:0:
472,48,351523,1,8,0:0:0:0:
405,384,351720,70,0,L|364:321,1,52.5000020027161,6|0,0:0|0:0,0:0:0:0:
210,85,351912,1,8,0:0:0:0:
488,11,352104,21,6,0:0:0:0:
358,316,352296,1,8,0:0:0:0:
5,219,352489,6,0,B|186:211|186:211|139:304,1,262.5,14|0,0:0|0:0,0:0:0:0:
40,358,352878,54,0,L|36:299,1,52.5000020027161,6|0,0:0|0:0,0:0:0:0:
23,43,353073,1,8,0:0:0:0:
475,93,353268,70,0,B|525:29|525:29|345:11,1,262.5,14|0,0:0|0:0,0:0:0:0:
303,84,353657,22,0,L|317:171,1,52.5000020027161,6|0,0:0|0:0,0:0:0:0:
354,382,353852,1,8,0:0:0:0:
95,54,354047,6,0,B|137:29|137:29|109:190|109:190|139:263,1,262.5,14|0,0:0|0:0,0:0:0:0:
247,314,354437,54,0,L|150:302,1,52.5000020027161,6|0,0:0|0:0,0:0:0:0:
0,282,354628,1,8,0:0:0:0:
406,94,354819,69,6,0:0:0:0:
145,140,355010,1,8,0:0:0:0:
408,384,355201,22,0,L|423:292,1,52.5000020027161,6|0,0:0|0:0,0:0:0:0:
461,28,355392,1,8,0:0:0:0:
17,26,355581,6,0,B|120:14|120:14|41:192,1,262.5,14|0,0:0|0:0,0:0:0:0:
31,237,355961,54,0,L|111:271,1,52.5000020027161,6|0,0:0|0:0,0:0:0:0:
408,384,356151,1,8,0:0:0:0:
461,28,356342,6,0,L|390:43,1,52.5000020027161,6|0,0:0|0:0,0:0:0:0:
83,99,356529,2,0,L|134:88,1,52.5000020027161,8|0,0:0|0:0,0:0:0:0:
160,362,356717,6,0,L|175:269,1,52.5000020027161,6|0,0:0|0:0,0:0:0:0:
216,0,356904,1,8,0:0:0:0:
509,376,357092,38,0,B|500:272|500:272|459:223|459:223|452:129,1,262.5,14|0,0:0|0:0,0:0:0:0:
369,36,357467,22,0,L|375:129,1,52.5000020027161,6|0,0:0|0:0,0:0:0:0:
397,382,357654,1,8,0:0:0:0:
64,146,357842,6,0,B|204:150|204:150|101:43,1,262.5,14|0,0:0|0:0,0:0:0:0:
21,13,358217,54,0,L|34:63,1,52.5000020027161,6|0,0:0|0:0,0:0:0:0:
112,372,358398,1,8,0:0:0:0:
505,1,358580,70,0,B|480:47|480:47|506:199|506:199|464:263,1,262.5,14|0,0:0|0:0,0:0:0:0:
449,373,358962,22,0,L|411:309,1,52.5000020027161,6|0,0:0|0:0,0:0:0:0:
255,47,359153,1,8,0:0:0:0:
5,1,359344,6,0,B|30:47|30:47|4:199|4:199|46:263,1,262.5,14|0,0:0|0:0,0:0:0:0:
63,373,359726,54,0,L|101:309,1,52.5000020027161,6|0,0:0|0:0,0:0:0:0:
255,47,359917,1,8,0:0:0:0:
487,311,360108,70,0,B|459:331|459:331|289:314,1,175,14|8,0:0|0:0,0:0:0:0:
256,192,360387,53,8,0:0:0:0:
192,317,360480,70,0,B|53:331|53:331|25:311,1,175,14|8,0:0|0:0,0:0:0:0:
512,161,360853,70,0,L|358:133,1,87.5,4|0,0:2|0:2,0:2:0:0:
98,4,361033,1,8,0:2:0:0:
35,65,361124,1,8,0:2:0:0:
47,151,361214,70,0,L|69:281,1,87.5,2|0,0:2|0:2,0:2:0:0:
285,372,361395,1,8,0:2:0:0:
370,361,361485,1,8,0:2:0:0:
456,351,361577,70,0,B|460:293|460:293|341:214|341:214|347:143,1,262.5,12|0,0:0|0:0,0:0:0:0:
394,58,361966,22,0,L|397:5,1,52.5000020027161,6|0,0:0|0:0,0:0:0:0:
370,361,362161,1,8,0:0:0:0:
88,179,362356,6,0,B|164:182|164:182|105:-20,1,262.5,10|0,0:0|0:0,0:0:0:0:
21,15,362731,54,0,L|42:92,1,52.5000020027161,6|0,0:0|0:0,0:0:0:0:
118,366,362918,1,8,0:0:0:0:
450,244,363105,6,0,L|354:224,1,52.5000020027161,14|0,0:0|0:0,0:0:0:0:
88,179,363296,1,8,0:0:0:0:
426,6,363487,54,0,L|413:94,1,52.5000020027161,6|0,0:0|0:0,0:0:0:0:
371,366,363678,1,8,0:0:0:0:
50,306,363869,37,14,0:0:0:0:
255,5,364054,1,8,0:0:0:0:
512,320,364239,54,0,L|447:327,1,52.5000020027161,6|0,0:0|0:0,0:0:0:0:
118,366,364424,1,8,0:0:0:0:
512,61,364609,70,0,B|472:22|472:22|495:192|495:192|463:259,1,262.5,14|0,0:0|0:0,0:0:0:0:
390,266,364991,22,0,L|405:96,1,140,6|8,0:0|0:0,0:0:0:0:
7,23,365373,6,0,B|26:132|26:132|63:160|63:160|85:294,1,262.5,14|0,0:0|0:0,0:0:0:0:
58,354,365755,54,0,L|222:335,1,140,6|8,0:0|0:0,0:0:0:0:
331,373,366042,1,8,0:2:0:0:
355,384,366137,70,0,L|345:281,1,87.5,2|0,0:2|0:2,0:2:0:0:
391,187,366318,21,8,0:2:0:0:
453,140,366408,1,8,0:2:0:0:
458,63,366500,1,8,0:2:0:0:
412,0,366590,1,8,0:2:0:0:
378,33,366682,6,0,L|260:19,1,87.5,2|0,0:2|0:2,0:2:0:0:
30,76,366864,53,8,0:2:0:0:
36,83,366955,1,8,0:2:0:0:
81,145,367046,70,0,L|74:258,1,87.5,4|0,0:2|0:2,0:2:0:0:
355,384,367227,1,8,0:2:0:0:
502,115,367409,37,8,0:1:0:0:
498,126,367500,1,2,0:1:0:0:
495,136,367591,38,0,B|432:127|432:127|371:229|371:229|282:219,1,262.5,12|0,0:0|0:2,0:2:0:0:
269,141,367973,22,0,L|250:62,1,52.5000020027161,6|0,0:0|0:0,0:0:0:0:
471,371,368164,1,8,0:0:0:0:
179,348,368355,69,6,0:0:0:0:
356,0,368546,1,8,0:0:0:0:
103,37,368737,69,6,0:0:0:0:
325,380,368928,1,8,0:0:0:0:
5,267,369119,38,0,B|89:274|89:274|8:102,1,262.5,14|0,0:0|0:0,0:0:0:0:
103,37,369494,54,0,L|85:135,1,52.5000020027161,6|0,0:0|0:0,0:0:0:0:
33,377,369681,1,8,0:0:0:0:
471,371,369869,70,0,B|434:269|434:269|380:262|380:262|332:112,1,262.5,14|0,0:0|0:0,0:0:0:0:
434,138,370244,22,0,L|454:-9,1,140,6|8,0:0|0:0,0:0:0:0:
55,50,370619,6,0,L|129:85,1,52.5000020027161,14|0,0:0|0:0,0:0:0:0:
415,217,370808,1,8,0:0:0:0:
126,379,370998,53,6,0:0:0:0:
210,6,371188,1,8,0:0:0:0:
460,335,371378,70,0,L|357:344,1,52.5000020027161,6|0,0:0|0:0,0:0:0:0:
31,366,371568,2,0,L|48:297,1,52.5000020027161,10|0,0:0|0:0,0:0:0:0:
475,46,371758,22,0,B|505:14|505:14|488:194,1,175,6|8,0:0|0:0,0:0:0:0:
95,296,372137,6,0,L|-1:263,1,87.5,4|0,0:2|0:2,0:2:0:0:
290,65,372322,37,8,0:2:0:0:
371,33,372414,1,8,0:2:0:0:
406,95,372507,5,8,0:2:0:0:
396,181,372599,1,8,0:2:0:0:
386,268,372692,2,0,L|405:376,1,87.5,2|0,0:2|0:2,0:2:0:0:
86,178,372871,5,8,0:2:0:0:
26,102,372961,1,8,0:2:0:0:
59,24,373051,54,0,L|50:135,1,87.5,4|0,0:2|0:2,0:2:0:0:
41,332,373230,37,8,0:2:0:0:
117,370,373320,1,8,0:2:0:0:
200,344,373409,1,8,0:2:0:0:
284,318,373499,1,8,0:2:0:0:
360,356,373590,38,0,B|429:383|429:383|453:365|453:365|360:183,1,262.5,4|0,0:2|0:2,0:2:0:0:
453,163,373967,22,0,L|466:23,1,140,6|8,0:0|0:0,0:0:0:0:
23,111,374344,6,0,B|64:69|64:69|45:311,1,262.5,14|0,0:0|0:0,0:0:0:0:
40,364,374722,54,0,L|138:354,1,52.5000020027161,6|0,0:0|0:0,0:0:0:0:
435,333,374906,1,8,0:0:0:0:
313,38,375090,70,0,B|336:-3|336:-3|440:157,1,175,14|2,0:0|0:0,0:0:0:0:
92,358,375467,38,0,B|40:365|40:365|96:184,1,175,6|8,0:0|0:0,0:0:0:0:
462,63,375844,54,0,L|386:57,1,52.5000020027161,14|0,0:0|0:0,0:0:0:0:
79,34,376033,1,8,0:0:0:0:
460,308,376222,5,6,0:0:0:0:
22,339,376410,1,8,0:0:0:0:
428,152,376599,54,0,B|512:161|512:161|430:-2,1,262.5,14|0,0:0|0:0,0:0:0:0:
356,190,376976,22,0,L|374:367,1,140,6|8,0:0|0:0,0:0:0:0:
26,99,377354,6,0,B|69:64|69:64|35:208|35:208|52:293,1,262.5,14|0,0:0|0:0,0:0:0:0:
155,371,377731,54,0,L|120:230,1,140,6|8,0:0|0:0,0:0:0:0:
426,24,378108,70,0,L|528:12,1,87.5,4|0,0:2|0:2,0:2:0:0:
325,81,378288,21,8,0:2:0:0:
331,159,378378,1,8,0:2:0:0:
338,237,378468,1,8,0:2:0:0:
344,316,378559,1,8,0:2:0:0:
409,379,378650,6,0,L|421:255,1,87.5,2|0,0:2|0:2,0:2:0:0:
131,75,378830,53,8,0:2:0:0:
54,117,378920,1,8,0:2:0:0:
17,196,379010,1,8,0:2:0:0:
21,283,379101,1,8,0:2:0:0:
102,364,379192,70,0,L|91:253,1,87.5,2|0,0:2|0:2,0:2:0:0:
266,26,379373,37,8,0:2:0:0:
351,52,379463,1,8,0:2:0:0:
436,75,379553,38,0,B|501:57|501:57|473:267,1,262.5,12|0,0:0|0:0,0:0:0:0:
459,346,379933,22,0,L|363:334,1,52.5000020027161,6|0,0:0|0:0,0:0:0:0:
21,283,380124,1,8,0:0:0:0:
358,0,380314,70,0,L|346:88,1,52.5000020027161,14|0,0:0|0:0,0:0:0:0:
311,371,380510,2,0,L|318:318,1,52.5000020027161,8|0,0:0|0:0,0:0:0:0:
135,26,380706,69,6,0:0:0:0:
503,230,380891,1,8,0:0:0:0:
71,365,381076,38,0,B|152:376|152:376|72:179,1,262.5,14|0,0:0|0:0,0:0:0:0:
11,58,381452,54,0,L|1:246,1,140,6|8,0:0|0:0,0:0:0:0:
487,67,381828,70,0,P|409:52|331:103,1,157.500006008148,14|8,0:0|0:0,0:0:0:0:
25,317,382204,38,0,P|103:332|181:281,1,157.500006008148,14|8,0:0|0:0,0:0:0:0:
378,7,382581,38,0,B|418:45|418:45|405:280,1,262.5,14|0,0:0|0:0,0:0:0:0:
498,360,382956,6,0,L|337:325,1,140,6|8,0:0|0:0,0:0:0:0:
0,84,383331,6,0,L|51:76,1,52.5000020027161,14|0,0:0|0:0,0:0:0:0:
453,22,383518,2,0,L|387:32,1,52.5000020027161,8|0,0:0|0:0,0:0:0:0:
83,353,383706,6,0,B|156:375|156:375|100:222|100:222|128:151,1,315.000012016297,6|0,0:0|0:0,0:0:0:0:
256,40,384081,6,0,B|240:152|240:152|272:240|272:240|256:368,1,315.000012016297,6|0,0:0|0:0,0:0:0:0:
428,353,384456,22,0,B|356:375|356:375|412:222|412:222|384:151,1,315.000012016297,6|0,0:0|0:0,0:0:0:0:
429,38,384831,6,0,L|515:22,1,87.5,6|0,0:0|0:0,0:0:0:0:
89,51,385013,6,0,L|5:25,1,87.5,6|0,0:0|0:0,0:0:0:0:
428,353,385196,54,0,L|511:378,1,87.5,6|0,0:0|0:0,0:0:0:0:
83,353,385379,38,0,L|-13:373,1,87.5,6|0,0:0|0:0,0:0:0:0:
352,42,385565,22,0,B|460:100|520:297|387:392|387:392|342:301|397:237|397:237|326:137|145:141|68:200|68:200|66:74|205:-74|354:-7|354:-7|298:75|215:60|215:60|166:171|259:325|347:362|347:362|240:426|39:380|24:218|24:218|124:223|152:304|152:304|274:291|362:133|346:73,1,2781.65996222416,6|0,0:2|0:0,0:0:0:0:
68,215,399484,70,0,B|-44:250|-36:412|18:458|150:437|218:354|208:158|66:246|-40:111|13:-11|91:-80|155:-43|170:53|115:89,1,797.999975646973,2|0,0:0|0:0,0:0:0:0:
457,64,405128,6,0,B|478:82|511:87|511:87|432:80|431:101|353:92|353:92|333:100|333:100|320:97|320:97|306:103|306:103|290:101|290:101|307:124|306:142,1,328.860007125568
254,196,408513,2,0,L|255:213,1,9.33333333333333
234,225,408636,70,0,B|223:299|276:289|259:359,1,140,8|0,0:2|0:0,0:0:0:0:
339,380,410879,2,0,L|359:384,2,18.6666666666667,2|0|2,0:2|0:0|0:2,0:0:0:0:
366,66,411791,5,2,0:2:0:0:
366,159,412091,2,0,B|411:143|433:76|337:64|315:5|417:-90|611:-92|580:120|507:224|334:159|428:326|477:341|516:313,1,599.224513312849,2|0,0:2|0:0,0:0:0:0:
0,276,417616,70,0,P|63:238|93:247,1,105.000004005432,2|0,0:2|0:0,0:0:0:0:
213,256,418405,6,0,P|149:313|62:312,1,176.399994616699,2|0,0:2|0:0,0:0:0:0:
359,0,421362,70,0,B|328:2|305:15|305:15|307:-3|269:-26|276:16|295:21|295:21|276:34|267:46|267:46|259:47|259:47|259:55|259:55|247:72|243:89|243:89|233:75|215:85|215:85|199:85|185:83|173:77|157:58|157:58|158:46|153:37|153:37|155:47|150:58|150:58|122:58|109:61|88:70|88:70|128:55|143:57|161:73|175:81|175:81|176:111|154:116|154:116|178:111|177:83|177:83|197:93|214:92|214:92|222:111|241:101|241:101|237:125|240:149|240:149|236:156|236:156|241:159|241:159|244:174|250:188|250:188|221:170|186:182|186:182|185:177|169:161|169:182|175:188|175:188|159:197|150:213|150:213|143:213|134:214|134:214|126:214|119:213|109:209|99:193|99:193|97:189|97:189|96:196|96:196|72:205|72:205|90:198|101:193|119:217|128:219|128:219|121:225|121:225|136:223|144:223|144:223|137:237|137:254|137:254|132:263|132:263|138:266|138:266|140:278|145:287|145:287|138:307|121:322|121:322|109:315|99:323|99:323|75:308|62:313|62:313|73:311|95:324|95:324|88:335|96:350|96:350|55:393|55:393|100:355|100:355|113:364|126:360|126:360|140:370|137:393|137:393|137:370|129:356|129:356|137:347|134:334|134:334|150:319|168:315|168:315|176:322|187:326|187:326|189:333|189:333|199:330|199:330|216:333|231:329|231:329|233:341|229:354|229:354|235:347|235:347|237:358|251:366|254:373|251:393|251:393|254:374|247:364|240:360|239:351|240:344|240:344|245:334|242:326|242:326|259:320|271:306|271:306|276:314|298:319|284:297|279:296|279:296|298:265|285:232|285:232|294:240|317:249|317:249|318:255|318:255|326:252|326:252|349:259|376:260|376:260|361:276|377:288|377:288|373:304|379:324|379:324|352:320|338:344|338:344|349:322|382:328|382:328|386:344|399:364|399:379|393:393|393:393|397:382|400:357|400:357|412:355|421:359|421:359|413:352|399:351|399:351|386:332|382:318|382:303|385:288|385:288|400:275|388:259|388:259|404:257|423:250|423:250|431:253|431:253|433:245|433:245|447:239|463:225|463:225|465:241|507:259|486:213|470:218|470:218|491:193|495:163,1,2712.0800395622,2|0,0:2|0:3,0:3:0:0:
