osu file format v14

[General]
AudioFilename: audio.mp3
AudioLeadIn: 0
PreviewTime: 336830
Countdown: 0
SampleSet: Drum
StackLeniency: 0.4
Mode: 0
LetterboxInBreaks: 0
WidescreenStoryboard: 1

[Editor]
Bookmarks: 186195,287349,421362,500964,571458
DistanceSpacing: 0.5
BeatDivisor: 8
GridSize: 32
TimelineZoom: 4.999997

[Metadata]
Title:I Am S/H(im)e[r] As You Am S/H(im)e[r] As You Are Me And We Am I And I...
TitleUnicode:I Am S/H(im)e[r] As You Am S/H(im)e[r] As You Are Me And We Am I And I...
Artist:GIRAFFES? GIRAFFES!
ArtistUnicode:GIRAFFES? GIRAFFES!
Creator:squirrelpascals
Version:Chapter 1: Turmoil
Source:
Tags:All Our Together Our Collective Consciousness Psychogenic Fugue More Skin With Milk-Mouth Milk Mouth math rock Davvyforte Davvy _underjoy neyoru shimmer shimer she him her identity reality
BeatmapID:2173052
BeatmapSetID:1039602

[Difficulty]
HPDrainRate:4
CircleSize:5
OverallDifficulty:9.7
ApproachRate:10
SliderMultiplier:1.4
SliderTickRate:1

[Events]
//Background and Video events
0,0,"giraffes.jpg",0,0
//Break Periods
//Storyboard Layer 0 (Background)
//Storyboard Layer 1 (Fail)
//Storyboard Layer 2 (Pass)
//Storyboard Layer 3 (Foreground)
//Storyboard Layer 4 (Overlay)
//Storyboard Sound Samples

[TimingPoints]
100,227.272727272727,4,3,1,40,1,0
1690,-66.6666666666667,4,3,1,40,0,0
1918,229.007633587786,4,3,1,40,1,8
3292,222.222222222222,4,3,1,40,1,8
3736,220.588235294118,5,3,1,40,1,8
4838,-250,5,3,5,40,0,0
5721,244.897959183673,5,3,5,40,1,8
5965,221.40221402214,5,3,5,40,1,8
5965,-250,5,3,5,40,0,0
8843,227.272727272727,5,3,5,40,1,8
9297,220.588235294118,5,3,5,40,1,8
9297,-250,5,3,5,40,0,0
9407,-250,5,3,5,30,0,0
9627,-250,5,3,5,40,0,0
9737,-250,5,3,5,30,0,0
9958,-250,5,3,5,40,0,0
10068,-250,5,3,5,30,0,0
10179,-250,5,3,5,40,0,0
10289,-250,5,3,5,30,0,0
10399,-250,5,3,5,40,0,0
10509,-250,5,3,5,30,0,0
10730,-250,5,3,5,40,0,0
10840,-250,5,3,5,30,0,0
11061,-250,5,3,5,40,0,0
11171,-250,5,3,5,30,0,0
11282,-250,5,3,5,40,0,0
11392,-250,5,3,5,30,0,0
11502,218.181818181818,5,3,5,40,1,8
11502,-250,5,3,5,40,0,0
11611,-250,5,3,5,30,0,0
11829,-250,5,3,5,40,0,0
11938,-250,5,3,5,30,0,0
12156,-250,5,3,5,40,0,0
12265,-250,5,3,5,30,0,0
12374,-250,5,3,5,40,0,0
12483,-250,5,3,5,30,0,0
12592,-250,5,3,5,40,0,0
12701,-250,5,3,5,30,0,0
12811,226.415094339623,5,3,5,30,1,8
12811,-250,5,3,5,30,0,0
12924,-250,5,3,5,40,0,0
13037,-250,5,3,5,30,0,0
13263,-250,5,3,5,40,0,0
13376,-250,5,3,5,30,0,0
13490,-250,5,3,5,40,0,0
13603,-250,5,3,5,30,0,0
13716,218.181818181818,5,3,5,40,1,8
13716,-250,5,3,5,40,0,0
13825,-250,5,3,5,30,0,0
14043,-250,5,3,5,40,0,0
14152,-250,5,3,5,30,0,0
14370,-250,5,3,5,40,0,0
14479,-250,5,3,5,30,0,0
14589,230.769230769231,5,3,1,40,1,8
14589,-66.6666666666667,5,3,1,40,0,0
14756,-66.6666666666667,5,3,1,5,0,0
14819,250,5,3,2,40,1,8
15069,226.415094339623,5,3,1,5,1,8
15125,226.415094339623,5,3,1,40,1,8
15125,-200,5,3,1,40,0,0
16257,235.294117647059,5,3,1,40,1,8
16335,-100,5,3,1,30,0,0
16492,-100,5,3,1,40,0,0
16570,-100,5,3,1,30,0,0
16727,216.606498194946,5,3,1,40,1,8
16727,-200,5,3,1,40,0,0
17160,226.415094339623,5,3,1,40,1,8
17160,-200,5,3,1,40,0,0
17386,223.880597014925,5,3,1,40,1,8
17386,-200,5,3,1,40,0,0
18505,230.769230769231,5,3,1,40,1,8
18505,-200,5,3,1,40,0,0
18908,-200,5,3,1,30,0,0
18966,218.181818181818,5,3,1,40,1,8
18966,-200,5,3,1,40,0,0
19402,235.294117647059,5,3,1,40,1,8
19402,-200,5,3,1,40,0,0
19637,214.285714285714,5,3,1,40,1,8
19637,-200,5,3,1,40,0,0
20244,-200,5,3,1,40,0,0
20279,-200,5,3,1,25,0,0
20494,240,5,3,1,40,1,8
20494,-200,5,3,1,40,0,0
20734,222.222222222222,5,3,1,40,1,8
20734,-200,5,3,1,40,0,0
21067,363.636363636364,5,3,1,40,1,8
21248,304.568527918782,5,3,1,40,1,8
21248,-75.187969924812,5,3,1,40,0,0
21400,230.769230769231,5,3,1,40,1,8
21400,-200,5,3,1,40,0,0
21515,-200,5,3,1,5,0,0
21630,-200,5,3,1,40,0,0
21861,218.181818181818,5,3,1,40,1,8
21861,-200,5,3,1,40,0,0
22297,206.896551724138,5,3,1,40,1,8
22297,-200,5,3,1,40,0,0
22400,240,5,3,1,40,1,8
22400,-98.0392156862745,5,3,1,40,0,0
22640,-98.0392156862745,5,3,1,5,0,0
22760,253.164556962025,5,3,1,40,1,8
23013,214.285714285714,5,3,1,40,1,8
23334,203.389830508475,5,3,1,40,1,8
23537,230.769230769231,5,3,1,40,1,8
23767,-100,5,3,1,5,0,0
23883,240,5,3,1,40,1,8
24124,222.222222222222,5,3,1,40,1,8
24457,206.896551724138,5,3,1,40,1,8
24663,240,5,3,1,40,1,8
24903,-100,5,3,1,5,0,0
25023,227.272727272727,5,3,1,40,1,8
25251,222.222222222222,5,3,1,40,1,8
25584,200,5,3,1,40,1,8
25784,232.558139534884,5,3,1,40,1,8
26016,-100,5,3,1,5,0,0
26132,263.157894736842,5,3,1,40,1,8
26396,233.463035019455,5,3,1,40,1,8
26425,-100,5,3,1,5,0,0
26630,228.136882129278,5,3,1,40,1,8
27542,-200,5,3,1,40,0,0
27770,235.294117647059,5,3,1,40,1,8
27770,-166.666666666667,5,3,1,40,0,0
28122,244.897959183673,5,3,1,40,1,8
28122,-166.666666666667,5,3,1,40,0,0
28183,-166.666666666667,5,3,1,30,0,0
28244,226.415094339623,5,3,1,40,1,8
28244,-166.666666666667,5,3,1,40,0,0
28923,223.880597014925,5,3,1,40,1,8
28923,-200,5,3,1,40,0,0
30265,235.294117647059,5,3,1,40,1,8
30266,-200,5,3,1,40,0,0
30500,214.285714285714,5,3,1,40,1,8
30500,-200,5,3,1,40,0,0
30928,244.897959183673,5,3,1,40,1,8
30928,-200,5,3,1,40,0,0
31172,225.563909774436,5,3,1,40,1,8
31172,-200,5,3,1,40,0,0
31848,-133.333333333333,5,3,1,40,0,0
32299,230.769230769231,4,3,2,40,1,9
32414,-200,4,3,2,40,0,0
32760,240,4,3,2,40,1,8
33240,226.415094339623,4,3,2,40,1,8
34145,222.222222222222,5,3,2,40,1,8
34145,-76.9230769230769,5,3,2,40,0,0
34811,230.769230769231,5,3,2,40,1,8
35041,244.897959183673,5,3,2,40,1,8
35285,226.415094339623,5,3,2,40,1,8
35285,-76.9230769230769,5,3,2,40,0,0
35737,240,5,3,2,40,1,8
36217,188.679245283019,5,3,1,40,1,8
36217,-200,5,3,1,40,0,0
36311,-200,5,3,1,25,0,0
36406,235.294117647059,4,3,2,40,1,9
36523,-100,4,3,2,40,0,0
36876,228.136882129278,4,3,2,40,1,8
37332,222.222222222222,4,3,2,40,1,8
37776,214.285714285714,4,3,2,40,1,8
38204,222.222222222222,5,3,2,40,1,8
38204,-76.9230769230769,5,3,2,40,0,0
38426,-76.9230769230769,5,3,2,40,0,0
39537,218.181818181818,5,3,2,40,1,8
39537,-76.9230769230769,5,3,2,40,0,0
40082,235.294117647059,5,3,2,40,1,8
40434,219.78021978022,4,3,2,40,1,9
40543,-100,4,3,2,40,0,0
40873,228.136882129278,4,3,2,40,1,8
41329,228.136882129278,4,3,2,40,1,8
41785,210.526315789474,4,3,2,40,1,8
42100,292.682926829268,4,3,2,40,1,8
42247,210.526315789474,5,3,2,40,1,8
42668,222.222222222222,5,3,2,40,1,8
42668,-76.9230769230769,5,3,2,40,0,0
43113,240,5,3,2,40,1,8
43113,-76.9230769230769,5,3,2,40,0,0
43353,214.285714285714,5,3,2,40,1,8
43353,-76.9230769230769,5,3,2,40,0,0
43781,230.769230769231,5,3,2,40,1,8
43781,-76.9230769230769,5,3,2,40,0,0
44242,214.285714285714,5,3,1,40,1,8
44456,235.294117647059,5,3,2,40,1,9
44456,-66.6666666666667,5,3,2,40,0,1
44573,-66.6666666666667,5,3,2,40,0,0
44682,-76.9230769230769,5,3,2,40,0,0
45132,-76.9230769230769,5,3,2,40,0,0
45161,215.827338129496,5,3,2,30,1,8
45161,-76.9230769230769,5,3,2,30,0,0
45376,-76.9230769230769,5,3,1,40,0,0
45700,266.666666666667,5,3,1,40,1,8
45834,223.880597014925,5,3,2,40,1,8
45834,-76.9230769230769,5,3,2,40,0,0
46169,223.880597014925,5,3,2,40,1,8
46280,-76.9230769230769,5,3,2,40,0,0
46729,214.285714285714,5,3,1,40,1,8
46729,-76.9230769230769,5,3,1,40,0,0
46836,-76.9230769230769,5,3,2,40,0,0
46943,253.164556962025,5,3,2,40,1,8
47196,218.181818181818,5,3,2,40,1,8
47196,-76.9230769230769,5,3,2,40,0,0
47632,229.445506692161,5,3,2,40,1,8
47632,-76.9230769230769,5,3,2,40,0,0
48090,-76.9230769230769,5,3,1,40,0,0
48205,-76.9230769230769,5,3,2,25,0,0
48262,-76.9230769230769,5,3,2,30,0,0
48320,-76.9230769230769,5,3,2,40,0,0
48550,218.181818181818,5,3,2,40,1,8
48550,-76.9230769230769,5,3,2,40,0,0
49095,240,5,3,2,40,1,8
49095,-76.9230769230769,5,3,2,40,0,0
49455,-76.9230769230769,5,3,1,40,0,0
49695,214.285714285714,5,3,2,40,1,8
49695,-76.9230769230769,5,3,2,40,0,0
50230,244.897959183673,5,3,2,40,1,8
50597,240,5,3,1,40,1,8
50597,-76.9230769230769,5,3,1,40,0,0
50837,232.558139534884,4,3,2,40,1,9
50953,-100,4,3,2,40,0,0
51767,222.222222222222,4,3,2,40,1,8
52655,230.769230769231,4,3,1,40,1,8
52655,-71.4285714285714,4,3,1,40,0,0
54039,-71.4285714285714,4,3,2,40,0,0
54270,218.181818181818,4,3,2,40,1,8
54488,222.222222222222,4,3,2,40,1,9
54599,-100,4,3,2,40,0,0
55376,226.415094339623,4,3,2,40,1,8
56281,231.660231660232,4,3,1,40,1,8
57208,223.880597014925,4,3,1,40,1,8
57879,-76.9230769230769,4,3,1,40,0,0
58103,235.294117647059,4,3,2,40,1,9
58220,-100,4,3,2,40,0,0
58338,226.415094339623,4,3,2,40,1,8
59017,223.880597014925,4,3,2,40,1,8
59464,218.181818181818,4,3,2,40,1,8
59791,260.869565217391,4,3,2,40,1,8
59921,214.285714285714,4,3,1,40,1,8
59921,-71.4285714285714,4,3,1,40,0,0
60135,232.558139534884,4,3,1,40,1,8
60135,-71.4285714285714,4,3,1,40,0,0
60832,223.048327137546,4,3,1,40,1,8
60832,-71.4285714285714,4,3,1,40,0,0
61278,-71.4285714285714,4,3,2,40,0,0
61725,224.719101123595,4,3,2,40,1,9
61837,-100,4,3,2,40,0,0
62174,228.136882129278,4,3,2,40,1,8
62630,228.136882129278,4,3,2,40,1,8
63086,224.719101123595,4,3,2,40,1,8
63423,250,4,3,2,40,1,8
63548,226.415094339623,4,3,1,40,1,8
64453,223.880597014925,4,3,1,40,1,8
65124,-76.9230769230769,4,3,1,40,0,0
65349,226.415094339623,4,3,2,40,1,9
65349,-66.6666666666667,4,3,2,40,0,1
65801,244.897959183673,4,3,2,40,1,9
65801,-66.6666666666667,4,3,2,40,0,1
66291,226.415094339623,4,3,2,40,1,9
66291,-66.6666666666667,4,3,2,40,0,1
66970,-66.6666666666667,4,3,1,40,0,1
67423,240,4,3,2,40,1,9
67423,-66.6666666666667,4,3,2,40,0,1
67903,230.769230769231,4,3,1,40,1,9
67903,-66.6666666666667,4,3,1,40,0,1
68133,-66.6666666666667,4,3,2,40,0,1
68594,219.78021978022,4,3,2,40,1,9
68703,-100,4,3,1,40,0,1
69033,240,6,3,3,40,1,8
69033,-200,6,3,3,40,0,0
69753,222.222222222222,6,3,3,40,1,8
69753,-400,6,3,3,40,0,0
70197,247.933884297521,6,3,3,40,1,8
70445,233.463035019455,6,3,3,40,1,8
70445,-200,6,3,3,40,0,0
72546,-400,6,3,3,40,0,0
72779,240,6,3,3,40,1,8
73259,240,6,3,3,40,1,8
73259,-200,6,3,3,40,0,0
73979,235.294117647059,6,3,3,40,1,8
73979,-200,6,3,3,40,0,0
74449,226.415094339623,6,3,3,40,1,8
74675,-200,6,3,3,40,0,0
75241,285.714285714286,6,3,3,40,1,8
75383,230.769230769231,6,3,3,40,1,8
75383,-400,6,3,3,40,0,0
75844,235.294117647059,6,3,3,40,1,8
76079,222.222222222222,6,3,3,40,1,8
76079,-200,6,3,2,40,0,0
76301,-200,6,3,3,40,0,0
76412,-200,6,3,2,40,0,0
76523,255.31914893617,6,3,2,40,1,8
76523,-200,6,3,2,40,0,0
76778,223.880597014925,6,3,2,40,1,8
76778,-200,6,3,2,40,0,0
77001,-200,6,3,3,40,0,0
77113,-200,6,3,1,40,0,0
77450,231.660231660232,6,3,3,40,1,8
77450,-200,6,3,3,40,0,0
78144,-400,6,3,3,40,0,0
78839,-200,6,3,3,40,0,0
79534,228.136882129278,6,3,3,40,1,8
79534,-200,6,3,3,40,0,0
80218,235.294117647059,6,3,3,40,1,8
80218,-200,6,3,3,40,0,0
80923,-400,6,3,3,40,0,0
81629,-200,6,3,3,40,0,0
82100,255.31914893617,6,3,3,40,1,8
82100,-200,6,3,3,40,0,0
82355,234.375,6,3,3,40,1,8
82355,-200,6,3,3,40,0,0
83058,236.220472440945,6,3,3,40,1,8
83058,-200,6,3,3,40,0,0
83530,248.96265560166,6,3,3,40,1,8
83530,-200,6,3,3,40,0,0
83778,232.558139534884,6,3,3,40,1,8
83778,-400,6,3,3,40,0,0
84475,218.181818181818,6,3,3,40,1,8
84475,-200,6,3,2,40,0,0
84911,260.869565217391,6,3,2,40,1,8
85172,228.136882129278,6,3,2,40,1,8
85172,-200,6,3,2,40,0,0
85400,-200,6,3,3,40,0,0
85628,-200,6,3,1,40,0,0
85856,230.769230769231,6,3,2,40,1,8
85856,-200,6,3,2,40,0,0
86779,240,6,3,2,40,1,8
86779,-200,6,3,3,40,0,0
87019,-200,6,3,1,40,0,0
87259,232.558139534884,6,3,2,40,1,8
87259,-200,6,3,2,40,0,0
87956,228.136882129278,6,3,2,40,1,8
87956,-200,6,3,2,40,0,0
88412,-200,6,3,1,40,0,0
88640,241.935483870968,6,3,2,40,1,8
88640,-200,6,3,2,40,0,0
89003,244.897959183673,6,3,2,40,1,8
89003,-200,6,3,2,40,0,0
89370,226.415094339623,6,3,2,40,1,8
89370,-200,6,3,2,40,0,0
89822,-200,6,3,1,40,0,0
90049,226.415094339623,6,3,2,40,1,8
90049,-200,6,3,2,40,0,0
90275,255.31914893617,6,3,2,40,1,8
90402,217.391304347826,6,3,2,40,1,8
90402,-133.333333333333,6,3,2,40,0,0
90728,235.294117647059,6,3,1,40,1,8
91433,232.558139534884,6,3,3,40,1,8
91433,-200,6,3,3,40,0,0
92130,-400,6,3,3,40,0,0
92595,241.935483870968,6,3,3,40,1,8
92836,228.136882129278,6,3,3,40,1,8
92836,-200,6,3,3,40,0,0
93520,214.285714285714,6,3,3,40,1,8
93520,-200,6,3,3,40,0,0
93734,235.294117647059,6,3,3,40,1,8
93734,-200,6,3,3,40,0,0
94204,235.294117647059,6,3,3,40,1,8
94204,-200,6,3,3,40,0,0
94909,238.095238095238,6,3,3,40,1,8
94909,-400,6,3,3,40,0,0
95625,235.294117647059,6,3,3,40,1,8
95625,-200,6,3,3,40,0,0
96801,240,6,3,3,40,1,8
97041,231.660231660232,6,3,3,40,1,8
97041,-133.333333333333,6,3,3,40,0,0
97735,240,6,3,3,40,1,8
97735,-400,6,3,3,40,0,0
97855,-400,6,3,3,20,0,0
97975,-200,6,3,3,40,0,0
98215,222.222222222222,6,3,3,40,1,8
98437,244.897959183673,4,3,1,40,1,9
98926,237.154150197628,4,3,1,40,1,9
99401,225.563909774436,4,3,1,40,1,9
100303,229.007633587786,4,3,1,40,1,9
101219,229.007633587786,5,3,1,40,1,9
101219,-66.6666666666667,5,3,1,40,0,1
102135,255.31914893617,5,3,2,30,1,9
102305,-100,5,3,1,5,0,1
102390,230.769230769231,4,3,1,40,1,9
104236,225.563909774436,4,3,1,40,1,9
105138,225.563909774436,5,3,1,40,1,9
106040,250,5,3,1,40,1,9
106290,250,7,3,1,40,1,8
106477,-100,7,3,1,5,0,0
106540,240.963855421687,7,3,1,40,1,8
106961,-100,7,3,1,5,0,0
107021,-100,7,3,1,40,0,0
107261,226.415094339623,7,3,1,40,1,8
107430,-100,7,3,1,5,0,0
107487,-66.6666666666667,7,3,1,40,0,0
107713,235.294117647059,7,3,1,40,1,8
107713,-66.6666666666667,7,3,1,40,0,0
107949,237.154150197628,7,3,1,40,1,8
108126,-100,7,3,1,5,0,0
108186,-100,7,3,1,40,0,0
108601,-100,7,3,1,5,0,0
108660,-100,7,3,1,40,0,0
108897,240,7,3,1,40,1,8
109077,-100,7,3,1,5,0,0
109137,-66.6666666666667,7,3,1,40,0,0
109617,230.769230769231,7,3,1,40,1,8
109788,-100,7,3,1,5,0,0
109847,233.463035019455,7,3,1,40,1,8
109847,-66.6666666666667,7,3,1,40,0,0
110080,-100,7,3,1,40,0,0
110255,-100,7,3,1,5,0,0
110313,-66.6666666666667,7,3,1,40,0,0
110547,-100,7,3,1,40,0,0
110722,-100,7,3,1,5,0,0
110780,-66.6666666666667,7,3,1,40,0,0
111014,240,7,3,1,40,1,8
111014,-66.6666666666667,7,3,1,40,0,0
111254,240,7,3,1,40,1,8
111434,-100,7,3,1,5,0,0
111494,-66.6666666666667,7,3,1,40,0,0
111734,-100,7,3,1,40,0,0
111914,-100,7,3,1,5,0,0
111974,-66.6666666666667,7,3,1,40,0,0
112214,233.463035019455,7,3,1,40,1,8
112389,-100,7,3,1,5,0,0
112447,-66.6666666666667,7,3,1,40,0,0
112680,242.424242424242,7,3,1,40,1,8
112680,-66.6666666666667,7,3,1,40,0,0
112922,-100,7,3,1,40,0,0
113164,229.007633587786,7,3,1,40,1,8
113164,-55.5555555555556,7,3,1,40,0,0
113393,-100,7,3,1,40,0,0
113622,-55.5555555555556,7,3,1,40,0,0
113851,-100,7,3,1,40,0,0
114080,-55.5555555555556,7,3,1,40,0,0
114309,238.095238095238,7,3,1,40,1,8
114309,-55.5555555555556,7,3,1,40,0,0
114548,232.558139534884,7,3,1,40,1,8
114722,-100,7,3,1,5,0,0
114779,-55.5555555555556,7,3,1,40,0,0
115013,-100,7,3,1,40,0,0
115187,-100,7,3,1,5,0,0
115244,-55.5555555555556,7,3,1,40,0,0
115478,-100,7,3,1,40,0,0
115710,229.007633587786,7,3,1,40,1,8
115710,-55.5555555555556,7,3,1,40,0,0
115939,-71.4285714285714,7,3,1,40,0,0
116168,237.154150197628,4,3,1,40,1,8
116345,-100,4,3,1,5,0,0
116405,-100,4,3,1,40,0,0
116820,-100,4,3,1,5,0,0
116880,-100,4,3,1,40,0,0
117116,241.935483870968,4,3,1,40,1,8
117297,-100,4,3,1,5,0,0
117357,-100,4,3,1,40,0,0
117599,235.294117647059,4,3,1,40,1,8
117775,-100,4,3,1,5,0,0
117834,-100,4,3,1,40,0,0
118069,228.136882129278,4,3,1,40,1,8
118240,-100,4,3,1,5,0,0
118297,-100,4,3,1,40,0,0
118468,-100,4,3,1,5,0,0
118525,-100,4,3,1,40,0,0
118696,-100,4,3,1,5,0,0
118753,-100,4,3,1,40,0,0
118924,-100,4,3,1,5,0,0
118981,-100,4,3,1,40,0,0
119152,-100,4,3,1,5,0,0
119209,-100,4,3,1,40,0,0
119437,255.31914893617,4,3,1,40,1,8
119692,228.136882129278,4,3,1,40,1,8
119920,447.761194029851,4,3,1,40,1,9
119920,-28.5714285714286,4,3,1,40,0,1
120367,-28.5714285714286,4,3,1,5,0,1
120591,-28.5714285714286,4,3,1,40,0,1
121039,-28.5714285714286,4,3,1,5,0,1
121263,-28.5714285714286,4,3,1,40,0,1
121431,-28.5714285714286,4,3,1,5,0,1
121487,-57.1428571428571,4,3,5,40,0,1
121599,-57.1428571428571,4,3,5,5,0,1
121711,458.015267175573,4,3,5,40,1,9
121711,-57.1428571428571,4,3,5,40,0,1
121825,-57.1428571428571,4,3,5,5,0,1
121940,-57.1428571428571,4,3,5,40,0,1
122169,-57.1428571428571,4,3,5,5,0,1
122284,-57.1428571428571,4,3,5,40,0,1
122512,-57.1428571428571,4,3,5,5,0,1
122627,-57.1428571428571,4,3,5,40,0,1
122741,-57.1428571428571,4,3,5,5,0,1
122856,-57.1428571428571,4,3,5,40,0,1
122970,-57.1428571428571,4,3,5,5,0,1
123085,-114.285714285714,4,3,5,40,0,1
123542,444.444444444444,5,3,1,40,1,9
123542,-28.5714285714286,5,3,1,40,0,1
123986,-28.5714285714286,5,3,1,5,0,1
124208,-28.5714285714286,5,3,1,40,0,1
124652,-28.5714285714286,5,3,1,5,0,1
124875,428.571428571429,5,3,1,40,1,9
124875,-28.5714285714286,5,3,1,40,0,1
125196,-28.5714285714286,5,3,1,5,0,1
125303,461.538461538462,5,3,1,30,1,9
125360,-100,5,3,1,40,0,1
125533,-100,5,3,2,40,0,1
125764,441.176470588235,4,3,1,40,1,9
125764,-28.5714285714286,4,3,1,40,0,1
126205,-28.5714285714286,4,3,1,5,0,1
126425,413.793103448276,4,3,1,40,1,9
126425,-28.5714285714286,4,3,1,40,0,1
126838,-28.5714285714286,4,3,1,5,0,1
127045,508.474576271186,4,3,1,40,1,9
127045,-28.5714285714286,4,3,1,40,0,1
127426,-28.5714285714286,4,3,1,5,0,1
127555,428.571428571429,4,3,1,40,1,9
128412,461.538461538462,4,3,2,40,1,9
128873,444.444444444444,4,3,5,40,1,9
129095,-100,4,3,5,25,0,1
129206,560.747663551402,4,3,5,40,1,9
129346,441.176470588235,5,3,1,40,1,9
129346,-32.6797385620915,5,3,1,40,0,1
129787,-32.6797385620915,5,3,1,5,0,1
130007,413.793103448276,5,3,1,40,1,9
130007,-32.6797385620915,5,3,1,40,0,1
130420,497.92531120332,5,3,1,5,1,9
130669,413.793103448276,5,3,1,40,1,9
130669,-28.5714285714286,5,3,1,40,0,1
130979,-28.5714285714286,5,3,1,5,0,1
131082,454.545454545455,5,3,1,40,1,9
131536,447.761194029851,4,3,1,40,1,9
131536,-28.5714285714286,4,3,1,40,0,1
131983,-28.5714285714286,4,3,1,5,0,1
132207,-28.5714285714286,4,3,1,40,0,1
132654,-28.5714285714286,4,3,1,5,0,1
132879,437.956204379562,4,3,1,40,1,9
132988,-50,4,3,1,40,0,1
133207,-50,4,3,1,5,0,1
133316,521.739130434783,4,3,5,30,1,9
133489,-100,4,3,5,40,0,1
133837,-133.333333333333,4,3,5,40,0,1
133968,-133.333333333333,4,3,5,5,0,1
134098,600,4,3,5,40,1,9
134398,392.156862745098,4,3,5,40,1,9
134398,-66.6666666666667,4,3,5,40,0,1
135084,-66.6666666666667,4,3,5,5,0,1
135182,441.176470588235,5,3,1,40,1,9
135182,-27.7777777777778,5,3,1,40,0,1
135623,-27.7777777777778,5,3,1,5,0,1
135843,-27.7777777777778,5,3,1,40,0,1
136284,-27.7777777777778,5,3,1,5,0,1
136505,431.654676258993,5,3,1,40,1,9
136505,-28.5714285714286,5,3,1,40,0,1
136828,-28.5714285714286,5,3,1,5,0,1
136936,500,5,3,1,30,1,9
136977,-100,5,3,1,40,0,1
137186,444.444444444444,5,3,1,40,1,9
137408,461.538461538462,4,3,1,40,1,9
137408,-28.5714285714286,4,3,1,40,0,1
137869,-28.5714285714286,4,3,1,5,0,1
138100,428.571428571429,4,3,1,40,1,9
138100,-28.5714285714286,4,3,1,40,0,1
138367,-28.5714285714286,4,3,1,5,0,1
138421,-38.1679389312977,4,3,5,40,0,1
138582,-38.1679389312977,4,3,2,5,0,1
138742,466.926070038911,4,3,1,40,1,9
138742,-28.5714285714286,4,3,1,40,0,1
139092,-28.5714285714286,4,3,1,5,0,1
139208,461.538461538462,4,3,1,40,1,9
139208,-66.6666666666667,4,3,1,40,0,1
139438,428.571428571429,4,3,1,40,1,9
139866,-100,4,3,2,40,0,1
139973,-100,4,3,1,40,0,1
140295,-100,4,3,2,40,0,1
140509,444.444444444444,4,3,1,40,1,9
140620,-100,4,3,3,40,0,1
140842,-100,4,3,1,40,0,1
140953,437.956204379562,5,3,1,40,1,9
140953,-25,5,3,1,40,0,1
141390,-25,5,3,1,5,0,1
141609,447.761194029851,5,3,1,40,1,9
141609,-25,5,3,1,40,0,1
142056,-25,5,3,1,5,0,1
142280,434.782608695652,5,3,1,40,1,9
142280,-28.5714285714286,5,3,1,40,0,1
142606,-28.5714285714286,5,3,1,5,0,1
142714,-100,5,3,1,40,0,0
142751,-100,5,3,1,30,0,0
142932,451.127819548872,5,3,1,40,1,8
143157,427.046263345196,5,3,2,40,1,9
143157,-40,5,3,2,40,0,1
143744,-40,5,3,2,5,0,1
143797,-40,5,3,2,40,0,1
143904,-40,5,3,2,5,0,1
144011,-40,5,3,2,40,0,1
144865,434.782608695652,5,3,2,40,1,9
144865,-40,5,3,2,40,0,1
145028,-40,5,3,2,5,0,1
145082,-40,5,3,2,40,0,1
145191,-40,5,3,2,5,0,1
145299,-40,5,3,2,40,0,1
145408,-40,5,3,2,5,0,1
145517,-40,5,3,2,40,0,1
145734,397.350993377483,5,3,2,40,1,9
145833,-40,5,3,2,5,0,1
145932,-40,5,3,2,40,0,1
146132,422.535211267606,5,3,2,40,1,9
146237,-100,5,3,2,5,0,1
146343,-40,5,3,2,40,0,1
146501,-40,5,3,2,5,0,1
146554,-40,5,3,2,40,0,1
146871,-40,5,3,2,5,0,1
146977,-40,5,3,2,40,0,1
147135,-40,5,3,2,5,0,1
147188,-40,5,3,2,40,0,1
147399,428.571428571429,5,3,2,40,1,9
147399,-40,5,3,2,40,0,1
147827,-40,5,3,2,40,0,1
147934,-40,5,3,2,5,0,1
148041,-40,5,3,2,40,0,1
148256,-33.3333333333333,5,3,2,40,0,1
148470,419.58041958042,5,3,2,40,1,9
148470,-25.6410256410256,5,3,2,40,0,1
148784,-25.6410256410256,5,3,2,5,0,1
148889,-25.6410256410256,5,3,2,40,0,1
149099,414.9377593361,5,3,1,40,1,8
149099,-148.964695367198,5,3,1,40,0,0
156982,610.376398779247,3,3,1,40,1,0
158813,600,3,3,1,40,1,0
160613,598.503740648379,3,3,1,40,1,0
164203,600,3,3,1,5,1,8
166003,576.923076923077,3,2,1,20,1,8
167733,591.133004926108,3,2,1,20,1,8
171279,606.060606060606,3,2,1,20,1,8
173097,571.428571428571,3,2,1,20,1,8
174239,631.578947368421,3,2,1,20,1,8
174870,600,3,2,1,20,1,8
178470,582.52427184466,3,2,1,20,1,8
180217,606.060606060606,3,2,1,20,1,8
182035,588.235294117647,3,2,1,20,1,8
184976,631.578947368421,3,2,1,20,1,8
185607,588.235294117647,3,2,1,20,1,8
186195,571.428571428571,3,2,5,10,1,8
186766,-100,3,2,5,12,0,0
187337,600,3,2,5,14,1,8
187937,-100,3,2,5,16,0,0
188537,-100,3,2,5,18,0,0
188837,666.666666666667,3,2,5,18,1,8
189170,606.060606060606,3,2,5,20,1,8
189170,-200,3,2,5,20,0,0
189473,-200,3,2,5,5,0,0
189776,-200,3,2,5,20,0,0
191291,-200,3,2,5,5,0,0
191594,-200,3,2,5,20,0,0
192806,618.556701030928,3,2,5,20,1,8
192806,-200,3,2,5,20,0,0
193115,-200,3,2,5,5,0,0
193424,-200,3,2,5,20,0,0
194661,600,3,2,5,20,1,8
194661,-200,3,2,5,20,0,0
194961,-200,3,2,5,5,0,0
195261,-200,3,2,5,20,0,0
195861,666.666666666667,3,2,5,20,1,8
196527,600,3,2,5,20,1,8
196527,-200,3,2,5,20,0,0
198327,588.235294117647,3,2,5,20,1,8
198327,-200,3,2,5,20,0,0
199503,645.161290322581,3,2,5,20,1,8
199503,-200,3,2,5,20,0,0
200148,594.059405940594,3,2,5,20,1,8
200148,-200,3,2,5,20,0,0
201336,618.556701030928,3,2,5,20,1,8
201336,-200,3,2,5,20,0,0
201954,645.161290322581,3,2,5,20,1,8
201954,-200,3,2,5,20,0,0
202276,-200,3,2,5,5,0,0
202599,612.244897959184,3,2,5,10,1,8
202599,-200,3,2,5,10,0,0
203211,-200,3,2,5,15,0,0
203823,571.428571428571,3,2,5,20,1,8
203823,-200,3,2,5,20,0,0
204108,-200,3,2,5,5,0,0
204394,-200,3,2,5,20,0,0
204965,631.578947368421,3,2,5,20,1,8
204965,-200,3,2,5,20,0,0
205596,594.059405940594,3,2,5,20,1,8
205596,-200,3,2,5,20,0,0
205893,-200,3,2,5,5,0,0
206190,-200,3,2,5,20,0,0
206784,612.244897959184,3,2,5,20,1,8
206784,-200,3,2,5,20,0,0
207396,588.235294117647,3,2,5,20,1,8
207396,-200,3,2,5,20,0,0
207690,-200,3,2,5,5,0,0
207984,-200,3,2,5,20,0,0
208572,631.578947368421,3,2,5,20,1,8
208572,-200,3,2,5,20,0,0
209203,618.556701030928,3,2,5,20,1,8
209203,-200,3,2,5,20,0,0
209512,-200,3,2,5,5,0,0
209821,-200,3,2,5,20,0,0
210440,594.059405940594,3,2,5,20,1,8
210440,-200,3,2,5,20,0,0
211034,631.578947368421,3,2,5,20,1,8
211034,-200,3,2,5,20,0,0
211665,600,3,2,5,20,1,8
211665,-200,3,2,5,20,0,0
212265,-200,3,2,5,15,0,0
212865,612.244897959184,3,2,5,20,1,8
212865,-200,3,2,5,20,0,0
214089,594.059405940594,3,2,5,20,1,8
214089,-200,3,2,5,15,0,0
214683,-200,3,2,5,20,0,0
215277,645.161290322581,3,2,5,20,1,8
215277,-200,3,2,5,20,0,0
215922,576.923076923077,3,2,5,15,1,8
215922,-200,3,2,5,15,0,0
216499,618.556701030928,3,2,5,20,1,8
216499,-200,3,2,5,20,0,0
217736,594.059405940594,3,2,5,15,1,8
217736,-200,3,2,5,15,0,0
218330,-200,3,2,5,20,0,0
218923,606.060606060606,3,2,5,10,1,8
218923,-200,3,2,5,10,0,0
219529,-200,3,2,5,12,0,0
220135,608.210846426761,3,2,5,14,1,8
220135,-200,3,2,5,14,0,0
220743,-200,3,2,5,16,0,0
221351,-200,3,2,5,18,0,0
221959,-200,3,2,5,20,0,0
223176,-200,3,2,5,10,0,0
223784,659.340659340659,3,2,5,20,1,8
223784,-211.416490486258,3,2,5,20,0,0
224443,609.137055837563,3,2,5,20,1,8
224443,-200,3,2,5,20,0,0
225052,-200,3,2,5,10,0,0
225661,652.173913043478,3,2,5,20,1,8
225661,-200,3,2,5,20,0,0
226313,588.235294117647,3,2,5,20,1,8
226313,-200,3,2,5,20,0,0
226901,-200,3,2,5,15,0,0
227489,645.161290322581,3,2,5,20,1,8
227489,-200,3,2,5,20,0,0
228134,645.161290322581,3,2,5,20,1,8
228134,-200,3,2,5,20,0,0
228779,-200,3,2,5,15,0,0
229424,645.161290322581,3,2,5,20,1,8
229424,-192.307692307692,3,2,5,20,0,0
230069,600,3,2,5,20,1,8
230069,-200,3,2,5,20,0,0
230669,-200,3,2,5,15,0,0
231269,615.384615384615,3,2,5,20,1,8
231269,-200,3,2,5,20,0,0
234345,-200,3,2,5,15,0,0
234961,628.272251308901,3,2,5,20,1,8
234961,-200,3,2,5,20,0,0
235589,-200,3,2,5,10,0,0
236217,-200,3,2,5,15,0,0
236845,-200,3,2,5,20,0,0
238730,612.244897959184,3,2,5,20,1,8
238730,-200,3,2,5,20,0,0
239954,582.52427184466,3,2,5,20,1,8
239954,-200,3,2,5,20,0,0
240536,606.060606060606,3,2,5,20,1,8
240536,-200,3,2,5,20,0,0
240839,-200,3,2,5,5,0,0
241142,-200,3,2,5,20,0,0
241748,638.297872340426,3,2,5,20,1,8
241748,-200,3,2,5,20,0,0
242386,615.384615384615,3,2,5,20,1,8
242386,-200,3,2,5,20,0,0
242693,-200,3,2,5,5,0,0
243001,-200,3,2,5,20,0,0
244232,638.297872340426,3,2,5,20,1,8
244232,-200,3,2,5,20,0,0
244870,588.235294117647,3,2,5,20,1,8
244870,-200,3,2,5,20,0,0
245458,-200,3,2,5,15,0,0
246046,588.235294117647,3,2,5,20,1,8
246046,-210.084033613445,3,2,5,20,0,0
246634,603.015075376884,3,2,5,20,1,8
246634,-200,3,2,5,20,0,0
247237,-200,3,2,5,15,0,0
247840,603.015075376884,3,2,5,20,1,8
247840,-200,3,2,5,20,0,0
248443,618.556701030928,3,2,5,20,1,8
248443,-200,3,2,5,20,0,0
249061,576.923076923077,3,2,5,15,1,8
249061,-200,3,2,5,20,0,0
249637,612.244897959184,3,2,5,20,1,8
249637,-200,3,2,5,20,0,0
250861,-200,3,2,5,15,0,0
251473,606.060606060606,3,2,5,20,1,8
251473,-200,3,2,5,20,0,0
252079,-200,3,2,5,10,0,0
252685,-200,3,2,5,12,0,0
253291,-200,3,2,5,14,0,0
253897,-200,3,2,5,16,0,0
254503,-200,3,2,5,18,0,0
255109,631.578947368421,3,2,5,20,1,8
255109,-136.798905608755,3,2,5,20,0,0
257003,600,3,2,5,20,1,8
257003,-200,3,2,5,20,0,0
258203,612.244897959184,3,2,5,20,1,8
258203,-200,3,2,5,20,0,0
258509,-200,3,2,5,5,0,0
258815,618.556701030928,3,2,5,20,1,8
258815,-132.450331125828,3,2,5,20,0,0
260052,638.297872340426,3,2,5,20,1,8
260052,-200,3,2,5,20,0,0
260690,606.060606060606,3,2,5,20,1,8
260690,-200,3,2,5,20,0,0
261902,588.235294117647,3,2,5,5,1,8
261902,-200,3,2,5,5,0,0
262490,625,3,2,5,20,1,8
262490,-136.054421768707,3,2,5,20,0,0
263115,578.313253012048,3,2,5,20,1,8
263115,-200,3,2,5,20,0,0
263693,-200,3,2,5,15,0,0
264271,578.313253012048,3,2,5,20,1,8
264271,-133.333333333333,3,2,5,20,0,0
265427,645.161290322581,3,2,5,20,1,8
265427,-200,3,2,5,20,0,0
266072,588.235294117647,3,2,5,20,1,8
266072,-136.054421768707,3,2,5,20,0,0
266660,600,3,2,5,20,1,8
266660,-200,3,2,5,20,0,0
267222,-200,3,2,5,5,0,0
267260,-200,3,2,5,15,0,0
267860,600,3,2,5,20,1,8
267860,-152.671755725191,3,2,5,20,0,0
268460,-152.671755725191,3,2,5,10,0,0
269060,636.26723223754,3,2,5,15,1,8
269060,-200,3,2,5,15,0,0
269696,600,3,2,5,20,1,8
269696,-132.802124833997,3,2,5,20,0,0
272096,588.235294117647,3,2,5,20,1,8
272096,-200,3,2,5,20,0,0
272684,-200,3,2,5,5,0,0
273272,594.059405940594,3,2,5,20,1,8
273272,-132.362673726009,3,2,5,20,0,0
275054,588.235294117647,3,2,5,20,1,8
275054,-200,3,2,5,20,0,0
276230,-200,3,2,5,5,0,0
276818,-200,3,2,5,20,0,0
277995,560.747663551402,3,2,5,15,1,8
277995,-200,3,2,5,15,0,0
278555,600,3,2,5,20,1,8
278555,-200,3,2,5,20,0,0
279755,571.428571428571,3,2,5,15,1,8
279755,-200,3,2,5,15,0,0
280326,606.060606060606,3,2,5,20,1,8
280326,-200,3,2,5,20,0,0
281538,545.454545454546,3,2,5,15,1,8
281538,-200,3,2,5,15,0,0
282083,594.059405940594,3,2,5,20,1,8
282083,-200,3,2,5,20,0,0
283271,566.037735849057,3,2,5,5,1,8
283271,-200,3,2,5,5,0,0
283837,585.365853658537,3,2,5,20,1,8
283837,-200,3,2,5,20,0,0
284422,-200,3,2,5,10,0,0
285007,-200,3,2,5,12,0,0
285593,-200,3,2,5,14,0,0
286178,-200,3,2,5,16,0,0
286763,-200,3,2,5,18,0,0
287349,387.096774193548,4,3,4,20,1,8
287349,-66.6666666666667,4,3,4,40,0,0
287639,-66.6666666666667,4,3,4,5,0,0
287736,-100,4,3,4,40,0,0
288123,-66.6666666666667,4,3,4,40,0,0
288413,-66.6666666666667,4,3,4,5,0,0
288510,-66.6666666666667,4,3,4,40,0,0
288897,405.405405405405,4,3,4,40,1,8
288897,-66.6666666666667,4,3,4,40,0,0
289206,-66.6666666666667,4,3,4,5,0,0
289302,382.165605095541,4,3,4,40,1,8
289302,-100,4,3,4,40,0,0
289684,-100,4,3,4,40,0,0
289970,-100,4,3,4,5,0,0
290066,-100,4,3,4,40,0,0
290352,-100,4,3,4,5,0,0
290448,384.615384615385,4,3,4,40,1,8
290448,-66.6666666666667,4,3,4,40,0,0
290736,-66.6666666666667,4,3,4,5,0,0
290832,-100,4,3,4,40,0,0
291217,384.615384615385,4,3,4,40,1,8
291217,-66.6666666666667,4,3,4,40,0,0
291505,-66.6666666666667,4,3,4,5,0,0
291601,-66.6666666666667,4,3,4,40,0,0
292274,-66.6666666666667,4,3,4,5,0,0
292371,-100,4,3,4,40,0,0
292755,387.096774193548,4,3,4,40,1,8
293045,-100,4,3,4,5,0,0
293142,-100,4,3,4,40,0,0
293432,-100,4,3,4,5,0,0
293529,387.096774193548,4,3,4,40,1,8
293529,-66.6666666666667,4,3,4,40,0,0
293819,-66.6666666666667,4,3,4,5,0,0
293916,-100,4,3,4,40,0,0
294303,-66.6666666666667,4,3,4,40,0,0
294593,-66.6666666666667,4,3,4,5,0,0
294690,-66.6666666666667,4,3,4,40,0,0
295078,382.165605095541,4,3,4,40,1,8
295078,-66.6666666666667,4,3,4,40,0,0
295842,394.736842105263,4,3,4,40,1,8
296138,-100,4,3,4,5,0,0
296236,370.37037037037,4,3,4,40,1,8
296513,-100,4,3,4,5,0,0
296606,387.096774193548,4,3,4,40,1,8
296606,-66.6666666666667,4,3,4,40,0,0
296896,-66.6666666666667,4,3,4,5,0,0
296993,-100,4,3,4,40,0,0
297380,-66.6666666666667,4,3,4,40,0,0
297670,-66.6666666666667,4,3,4,5,0,0
297767,-66.6666666666667,4,3,4,40,0,0
298928,400,4,3,4,40,1,8
299228,-100,4,3,4,5,0,0
299328,365.853658536585,4,3,4,40,1,8
299602,-100,4,3,4,5,0,0
299692,400,4,3,4,40,1,8
299692,-66.6666666666667,4,3,4,40,0,0
299992,-66.6666666666667,4,3,4,5,0,0
300092,383.386581469649,4,3,4,40,1,8
300475,-66.6666666666667,4,3,4,40,0,0
300762,-66.6666666666667,4,3,4,5,0,0
300858,-66.6666666666667,4,3,4,40,0,0
301243,388.349514563107,4,3,4,40,1,8
301243,-66.6666666666667,4,3,4,40,0,0
301534,-66.6666666666667,4,3,4,5,0,0
301631,-100,4,3,4,40,0,0
302310,-100,4,3,4,5,0,0
302408,-100,4,3,4,40,0,0
302699,-100,4,3,4,5,0,0
302796,392.156862745098,4,3,4,40,1,8
302796,-66.6666666666667,4,3,4,40,0,0
303090,-66.6666666666667,4,3,4,5,0,0
303188,-100,4,3,4,40,0,0
303580,379.746835443038,4,3,4,40,1,8
303864,-66.6666666666667,4,3,4,5,0,0
303959,-100,4,3,4,40,0,0
304339,384.615384615385,4,3,4,40,1,8
304339,-66.6666666666667,4,3,4,40,0,0
304627,-66.6666666666667,4,3,4,5,0,0
304723,-100,4,3,4,40,0,0
305396,-100,4,3,4,5,0,0
305492,-100,4,3,4,40,0,0
305781,-100,4,3,4,5,0,0
305877,397.350993377483,4,3,4,40,1,8
305877,-66.6666666666667,4,3,4,40,0,0
306181,-66.6666666666667,4,3,4,5,0,0
306275,375,4,3,4,40,1,8
306275,-100,4,3,4,40,0,0
306651,385.852090032154,4,3,4,40,1,8
306651,-66.6666666666667,4,3,4,40,0,0
306940,-66.6666666666667,4,3,4,5,0,0
307036,-66.6666666666667,4,3,4,40,0,0
307422,385.852090032154,4,3,4,40,1,8
307422,-66.6666666666667,4,3,4,40,0,0
308194,382.165605095541,4,3,4,40,1,8
308480,-100,4,3,4,5,0,0
308576,-100,4,3,4,40,0,0
308862,-100,4,3,4,5,0,0
308960,390.879478827362,4,3,4,40,1,8
310132,382.165605095541,4,3,4,40,1,8
310514,392.156862745098,4,3,4,40,1,8
311200,-100,4,3,4,5,0,0
311298,-100,4,3,4,40,0,0
311592,-100,4,3,4,5,0,0
311690,365.853658536585,4,3,4,40,1,8
312055,392.156862745098,4,3,4,40,1,8
312349,-100,4,3,4,5,0,0
312447,-100,4,3,4,40,0,0
312741,-100,4,3,4,5,0,0
312839,387.096774193548,4,3,4,40,1,8
312839,-66.6666666666667,4,3,4,40,0,0
313226,-100,4,3,4,40,0,0
313613,386.349001931745,4,3,4,40,1,8
313613,-66.6666666666667,4,3,4,40,0,0
315158,-66.6666666666667,4,3,4,40,0,0
316317,394.736842105263,4,3,4,40,1,8
316711,390.879478827362,4,3,4,40,1,8
316711,-66.6666666666667,4,3,4,40,0,0
317297,-100,4,3,4,40,0,0
317395,-100,4,3,4,5,0,0
317492,-100,4,3,4,40,0,0
317787,-100,4,3,4,5,0,0
317883,382.165605095541,4,3,4,40,1,8
318265,389.61038961039,4,3,4,40,1,8
318265,-66.6666666666667,4,3,4,40,0,0
319435,379.746835443038,4,3,4,40,1,8
319814,389.61038961039,4,3,4,40,1,8
319814,-66.6666666666667,4,3,4,40,0,0
320593,387.096774193548,4,3,4,40,1,8
320883,-100,4,3,4,5,0,0
320980,-100,4,3,4,40,0,0
321270,-100,4,3,4,5,0,0
321366,387.096774193548,4,3,4,40,1,8
321366,-66.6666666666667,4,3,4,40,0,0
322527,-100,4,3,4,40,0,0
322914,390.879478827362,4,3,4,40,1,8
322914,-66.6666666666667,4,3,4,40,0,0
323695,-100,4,3,4,40,0,0
324086,384.615384615385,4,3,4,40,1,8
324370,-100,4,3,4,5,0,0
324470,400,4,3,4,40,1,8
324470,-66.6666666666667,4,3,4,40,0,0
324870,387.096774193548,4,3,4,40,1,8
325257,-66.6666666666667,4,3,4,40,0,0
326028,392.156862745098,4,3,4,40,1,8
326028,-66.6666666666667,4,3,4,40,0,0
326616,384.615384615385,4,3,4,40,1,8
326712,-100,4,3,4,5,0,0
326808,-100,4,3,4,40,0,0
327096,-100,4,3,4,5,0,0
327192,-66.6666666666667,4,3,4,40,0,0
327577,384.615384615385,4,3,4,40,1,8
327577,-66.6666666666667,4,3,4,40,0,0
328346,389.61038961039,4,3,4,40,1,8
328735,375,4,3,4,40,1,8
328735,-66.6666666666667,4,3,4,40,0,0
329110,383.386581469649,4,3,4,40,1,8
329110,-66.6666666666667,4,3,4,40,0,0
329685,-100,4,3,4,40,0,0
329780,-100,4,3,4,5,0,0
329876,405.405405405405,4,3,4,40,1,8
330180,-100,4,3,4,5,0,0
330281,392.156862745098,4,3,4,40,1,8
330674,387.096774193548,4,3,4,40,1,8
330674,-66.6666666666667,4,3,4,40,0,0
331544,-100,4,3,4,40,0,0
331835,392.156862745098,4,3,4,40,1,8
331835,-66.6666666666667,4,3,4,40,0,0
333011,389.61038961039,4,3,4,40,1,8
333790,-66.6666666666667,4,3,4,40,0,0
334179,384.615384615385,4,3,4,40,1,8
334467,-100,4,3,4,5,0,0
334563,-100,4,3,4,40,0,0
334852,-100,4,3,4,5,0,0
334948,-100,4,3,4,40,0,0
335140,400,4,3,4,40,1,8
335140,-66.6666666666667,4,3,4,40,0,0
335240,-66.6666666666667,4,3,4,5,0,0
335340,397.350993377483,4,3,4,40,1,8
335340,-66.6666666666667,4,3,4,40,0,0
335439,-66.6666666666667,4,3,4,5,0,0
335538,-50,4,3,4,40,0,0
335836,-50,4,3,4,5,0,0
335936,-50,4,3,4,40,0,0
336234,-50,4,3,4,5,0,0
336334,-50,4,3,4,40,0,0
336631,-50,4,3,4,5,0,0
336731,-50,4,3,4,40,0,0
336929,394.736842105263,4,3,6,40,1,9
336929,-40,4,3,6,40,0,1
337225,-40,4,3,6,5,0,1
337323,-66.6666666666667,4,3,6,40,0,1
337422,-66.6666666666667,4,3,6,5,0,1
337521,-66.6666666666667,4,3,6,40,0,1
337718,-40,4,3,6,40,0,1
338017,-40,4,3,6,5,0,1
338113,382.165605095541,4,3,6,40,1,9
338113,-66.6666666666667,4,3,6,40,0,1
338208,-66.6666666666667,4,3,6,5,0,1
338304,-66.6666666666667,4,3,6,40,0,1
338495,398.671096345515,4,3,6,40,1,9
338495,-40,4,3,6,40,0,1
338794,-40,4,3,6,5,0,1
338893,-66.6666666666667,4,3,6,40,0,1
338993,-66.6666666666667,4,3,6,5,0,1
339093,-66.6666666666667,4,3,6,40,0,1
339292,-40,4,3,6,40,0,1
339591,-40,4,3,6,5,0,1
339692,382.165605095541,4,3,6,40,1,9
339692,-66.6666666666667,4,3,6,40,0,1
339787,-66.6666666666667,4,3,6,5,0,1
339883,-66.6666666666667,4,3,6,40,0,1
340074,392.156862745098,4,3,6,40,1,9
340074,-40,4,3,6,40,0,1
340368,-40,4,3,6,5,0,1
340466,-66.6666666666667,4,3,6,40,0,1
340564,-66.6666666666667,4,3,6,5,0,1
340662,-66.6666666666667,4,3,6,40,0,1
340858,-40,4,3,6,40,0,1
341152,-40,4,3,6,5,0,1
341250,-66.6666666666667,4,3,6,40,0,1
341348,-66.6666666666667,4,3,6,5,0,1
341446,-66.6666666666667,4,3,6,40,0,1
341642,379.746835443038,4,3,1,40,1,9
341642,-40,4,3,1,40,0,1
342781,352.941176470588,4,3,1,40,1,9
342957,422.535211267606,4,3,2,40,1,9
342957,-66.6666666666667,4,3,2,40,0,1
343115,-66.6666666666667,4,3,2,5,0,1
343168,389.61038961039,4,3,6,40,1,9
343168,-40,4,3,6,40,0,1
343460,-40,4,3,6,5,0,1
343557,-66.6666666666667,4,3,6,40,0,1
343655,-66.6666666666667,4,3,6,5,0,1
343752,-66.6666666666667,4,3,6,40,0,1
343947,-40,4,3,6,40,0,1
344239,-40,4,3,6,5,0,1
344336,-66.6666666666667,4,3,6,40,0,1
344726,-40,4,3,6,40,0,1
345018,-40,4,3,6,5,0,1
345115,-66.6666666666667,4,3,6,40,0,1
345213,-66.6666666666667,4,3,6,5,0,1
345310,-66.6666666666667,4,3,6,40,0,1
345603,-66.6666666666667,4,3,6,5,0,1
345700,-66.6666666666667,4,3,6,40,0,1
346284,397.350993377483,4,3,6,40,1,9
346284,-40,4,3,6,40,0,1
346582,-40,4,3,6,5,0,1
346681,-66.6666666666667,4,3,6,40,0,1
347078,389.61038961039,4,3,6,40,1,9
347078,-40,4,3,6,40,0,1
347370,-40,4,3,6,5,0,1
347467,-66.6666666666667,4,3,6,40,0,1
347857,389.61038961039,4,3,6,40,1,9
347857,-40,4,3,6,40,0,1
348149,-40,4,3,6,5,0,1
348246,-66.6666666666667,4,3,6,40,0,1
348538,-66.6666666666667,4,3,1,40,0,1
348636,375,4,3,1,40,1,9
349011,-50,4,3,1,40,0,1
349198,400,4,3,1,40,1,9
349398,383.386581469649,4,3,1,40,1,9
349398,-40,4,3,1,40,0,1
349685,-40,4,3,1,5,0,1
349781,-66.6666666666667,4,3,6,40,0,1
350164,-40,4,3,6,40,0,1
350452,-40,4,3,6,5,0,1
350548,-66.6666666666667,4,3,6,40,0,1
350644,-66.6666666666667,4,3,6,5,0,1
350739,-66.6666666666667,4,3,6,40,0,1
350931,394.736842105263,4,3,6,40,1,9
350931,-66.6666666666667,4,3,6,40,0,1
351029,-66.6666666666667,4,3,6,5,0,1
351128,-66.6666666666667,4,3,6,40,0,1
351720,384.615384615385,4,3,6,40,1,9
351720,-66.6666666666667,4,3,6,40,0,1
351816,-66.6666666666667,4,3,6,5,0,1
351912,-66.6666666666667,4,3,6,40,0,1
352489,389.61038961039,4,3,6,40,1,9
352489,-40,4,3,6,40,0,1
352781,-40,4,3,6,5,0,1
352878,-66.6666666666667,4,3,6,40,0,1
352976,-66.6666666666667,4,3,6,5,0,1
353073,-66.6666666666667,4,3,6,40,0,1
353268,-40,4,3,6,40,0,1
353560,-40,4,3,6,5,0,1
353657,-66.6666666666667,4,3,6,40,0,1
353755,-66.6666666666667,4,3,6,5,0,1
353852,-66.6666666666667,4,3,6,40,0,1
354047,-40,4,3,6,40,0,1
354341,-40,4,3,6,5,0,1
354437,382.165605095541,4,3,6,40,1,9
354437,-66.6666666666667,4,3,6,40,0,1
354532,-66.6666666666667,4,3,6,5,0,1
354628,-66.6666666666667,4,3,6,40,0,1
355201,380.348652931854,4,3,6,40,1,9
355201,-66.6666666666667,4,3,6,40,0,1
355296,-66.6666666666667,4,3,6,5,0,1
355391,-66.6666666666667,4,3,6,40,0,1
355581,-40,4,3,6,40,0,1
355866,-40,4,3,6,5,0,1
355961,-66.6666666666667,4,3,6,40,0,1
356056,-66.6666666666667,4,3,6,5,0,1
356151,-66.6666666666667,4,3,6,40,0,1
356342,375,4,3,6,40,1,9
356342,-66.6666666666667,4,3,6,40,0,1
356435,-66.6666666666667,4,3,6,5,0,1
356529,-66.6666666666667,4,3,6,40,0,1
356622,-66.6666666666667,4,3,6,5,0,1
356717,-66.6666666666667,4,3,6,40,0,1
356810,-66.6666666666667,4,3,6,5,0,1
356904,-66.6666666666667,4,3,6,40,0,1
357092,375,4,3,6,40,1,9
357092,-40,4,3,6,40,0,1
357373,-40,4,3,6,5,0,1
357467,-66.6666666666667,4,3,6,40,0,1
357560,-66.6666666666667,4,3,6,5,0,1
357654,-66.6666666666667,4,3,6,40,0,1
357842,-40,4,3,6,40,0,1
358126,-40,4,3,6,5,0,1
358217,363.636363636364,4,3,6,40,1,9
358217,-66.6666666666667,4,3,6,40,0,1
358307,-66.6666666666667,4,3,6,5,0,1
358398,-66.6666666666667,4,3,6,40,0,1
358580,382.165605095541,4,3,6,40,1,9
358580,-40,4,3,6,40,0,1
358866,-40,4,3,6,5,0,1
358962,-66.6666666666667,4,3,6,40,0,1
359057,-66.6666666666667,4,3,6,5,0,1
359153,-66.6666666666667,4,3,6,40,0,1
359344,-40,4,3,6,40,0,1
359630,-40,4,3,6,5,0,1
359726,-66.6666666666667,4,3,6,40,0,1
359821,-66.6666666666667,4,3,6,5,0,1
359917,-66.6666666666667,4,3,6,40,0,1
360108,372.670807453416,4,3,6,40,1,9
360108,-40,4,3,6,40,0,1
360853,361.44578313253,4,3,1,40,1,9
360853,-40,4,3,1,40,0,1
361577,389.61038961039,4,3,2,40,1,9
361577,-40,4,3,2,40,0,1
361869,-40,4,3,2,5,0,1
361966,-66.6666666666667,4,3,6,40,0,1
362064,-66.6666666666667,4,3,6,5,0,1
362161,-66.6666666666667,4,3,6,40,0,1
362356,375,4,3,6,40,1,9
362356,-40,4,3,6,40,0,1
362637,-40,4,3,6,5,0,1
362731,-66.6666666666667,4,3,6,40,0,1
362824,-66.6666666666667,4,3,6,5,0,1
362918,-66.6666666666667,4,3,6,40,0,1
363105,382.165605095541,4,3,6,40,1,9
363105,-66.6666666666667,4,3,6,40,0,1
363200,-66.6666666666667,4,3,6,5,0,1
363296,-66.6666666666667,4,3,6,40,0,1
363582,-66.6666666666667,4,3,6,5,0,1
363678,-66.6666666666667,4,3,6,40,0,1
363869,370.37037037037,4,3,6,40,1,9
364239,-66.6666666666667,4,3,6,40,0,1
364331,-66.6666666666667,4,3,6,5,0,1
364424,-66.6666666666667,4,3,6,40,0,1
364609,382.165605095541,4,3,6,40,1,9
364609,-40,4,3,6,40,0,1
364895,-40,4,3,6,5,0,1
364991,-50,4,3,6,40,0,1
365373,-40,4,3,6,40,0,1
365659,-40,4,3,6,5,0,1
365755,-50,4,3,6,40,0,1
366046,-50,4,3,1,40,0,1
366137,363.636363636364,4,3,1,40,1,9
366137,-40,4,3,1,40,0,1
367591,382.165605095541,4,3,2,40,1,9
367591,-40,4,3,2,40,0,1
367877,-40,4,3,2,5,0,1
367973,-66.6666666666667,4,3,6,40,0,1
368068,-66.6666666666667,4,3,6,5,0,1
368164,-66.6666666666667,4,3,6,40,0,1
369119,375,4,3,6,40,1,9
369119,-40,4,3,6,40,0,1
369400,-40,4,3,6,5,0,1
369494,-66.6666666666667,4,3,6,40,0,1
369587,-66.6666666666667,4,3,6,5,0,1
369681,-66.6666666666667,4,3,6,40,0,1
369869,-40,4,3,6,40,0,1
370150,-40,4,3,6,5,0,1
370244,-50,4,3,6,40,0,1
370619,379.746835443038,4,3,6,40,1,9
370619,-66.6666666666667,4,3,6,40,0,1
370713,-66.6666666666667,4,3,6,5,0,1
370808,-66.6666666666667,4,3,6,40,0,1
371473,-66.6666666666667,4,3,6,5,0,1
371568,-66.6666666666667,4,3,6,40,0,1
371663,-66.6666666666667,4,3,6,5,0,1
371758,-40,4,3,6,40,0,1
372137,370.37037037037,4,3,1,40,1,9
372137,-40,4,3,1,40,0,1
372692,359.281437125748,4,3,1,40,1,9
372692,-40,4,3,1,40,0,1
373590,377.358490566038,4,3,1,40,1,9
373590,-40,4,3,1,40,0,1
373873,-40,4,3,1,5,0,1
373967,-50,4,3,6,40,0,1
374344,-40,4,3,6,40,0,1
374629,-40,4,3,6,5,0,1
374722,368.098159509202,4,3,6,40,1,9
374722,-66.6666666666667,4,3,6,40,0,1
374814,-66.6666666666667,4,3,6,5,0,1
374906,-66.6666666666667,4,3,6,40,0,1
375090,377.358490566038,4,3,6,40,1,9
375090,-40,4,3,6,40,0,1
375278,-40,4,3,6,30,0,1
375467,-40,4,3,6,40,0,1
375844,-66.6666666666667,4,3,6,40,0,1
375939,-66.6666666666667,4,3,6,5,0,1
376033,-66.6666666666667,4,3,6,40,0,1
376599,-40,4,3,6,40,0,1
376882,-40,4,3,6,5,0,1
376976,-50,4,3,6,40,0,1
377354,-40,4,3,6,40,0,1
377637,-40,4,3,6,5,0,1
377731,-50,4,3,6,40,0,1
378108,361.44578313253,4,3,1,40,1,9
378108,-40,4,3,1,40,0,1
379553,380.952380952381,4,3,2,40,1,9
379553,-40,4,3,2,40,0,1
379838,-40,4,3,2,5,0,1
379933,-66.6666666666667,4,3,6,40,0,1
380029,-66.6666666666667,4,3,6,5,0,1
380124,-66.6666666666667,4,3,6,40,0,1
380314,392.156862745098,4,3,6,40,1,9
380314,-66.6666666666667,4,3,6,40,0,1
380412,-66.6666666666667,4,3,6,5,0,1
380510,-66.6666666666667,4,3,6,40,0,1
380608,-66.6666666666667,4,3,6,5,0,1
380706,370.37037037037,4,3,6,40,1,9
381076,376.175548589342,4,3,6,40,1,9
381076,-40,4,3,6,40,0,1
381358,-40,4,3,6,5,0,1
381452,-50,4,3,6,40,0,1
381828,-44.4444444444445,4,3,6,40,0,1
382581,375,4,3,6,40,1,9
382581,-40,4,3,6,40,0,1
382862,-40,4,3,6,5,0,1
382956,-50,4,3,6,40,0,1
383331,-66.6666666666667,4,3,6,40,0,1
383424,-66.6666666666667,4,3,6,5,0,1
383518,-66.6666666666667,4,3,6,40,0,1
383611,-66.6666666666667,4,3,6,5,0,1
383706,-33.3333333333333,4,3,6,40,0,1
383987,-33.3333333333333,4,3,6,5,0,1
384081,-33.3333333333333,4,3,6,40,0,1
384362,-33.3333333333333,4,3,6,5,0,1
384456,-33.3333333333333,4,3,6,40,0,1
384737,-33.3333333333333,4,3,6,5,0,1
384831,365.853658536585,4,3,6,40,1,9
384831,-40,4,3,6,40,0,1
384922,-40,4,3,6,5,0,1
385013,-40,4,3,6,40,0,1
385104,-40,4,3,6,5,0,1
385196,-40,4,3,6,40,0,1
385287,-40,4,3,6,5,0,1
385379,-40,4,3,6,40,0,1
385470,-40,4,3,6,5,0,1
385565,366.300366300366,4,3,1,40,1,8
385565,-186.219739292365,4,3,1,40,0,0
399118,-186.219739292365,4,3,1,5,0,0
399484,361.44578313253,4,3,5,40,1,8
399484,-238.095238095238,4,3,5,20,0,0
403098,369.230769230769,4,3,5,20,1,8
404390,-285.714285714286,4,3,5,5,0,0
405128,-383.141762452107,4,3,5,20,0,0
408451,-383.141762452107,4,3,5,10,0,0
408513,-250,4,3,5,15,0,0
408636,357.142857142857,4,3,5,20,1,8
408636,-500,4,3,5,20,0,0
410421,458.015267175573,4,3,5,10,1,8
410421,-250,4,3,5,10,0,0
410879,-250,4,3,5,20,0,0
411031,-250,4,3,5,15,0,0
411184,-250,4,3,5,10,0,0
411791,400,4,3,5,10,1,8
411791,-298.06259314456,4,3,5,10,0,0
412091,-298.06259314456,4,3,5,20,0,0
413391,422.535211267606,4,3,5,20,1,8
417193,-100,4,3,5,5,0,0
417616,394.736842105263,4,3,5,20,1,8
417616,-133.333333333333,4,3,5,20,0,0
418010,-133.333333333333,4,3,5,5,0,0
418405,422.535211267606,4,3,5,20,1,8
418405,-476.190476190476,4,3,5,20,0,0
420940,-476.190476190476,4,3,5,5,0,0
421362,1990.04975124378,4,3,5,10,1,8
421362,-206.483584555028,4,3,5,10,0,0
500963,1990.04975124378,4,3,5,10,1,8
501373,224.719101123595,4,3,1,40,1,9
504069,226.415094339623,4,3,1,40,1,9
505880,222.634508348794,4,3,1,40,1,9
507660,225.563909774436,4,3,1,40,1,9
508336,-100,4,3,1,40,0,0
508487,272.727272727273,4,3,1,40,1,8
508578,214.285714285714,4,3,2,40,1,9
509006,226.201696512724,4,3,2,40,1,9
510364,240,5,3,1,40,1,8
510844,222.222222222222,5,3,1,40,1,8
510844,-200,5,3,1,40,0,0
511510,226.415094339623,5,3,1,40,1,8
511510,-200,5,3,1,40,0,0
511906,-200,5,3,1,30,0,0
511962,-200,5,3,1,40,0,0
512189,230.769230769231,5,3,1,40,1,8
512650,219.78021978022,5,3,1,40,1,8
512650,-200,5,3,1,40,0,0
513748,221.40221402214,5,3,1,40,1,8
513969,-200,5,3,1,40,0,0
514135,-200,5,3,1,30,0,0
514190,-200,5,3,1,40,0,0
514635,235.294117647059,5,3,1,40,1,8
514870,226.415094339623,5,3,1,40,1,8
514870,-200,5,3,1,40,0,0
515436,210.526315789474,5,3,1,40,1,8
515436,-200,5,3,1,40,0,0
515751,230.326295585413,5,3,1,40,1,8
515981,222.222222222222,5,3,1,40,1,8
516425,187.5,5,3,1,40,1,8
516518,-117.233294255569,5,3,1,40,0,0
516612,250,5,3,1,40,1,8
516862,217.391304347826,5,3,1,40,1,8
517077,218.181818181818,5,3,1,40,1,8
517513,184.615384615385,5,3,1,40,1,8
517605,222.222222222222,5,3,1,40,1,8
517605,-83.3333333333333,5,3,1,40,0,0
517716,242.914979757085,5,3,1,40,1,8
517958,230.769230769231,5,3,1,40,1,8
518188,215.05376344086,5,3,1,40,1,8
518725,230.769230769231,5,3,1,40,1,8
518725,-86.9565217391304,5,3,1,40,0,0
519071,222.222222222222,5,3,1,40,1,8
519293,203.389830508475,5,3,1,40,1,8
519496,240,5,3,1,40,1,8
519616,203.389830508475,5,3,1,40,1,8
519819,233.918128654971,5,3,1,40,1,8
520404,210.526315789474,6,3,1,40,1,8
520614,230.769230769231,6,3,1,40,1,8
520960,-84.0336134453781,6,3,1,40,0,0
521075,235.294117647059,6,3,1,40,1,8
521310,226.415094339623,6,3,1,40,1,8
521536,235.294117647059,6,3,1,35,1,8
521565,-100,6,3,1,40,0,0
521771,229.885057471264,5,3,1,40,1,8
522460,-200,5,3,1,40,0,0
522692,222.222222222222,5,3,1,40,1,8
522914,226.415094339623,5,3,1,40,1,8
523140,-200,5,3,1,40,0,0
523253,255.31914893617,5,3,1,40,1,8
523316,-100,5,3,1,30,0,0
523380,214.285714285714,5,3,1,40,1,8
523380,-166.666666666667,5,3,1,40,0,0
523808,222.222222222222,5,3,1,40,1,8
524030,226.415094339623,5,3,1,40,1,8
524030,-200,5,3,1,40,0,0
524369,222.634508348794,5,3,1,40,1,8
524369,-200,5,3,1,40,0,0
524702,-133.333333333333,5,3,1,40,0,0
525148,230.769230769231,5,3,1,40,1,8
525378,-200,5,3,1,40,0,0
525551,-200,5,3,1,30,0,0
525609,214.285714285714,5,3,1,40,1,8
525609,-166.666666666667,5,3,1,40,0,0
526037,230.769230769231,5,3,1,40,1,8
526037,-200,5,3,1,40,0,0
526267,223.880597014925,5,3,1,40,1,8
526267,-133.333333333333,5,3,1,40,0,0
526602,-181.818181818182,5,3,1,40,0,0
526938,-133.333333333333,5,3,1,40,0,0
527162,228.136882129278,5,3,1,40,1,8
527390,232.558139534884,4,3,2,40,1,9
527506,-100,4,3,2,40,0,0
528320,222.222222222222,4,3,2,40,1,8
528764,218.181818181818,4,3,2,40,1,8
529200,219.78021978022,5,3,2,40,1,8
529200,-76.9230769230769,5,3,2,40,0,0
529859,223.880597014925,5,3,2,40,1,8
529859,-83.3333333333333,5,3,2,40,0,0
530306,218.181818181818,5,3,2,40,1,8
530306,-71.4285714285714,5,3,2,40,0,0
530742,230.769230769231,5,3,2,40,1,8
530742,-71.4285714285714,5,3,2,40,0,0
531203,218.181818181818,5,3,1,40,1,8
531203,-76.9230769230769,5,3,1,40,0,0
531421,210.526315789474,4,3,2,40,1,9
531526,-100,4,3,2,40,0,0
531631,235.294117647059,4,3,2,40,1,8
532336,217.391304347826,4,3,2,40,1,8
533207,214.285714285714,5,3,2,40,1,8
533207,-76.9230769230769,5,3,2,40,0,0
533635,229.007633587786,5,3,2,40,1,8
533635,-76.9230769230769,5,3,2,40,0,0
534322,226.415094339623,5,3,2,40,1,8
534322,-76.9230769230769,5,3,2,40,0,0
535001,220.183486238532,5,3,2,40,1,8
535441,222.222222222222,4,3,2,40,1,9
535552,-100,4,3,2,40,0,0
535885,240,4,3,2,40,1,8
536363,218.181818181818,4,3,2,40,1,8
537235,218.181818181818,5,3,2,40,1,8
537235,-66.6666666666667,5,3,2,40,0,0
537889,-76.9230769230769,5,3,2,40,0,0
538107,230.769230769231,5,3,2,40,1,8
538107,-76.9230769230769,5,3,2,40,0,0
538337,222.222222222222,5,3,2,40,1,8
538337,-76.9230769230769,5,3,2,40,0,0
539003,230.769230769231,5,3,2,40,1,8
539233,214.285714285714,5,3,1,40,1,8
539233,-76.9230769230769,5,3,1,40,0,0
539448,226.415094339623,6,3,2,40,1,9
539448,-66.6666666666667,6,3,2,40,0,1
539561,-66.6666666666667,6,3,2,40,0,0
539787,-76.9230769230769,6,3,2,40,0,0
540127,235.294117647059,6,3,2,30,1,8
540127,-71.4285714285714,6,3,2,30,0,0
540166,-71.4285714285714,6,3,2,40,0,0
540362,218.181818181818,6,3,2,40,1,8
540362,-76.9230769230769,6,3,1,40,0,0
540798,230.769230769231,6,3,2,40,1,8
540798,-76.9230769230769,6,3,2,40,0,0
541490,218.181818181818,6,3,2,40,1,8
541490,-76.9230769230769,6,3,2,40,0,0
541817,-76.9230769230769,6,3,1,30,0,0
541926,240,6,3,2,40,1,8
541926,-76.9230769230769,6,3,2,40,0,0
542166,226.415094339623,6,3,2,40,1,8
542166,-76.9230769230769,6,3,2,40,0,0
542845,218.181818181818,6,3,2,40,1,8
542845,-76.9230769230769,6,3,2,40,0,0
543063,-76.9230769230769,6,3,1,40,0,0
543172,-76.9230769230769,6,3,1,25,0,0
543226,-76.9230769230769,6,3,1,30,0,0
543281,-76.9230769230769,6,3,1,40,0,0
543499,221.40221402214,5,3,2,40,1,8
543499,-76.9230769230769,6,3,2,40,0,0
544163,227.272727272727,6,3,2,40,1,8
544163,-76.9230769230769,6,3,2,40,0,0
544390,215.827338129496,6,3,1,40,1,8
544390,-76.9230769230769,6,3,1,40,0,0
544607,229.885057471264,5,3,2,40,1,8
544607,-76.9230769230769,6,3,2,40,0,0
545296,-66.6666666666667,6,3,2,30,0,0
545325,-66.6666666666667,6,3,2,40,0,0
545497,-66.6666666666667,6,3,2,40,0,0
545526,-100,6,3,1,40,0,0
545756,230.769230769231,4,3,2,40,1,9
545871,-100,4,3,2,40,0,0
546679,218.181818181818,4,3,2,40,1,8
547551,227.272727272727,4,3,1,40,1,8
547551,-76.9230769230769,4,3,1,40,0,0
548005,224.719101123595,4,3,1,40,1,8
548005,-76.9230769230769,4,3,1,40,0,0
548454,224.719101123595,4,3,1,40,1,8
548454,-76.9230769230769,4,3,1,40,0,0
548903,220.588235294118,4,3,2,40,1,8
549013,-100,4,3,1,40,0,0
549344,229.007633587786,4,3,2,40,1,9
549458,-100,4,3,2,40,0,0
549802,232.558139534884,4,3,2,40,1,8
550267,220.183486238532,4,3,2,40,1,8
551148,226.415094339623,4,3,1,40,1,8
552053,222.222222222222,4,3,1,40,1,8
552719,-76.9230769230769,4,3,1,40,0,0
552941,223.880597014925,4,3,2,40,1,9
553052,-100,4,3,2,40,0,0
553612,234.375,4,3,2,40,1,8
553846,222.222222222222,4,3,2,40,1,8
554512,235.294117647059,4,3,2,40,1,8
554747,229.007633587786,4,3,1,40,1,8
554747,-76.9230769230769,4,3,1,40,0,0
555663,222.222222222222,4,3,1,40,1,8
555663,-76.9230769230769,4,3,1,40,0,0
556107,-76.9230769230769,4,3,2,40,0,0
556218,-76.9230769230769,4,3,1,40,0,0
556551,230.769230769231,4,3,2,40,1,9
556666,-100,4,3,2,40,0,0
557474,218.181818181818,4,3,2,40,1,8
558128,226.415094339623,4,3,2,40,1,8
558354,225.988700564972,4,3,1,40,1,8
559935,-76.9230769230769,4,3,1,40,0,0
560161,230.769230769231,4,3,1,40,1,9
560161,-66.6666666666667,4,3,1,40,0,1
560391,-66.6666666666667,4,3,2,40,0,1
560622,-66.6666666666667,4,3,1,40,0,1
560737,-66.6666666666667,4,3,2,40,0,1
561084,221.40221402214,4,3,1,40,1,9
561084,-66.6666666666667,4,3,1,40,0,1
561305,-66.6666666666667,4,3,2,40,0,1
561527,240,4,3,1,40,1,9
561527,-66.6666666666667,4,3,1,40,0,1
561767,211.267605633803,4,3,1,40,1,9
561767,-66.6666666666667,4,3,1,40,0,1
561978,232.558139534884,4,3,2,40,1,9
561978,-66.6666666666667,4,3,2,40,0,1
562443,220.588235294118,4,3,1,40,1,9
562443,-66.6666666666667,4,3,1,40,0,1
562663,-66.6666666666667,4,3,2,40,0,1
562884,230.769230769231,4,3,1,40,1,9
562884,-66.6666666666667,4,3,1,40,0,1
563230,-66.6666666666667,4,3,1,30,0,1
563345,222.222222222222,4,3,1,40,1,9
563345,-66.6666666666667,4,3,1,40,0,1
563678,-100,4,3,1,40,0,0
563789,319.573901464714,4,3,1,40,1,8
565067,-92.9368029739777,4,3,1,40,0,1
565386,-92.9368029739777,4,3,1,40,0,0
571458,-92.9368029739777,4,3,1,5,0,0

[Colours]
Combo1 : 193,193,193
Combo2 : 118,172,182
Combo3 : 235,225,105
Combo4 : 169,84,152
Combo5 : 129,193,89
Combo6 : 222,222,222

[HitObjects]
29,0,100,5,14,0:0:0:0:
22,21,175,1,8,0:0:0:0:
31,42,251,1,8,0:0:0:0:
79,60,327,5,10,0:0:0:0:
89,79,402,1,8,0:0:0:0:
85,102,478,1,8,0:0:0:0:
37,116,554,5,10,0:0:0:0:
23,134,629,1,8,0:0:0:0:
25,157,705,1,8,0:0:0:0:
74,177,781,5,10,0:3:0:0:
86,196,856,1,8,0:3:0:0:
84,217,932,1,8,0:3:0:0:
41,232,1009,37,10,0:0:0:0:
24,247,1084,1,8,0:0:0:0:
21,269,1160,1,8,0:0:0:0:
68,289,1236,5,10,0:0:0:0:
81,305,1311,1,8,0:0:0:0:
82,328,1387,1,8,0:0:0:0:
48,361,1463,6,8,P|3:377|-16:399,2,46.6666666666667,10|8|8,0:0|0:0|0:0,0:0:0:0:
195,325,1690,5,10,0:0:0:0:
249,281,1766,2,8,P|264:250|261:195,1,70.0000026702882,8|8,0:0|0:0,0:0:0:0:
452,0,1918,53,10,0:0:0:0:
478,16,1994,1,8,0:0:0:0:
487,48,2070,1,8,0:0:0:0:
450,70,2147,5,10,0:0:0:0:
437,86,2223,1,8,0:0:0:0:
438,106,2299,1,8,0:0:0:0:
478,121,2376,5,10,0:0:0:0:
491,144,2452,1,8,0:0:0:0:
489,176,2528,1,8,0:0:0:0:
448,191,2605,37,10,0:3:0:0:
438,208,2681,1,8,0:3:0:0:
441,231,2757,1,8,0:3:0:0:
484,256,2834,5,10,0:0:0:0:
493,271,2910,1,8,0:0:0:0:
495,291,2986,1,8,0:0:0:0:
459,322,3063,5,10,0:0:0:0:
444,337,3139,1,8,0:0:0:0:
440,359,3215,1,8,0:0:0:0:
477,387,3292,6,8,P|529:377|544:368,2,46.6666666666667,10|8|8,0:0|0:0|0:0,0:0:0:0:
355,353,3514,37,10,0:0:0:0:
341,283,3588,1,8,0:0:0:0:
286,234,3662,1,8,0:0:0:0:
216,215,3736,6,0,B|226:59|226:59|261:113,1,210,4|0,0:1|0:0,0:0:0:0:
254,124,4397,1,0,0:0:0:0:
253,143,4618,1,0,0:0:0:0:
9,58,4838,6,0,B|24:65|24:65|19:22,1,56,2|0,0:2|0:2,0:2:0:0:
39,86,5169,1,0,0:2:0:0:
122,78,5500,1,0,0:2:0:0:
205,70,5721,1,0,0:2:0:0:
11,78,5965,6,0,B|25:86|25:86|24:43,1,56,2|0,0:2|0:2,0:2:0:0:
48,113,6296,1,0,0:2:0:0:
150,118,6629,1,0,0:2:0:0:
254,124,6850,1,0,0:2:0:0:
9,58,7072,38,0,B|24:65|24:65|19:22,1,56,2|0,0:2|0:2,0:2:0:0:
39,86,7403,1,0,0:2:0:0:
122,78,7736,1,0,0:2:0:0:
205,70,7957,1,0,0:2:0:0:
11,78,8179,6,0,B|25:86|25:86|24:43,1,56,2|0,0:2|0:2,0:2:0:0:
48,113,8511,1,0,0:2:0:0:
150,118,8843,1,0,0:2:0:0:
254,124,9070,1,0,0:2:0:0:
359,349,9297,6,8,P|362:361|359:391,2,28,8|8|8,0:2|0:2|0:2,0:2:0:0:
442,205,9627,2,8,P|440:217|445:246,2,28,8|8|8,0:2|0:2|0:2,0:2:0:0:
344,183,9958,2,8,P|346:196|344:225,1,28,8|8,0:2|0:2,0:2:0:0:
441,333,10179,2,8,P|442:346|454:372,1,28,8|8,0:2|0:2,0:2:0:0:
349,357,10399,6,8,P|353:369|353:403,2,28,8|8|8,0:2|0:2|0:2,0:2:0:0:
450,202,10730,2,8,P|446:215|450:248,2,28,8|8|8,0:2|0:2|0:2,0:2:0:0:
331,173,11061,2,8,P|334:187|335:219,1,28,8|8,0:2|0:2,0:2:0:0:
453,339,11281,2,8,P|453:352|467:382,1,28,8|8,3:2|3:2,3:2:0:0:
359,349,11502,38,8,P|362:361|359:391,2,28,8|8|8,0:2|0:2|0:2,0:2:0:0:
442,205,11829,2,8,P|440:217|445:246,2,28,8|8|8,0:2|0:2|0:2,0:2:0:0:
344,180,12156,2,8,P|346:193|344:222,1,28,8|8,0:2|0:2,0:2:0:0:
441,333,12374,2,8,P|442:346|454:372,1,28,8|8,0:2|0:2,0:2:0:0:
349,357,12592,6,8,P|353:369|353:403,2,28,8|8|8,0:2|0:2|0:2,0:2:0:0:
450,202,12924,2,8,P|446:215|450:248,2,28,8|8|8,0:2|0:2|0:2,0:2:0:0:
331,170,13263,2,8,P|334:184|335:216,1,28,8|8,0:2|0:2,0:2:0:0:
453,339,13490,2,8,P|453:352|467:382,1,28,8|8,3:2|3:2,3:2:0:0:
359,349,13716,6,8,P|362:361|359:391,2,28,8|8|8,0:2|0:2|0:2,0:2:0:0:
442,205,14043,2,8,P|440:217|445:246,2,28,8|8|8,0:2|0:2|0:2,0:2:0:0:
344,180,14370,2,8,P|346:193|344:222,1,28,8|8,0:2|0:2,0:2:0:0:
100,226,14589,5,2,0:0:0:0:
100,226,14617,2,0,L|108:382,1,131.25000500679,2|0,0:0|0:0,0:0:0:0:
158,116,14881,38,0,L|44:136,1,105,8|0,0:0|0:0,0:0:0:0:
55,135,15125,1,4,0:0:0:0:
29,370,15464,1,2,0:1:0:0:
298,183,15691,1,0,0:1:0:0:
309,188,15804,2,0,P|340:191|353:186,1,35,8|0,0:1|0:1,0:1:0:0:
410,174,16030,1,8,0:1:0:0:
480,26,16257,5,8,0:1:0:0:
461,15,16335,1,8,0:1:0:0:
441,9,16413,1,8,0:1:0:0:
420,8,16492,1,8,0:1:0:0:
399,11,16570,1,8,0:1:0:0:
380,19,16649,1,8,0:1:0:0:
342,67,16727,6,0,P|338:49|331:33,2,35,2|8|8,0:1|0:1|0:1,0:1:0:0:
102,0,17160,1,8,0:1:0:0:
6,188,17386,6,0,P|11:205|13:223,1,35,8|0,0:1|0:1,0:1:0:0:
121,244,17609,1,0,0:1:0:0:
113,268,17721,2,0,P|66:279|40:296,1,70,2|0,0:1|0:1,0:1:0:0:
16,384,18057,37,8,0:1:0:0:
243,188,18281,1,8,0:1:0:0:
221,350,18393,1,2,0:1:0:0:
311,178,18505,5,8,0:1:0:0:
331,179,18581,1,8,0:1:0:0:
350,183,18658,1,8,0:1:0:0:
367,189,18735,2,0,P|361:166|365:141,1,35,8|8,0:1|0:1,0:1:0:0:
398,98,18908,1,8,0:1:0:0:
398,98,18966,6,0,L|401:55,2,35,2|8|8,0:1|0:1|0:1,0:1:0:0:
466,376,19402,1,8,0:1:0:0:
496,186,19637,6,0,P|499:170|507:153,1,35,8|8,0:1|0:1,0:1:0:0:
452,247,19851,1,8,0:1:0:0:
455,269,19958,2,0,P|430:259|380:254,1,70,2|0,0:1|0:1,0:1:0:0:
348,316,20244,38,0,L|350:334,1,11.6666666666667,8|2,0:1|0:1,0:1:0:0:
52,176,20494,1,8,0:1:0:0:
42,274,20614,1,2,0:1:0:0:
29,378,20734,5,8,0:1:0:0:
184,328,20956,1,2,0:1:0:0:
0,360,21067,1,8,0:1:0:0:
56,149,21248,6,0,B|74:165|74:165|66:10,1,163.333333333333,4|0,0:1|0:1,0:1:0:0:
114,113,21630,1,8,0:1:0:0:
439,50,21861,5,8,0:1:0:0:
264,3,22079,1,2,0:1:0:0:
464,30,22188,1,8,0:1:0:0:
360,171,22400,38,0,B|348:190|348:190|482:171,1,142.800000871582,4|0,0:1|0:1,0:1:0:0:
353,239,22760,1,2,0:1:0:0:
487,366,23013,5,8,0:1:0:0:
505,150,23227,1,2,0:1:0:0:
456,340,23334,1,8,0:1:0:0:
200,333,23537,6,0,B|209:350|209:350|80:316,1,140,4|0,0:1|0:1,0:1:0:0:
136,381,23883,1,2,0:1:0:0:
189,143,24123,5,8,0:1:0:0:
0,216,24346,1,2,0:1:0:0:
227,159,24457,1,8,0:1:0:0:
22,106,24663,38,0,B|34:120|34:120|45:-5,1,140,4|0,0:1|0:1,0:1:0:0:
81,137,25023,1,2,0:1:0:0:
407,39,25251,5,8,0:1:0:0:
229,50,25473,1,2,0:1:0:0:
434,13,25584,1,8,0:1:0:0:
245,180,25784,6,0,B|231:158|231:158|221:302,1,140,4|0,0:1|0:1,0:1:0:0:
179,209,26132,1,2,0:1:0:0:
468,336,26396,6,0,L|470:355,1,17.5,2|0,0:3|0:1,0:1:0:0:
51,359,26630,38,0,L|34:143,1,210,4|2,0:3|0:1,0:1:0:0:
119,325,27162,1,8,0:1:0:0:
137,324,27238,1,8,0:1:0:0:
154,317,27314,1,2,0:1:0:0:
367,339,27542,2,0,P|374:363|374:375,1,35,8|0,0:1|0:1,0:1:0:0:
419,291,27770,5,8,0:1:0:0:
416,268,27848,1,8,0:1:0:0:
426,246,27926,1,8,0:1:0:0:
446,233,28005,2,0,P|470:233|493:228,1,41.9999987182618,8|8,0:1|0:1,0:1:0:0:
507,166,28183,1,8,0:1:0:0:
507,166,28244,6,0,L|512:118,2,41.9999987182618,2|8|8,0:1|0:1|0:1,0:1:0:0:
384,15,28696,1,8,0:1:0:0:
36,58,28923,6,0,P|33:76|27:93,2,35,8|0|8,0:1|0:1|0:1,0:1:0:0:
11,162,29258,2,0,P|31:169|48:169,1,35,2|0,0:1|0:1,0:1:0:0:
138,139,29482,1,8,0:1:0:0:
3,182,29594,37,8,0:1:0:0:
238,209,29818,1,8,0:1:0:0:
246,295,29930,1,2,0:1:0:0:
193,361,30042,5,8,0:1:0:0:
205,345,30116,1,8,0:1:0:0:
224,331,30191,1,8,0:1:0:0:
247,327,30265,1,8,0:1:0:0:
369,356,30382,5,8,0:1:0:0:
369,356,30441,1,8,0:1:0:0:
369,356,30500,2,0,P|373:331|372:317,2,35,2|8|8,0:1|0:1|0:1,0:1:0:0:
484,226,30928,5,8,0:1:0:0:
122,363,31172,1,8,0:1:0:0:
9,229,31397,1,0,0:1:0:0:
73,237,31510,2,0,P|91:244|104:256,1,35,8|0,0:1|0:1,0:1:0:0:
18,78,31735,1,2,0:1:0:0:
112,128,31848,2,0,P|152:105|171:112,1,52.5000020027161,8|0,0:1|0:1,0:1:0:0:
450,37,32074,37,2,0:0:0:0:
465,130,32187,1,2,0:0:0:0:
383,331,32299,5,12,0:0:0:0:
362,270,32414,1,0,0:0:0:0:
360,209,32529,1,0,0:0:0:0:
374,148,32645,1,0,0:0:0:0:
370,346,32760,5,2,0:0:0:0:
325,335,32880,1,0,0:0:0:0:
294,301,33000,1,8,0:0:0:0:
288,256,33120,1,0,0:0:0:0:
391,315,33240,5,12,0:1:0:0:
382,249,33353,1,0,0:0:0:0:
394,189,33466,1,0,0:0:0:0:
421,133,33579,1,0,0:0:0:0:
330,368,33692,37,4,0:1:0:0:
284,337,33806,1,0,0:0:0:0:
262,288,33919,1,0,0:0:0:0:
273,237,34032,1,0,0:0:0:0:
462,208,34145,5,12,0:2:0:0:
466,212,34256,1,2,0:2:0:0:
421,133,34367,2,0,B|406:101|406:101|458:81,1,90.9999958343508,0|4,0:2|0:2,0:2:0:0:
301,299,34589,5,2,0:2:0:0:
395,307,34700,1,4,0:2:0:0:
489,314,34811,2,0,L|501:421,1,70,2|2,0:2|0:2,0:2:0:0:
379,203,35041,5,12,0:2:0:0:
384,206,35163,1,2,0:2:0:0:
477,190,35285,2,0,B|505:211|505:211|468:253,1,90.9999958343508,12|2,0:2|0:2,0:2:0:0:
397,113,35511,2,0,B|364:96|364:96|393:48,1,90.9999958343508,2|12,0:2|0:2,0:2:0:0:
259,264,35737,37,2,0:2:0:0:
359,290,35857,1,12,0:2:0:0:
460,317,35977,2,0,L|488:412,1,70,2|2,0:2|0:2,0:2:0:0:
178,324,36217,6,0,L|135:338,1,35,8|8,0:1|0:1,0:0:0:0:
100,236,36406,5,12,0:0:0:0:
88,192,36523,1,0,0:0:0:0:
56,159,36641,1,0,0:0:0:0:
12,146,36758,1,0,0:0:0:0:
141,239,36876,5,2,0:0:0:0:
165,173,36990,1,0,0:0:0:0:
174,104,37104,1,8,0:0:0:0:
164,35,37218,1,0,0:0:0:0:
100,236,37332,37,12,0:1:0:0:
75,207,37443,1,0,0:0:0:0:
40,194,37554,1,0,0:0:0:0:
4,199,37665,1,0,0:0:0:0:
153,222,37776,5,4,0:1:0:0:
160,147,37883,1,0,0:0:0:0:
144,70,37990,1,0,0:0:0:0:
105,7,38097,1,0,0:0:0:0:
13,66,38204,6,0,L|5:180,1,90.9999958343508,12|0,0:2|0:2,0:2:0:0:
234,150,38426,5,0,0:2:0:0:
306,161,38537,1,4,0:2:0:0:
378,166,38648,2,0,B|395:182|395:182|332:223,1,90.9999958343508,2|4,0:2|0:2,0:2:0:0:
363,44,38870,2,0,B|344:60|344:60|304:-27,1,90.9999958343508,2|2,0:2|0:2,0:2:0:0:
224,352,39092,2,0,B|166:326|166:326|124:362,1,90.9999958343508,12|2,0:2|0:2,0:2:0:0:
22,40,39315,38,0,L|33:132,1,90.9999958343508,12|2,0:2|0:2,0:2:0:0:
218,172,39537,5,0,0:2:0:0:
300,197,39646,1,4,0:2:0:0:
383,219,39755,2,0,B|398:236|398:236|320:269,1,90.9999958343508,2|12,0:2|0:2,0:2:0:0:
437,45,39973,2,0,B|412:42|412:42|451:-33,1,90.9999958343508,2|2,0:2|0:2,0:2:0:0:
512,179,40199,5,2,0:2:0:0:
500,297,40317,1,2,0:2:0:0:
424,384,40434,5,12,0:0:0:0:
360,357,40543,1,0,0:0:0:0:
293,348,40653,1,0,0:0:0:0:
226,354,40763,1,0,0:0:0:0:
446,367,40873,37,2,0:0:0:0:
483,340,40987,1,0,0:0:0:0:
500,297,41101,1,8,0:0:0:0:
492,252,41215,1,0,0:0:0:0:
392,353,41329,5,12,0:1:0:0:
318,346,41443,1,0,0:0:0:0:
245,356,41557,1,0,0:0:0:0:
175,384,41671,1,0,0:0:0:0:
444,337,41785,5,4,0:1:0:0:
444,289,41890,1,0,0:0:0:0:
421,249,41995,1,0,0:0:0:0:
381,228,42100,1,0,0:0:0:0:
257,208,42247,6,0,L|249:298,1,70,12|0,0:2|0:2,0:2:0:0:
44,211,42457,1,2,0:2:0:0:
39,144,42562,1,4,0:2:0:0:
34,77,42668,2,0,B|54:82|54:82|42:14,1,90.9999958343508,0|4,0:2|0:2,0:2:0:0:
42,299,42890,2,0,B|21:288|21:288|7:362,1,90.9999958343508,2|2,0:2|0:2,0:2:0:0:
192,78,43113,2,0,B|211:90|211:90|232:18,1,90.9999958343508,12|2,0:2|0:2,0:2:0:0:
272,246,43353,38,0,L|281:346,1,90.9999958343508,12|2,0:2|0:2,0:2:0:0:
51,230,43567,1,0,0:2:0:0:
55,143,43674,1,4,0:2:0:0:
59,56,43781,2,0,B|78:67|78:67|88:-10,1,90.9999958343508,2|4,0:2|0:2,0:2:0:0:
47,332,44011,2,0,B|30:315|30:315|-4:381,1,90.9999958343508,2|2,0:2|0:2,0:2:0:0:
287,384,44242,5,8,0:1:0:0:
393,363,44349,1,8,0:1:0:0:
500,339,44456,2,0,L|515:93,1,210.000008010865,12|0,0:0|0:0,0:0:0:0:
311,22,44808,6,0,L|319:135,2,90.9999958343508,2|12|0,0:2|0:2|0:2,0:2:0:0:
209,108,45132,5,2,0:2:0:0:
200,120,45161,2,0,B|181:108|181:108|104:132,1,90.9999958343508,2|2,0:2|0:2,0:2:0:0:
343,228,45376,2,0,B|362:240|362:240|439:228,1,90.9999958343508,2|2,0:1|0:1,0:1:0:0:
478,11,45592,1,8,0:1:0:0:
490,20,45700,1,8,0:1:0:0:
314,62,45834,38,0,L|306:183,1,90.9999958343508,12|0,0:0|0:0,0:0:0:0:
164,322,46057,1,0,0:2:0:0:
155,214,46169,1,2,0:2:0:0:
85,139,46280,6,0,B|62:136|62:136|3:190,1,90.9999958343508,4|0,0:2|0:2,0:2:0:0:
415,199,46504,2,0,B|437:201|437:201|502:158,1,90.9999958343508,6|0,0:2|0:2,0:2:0:0:
81,10,46729,2,0,B|109:13|109:13|181:67,1,90.9999958343508,10|4,0:0|0:2,0:2:0:0:
432,0,46943,1,0,0:2:0:0:
451,9,47069,1,2,0:2:0:0:
311,108,47196,6,0,L|317:208,2,90.9999958343508,12|0|0,0:0|0:0|0:0,0:0:0:0:
289,340,47523,1,2,0:2:0:0:
420,363,47632,2,0,B|401:351|401:351|389:320|429:277,1,90.9999958343508,12|0,0:2|0:2,0:2:0:0:
144,254,47861,2,0,B|125:262|125:262|96:246|99:187,1,90.9999958343508,2|0,0:2|0:2,0:2:0:0:
483,41,48090,5,2,0:1:0:0:
128,57,48205,2,0,L|115:122,2,45.4999979171754,2|2|2,0:2|0:2|0:2,0:2:0:0:
114,36,48435,1,2,0:2:0:0:
316,148,48550,38,0,L|305:257,2,90.9999958343508,12|0|2,0:0|0:0|0:2,0:0:0:0:
290,384,48877,1,8,0:2:0:0:
453,351,48986,2,0,B|431:352|431:352|402:336|408:277,1,90.9999958343508,0|0,0:2|0:2,0:2:0:0:
56,276,49215,2,0,B|41:258|41:258|40:225|94:199,1,90.9999958343508,6|0,0:2|0:2,0:2:0:0:
425,85,49455,6,0,L|519:28,1,90.9999958343508,2|8,0:1|0:1,0:0:0:0:
89,133,49695,6,0,L|-17:109,1,90.9999958343508,12|0,0:0|0:0,0:0:0:0:
187,369,49909,1,2,0:2:0:0:
313,384,50016,1,8,0:2:0:0:
365,300,50123,5,4,0:2:0:0:
354,194,50230,1,8,0:2:0:0:
361,102,50352,1,2,0:2:0:0:
387,15,50474,1,2,0:2:0:0:
501,1,50597,38,0,L|489:117,1,90.9999958343508,2|8,0:1|0:1,0:0:0:0:
208,212,50837,5,12,0:0:0:0:
195,167,50953,1,0,0:0:0:0:
159,138,51069,1,0,0:0:0:0:
113,135,51185,1,0,0:0:0:0:
235,206,51302,5,2,0:0:0:0:
254,138,51418,1,0,0:0:0:0:
258,68,51534,1,8,0:0:0:0:
245,0,51650,1,0,0:0:0:0:
206,218,51767,5,12,0:1:0:0:
165,191,51878,1,0,0:0:0:0:
120,200,51989,1,0,0:0:0:0:
94,241,52100,1,0,0:0:0:0:
257,201,52211,37,4,0:1:0:0:
297,142,52322,1,0,0:0:0:0:
317,74,52433,1,0,0:0:0:0:
317,5,52544,1,0,0:0:0:0:
177,59,52655,6,0,L|167:179,1,97.9999970092774,4|0,0:2|0:2,0:2:0:0:
331,223,52885,1,8,0:2:0:0:
337,231,53001,1,8,0:2:0:0:
83,122,53116,6,0,L|99:239,1,97.9999970092774,2|0,0:2|0:2,0:2:0:0:
415,278,53347,1,8,0:2:0:0:
408,288,53462,1,8,0:2:0:0:
7,187,53578,6,4,L|-1:295,1,97.9999970092774,4|0,0:2|0:2,0:2:0:0:
267,381,53808,1,8,0:2:0:0:
386,363,53924,1,8,0:2:0:0:
486,345,54039,37,8,0:2:0:0:
469,230,54155,1,2,0:2:0:0:
512,120,54270,1,2,0:2:0:0:
443,20,54379,1,2,0:2:0:0:
273,4,54488,5,12,0:0:0:0:
228,17,54599,1,0,0:0:0:0:
199,52,54710,1,0,0:0:0:0:
195,98,54821,1,0,0:0:0:0:
300,19,54932,5,2,0:0:0:0:
321,80,55043,1,0,0:0:0:0:
323,141,55154,1,8,0:0:0:0:
309,202,55265,1,0,0:0:0:0:
213,0,55376,5,12,0:1:0:0:
180,44,55489,1,0,0:0:0:0:
176,98,55602,1,0,0:0:0:0:
204,142,55715,1,0,0:0:0:0:
300,19,55828,37,4,0:1:0:0:
347,67,55942,1,0,0:0:0:0:
364,132,56055,1,0,0:0:0:0:
361,199,56168,1,0,0:0:0:0:
339,334,56281,5,12,0:2:0:0:
301,339,56358,1,8,0:0:0:0:
274,323,56435,1,8,0:0:0:0:
269,296,56512,5,10,0:0:0:0:
233,274,56589,1,8,0:0:0:0:
192,285,56667,1,8,0:0:0:0:
178,318,56744,5,10,0:2:0:0:
144,335,56821,1,8,0:0:0:0:
111,324,56898,1,8,0:0:0:0:
89,294,56975,37,10,0:0:0:0:
46,280,57053,1,8,0:0:0:0:
9,308,57130,1,8,0:0:0:0:
0,354,57208,5,12,0:2:0:0:
60,362,57282,1,8,0:0:0:0:
115,336,57357,1,8,0:0:0:0:
139,294,57431,5,10,0:0:0:0:
199,269,57506,1,8,0:0:0:0:
256,299,57581,1,8,0:0:0:0:
274,345,57655,5,10,0:2:0:0:
337,376,57730,1,8,0:0:0:0:
403,356,57805,1,8,0:0:0:0:
416,292,57879,37,10,0:0:0:0:
469,255,57954,2,0,P|482:232|487:179,1,60.6666638895672,8|8,0:0|0:0,0:0:0:0:
441,45,58103,5,12,0:0:0:0:
403,60,58220,1,0,0:0:0:0:
380,94,58338,1,0,0:0:0:0:
377,134,58451,1,0,0:0:0:0:
421,16,58564,5,2,0:0:0:0:
354,12,58677,1,0,0:0:0:0:
288,22,58790,1,8,0:0:0:0:
225,46,58904,1,0,0:0:0:0:
441,45,59017,5,12,0:1:0:0:
423,81,59128,1,0,0:0:0:0:
430,123,59240,1,0,0:0:0:0:
457,152,59352,1,0,0:0:0:0:
387,0,59464,37,4,0:1:0:0:
319,9,59573,1,0,0:0:0:0:
256,33,59682,1,0,0:0:0:0:
200,70,59791,1,0,0:0:0:0:
98,150,59921,6,0,L|116:271,1,97.9999970092774,4|0,0:2|0:2,0:2:0:0:
276,172,60135,1,8,0:2:0:0:
287,178,60251,1,8,0:2:0:0:
9,87,60367,6,0,L|-2:222,1,97.9999970092774,2|0,0:2|0:2,0:2:0:0:
387,203,60600,1,8,0:2:0:0:
378,211,60716,1,8,0:2:0:0:
28,258,60832,6,0,L|42:400,1,97.9999970092774,4|0,0:2|0:2,0:2:0:0:
476,235,61055,1,8,0:2:0:0:
492,107,61166,1,8,0:2:0:0:
448,0,61278,37,12,0:0:0:0:
319,14,61389,1,2,0:2:0:0:
241,90,61501,1,2,0:2:0:0:
229,184,61612,1,2,0:2:0:0:
360,277,61725,5,12,0:0:0:0:
410,287,61837,1,0,0:0:0:0:
440,330,61949,1,0,0:0:0:0:
431,384,62062,1,0,0:0:0:0:
326,261,62174,5,2,0:0:0:0:
256,254,62288,1,0,0:0:0:0:
188,268,62402,1,8,0:0:0:0:
127,302,62517,1,0,0:0:0:0:
363,297,62630,5,12,0:1:0:0:
415,288,62744,1,0,0:0:0:0:
461,319,62858,1,0,0:0:0:0:
464,373,62972,1,0,0:0:0:0:
326,261,63086,37,4,0:1:0:0:
262,231,63198,1,0,0:0:0:0:
193,222,63310,1,0,0:0:0:0:
124,233,63423,1,0,0:0:0:0:
29,325,63548,5,12,0:2:0:0:
18,302,63623,1,8,0:0:0:0:
24,277,63698,1,8,0:0:0:0:
54,250,63774,5,10,0:0:0:0:
62,220,63849,1,8,0:0:0:0:
48,193,63925,1,8,0:0:0:0:
15,185,64000,5,10,0:2:0:0:
5,154,64076,1,8,0:0:0:0:
19,127,64151,1,8,0:0:0:0:
52,111,64227,37,10,0:0:0:0:
61,70,64302,1,8,0:0:0:0:
32,34,64378,1,8,0:0:0:0:
0,43,64453,5,12,0:2:0:0:
54,79,64527,1,8,0:0:0:0:
113,66,64602,1,8,0:0:0:0:
143,23,64676,5,10,0:0:0:0:
203,1,64751,1,10,0:0:0:0:
256,37,64826,1,8,0:0:0:0:
273,81,64900,5,10,0:2:0:0:
338,100,64975,1,8,0:0:0:0:
400,72,65050,1,8,0:0:0:0:
458,111,65124,37,10,0:0:0:0:
452,179,65199,2,0,P|435:203|432:250,1,60.6666638895672,10|10,0:0|0:0,0:0:0:0:
466,384,65349,6,0,L|330:372,1,105.000004005432,12|0,0:0|0:0,0:0:0:0:
239,196,65575,1,4,0:2:0:0:
246,208,65688,1,8,0:2:0:0:
71,367,65801,5,4,0:0:0:0:
146,119,65923,2,0,L|137:255,1,105.000004005432,8|0,0:1|0:1,0:1:0:0:
10,202,66168,5,8,0:0:0:0:
0,5,66291,2,0,L|130:17,1,105.000004005432,4|0,0:0|0:0,0:0:0:0:
317,30,66517,1,8,0:0:0:0:
325,39,66630,1,8,0:1:0:0:
149,153,66743,38,0,L|290:138,1,105.000004005432,4|0,0:0|0:0,0:0:0:0:
498,30,66970,1,2,0:1:0:0:
495,43,67083,1,8,0:1:0:0:
451,208,67196,6,0,P|485:252|469:331,1,105.000004005432,12|8,0:2|0:0,0:0:0:0:
341,381,67423,1,2,0:2:0:0:
256,124,67543,2,0,L|247:242,2,105.000004005432,4|0|8,0:2|0:0|0:0,0:0:0:0:
482,172,67903,6,0,L|336:205,1,105.000004005432,6|0,0:0|0:0,0:0:0:0:
7,23,68133,5,2,0:2:0:0:
162,51,68249,1,2,0:2:0:0:
166,57,68364,1,8,0:2:0:0:
171,65,68479,1,8,0:2:0:0:
62,281,68594,37,2,0:2:0:0:
119,133,68703,1,2,0:1:0:0:
143,381,68813,1,8,0:1:0:0:
426,358,69033,6,0,P|400:362|366:360,2,35,12|0|2,0:1|0:0|0:0,0:0:0:0:
404,285,69393,2,0,P|379:275|351:256,2,35,0|2|0,0:0|0:0|0:0,0:0:0:0:
438,216,69753,38,0,P|425:199|416:177,1,35,6|2,0:0|0:0,0:0:0:0:
415,189,70086,1,2,0:0:0:0:
410,193,70197,1,2,0:0:0:0:
293,11,70445,54,0,P|302:25|310:50,1,35,10|0,0:0|0:0,0:0:0:0:
219,34,70678,2,0,P|223:51|225:76,1,35,2|2,0:0|0:0,0:0:0:0:
143,38,70911,2,0,P|141:57|138:80,1,35,2|0,0:0|0:0,0:0:0:0:
68,26,71145,6,0,P|57:42|40:59,4,35,6|0|2|0|2,0:0|0:0|0:0|0:0|0:0,0:0:0:0:
0,220,71845,38,0,P|14:202|39:186,1,35,10|0,0:0|0:0,0:0:0:0:
57,275,72079,2,0,P|77:265|107:260,1,35,2|2,0:0|0:0,0:0:0:0:
85,348,72312,2,0,P|108:347|136:356,1,35,2|0,0:0|0:0,0:0:0:0:
194,383,72546,54,0,P|212:373|248:367,1,35,6|2,0:0|0:0,0:0:0:0:
232,372,72899,1,0,0:0:0:0:
237,376,73019,1,2,0:0:0:0:
400,214,73259,38,0,P|409:192|429:173,1,35,10|0,0:0|0:0,0:0:0:0:
328,248,73499,1,2,0:0:0:0:
324,180,73619,1,2,0:0:0:0:
320,112,73739,2,0,P|306:94|286:83,1,35,2|0,0:0|0:0,0:0:0:0:
260,23,73979,2,0,P|237:26|217:37,1,35,6|0,0:0|0:0,0:0:0:0:
157,23,74214,6,0,P|143:41|137:63,2,35,2|0|2,0:0|0:0|0:0,0:0:0:0:
504,75,74675,6,0,P|495:70|441:60,1,35,10|0,0:0|0:0,0:0:0:0:
447,132,74901,2,0,P|436:133|386:155,1,35,2|2,0:0|0:0,0:0:0:0:
432,214,75128,2,0,P|424:220|396:268,1,35,2|8,0:0|0:0,0:0:0:0:
462,289,75383,6,0,P|475:302|486:327,2,35,6|2|2,0:0|0:0|0:0,0:0:0:0:
265,377,76079,21,12,0:2:0:0:
231,348,76190,2,0,L|166:358,1,35,0|2,0:0|0:0,0:0:0:0:
93,329,76412,2,0,L|63:321,2,17.5,8|8|8,0:0|0:0|0:0,0:0:0:0:
198,198,76650,5,8,0:0:0:0:
270,226,76778,2,0,L|281:148,1,70,2|2,0:2|0:0,0:0:0:0:
236,34,77113,2,0,P|215:41|201:53,1,35,2|0,0:1|0:0,0:0:0:0:
150,94,77337,1,8,0:1:0:0:
14,42,77450,6,0,P|19:72|19:91,1,35,12|0,0:1|0:0,0:0:0:0:
64,136,77681,2,0,P|50:162|39:178,1,35,2|0,0:0|0:0,0:0:0:0:
40,239,77913,2,0,P|12:253|-4:260,1,35,2|0,0:0|0:0,0:0:0:0:
30,324,78144,22,0,P|46:328|63:335,1,35,6|2,0:0|0:0,0:0:0:0:
70,341,78492,1,2,0:0:0:0:
75,347,78608,1,2,0:0:0:0:
276,371,78839,70,0,P|281:354|282:334,1,35,10|0,0:0|0:0,0:0:0:0:
362,352,79071,2,0,P|359:334|351:315,3,35,2|2|2|0,0:0|0:0|0:0|0:0,0:0:0:0:
438,304,79534,38,0,P|428:290|413:275,1,35,6|0,0:0|0:0,0:0:0:0:
479,228,79762,2,0,P|464:219|444:212,2,35,2|0|2,0:0|0:0|0:0,0:0:0:0:
197,61,80218,6,0,P|213:81|227:117,1,35,10|0,0:0|0:0,0:0:0:0:
278,29,80453,2,0,P|286:53|289:92,1,35,2|2,0:0|0:0,0:0:0:0:
365,19,80688,2,0,P|364:45|354:82,1,35,2|0,0:0|0:0,0:0:0:0:
451,33,80923,38,0,P|441:57|419:88,1,35,6|2,0:0|0:0,0:0:0:0:
427,69,81394,1,10,0:0:0:0:
252,270,81629,54,0,P|248:251|240:234,1,35,10|0,0:0|0:0,0:0:0:0:
161,277,81865,2,0,P|167:258|168:239,1,35,2|2,0:0|0:0,0:0:0:0:
78,237,82100,2,0,P|92:224|103:208,1,35,2|0,0:0|0:0,0:0:0:0:
26,161,82355,6,0,P|44:157|62:149,4,35,6|0|2|0|2,0:0|0:0|0:0|0:0|0:0,0:0:0:0:
305,26,83058,38,0,P|283:20|252:22,1,35,10|0,0:0|0:0,0:0:0:0:
289,99,83294,2,0,P|266:102|239:117,1,35,2|2,0:0|0:0,0:0:0:0:
305,171,83530,2,0,P|286:183|267:209,1,35,2|0,0:0|0:0,0:0:0:0:
364,216,83778,54,0,P|372:232|376:255,1,35,6|2,0:0|0:0,0:0:0:0:
380,251,84126,1,0,0:0:0:0:
448,266,84243,1,2,0:0:0:0:
312,378,84475,37,12,0:0:0:0:
193,333,84693,1,0,0:0:0:0:
182,329,84802,2,0,L|131:336,1,35,12|0,0:2|0:0,0:0:0:0:
62,296,85041,5,8,0:2:0:0:
0,337,85172,1,2,0:2:0:0:
130,113,85400,6,0,L|175:120,1,35,2|0,0:0|0:0,0:0:0:0:
233,23,85628,1,8,0:1:0:0:
239,28,85742,1,2,0:1:0:0:
308,36,85856,38,0,L|301:119,1,70,12|0,0:2|0:0,0:0:0:0:
406,141,86202,1,10,0:0:0:0:
472,125,86317,6,0,L|517:132,1,35,0|8,0:0|0:0,0:0:0:0:
444,304,86548,2,0,L|437:344,1,35,2|0,0:2|0:0,0:0:0:0:
354,269,86779,2,0,L|309:276,1,35,2|0,0:0|0:0,0:0:0:0:
241,311,87019,5,8,0:1:0:0:
236,319,87139,1,2,0:1:0:0:
132,361,87259,2,0,L|53:354,1,70,12|0,0:2|0:0,0:0:0:0:
171,301,87607,5,10,0:0:0:0:
241,290,87724,2,0,L|246:243,1,35,0|8,0:0|0:0,0:0:0:0:
256,153,87956,38,0,P|281:144|299:142,1,35,2|0,0:2|0:0,0:0:0:0:
166,122,88184,1,4,0:2:0:0:
97,94,88298,1,0,0:0:0:0:
46,161,88412,6,0,P|73:160|87:156,1,35,8|8,0:1|0:1,0:0:0:0:
134,13,88640,2,0,L|217:29,1,70,12|0,0:2|0:0,0:0:0:0:
344,64,89003,5,10,0:0:0:0:
395,18,89125,2,0,L|443:15,1,35,0|8,0:0|0:0,0:0:0:0:
441,132,89370,2,0,L|410:168,1,35,2|0,0:2|0:0,0:0:0:0:
512,286,89596,2,0,L|504:210,1,70,4|2,0:2|0:1,0:0:0:0:
497,302,89936,1,2,0:1:0:0:
433,356,90049,6,0,P|411:346|389:344,1,35,12|0,0:2|0:0,0:0:0:0:
298,283,90275,1,0,0:0:0:0:
282,325,90402,2,0,B|197:317|197:317|167:337,1,105.000004005432,10|8,0:0|0:0,0:0:0:0:
30,364,90728,37,2,0:0:0:0:
22,265,90845,1,2,0:0:0:0:
31,164,90963,5,2,0:1:0:0:
34,151,91080,1,2,0:1:0:0:
0,132,91198,5,2,0:0:0:0:
36,231,91316,1,2,0:0:0:0:
141,227,91433,6,0,P|159:221|180:218,1,35,12|0,0:1|0:0,0:0:0:0:
188,149,91665,2,0,P|206:152|226:159,1,35,2|0,0:0|0:0,0:0:0:0:
272,101,91898,2,0,P|285:114|297:131,1,35,2|0,0:0|0:0,0:0:0:0:
368,108,92130,6,0,P|371:126|371:147,1,35,6|2,0:0|0:0,0:0:0:0:
378,148,92479,1,2,0:0:0:0:
383,153,92595,1,2,0:0:0:0:
465,346,92836,22,0,P|481:341|511:341,1,35,10|0,0:0|0:0,0:0:0:0:
388,314,93064,2,0,P|400:302|427:290,1,35,2|2,0:0|0:0,0:0:0:0:
303,315,93292,2,0,P|309:299|328:276,1,35,2|0,0:0|0:0,0:0:0:0:
229,312,93520,6,0,P|225:329|226:346,1,35,6|0,0:0|0:0,0:0:0:0:
164,383,93734,2,0,P|144:378|125:377,2,35,2|0|2,0:0|0:0|0:0,0:0:0:0:
0,96,94204,6,0,P|14:78|35:64,1,35,10|0,0:0|0:0,0:0:0:0:
78,120,94439,2,0,P|99:113|124:114,1,35,2|2,0:0|0:0,0:0:0:0:
128,185,94674,2,0,P|149:192|169:207,1,35,2|0,0:0|0:0,0:0:0:0:
131,265,94909,22,0,P|144:283|152:307,2,35,6|2|10,0:0|0:0|0:0,0:0:0:0:
510,94,95625,22,0,P|493:97|477:104,1,35,10|0,0:0|0:0,0:0:0:0:
426,54,95860,2,0,P|410:61|396:72,1,35,2|0,0:0|0:0,0:0:0:0:
334,39,96095,2,0,P|321:50|310:64,1,35,2|0,0:0|0:0,0:0:0:0:
241,47,96330,6,0,P|231:61|224:77,4,35,6|0|2|0|2,0:0|0:0|0:0|0:0|0:0,0:0:0:0:
471,213,97041,6,0,L|458:363,1,105.000004005432,10|2,0:0|0:0,0:0:0:0:
455,322,97388,1,2,0:0:0:0:
449,327,97504,1,2,0:0:0:0:
252,323,97735,22,0,P|238:320|229:319,1,17.5,6|0,0:0|0:0,0:0:0:0:
168,344,97975,70,0,L|172:392,2,35,2|0|2,3:0|3:0|3:0,3:0:0:0:
27,219,98437,37,14,0:0:0:0:
6,154,98518,1,8,0:0:0:0:
34,94,98600,1,8,0:0:0:0:
96,72,98681,5,10,0:0:0:0:
119,135,98763,1,8,0:0:0:0:
184,151,98845,1,8,0:0:0:0:
240,115,98926,5,10,0:0:0:0:
235,49,99005,1,8,0:0:0:0:
278,0,99084,1,8,0:0:0:0:
343,3,99163,5,10,0:0:0:0:
345,71,99242,1,8,0:0:0:0:
402,107,99321,1,8,0:0:0:0:
465,87,99401,37,10,0:0:0:0:
402,96,99476,1,8,0:0:0:0:
372,154,99551,1,8,0:0:0:0:
382,218,99626,5,10,0:0:0:0:
449,214,99701,1,8,0:0:0:0:
491,264,99776,1,8,0:0:0:0:
487,328,99852,5,10,0:0:0:0:
423,333,99927,1,8,0:0:0:0:
381,384,100002,1,8,0:0:0:0:
316,384,100077,5,10,0:0:0:0:
253,366,100152,1,8,0:0:0:0:
227,307,100228,1,8,0:0:0:0:
232,240,100303,37,10,0:0:0:0:
172,264,100379,1,8,0:0:0:0:
109,246,100455,1,8,0:0:0:0:
90,183,100532,5,10,0:0:0:0:
129,126,100608,1,8,0:0:0:0:
132,61,100684,1,8,0:0:0:0:
102,3,100761,5,10,0:0:0:0:
34,24,100837,1,8,0:0:0:0:
4,89,100913,1,8,0:0:0:0:
15,158,100990,5,10,0:0:0:0:
69,199,101066,1,8,0:0:0:0:
79,269,101142,1,8,0:0:0:0:
48,330,101219,38,8,P|12:340|-15:357,2,70.0000026702882,10|8|8,0:0|0:0|0:0,0:0:0:0:
90,183,101448,5,10,0:0:0:0:
135,138,101524,1,8,0:0:0:0:
197,154,101600,1,8,0:0:0:0:
233,210,101677,5,10,0:0:0:0:
299,226,101753,1,8,0:0:0:0:
351,182,101829,1,8,0:0:0:0:
343,107,101906,5,10,0:0:0:0:
362,28,101982,1,8,0:0:0:0:
439,2,102058,1,8,0:0:0:0:
503,51,102135,6,0,L|503:170,1,93.3333333333333,4|0,0:1|0:0,0:0:0:0:
499,314,102390,21,10,0:0:0:0:
468,369,102466,1,8,0:0:0:0:
404,384,102543,1,8,0:0:0:0:
342,368,102620,5,10,0:0:0:0:
378,310,102697,1,8,0:0:0:0:
383,240,102774,1,8,0:0:0:0:
351,182,102851,5,10,0:0:0:0:
285,200,102928,1,8,0:0:0:0:
251,257,103005,1,8,0:0:0:0:
245,325,103082,5,10,0:0:0:0:
200,274,103159,1,8,0:0:0:0:
203,209,103236,1,8,0:0:0:0:
233,151,103313,37,10,0:0:0:0:
187,103,103390,1,8,0:0:0:0:
121,102,103467,1,8,0:0:0:0:
81,155,103543,5,10,0:0:0:0:
145,137,103620,1,8,0:0:0:0:
169,70,103697,1,8,0:0:0:0:
147,6,103774,5,10,0:0:0:0:
81,16,103851,1,8,0:0:0:0:
29,60,103928,1,8,0:0:0:0:
19,126,104005,5,10,0:0:0:0:
61,178,104082,1,8,0:0:0:0:
66,246,104159,1,8,0:0:0:0:
27,300,104236,37,10,0:0:0:0:
92,294,104311,1,8,0:0:0:0:
153,326,104386,1,8,0:0:0:0:
186,384,104461,5,10,0:0:0:0:
251,378,104536,1,8,0:0:0:0:
299,330,104611,1,8,0:0:0:0:
308,264,104687,5,10,0:0:0:0:
253,217,104762,1,8,0:0:0:0:
241,149,104837,1,8,0:0:0:0:
272,87,104912,5,10,0:0:0:0:
343,113,104988,1,8,0:0:0:0:
390,174,105063,1,8,0:0:0:0:
400,247,105138,37,10,0:0:0:0:
338,279,105213,1,8,0:0:0:0:
271,268,105288,1,8,0:0:0:0:
221,218,105363,5,10,0:0:0:0:
164,179,105438,1,8,0:0:0:0:
94,184,105513,1,8,0:0:0:0:
39,226,105589,5,10,0:0:0:0:
115,231,105664,1,8,0:0:0:0:
175,183,105739,1,8,0:0:0:0:
194,100,105814,5,10,0:0:0:0:
243,29,105889,1,8,0:0:0:0:
323,14,105964,1,8,0:0:0:0:
432,22,106040,5,10,0:0:0:0:
23,103,106290,21,2,0:1:0:0:
23,103,106352,1,2,0:1:0:0:
23,103,106415,2,0,P|31:122|33:144,1,35,8|0,0:1|0:0,0:0:0:0:
94,184,106540,2,0,L|81:229,3,35,2|0|0|0,0:0|0:0|0:0|0:0,0:0:0:0:
248,157,106780,5,2,0:1:0:0:
248,157,106841,1,2,0:1:0:0:
248,156,106901,2,0,P|260:172|268:193,1,35,8|0,0:1|0:0,0:0:0:0:
345,168,107021,2,0,L|387:173,3,35,2|0|0|0,0:0|0:0|0:0|0:0,0:0:0:0:
489,27,107261,5,2,0:1:0:0:
489,27,107318,1,2,0:1:0:0:
489,27,107374,2,0,P|486:47|477:67,1,35,8|0,0:1|0:0,0:0:0:0:
405,157,107487,6,0,L|418:293,1,105.000004005432,2|0,0:0|0:0,0:0:0:0:
217,268,107713,2,0,L|203:403,1,105.000004005432,2|0,0:0|0:0,0:0:0:0:
10,360,107949,37,2,0:1:0:0:
10,360,108008,1,2,0:1:0:0:
10,360,108067,2,0,P|1:341|0:315,1,35,8|0,0:1|0:0,0:0:0:0:
21,253,108186,2,0,L|55:259,3,35,2|0|0|0,0:0|0:0|0:0|0:0,0:0:0:0:
144,157,108423,5,2,0:1:0:0:
144,157,108482,1,2,0:1:0:0:
144,157,108541,2,0,P|160:143|184:135,1,35,8|0,0:1|0:0,0:0:0:0:
248,129,108660,2,0,L|254:167,3,35,2|0|0|0,0:0|0:0|0:0|0:0,0:0:0:0:
40,24,108897,5,2,0:1:0:0:
40,24,108957,1,2,0:1:0:0:
40,24,109017,2,0,P|51:45|58:67,1,35,8|0,0:1|0:0,0:0:0:0:
138,151,109137,6,0,L|127:263,1,105.000004005432,2|0,0:0|0:0,0:0:0:0:
339,20,109377,2,0,L|350:140,1,105.000004005432,2|0,0:0|0:0,0:0:0:0:
504,264,109617,37,2,0:1:0:0:
504,264,109674,1,2,0:1:0:0:
504,264,109732,2,0,P|483:271|464:282,1,35,8|0,0:1|0:0,0:0:0:0:
418,328,109847,2,0,L|304:319,1,105.000004005432,2|0,0:0|0:0,0:0:0:0:
0,304,110080,5,2,0:1:0:0:
0,304,110138,1,2,0:1:0:0:
0,304,110197,2,0,P|20:308|40:322,1,35,8|0,0:1|0:0,0:0:0:0:
89,371,110313,2,0,L|199:354,1,105.000004005432,2|0,0:0|0:0,0:0:0:0:
343,125,110547,5,2,0:1:0:0:
343,125,110605,1,2,0:1:0:0:
343,125,110664,2,0,P|319:130|301:140,1,35,8|0,0:1|0:0,0:0:0:0:
222,166,110780,6,0,L|214:281,1,105.000004005432,2|0,0:0|0:0,0:0:0:0:
30,62,111014,2,0,L|44:179,1,105.000004005432,2|0,0:0|0:0,0:0:0:0:
174,20,111254,37,2,0:1:0:0:
174,20,111314,1,2,0:1:0:0:
174,20,111374,2,0,P|204:25|223:35,1,35,8|0,0:1|0:0,0:0:0:0:
289,29,111494,2,0,L|414:17,1,105.000004005432,2|0,0:0|0:0,0:0:0:0:
217,220,111734,5,2,0:1:0:0:
217,220,111794,1,2,0:1:0:0:
217,220,111854,2,0,P|245:208|266:207,1,35,8|0,0:1|0:0,0:0:0:0:
328,197,111974,2,0,L|426:120,1,105.000004005432,2|0,0:0|0:0,0:0:0:0:
370,384,112214,5,2,0:1:0:0:
370,384,112272,1,2,0:1:0:0:
370,384,112330,2,0,P|393:364|412:356,1,35,8|0,0:1|0:0,0:0:0:0:
466,323,112447,6,0,L|477:191,1,105.000004005432,2|0,0:0|0:0,0:0:0:0:
218,359,112680,2,0,L|209:237,1,105.000004005432,2|0,0:0|0:0,0:0:0:0:
5,205,112922,38,0,P|20:210|48:229,1,35,2|2,0:1|0:1,0:0:0:0:
109,233,113043,1,8,0:1:0:0:
41,258,113164,2,0,L|50:128,1,125.999996154785,12|0,0:2|0:0,0:0:0:0:
287,72,113393,6,0,P|272:77|244:96,1,35,2|2,0:1|0:1,0:0:0:0:
184,106,113507,1,8,0:1:0:0:
251,125,113622,2,0,L|242:-5,1,125.999996154785,12|0,0:2|0:0,0:0:0:0:
512,103,113851,6,0,P|477:131|482:173,1,70,2|8,0:1|0:1,0:0:0:0:
456,256,114080,6,0,L|295:226,1,125.999996154785,12|0,0:2|0:0,0:0:0:0:
12,351,114309,2,0,L|185:330,1,125.999996154785,12|0,0:2|0:0,0:0:0:0:
208,231,114548,37,2,0:1:0:0:
208,231,114606,1,2,0:1:0:0:
208,231,114664,2,0,P|230:220|255:217,1,35,8|0,0:1|0:0,0:0:0:0:
314,246,114780,2,0,L|324:376,1,125.999996154785,12|0,0:2|0:0,0:0:0:0:
388,71,115013,5,2,0:1:0:0:
388,71,115071,1,2,0:1:0:0:
388,71,115129,2,0,P|402:52|422:38,1,35,8|0,0:1|0:0,0:0:0:0:
489,24,115245,2,0,L|474:186,1,125.999996154785,12|0,0:2|0:0,0:0:0:0:
266,126,115478,6,0,L|260:39,1,70,2|8,0:1|0:1,0:0:0:0:
25,8,115710,6,0,L|166:36,1,125.999996154785,12|0,0:2|0:0,0:0:0:0:
137,194,115939,2,0,L|-4:222,1,97.9999970092774,12|0,0:2|0:0,0:0:0:0:
68,337,116168,37,2,0:1:0:0:
68,337,116227,1,2,0:1:0:0:
68,337,116286,2,0,L|114:342,1,35,8|0,0:1|0:0,0:0:0:0:
178,332,116405,2,0,P|192:350|203:383,3,35,2|0|0|0,0:0|0:0|0:0|0:0,0:0:0:0:
332,266,116642,5,2,0:1:0:0:
332,266,116701,1,2,0:1:0:0:
332,266,116760,2,0,L|326:307,1,35,8|0,0:1|0:0,0:0:0:0:
366,364,116879,2,0,P|385:375|406:401,3,35,2|0|0|0,0:0|0:0|0:0|0:0,0:0:0:0:
504,264,117116,5,2,0:1:0:0:
504,264,117176,1,2,0:1:0:0:
504,264,117236,2,0,L|497:226,1,35,8|0,0:1|0:0,0:0:0:0:
464,159,117357,2,0,P|441:155|413:138,3,35,2|0|0|0,0:0|0:0|0:0|0:0,0:0:0:0:
280,135,117599,5,2,0:1:0:0:
280,135,117657,1,2,0:1:0:0:
280,135,117716,2,0,L|302:101,1,35,8|0,0:1|0:0,0:0:0:0:
303,25,117834,2,0,P|286:9|273:-21,3,35,2|0|0|0,0:0|0:0|0:0|0:0,0:0:0:0:
70,34,118069,37,2,0:1:0:0:
70,34,118126,1,2,0:1:0:0:
70,34,118183,2,0,P|93:41|110:60,1,35,8|0,0:1|0:0,0:0:0:0:
64,184,118297,5,2,0:0:0:0:
64,184,118354,1,2,0:1:0:0:
64,184,118411,2,0,P|75:211|74:240,1,35,8|0,0:1|0:0,0:0:0:0:
330,154,118525,5,2,0:0:0:0:
330,154,118582,1,2,0:1:0:0:
330,154,118639,2,0,P|321:182|301:203,1,35,8|0,0:1|0:0,0:0:0:0:
225,289,118753,5,2,0:0:0:0:
225,289,118810,1,2,0:1:0:0:
225,289,118867,2,0,P|226:318|215:345,1,35,8|0,0:1|0:0,0:0:0:0:
488,337,118981,37,2,0:0:0:0:
488,337,119038,1,2,0:1:0:0:
488,337,119095,2,0,P|470:360|444:373,1,35,8|0,0:1|0:0,0:0:0:0:
75,216,119209,5,2,0:1:0:0:
73,241,119266,1,2,0:1:0:0:
71,270,119323,1,8,0:1:0:0:
68,296,119380,1,8,0:1:0:0:
49,339,119437,6,0,P|59:363|63:388,3,35,8|8|8|8,0:1|0:1|0:1|0:1,0:0:0:0:
0,14,119692,21,10,0:0:0:0:
384,63,119920,70,0,B|369:41|339:35|339:35|388:1|496:23|542:134|491:241|431:196|411:249|410:305|433:344,1,490.000004673004,4|0,0:2|0:2,0:2:0:0:
128,321,120591,2,0,B|143:343|173:349|173:349|124:383|16:361|-30:250|21:143|81:188|101:135|102:79|79:40,1,490.000004673004,2|0,0:2|0:2,0:2:0:0:
389,173,121263,38,0,P|349:254|361:356,1,183.750001752377,4|0,0:2|0:2,0:2:0:0:
433,343,121487,6,0,L|516:361,1,61.2500005841255,2|0,0:0|0:0,0:0:0:0:
82,251,121711,2,0,L|23:276,1,61.2500005841255,2|0,0:2|0:0,0:0:0:0:
130,346,121940,5,0,0:0:0:0:
118,148,122054,2,0,L|47:157,1,61.2500005841255,2|0,0:2|0:0,0:0:0:0:
131,364,122283,5,0,0:0:0:0:
194,67,122398,2,0,L|120:49,1,61.2500005841255,2|0,0:2|0:0,0:0:0:0:
385,62,122627,2,0,L|401:1,1,61.2500005841255,2|0,0:2|0:0,0:0:0:0:
453,162,122856,2,0,L|527:180,1,61.2500005841255,2|0,0:2|0:0,0:0:0:0:
262,167,123085,6,0,L|246:228,1,61.2500005841255,2|0,0:2|0:0,0:0:0:0:
81,265,123542,22,0,B|-18:245|-18:245|95:356|95:356|218:325|218:325|306:387,1,490.000004673004,4|0,0:2|0:2,0:2:0:0:
431,119,124208,2,0,B|530:139|530:139|417:28|417:28|294:59|294:59|206:-3,1,490.000004673004,2|0,0:2|0:2,0:2:0:0:
91,102,124875,6,0,L|456:300,1,367.500003504753,4|0,0:2|0:2,0:2:0:0:
497,362,125303,5,2,0:3:0:0:
512,357,125360,1,2,0:3:0:0:
29,320,125533,1,8,0:0:0:0:
483,64,125764,6,0,B|476:40|491:23|491:23|420:5|332:91|354:205|452:253|452:253|441:278|418:298|418:298|435:325|422:354,1,490.000004673004,4|0,0:2|0:2,0:2:0:0:
29,320,126425,2,0,B|36:344|21:361|21:361|92:379|180:293|158:179|60:131|60:131|71:106|94:86|94:86|77:59|90:30,1,490.000004673004,2|0,0:2|0:2,0:2:0:0:
491,44,127045,37,0,0:2:0:0:
483,64,127108,2,0,P|401:83|256:243,1,306.250002920628,4|0,0:2|0:2,0:2:0:0:
21,233,127555,5,2,0:0:0:0:
89,265,127662,1,2,0:0:0:0:
103,339,127769,5,2,0:1:0:0:
115,342,127876,1,2,0:1:0:0:
196,0,128090,5,8,0:1:0:0:
280,54,128197,37,10,0:0:0:0:
338,49,128269,1,2,0:1:0:0:
396,44,128340,1,8,0:1:0:0:
454,39,128412,5,8,0:0:0:0:
454,39,128642,1,8,0:0:0:0:
454,39,128873,2,0,L|467:84,1,35,2|0,0:2|0:0,0:0:0:0:
454,39,129095,2,0,L|457:79,1,35,2|0,0:1|0:0,0:0:0:0:
471,306,129346,6,0,B|486:333|532:345|532:345|398:334|398:334|299:371|299:371|186:359,1,428.750004088879,4|0,0:2|0:0,0:0:0:0:
41,78,130007,2,0,B|26:51|-20:39|-20:39|114:50|114:50|213:13|213:13|326:25,1,428.750004088879,2|0,0:2|0:0,0:0:0:0:
475,187,130669,6,0,B|270:235|270:235|192:214|192:214|70:241,1,367.500003504753,4|0,0:2|0:0,0:0:0:0:
60,365,131082,37,2,0:1:0:0:
4,17,131309,5,8,0:1:0:0:
85,25,131422,1,8,0:1:0:0:
143,109,131536,6,0,B|133:131|135:157|135:157|30:120|-62:197|-45:345|61:366|61:366|88:336|133:335,1,490.000004673004,4|0,0:2|0:0,0:0:0:0:
363,0,132207,2,0,B|373:22|371:48|371:48|476:11|568:88|551:236|445:257|445:257|418:227|380:227,1,490.000004673004,2|0,0:2|0:0,0:0:0:0:
91,257,132879,5,4,0:2:0:0:
111,295,132988,2,0,B|184:298|184:298|264:344,1,140,0|0,0:0|0:0,0:0:0:0:
238,345,133316,54,0,P|199:357|175:378,1,46.6666666666667,2|2,0:2|0:2,0:0:0:0:
323,220,133837,2,0,P|330:237|331:249,1,26.2500010013581,2|0,0:2|0:0,0:0:0:0:
436,148,134098,5,2,0:2:0:0:
445,234,134248,1,0,0:0:0:0:
454,317,134398,2,0,B|477:318|496:302|496:302|488:334|488:334|464:367|422:315|383:356|383:356|373:341|373:341|356:353|356:353|346:336|346:336|331:349|331:349|320:334|320:334|314:338|314:338|321:364|321:364|302:351|263:351,1,367.500014019013,2|0,0:2|0:0,0:0:0:0:
115,300,135182,6,0,B|140:342|140:342|24:365|24:365|102:273|100:169|-17:191|19:55,1,503.999984619141,4|0,0:2|0:0,0:0:0:0:
397,84,135843,2,0,B|372:42|372:42|488:19|488:19|410:111|412:215|529:193|493:329,1,503.999984619141,2|0,0:2|0:0,0:0:0:0:
120,88,136505,38,0,B|178:269|321:126|393:301,1,367.500003504753,4|0,0:2|0:0,0:0:0:0:
479,332,136936,5,2,0:0:0:0:
493,328,136977,1,2,0:0:0:0:
1,339,137186,5,2,0:0:0:0:
10,185,137297,1,2,0:0:0:0:
19,37,137408,6,0,B|78:0|186:-13|302:16|340:79|340:79|266:124|189:71,1,490.000004673004,4|0,0:2|0:0,0:0:0:0:
493,347,138100,2,0,B|434:384|329:400|221:364|186:320,1,306.250002920628,2|0,0:2|0:0,0:0:0:0:
183,316,138421,2,0,B|242:266|314:292,1,137.550002518616,2|0,0:0|0:0,0:0:0:0:
473,225,138742,38,0,B|481:193|481:193|347:237|312:99|157:181,1,367.500003504753,4|0,0:2|0:0,0:0:0:0:
65,332,139208,6,0,L|71:401,1,52.5000020027161,4|0,0:2|0:0,0:0:0:0:
1,274,139438,5,2,0:0:0:0:
4,210,139545,1,2,0:0:0:0:
8,146,139652,1,2,0:0:0:0:
12,82,139759,1,2,0:0:0:0:
61,18,139866,5,12,0:2:0:0:
72,22,139973,1,8,0:1:0:0:
131,96,140080,37,2,0:0:0:0:
216,88,140188,1,2,0:0:0:0:
268,12,140295,5,12,0:2:0:0:
266,22,140402,1,10,0:0:0:0:
327,90,140509,5,2,0:0:0:0:
463,17,140620,1,10,0:0:0:0:
376,173,140731,1,6,0:0:0:0:
512,100,140842,1,8,0:0:0:0:
501,283,140953,6,0,B|486:313|508:361|508:361|423:317|414:135|528:206|561:107|535:0|430:-11|380:21,1,560,4|0,0:2|0:0,0:0:0:0:
132,363,141609,2,0,B|82:395|-23:384|-49:277|-16:178|98:249|89:67|4:23|4:23|26:71|9:104,1,560,2|0,0:2|0:0,0:0:0:0:
90,285,142280,38,0,P|273:284|415:390,1,367.500003504753,4|0,0:2|0:0,0:0:0:0:
496,291,142714,6,0,L|494:304,1,11.6666666666667,2|2,0:0|0:1,0:0:0:0:
309,2,142932,1,8,0:1:0:0:
27,140,143157,5,4,0:0:0:0:
162,205,143370,5,8,0:2:0:0:
160,217,143477,1,2,0:2:0:0:
158,229,143584,2,0,P|218:227|247:163,1,131.25,12|0,0:2|0:2,0:2:0:0:
301,115,143797,2,0,P|345:142|343:190,1,87.5,2|0,0:2|0:2,0:2:0:0:
500,310,144011,38,0,P|389:344|328:397,2,175,4|8|6,0:2|0:2|0:2,0:2:0:0:
138,359,144651,5,8,0:0:0:0:
5,103,144865,2,0,P|21:154|8:264,1,131.25,4|0,0:2|0:2,0:2:0:0:
69,184,145082,6,0,P|87:147|140:144,1,87.5,2|0,0:2|0:2,0:2:0:0:
295,10,145299,2,0,P|305:42|368:43,1,87.5,4|0,0:2|0:2,0:2:0:0:
439,40,145517,5,8,0:2:0:0:
77,68,145734,2,0,L|74:27,1,35,6|0,0:2|0:2,0:2:0:0:
129,139,145932,1,8,0:2:0:0:
494,252,146132,38,0,L|502:213,1,35,6|0,0:2|0:2,0:2:0:0:
436,319,146343,2,0,B|338:309|338:309|296:333,1,131.25,8|0,0:2|0:2,0:2:0:0:
247,377,146554,5,12,0:2:0:0:
33,218,146765,2,0,B|17:242|17:242|8:308,1,87.5,2|0,0:2|0:2,0:2:0:0:
129,158,146977,2,0,B|142:129|142:129|131:17,1,131.25,4|0,0:2|0:2,0:2:0:0:
57,6,147188,5,8,0:2:0:0:
389,204,147399,2,0,P|425:175|476:276,1,175,6|8,0:2|0:2,0:2:0:0:
123,351,147827,6,0,P|162:330|205:322,1,87.5,12|0,0:2|0:2,0:2:0:0:
478,285,148041,1,2,0:2:0:0:
33,218,148256,38,0,P|12:310|106:326,1,210.000008010865,4|8,0:2|0:2,0:2:0:0:
415,0,148679,6,0,P|401:64|409:132,1,136.500000520706,6|0,0:2|0:2,0:2:0:0:
478,285,148889,5,8,0:2:0:0:
19,129,149099,6,0,B|39:61|-36:103|-42:25|-3:-26|81:-40|108:91|58:153|58:153|25:200|30:247|55:290|55:290|82:336|36:402|-18:416|-64:410|-51:303|23:284|85:269|85:269|148:251|184:204|198:150|224:-19|134:13|-10:137|23:-173|290:-227|368:25|330:304|228:37|197:89|171:222|187:261|218:283|218:283|266:316|255:381|189:399|132:348|157:299|203:267|203:267|331:176|382:312|484:128|344:23|344:23|370:95|360:183|265:196|306:242|306:242|345:285|349:337|330:385|330:385|368:327|437:289|490:426|541:302|511:262|511:262|484:226|419:234|400:303|433:373|547:347|522:278|511:261|511:261|487:211|457:123|550:148|547:38|513:-6|513:-6|520:28|497:59,1,3421.40828165469,6|0,0:2|2:0,0:0:0:0:
