osu file format v14

[General]
AudioFilename: audio.mp3
AudioLeadIn: 0
PreviewTime: 50215
Countdown: 1
SampleSet: Soft
StackLeniency: 0.2
Mode: 0
LetterboxInBreaks: 0
WidescreenStoryboard: 0

[Editor]
Bookmarks: 17973,164223
DistanceSpacing: 1.5
BeatDivisor: 4
GridSize: 8
TimelineZoom: 1

[Metadata]
Title:Niepowstrzymany (prod. Kaktus)
TitleUnicode:Niepowstrzymany (prod. Kaktus)
Artist:GIMPSON
ArtistUnicode:GIMPSON
Creator:Xylo-
Version:XVoIR's Unstoppable
Source:
Tags:
BeatmapID:977300
BeatmapSetID:455991

[Difficulty]
HPDrainRate:6
CircleSize:4
OverallDifficulty:8
ApproachRate:9.2
SliderMultiplier:1.4
SliderTickRate:1

[Events]
//Background and Video events
0,0,"13173406_631558810326977_6824568390523897422_o.jpg",0,0
//Break Periods
2,10415,17395
//Storyboard Layer 0 (Background)
//Storyboard Layer 1 (Fail)
//Storyboard Layer 2 (Pass)
//Storyboard Layer 3 (Foreground)
//Storyboard Sound Samples

[TimingPoints]
2215,500,4,2,0,80,1,0
2715,-100,4,2,0,30,0,0
2815,-50,4,2,0,30,0,0
3215,-100,4,2,0,65,0,0
3340,-100,4,2,0,30,0,0
3715,-100,4,2,0,45,0,0
3840,-100,4,2,0,30,0,0
5215,-200,4,2,0,30,0,0
6215,-100,4,2,0,80,0,0
6715,-100,4,2,0,30,0,0
7215,-100,4,2,0,65,0,0
7340,-100,4,2,0,30,0,0
7715,-100,4,2,0,45,0,0
7840,-100,4,2,0,30,0,0
8465,-100,4,2,0,70,0,0
8715,-100,4,2,0,30,0,0
8965,-100,4,2,0,70,0,0
9215,-200,4,2,0,30,0,0
9465,-200,4,2,0,30,0,0
9590,-200,4,2,0,45,0,0
9715,-200,4,2,0,60,0,0
10215,-100,4,2,0,100,0,0
17965,-50,4,2,0,100,0,0
32715,-100,4,2,0,75,0,0
33090,-50,4,2,0,100,0,0
51215,-50,4,2,0,100,0,1
57215,-33.3333333333333,4,2,0,100,0,1
58215,-50,4,2,0,100,0,1
65965,-50,4,2,0,100,0,0
78715,-100,4,2,0,100,0,0
79215,-50,4,2,0,100,0,0
99215,-50,4,2,0,100,0,1
105215,-33.3333333333333,4,2,0,100,0,1
106215,-50,4,2,0,100,0,1
114215,-100,4,2,0,75,0,0
122215,-66.6666666666667,4,2,0,80,0,0
126215,-66.6666666666667,4,2,0,100,0,0
132090,-50,4,2,0,100,0,0
133215,-50,4,2,0,100,0,1
139215,-33.3333333333333,4,2,0,100,0,1
140215,-50,4,2,0,100,0,1
148215,-50,4,2,0,100,0,0

[HitObjects]
70,270,2215,6,0,L|152:283,1,70,10|0,1:0|1:0,2:0:0:0:
318,257,2715,1,0,0:0:0:0:
304,232,2965,1,0,0:0:0:0:
203,105,3215,1,2,0:0:0:0:
195,132,3465,1,0,0:0:0:0:
124,274,3715,1,2,0:0:0:0:
151,269,3965,1,0,0:0:0:0:
335,339,4215,5,2,0:0:0:0:
329,311,4465,1,0,0:0:0:0:
321,115,4715,1,0,0:0:0:0:
306,139,4965,1,0,0:0:0:0:
177,269,5215,2,0,L|215:282,1,35,2|0,0:0|0:0,0:0:0:0:
379,310,5715,2,0,L|371:263,1,35,2|0,0:0|0:0,0:0:0:0:
220,59,6215,6,0,L|171:116,1,70,2|0,0:0|0:0,0:0:0:0:
264,253,6715,1,0,0:0:0:0:
282,231,6965,1,0,0:0:0:0:
334,107,7215,1,2,0:0:0:0:
316,129,7465,1,0,0:0:0:0:
93,224,7715,1,2,0:0:0:0:
111,202,7965,1,0,0:0:0:0:
393,190,8215,5,2,0:0:0:0:
300,321,8465,1,4,0:0:0:0:
95,335,8715,5,0,0:0:0:0:
188,204,8965,1,4,0:0:0:0:
352,272,9215,6,0,L|403:276,1,35,0|0,3:0|0:0,0:0:0:0:
492,261,9590,1,0,0:0:0:0:
444,172,9715,2,8,L|448:126,2,35,8|8|4,3:0|3:0|3:0,3:0:0:0:
145,240,17965,5,0,0:0:0:0:
65,225,18090,1,0,0:0:0:0:
223,223,18215,6,0,P|297:214|370:229,1,140,6|0,0:0|0:0,0:0:0:0:
437,259,18590,1,0,0:0:0:0:
480,332,18715,1,8,0:0:0:0:
437,259,18840,1,0,0:0:0:0:
466,180,18965,2,0,P|471:97|467:74,1,70
288,27,19215,2,0,P|276:76|287:133,1,70,0|0,1:0|0:0,0:0:0:0:
361,71,19465,1,0,0:0:0:0:
288,27,19590,1,0,0:0:0:0:
204,35,19715,2,0,B|169:48|131:41|131:41|100:34|58:45,2,140,8|0|2,0:0|0:0|0:0,0:0:0:0:
246,154,20465,5,0,0:0:0:0:
267,246,20590,1,0,0:0:0:0:
182,311,20715,5,8,0:0:0:0:
165,229,20840,1,0,0:0:0:0:
99,281,20965,1,0,0:0:0:0:
384,339,21215,2,0,L|459:344,1,70
493,222,21465,1,0,0:0:0:0:
493,222,21590,2,0,L|406:229,2,70,0|8|0,0:0|0:0|0:0,0:0:0:0:
511,139,21965,5,0,0:0:0:0:
471,64,22090,1,0,0:0:0:0:
389,86,22215,6,0,B|339:107|300:91|300:91|262:77|220:83,1,140,2|0,0:0|0:0,0:0:0:0:
109,55,22590,1,0,0:0:0:0:
79,133,22715,1,0,0:0:0:0:
95,215,22840,1,0,0:0:0:0:
159,268,22965,2,0,L|240:275,1,70
312,269,23215,1,0,0:0:0:0:
394,255,23340,1,0,0:0:0:0:
334,195,23465,2,0,L|335:120,2,70
402,353,23965,6,0,L|481:329,1,70
157,259,24215,2,0,B|125:291|76:277|76:277|24:314,1,140,2|0,0:0|0:0,0:0:0:0:
105,199,24590,1,0,0:0:0:0:
130,119,24715,2,0,P|114:52|39:38,1,140,8|0,0:0|0:0,0:0:0:0:
105,199,25090,1,0,0:0:0:0:
188,186,25215,1,0,0:0:0:0:
410,29,25465,1,0,0:0:0:0:
327,42,25590,1,0,0:0:0:0:
385,108,25715,2,0,P|399:174|463:194,1,140,8|0,0:0|0:0,0:0:0:0:
410,29,26090,1,0,0:0:0:0:
327,42,26215,6,0,L|178:76,1,140,4|0,0:0|0:0,0:0:0:0:
153,262,26715,2,0,P|163:302|183:337,1,70
254,358,26965,1,0,0:0:0:0:
337,347,27090,1,0,0:0:0:0:
384,277,27215,2,0,B|420:266|494:277|494:277|455:308,1,140
254,358,27590,2,0,L|261:238,1,70,0|8,0:0|0:0,0:0:0:0:
360,66,27840,2,0,L|350:142,1,70
160,173,28215,6,0,B|105:160|64:176|64:176|21:182|-13:164,2,140,0|0|8,0:0|0:0|0:0,0:0:0:0:
241,192,28840,1,0,0:0:0:0:
316,228,28965,1,0,0:0:0:0:
397,247,29090,1,0,0:0:0:0:
476,231,29215,2,0,P|431:173|366:174,1,140
397,247,29590,1,0,0:0:0:0:
427,325,29715,1,8,0:0:0:0:
340,309,29840,1,0,0:0:0:0:
397,247,29965,1,0,0:0:0:0:
214,318,30215,6,0,P|133:328|70:317,1,140,2|0,0:0|0:0,0:0:0:0:
5,271,30590,1,0,0:0:0:0:
60,208,30715,1,8,0:0:0:0:
22,132,30840,1,0,0:0:0:0:
76,68,30965,2,0,L|153:55,1,70
366,56,31215,2,0,L|436:68,1,70
490,132,31465,1,0,0:0:0:0:
452,208,31590,1,0,0:0:0:0:
507,271,31715,1,8,0:0:0:0:
424,288,31840,1,0,0:0:0:0:
452,208,31965,1,0,0:0:0:0:
507,271,32090,1,0,0:0:0:0:
424,288,32215,6,0,L|280:296,1,140,2|0,0:0|0:0,0:0:0:0:
212,251,32590,1,0,0:0:0:0:
268,189,32715,2,0,L|356:183,1,70
424,288,33090,2,0,L|416:358,1,70,0|0,3:0|3:0,3:0:0:0:
332,368,33340,1,0,3:0:0:0:
248,371,33465,1,0,3:0:0:0:
167,347,33590,1,0,3:0:0:0:
106,288,33715,2,0,P|94:212|102:137,1,140
440,95,34215,5,2,0:0:0:0:
196,52,34465,1,4,0:0:0:0:
471,90,34715,5,8,0:0:0:0:
169,64,34965,1,4,0:0:0:0:
314,169,35215,2,0,B|387:182|427:182|427:182|396:209,1,140,0|4,0:0|0:0,0:0:0:0:
345,256,35590,1,0,0:0:0:0:
263,237,35715,2,0,P|233:171|277:94,1,140,8|4,0:0|0:0,0:0:0:0:
195,308,36215,6,0,L|37:324,1,140,2|0,0:0|0:0,0:0:0:0:
116,177,36590,1,0,0:0:0:0:
116,177,36715,1,8,0:0:0:0:
378,116,36965,2,0,P|448:109|520:123,1,140
400,211,37340,1,0,0:0:0:0:
316,262,37465,1,0,0:0:0:0:
243,198,37590,1,0,0:0:0:0:
281,107,37715,1,8,0:0:0:0:
378,116,37840,1,0,0:0:0:0:
400,211,37965,2,0,L|398:297,1,70
181,354,38215,6,0,L|182:202,1,140,2|0,0:0|0:0,0:0:0:0:
194,130,38590,1,0,0:0:0:0:
180,47,38715,1,8,0:0:0:0:
98,226,38965,1,0,0:0:0:0:
181,214,39090,1,0,0:0:0:0:
264,217,39215,2,0,B|324:227|357:212|357:212|420:222,1,140
308,131,39590,1,0,0:0:0:0:
366,300,39715,1,8,0:0:0:0:
171,308,39965,5,0,0:0:0:0:
91,336,40090,1,0,0:0:0:0:
171,308,40215,2,0,P|178:230|165:165,1,140,2|0,0:0|0:0,0:0:0:0:
116,102,40590,1,0,0:0:0:0:
166,169,40715,2,0,B|223:163|279:164|279:164|246:149,1,140,8|0,0:0|0:0,0:0:0:0:
363,157,41090,1,0,0:0:0:0:
440,189,41215,1,0,0:0:0:0:
469,267,41340,1,0,0:0:0:0:
423,337,41465,1,0,0:0:0:0:
339,348,41590,1,0,0:0:0:0:
255,336,41715,2,0,P|177:334|109:346,1,140,8|0,0:0|0:0,0:0:0:0:
76,185,42215,5,2,0:0:0:0:
76,185,42340,1,0,0:0:0:0:
157,166,42465,1,0,0:0:0:0:
409,277,42715,5,8,0:0:0:0:
409,277,42840,1,0,0:0:0:0:
365,206,42965,1,0,0:0:0:0:
336,40,43215,5,0,0:0:0:0:
300,116,43340,1,0,0:0:0:0:
265,192,43465,1,0,0:0:0:0:
231,269,43590,1,0,0:0:0:0:
267,345,43715,1,8,0:0:0:0:
231,269,43840,1,0,0:0:0:0:
196,193,43965,1,0,0:0:0:0:
162,116,44090,2,0,L|170:41,1,70,0|2,0:0|0:0,0:0:0:0:
336,40,44340,6,0,L|328:115,1,70
403,263,44590,1,0,0:0:0:0:
484,137,44715,1,8,0:0:0:0:
344,117,44840,5,0,0:0:0:0:
467,237,44965,1,0,0:0:0:0:
501,76,45090,1,0,0:0:0:0:
280,262,45465,1,0,0:0:0:0:
196,252,45590,5,0,0:0:0:0:
112,253,45715,1,0,0:0:0:0:
36,289,45840,1,0,0:0:0:0:
112,253,45965,2,0,L|110:104,1,140,0|2,0:0|0:0,0:0:0:0:
243,49,46465,6,0,B|318:56|354:48|354:48|330:76,1,140,0|8,0:0|0:0,0:0:0:0:
242,355,46965,1,0,0:0:0:0:
40,167,47215,1,0,0:0:0:0:
472,167,47465,1,0,0:0:0:0:
400,123,47590,1,0,0:0:0:0:
400,207,47715,1,8,0:0:0:0:
472,167,47840,1,0,0:0:0:0:
327,168,47965,1,0,0:0:0:0:
245,186,48090,1,0,0:0:0:0:
161,188,48215,5,2,0:0:0:0:
79,168,48340,1,0,0:0:0:0:
48,89,48465,1,0,0:0:0:0:
79,168,48590,1,0,0:0:0:0:
90,251,48715,2,0,P|89:319|39:365,1,140
12,285,49090,1,0,0:0:0:0:
89,252,49215,2,0,L|234:306,1,140
412,83,49715,2,8,L|267:137,1,140
400,318,50215,5,2,0:0:0:0:
412,83,50590,1,2,0:0:0:0:
402,166,50715,1,10,0:0:0:0:
154,76,50965,2,0,B|96:82|39:73|39:73|59:103,1,140,2|4,0:0|0:0,0:0:0:0:
332,255,51465,2,0,B|390:266|439:255|439:255|406:283,1,140,0|8,0:0|0:0,0:0:0:0:
120,360,51965,1,0,0:0:0:0:
96,57,52215,6,0,B|156:38|196:57|196:57|235:69|310:56,1,210,2|0,0:0|0:0,0:0:0:0:
386,47,52715,1,8,0:0:0:0:
318,298,52965,1,0,0:0:0:0:
41,228,53215,1,0,0:0:0:0:
474,182,53465,1,0,0:0:0:0:
227,365,53715,1,8,0:0:0:0:
147,84,53965,1,0,0:0:0:0:
246,194,54215,6,0,B|302:209|324:155|324:155|362:180|390:171|390:171|419:162|445:175,1,210,2|0,0:0|0:0,0:0:0:0:
230,182,54715,1,8,0:0:0:0:
66,126,54965,2,0,P|62:56|117:-6,1,140
336,200,55465,2,0,P|340:270|285:332,1,140
208,164,55965,1,0,0:0:0:0:
348,58,56215,6,0,B|394:68|448:43|448:43|486:109|450:184,1,210,2|0,0:0|0:0,0:0:0:0:
359,142,56715,2,0,P|271:107|256:48,1,140,8|0,0:0|0:0,0:0:0:0:
54,168,57215,6,0,L|64:35,1,105.000004005432,2|0,0:0|0:0,0:0:0:0:
236,139,57465,2,0,L|218:340,1,105.000004005432,2|0,0:0|0:0,0:0:0:0:
75,309,57715,2,0,P|175:326|225:226,1,210.000008010865,10|0,0:0|0:0,0:0:0:0:
141,248,58215,6,0,B|176:304|234:290|234:290|280:280|327:330,1,210,6|0,0:0|0:0,0:0:0:0:
390,375,58715,1,8,0:0:0:0:
470,95,58965,1,0,0:0:0:0:
441,256,59215,5,0,0:0:0:0:
153,67,59465,1,0,0:0:0:0:
363,120,59715,5,8,0:0:0:0:
75,309,59965,1,0,0:0:0:0:
170,82,60215,6,0,B|211:124|275:102|275:102|341:83|382:119,1,210,2|0,0:0|0:0,0:0:0:0:
236,27,60715,1,8,0:0:0:0:
60,315,60965,1,0,0:0:0:0:
46,307,61215,2,0,P|118:317|188:306,1,140
373,222,61715,2,8,P|457:218|529:232,1,140
492,309,62090,1,8,0:0:0:0:
511,227,62215,6,0,B|492:159|508:123|508:123|494:68|438:39,1,210,2|0,0:0|0:0,0:0:0:0:
369,79,62715,1,8,0:0:0:0:
157,43,62965,1,0,0:0:0:0:
117,241,63215,1,0,0:0:0:0:
328,277,63465,1,0,0:0:0:0:
366,79,63715,1,8,0:0:0:0:
75,31,63965,1,0,0:0:0:0:
77,255,64215,6,0,B|137:288|171:242|171:242|204:321|308:293,1,210,2|0,0:0|0:0,0:0:0:0:
254,213,64715,2,0,L|265:54,1,140,8|0,0:0|0:0,0:0:0:0:
126,69,65215,6,0,L|44:67,1,70,2|0,0:0|0:0,0:0:0:0:
147,175,65465,2,0,L|226:177,1,70,2|0,0:0|0:0,0:0:0:0:
385,81,65715,1,2,0:0:0:0:
415,302,65965,5,0,0:0:0:0:
331,305,66090,1,0,0:0:0:0:
369,230,66215,1,4,0:0:0:0:
218,305,66465,5,0,0:0:0:0:
135,319,66590,1,0,0:0:0:0:
54,295,66715,1,8,0:0:0:0:
22,216,66840,1,0,0:0:0:0:
35,133,66965,2,0,P|40:92|33:55,1,70
196,41,67215,2,0,P|191:82|219:181,1,140
300,171,67590,1,0,0:0:0:0:
383,180,67715,1,8,0:0:0:0:
300,171,67840,1,0,0:0:0:0:
290,254,67965,5,0,0:0:0:0:
331,326,68090,1,0,0:0:0:0:
414,329,68215,1,2,0:0:0:0:
454,255,68340,2,0,P|472:164|455:110,1,140
139,276,68715,1,8,0:0:0:0:
220,297,68840,1,0,0:0:0:0:
198,215,68965,1,0,0:0:0:0:
115,198,69090,1,0,0:0:0:0:
35,225,69215,2,0,L|31:372,1,140
191,105,69590,1,0,0:0:0:0:
157,26,69715,1,8,0:0:0:0:
103,90,69840,1,0,0:0:0:0:
191,105,69965,5,0,0:0:0:0:
272,125,70090,1,0,0:0:0:0:
352,102,70215,6,0,P|421:89|504:94,1,140,2|0,0:0|0:0,0:0:0:0:
272,125,70590,1,0,0:0:0:0:
236,200,70715,1,8,0:0:0:0:
252,282,70840,1,0,0:0:0:0:
236,200,70965,1,0,0:0:0:0:
177,139,71090,1,0,0:0:0:0:
98,169,71215,2,0,P|74:248|97:306,1,140
313,295,71590,1,0,0:0:0:0:
385,242,71715,1,8,0:0:0:0:
385,242,71840,1,0,0:0:0:0:
408,161,71965,1,0,0:0:0:0:
408,161,72090,1,0,0:0:0:0:
327,185,72215,6,0,B|256:187|207:178|207:178|225:208,1,140,2|0,0:0|0:0,0:0:0:0:
386,243,72590,1,0,0:0:0:0:
408,161,72715,2,0,L|401:87,1,70,8|0,0:0|0:0,0:0:0:0:
146,28,72965,2,0,L|153:102,1,70
277,334,73215,2,0,P|277:257|256:174,1,140
103,248,73590,1,0,0:0:0:0:
19,252,73715,1,8,0:0:0:0:
67,22,73965,1,0,0:0:0:0:
272,140,74215,6,0,P|336:148|419:141,1,140,6|0,0:0|0:0,0:0:0:0:
461,36,74715,1,8,0:0:0:0:
162,44,74965,1,0,0:0:0:0:
292,346,75215,2,0,P|308:270|283:183,1,140
78,283,75715,1,8,0:0:0:0:
291,343,75965,5,0,0:0:0:0:
373,359,76090,1,0,0:0:0:0:
291,343,76215,5,2,0:0:0:0:
207,330,76340,1,0,0:0:0:0:
123,337,76465,1,0,0:0:0:0:
39,329,76590,1,0,0:0:0:0:
123,337,76715,2,0,L|127:262,1,70,8|0,0:0|0:0,0:0:0:0:
64,128,76965,1,0,0:0:0:0:
89,48,77090,1,0,0:0:0:0:
170,29,77215,1,0,3:0:0:0:
245,65,77340,1,0,3:0:0:0:
317,107,77465,1,0,3:0:0:0:
399,123,77590,1,0,3:0:0:0:
477,92,77715,1,8,3:1:0:0:
399,123,77840,2,0,L|397:200,2,70,0|0|0,3:0|3:1|3:0,3:0:0:0:
198,167,78215,6,0,L|195:307,1,140,2|0,0:0|0:0,0:0:0:0:
198,167,78715,2,0,L|196:266,1,70,8|0,0:0|0:0,0:0:0:0:
305,316,79215,2,0,P|375:328|451:315,2,140
147,256,79965,1,0,0:0:0:0:
72,295,80090,1,0,0:0:0:0:
147,256,80215,5,2,0:0:0:0:
183,180,80340,2,0,L|190:100,1,70
55,26,80590,1,0,0:0:0:0:
31,106,80715,1,8,0:0:0:0:
42,189,80840,1,0,0:0:0:0:
31,106,80965,1,0,0:0:0:0:
111,81,81090,1,0,0:0:0:0:
194,85,81215,2,0,L|361:93,1,140,0|0,3:0|3:0,3:0:0:0:
512,299,81715,2,8,L|345:291,1,140,8|0,3:1|3:0,3:0:0:0:
79,354,82215,6,0,P|58:309|83:214,1,140,6|0,0:0|0:0,0:0:0:0:
312,88,82715,1,10,0:0:0:0:
251,304,82965,1,0,0:0:0:0:
109,33,83215,5,2,0:0:0:0:
170,249,83465,1,0,0:0:0:0:
312,88,83715,1,10,0:0:0:0:
108,145,83965,5,0,0:0:0:0:
91,227,84090,1,0,0:0:0:0:
134,299,84215,5,2,0:0:0:0:
210,332,84340,1,0,0:0:0:0:
293,322,84465,1,0,0:0:0:0:
370,288,84590,1,0,0:0:0:0:
452,305,84715,1,8,0:0:0:0:
452,305,84840,1,0,0:0:0:0:
468,222,84965,2,0,L|468:141,1,70
182,39,85215,1,0,0:0:0:0:
181,307,85465,1,0,0:0:0:0:
181,307,85590,2,0,P|185:227|179:184,2,70,0|8|0,0:0|0:0|0:0,0:0:0:0:
107,349,85965,1,0,0:0:0:0:
29,317,86090,1,0,0:0:0:0:
43,234,86215,6,0,B|34:153|34:153|48:82,1,140,2|0,0:0|0:0,0:0:0:0:
281,14,86715,2,0,B|290:95|290:95|276:166,1,140,8|0,0:0|0:0,0:0:0:0:
56,22,87215,2,0,B|137:13|137:13|208:27,1,140
268,231,87715,2,0,B|187:240|187:240|129:228,1,140,8|0,0:0|0:0,0:0:0:0:
351,220,88090,1,0,0:0:0:0:
426,257,88215,6,0,P|442:336|394:357,1,140,2|0,0:0|0:0,0:0:0:0:
317,336,88590,1,0,0:0:0:0:
233,328,88715,1,8,0:0:0:0:
150,343,88840,1,0,0:0:0:0:
66,343,88965,2,0,L|-13:337,1,70
93,49,89215,2,0,L|237:61,1,140
397,177,89590,1,0,0:0:0:0:
323,218,89715,1,8,0:0:0:0:
322,134,89840,1,0,0:0:0:0:
397,177,89965,2,0,L|398:268,1,70
370,326,90215,5,2,0:0:0:0:
289,350,90340,1,0,0:0:0:0:
206,333,90465,1,0,0:0:0:0:
139,281,90590,1,0,0:0:0:0:
118,199,90715,2,0,L|131:126,2,70,8|0|0,0:0|0:0|0:0,0:0:0:0:
344,142,91090,1,0,0:0:0:0:
344,142,91215,1,0,0:0:0:0:
307,66,91340,1,0,0:0:0:0:
259,135,91465,2,0,P|296:215|387:215,2,140,0|8|0,0:0|0:0|0:0,0:0:0:0:
307,66,92090,1,0,0:0:0:0:
390,60,92215,6,0,B|462:52|462:52|476:122,1,140
487,202,92590,1,0,0:0:0:0:
500,284,92715,2,0,B|459:310|417:297|417:297|380:287|333:326,1,140,8|0,0:0|0:0,0:0:0:0:
211,338,93090,2,0,P|167:342|119:319,2,70,0|8|0,0:0|0:0|0:0,0:0:0:0:
284,297,93465,1,0,0:0:0:0:
223,238,93590,1,0,0:0:0:0:
142,212,93715,1,8,0:0:0:0:
58,221,93840,1,0,0:0:0:0:
142,212,93965,5,0,0:0:0:0:
166,131,94090,1,0,0:0:0:0:
243,163,94215,5,2,0:0:0:0:
264,80,94340,2,0,P|342:76|417:88,1,140
453,153,94715,1,8,0:0:0:0:
465,236,94840,1,0,0:0:0:0:
387,203,94965,1,0,0:0:0:0:
453,153,95090,1,0,0:0:0:0:
465,236,95215,2,0,L|455:308,1,70
142,212,95465,1,0,0:0:0:0:
142,212,95590,2,0,L|152:284,2,70,0|8|0,0:0|0:0|0:0,0:0:0:0:
133,128,95965,1,0,0:0:0:0:
256,192,96215,12,2,98215,0:0:0:0:
104,119,98590,5,2,0:0:0:0:
110,202,98715,1,10,0:0:0:0:
434,148,98965,1,2,0:0:0:0:
317,93,99215,6,4,L|230:82,1,70,4|0,0:0|0:0,0:0:0:0:
70,282,99465,2,0,L|157:293,1,70
324,326,99715,2,0,L|352:184,1,140,8|0,0:0|0:0,0:0:0:0:
177,52,100215,6,0,B|109:38|76:46|53:105|71:149|71:149|110:156,1,210,2|0,0:0|0:0,0:0:0:0:
177,161,100715,1,8,0:0:0:0:
473,123,100965,1,0,0:0:0:0:
105,248,101215,1,0,0:0:0:0:
502,208,101465,1,0,0:0:0:0:
206,331,101715,1,8,0:0:0:0:
491,301,101965,1,0,0:0:0:0:
211,218,102215,6,0,L|-3:210,1,210
37,285,102715,1,8,0:0:0:0:
367,287,102965,2,0,P|396:224|368:150,2,140
135,224,103715,2,0,P|116:159|145:97,1,140,8|0,0:0|0:0,0:0:0:0:
272,37,104215,6,0,B|326:17|372:32|372:32|436:46|484:12,1,210,2|0,0:0|0:0,0:0:0:0:
363,190,104715,2,0,B|323:179|292:193|292:193|244:207|185:179,1,140,8|0,0:0|0:0,0:0:0:0:
54,152,105215,6,0,L|63:33,1,105.000004005432,2|0,0:0|0:0,0:0:0:0:
158,271,105465,2,0,L|151:382,1,105.000004005432,2|0,0:0|0:0,0:0:0:0:
227,117,105715,2,0,B|314:109|314:109|372:128|446:117,1,210.000008010865,10|0,0:0|0:0,0:0:0:0:
404,46,106215,6,0,B|372:47|323:31|323:31|176:45,1,210
113,60,106715,1,8,0:0:0:0:
209,344,106965,1,0,0:0:0:0:
428,136,107215,1,0,0:0:0:0:
25,183,107465,1,0,0:0:0:0:
442,319,107715,1,8,0:0:0:0:
222,57,107965,1,0,0:0:0:0:
55,337,108215,6,0,B|104:320|104:320|162:343|205:304|205:304|322:295,1,210,2|0,0:0|0:0,0:0:0:0:
338,293,108715,1,8,0:0:0:0:
421,161,108965,2,0,L|415:14,1,140
114,82,109465,1,0,0:0:0:0:
119,240,109715,1,8,0:0:0:0:
302,152,109965,1,0,0:0:0:0:
114,116,110215,6,0,P|41:138|138:166,1,210,2|0,0:0|0:0,0:0:0:0:
191,191,110715,1,8,0:0:0:0:
481,60,110965,1,0,0:0:0:0:
169,260,111215,1,0,0:0:0:0:
453,127,111465,1,0,0:0:0:0:
146,334,111715,1,8,0:0:0:0:
430,201,111965,1,0,0:0:0:0:
265,161,112215,6,0,B|242:250|301:297|301:297|279:367,1,210
353,201,112715,2,0,P|360:128|319:70,1,140,8|0,0:0|0:0,0:0:0:0:
81,155,113215,1,2,0:0:0:0:
147,192,113465,1,2,0:0:0:0:
215,228,113715,1,10,0:0:0:0:
329,296,114215,6,0,P|388:307|440:296,2,105,4|0|0,0:0|0:0|0:0,0:0:0:0:
246,281,115215,1,8,0:3:0:0:
165,304,115465,1,0,0:0:0:0:
81,301,115715,1,0,0:3:0:0:
126,230,115965,1,0,0:0:0:0:
203,198,116215,6,0,P|279:186|308:160,2,105,2|0|0,0:0|0:0|0:0,0:0:0:0:
120,178,117215,1,8,0:3:0:0:
83,102,117465,1,0,0:0:0:0:
112,23,117715,1,0,0:3:0:0:
165,88,117965,1,0,0:0:0:0:
225,30,118215,6,0,L|343:30,2,105,2|0|0,0:0|0:0|0:0,0:0:0:0:
165,88,119215,1,8,0:3:0:0:
239,125,119465,1,0,0:0:0:0:
322,112,119715,1,0,0:0:0:0:
404,128,119965,1,0,0:0:0:0:
475,171,120215,6,0,P|480:226|451:275,2,105,2|0|0,0:0|0:0|0:0,0:0:0:0:
399,209,121215,2,0,L|297:215,2,70,0|0|4,0:0|0:0|0:3,0:0:0:0:
153,150,122215,6,0,B|101:175|49:168|49:168|31:240,1,157.500006008148,6|0,0:0|0:0,0:0:0:0:
44,295,122715,1,8,0:0:0:0:
194,340,122965,1,0,0:0:0:0:
350,319,123215,1,0,0:0:0:0:
238,208,123465,1,0,0:0:0:0:
262,363,123715,1,8,0:0:0:0:
382,261,123965,1,0,0:0:0:0:
311,120,124215,6,0,B|371:91|432:110|432:110|473:107,1,157.500006008148,2|0,0:0|0:0,0:0:0:0:
455,29,124715,1,8,0:0:0:0:
383,198,124965,1,0,0:0:0:0:
227,221,125215,1,0,0:0:0:0:
287,75,125465,1,0,0:0:0:0:
323,228,125715,1,8,0:0:0:0:
176,171,125965,1,0,0:0:0:0:
76,76,126215,6,0,L|95:18,3,52.5000020027161,2|0|0|0,0:0|0:0|0:0|0:0,0:0:0:0:
176,171,126715,2,0,L|157:229,3,52.5000020027161,2|0|0|0,0:0|0:0|0:0|0:0,0:0:0:0:
316,162,127215,6,0,L|335:104,3,52.5000020027161,2|0|0|0,0:0|0:0|0:0|0:0,0:0:0:0:
416,257,127715,2,0,L|397:315,3,52.5000020027161,2|0|0|0,0:0|0:0|0:0|0:0,0:0:0:0:
241,342,128215,6,0,L|180:347,3,52.5000020027161,2|0|0|0,0:0|0:0|0:0|0:0,0:0:0:0:
12,210,128715,2,0,L|73:205,3,52.5000020027161,2|0|0|0,0:0|0:0|0:0|0:0,0:0:0:0:
373,183,129215,6,0,L|312:188,3,52.5000020027161,2|0|0|0,0:0|0:0|0:0|0:0,0:0:0:0:
178,42,129715,1,4,0:0:0:0:
112,66,132215,5,2,0:0:0:0:
100,301,132590,1,2,0:0:0:0:
110,218,132715,1,10,0:0:0:0:
358,308,132965,2,0,B|416:302|473:311|473:311|453:281,1,140,2|4,0:0|0:0,0:0:0:0:
180,129,133465,2,0,B|122:118|73:129|73:129|106:101,1,140,0|8,0:0|0:0,0:0:0:0:
392,24,133965,1,0,0:0:0:0:
416,327,134215,6,0,B|356:346|316:327|316:327|277:315|202:328,1,210,2|0,0:0|0:0,0:0:0:0:
126,337,134715,1,8,0:0:0:0:
194,86,134965,1,0,0:0:0:0:
471,156,135215,1,0,0:0:0:0:
38,202,135465,1,0,0:0:0:0:
285,19,135715,1,8,0:0:0:0:
365,300,135965,1,0,0:0:0:0:
266,190,136215,6,0,B|210:175|188:229|188:229|150:204|122:213|122:213|93:222|67:209,1,210,2|0,0:0|0:0,0:0:0:0:
282,202,136715,1,8,0:0:0:0:
446,258,136965,2,0,P|450:328|395:390,1,140
176,184,137465,2,0,P|172:114|227:52,1,140
304,220,137965,1,0,0:0:0:0:
164,326,138215,6,0,B|118:316|64:341|64:341|26:275|62:200,1,210,2|0,0:0|0:0,0:0:0:0:
153,233,138715,2,0,P|241:268|256:327,1,140,8|0,0:0|0:0,0:0:0:0:
458,216,139215,6,0,L|448:349,1,105.000004005432,2|0,0:0|0:0,0:0:0:0:
276,245,139465,2,0,L|294:44,1,105.000004005432,2|0,0:0|0:0,0:0:0:0:
437,75,139715,2,0,P|337:58|287:158,1,210.000008010865,10|0,0:0|0:0,0:0:0:0:
108,338,140215,6,0,B|140:337|189:353|189:353|336:339,1,210
419,319,140715,1,8,0:0:0:0:
303,40,140965,1,0,0:0:0:0:
84,248,141215,1,0,0:0:0:0:
487,201,141465,1,0,0:0:0:0:
70,65,141715,1,8,0:0:0:0:
290,327,141965,1,0,0:0:0:0:
457,47,142215,6,0,B|408:64|408:64|358:101|303:73|303:73|190:89,1,210,2|0,0:0|0:0,0:0:0:0:
152,94,142715,1,8,0:0:0:0:
91,223,142965,2,0,L|97:370,1,140
398,302,143465,1,0,0:0:0:0:
393,144,143715,1,8,0:0:0:0:
210,232,143965,1,0,0:0:0:0:
398,268,144215,6,0,P|471:246|374:218,1,210,2|0,0:0|0:0,0:0:0:0:
299,197,144715,1,8,0:0:0:0:
31,324,144965,1,0,0:0:0:0:
343,124,145215,1,0,0:0:0:0:
59,257,145465,1,0,0:0:0:0:
366,50,145715,1,8,0:0:0:0:
82,183,145965,1,0,0:0:0:0:
247,223,146215,6,0,B|270:134|211:87|211:87|233:17,1,210
159,183,146715,2,0,P|152:256|193:314,1,140,8|0,0:0|0:0,0:0:0:0:
431,229,147215,1,2,0:0:0:0:
358,190,147465,1,0,0:0:0:0:
297,156,147715,1,10,0:0:0:0:
297,156,148215,5,4,0:0:0:0:
