osu file format v14

[General]
AudioFilename: audio.mp3
AudioLeadIn: 0
PreviewTime: 51820
Countdown: 0
SampleSet: Normal
StackLeniency: 0.7
Mode: 0
LetterboxInBreaks: 0
WidescreenStoryboard: 0

[Editor]
Bookmarks: 12883
DistanceSpacing: 0.7
BeatDivisor: 4
GridSize: 8
TimelineZoom: 1.3

[Metadata]
Title:Venom
TitleUnicode:Venom
Artist:GHOSTEMANE
ArtistUnicode:GHOSTEMANE
Creator:HML
Version:Off the Gums
Source:
Tags:Rap
BeatmapID:1432802
BeatmapSetID:677499

[Difficulty]
HPDrainRate:5.5
CircleSize:4
OverallDifficulty:8.5
ApproachRate:9
SliderMultiplier:2.3
SliderTickRate:1

[Events]
//Background and Video events
0,0,"BG.jpg",0,0
//Break Periods
//Storyboard Layer 0 (Background)
//Storyboard Layer 1 (Fail)
//Storyboard Layer 2 (Pass)
//Storyboard Layer 3 (Foreground)
//Storyboard Sound Samples

[TimingPoints]
96,413.793103448276,4,2,0,50,1,0
13337,-100,4,1,0,50,0,0
13647,-100,4,2,0,5,0,0
13751,-100,4,1,0,50,0,0
14889,-100,4,2,0,5,0,0
14992,-100,4,1,0,50,0,0
15302,-100,4,2,0,5,0,0
15406,-100,4,2,0,25,0,0
15716,-100,4,2,0,5,0,0
15820,-100,4,1,0,50,0,0
16958,-100,4,2,0,5,0,0
17061,-100,4,1,0,50,0,0
18613,-100,4,2,0,5,0,0
18716,-100,4,2,0,25,0,0
19130,-100,4,1,0,50,0,0
19337,-100,4,2,0,25,0,0
19544,-100,4,1,0,50,0,0
20268,-100,4,2,0,5,0,0
20371,-100,4,1,0,50,0,0
21923,-100,4,2,0,5,0,0
22027,-100,4,2,0,25,0,0
22440,-100,4,1,0,50,0,0
23992,-100,4,2,0,5,0,0
24096,-100,4,1,0,50,0,0
24406,-100,4,2,0,5,0,0
24509,-100,4,1,0,50,0,0
24820,-100,4,2,0,5,0,0
24923,-100,4,1,0,50,0,0
25233,-100,4,2,0,5,0,0
25337,-100,4,2,0,25,0,0
25751,-100,4,1,0,50,0,0
26061,-100,4,2,0,5,0,0
26164,-100,4,1,0,50,0,0
28130,-100,4,2,0,5,0,0
28233,-100,4,1,0,50,0,0
28544,-100,4,2,0,5,0,0
28647,-100,4,2,0,25,0,0
28958,-100,4,2,0,5,0,0
29061,-100,4,1,0,50,0,0
30199,-100,4,2,0,5,0,0
30302,-100,4,1,0,50,0,0
31854,-100,4,2,0,5,0,0
31958,-100,4,2,0,25,0,0
32371,-100,4,1,0,50,0,0
32578,-100,4,2,0,25,0,0
32785,-100,4,1,0,50,0,0
33509,-100,4,2,0,25,0,0
33613,-100,4,1,0,50,0,0
35164,-100,4,2,0,5,0,0
35268,-100,4,2,0,25,0,0
35682,-100,4,1,0,50,0,0
36820,-100,4,2,0,5,0,0
36923,-100,4,1,0,50,0,0
37233,-100,4,2,0,5,0,0
37337,-100,4,1,0,50,0,0
37647,-100,4,2,0,5,0,0
37751,-100,4,1,0,50,0,0
38061,-100,4,2,0,5,0,0
38164,-100,4,1,0,50,0,0
38475,-100,4,2,0,5,0,0
38578,-100,4,2,0,25,0,0
38992,-100,4,1,0,50,0,0
39302,-100,4,2,0,5,0,0
39406,-100,4,1,0,50,0,0
40958,-100,4,2,0,5,0,0
41061,-100,4,1,0,50,0,0
41371,-100,4,2,0,5,0,0
41475,-100,4,1,0,50,0,0
41785,-100,4,2,0,5,0,0
41889,-100,4,2,0,25,0,0
42199,-100,4,2,0,5,0,0
42302,-100,4,1,0,50,0,0
42613,-100,4,2,0,5,0,0
42716,-100,4,1,0,50,0,0
43440,-100,4,2,0,5,0,0
43544,-100,4,1,0,50,0,0
45199,-100,4,2,0,25,0,0
45613,-100,4,1,0,50,0,0
47992,-100,4,2,0,5,0,0
48096,-100,4,1,0,50,0,0
48406,-100,4,2,0,5,0,0
48509,-100,4,2,0,25,0,0
48923,-100,4,1,0,50,0,0
51820,-100,4,2,0,50,0,0
53061,-100,4,1,0,50,0,1
64647,-100,4,2,0,50,0,1
66302,-100,4,2,0,30,0,0
68268,-100,4,2,0,5,0,0
68371,-100,4,2,0,30,0,0
70751,-100,4,2,0,5,0,0
70854,-100,4,2,0,30,0,0
74889,-100,4,2,0,5,0,0
74992,-100,4,2,0,30,0,0
80682,-100,4,2,0,5,0,0
80785,-100,4,2,0,30,0,0
83578,-100,4,2,0,5,0,0
83682,-100,4,2,0,30,0,0
89371,-100,4,2,0,5,0,0
89475,-100,4,2,0,30,0,0
91337,-100,4,2,0,5,0,0
94027,-100,4,2,0,50,0,0
94440,-100,4,1,0,50,0,0
95992,-100,4,2,0,5,0,0
96096,-100,4,1,0,50,0,0
96406,-100,4,2,0,5,0,0
96509,-100,4,2,0,25,0,0
96820,-100,4,2,0,5,0,0
96923,-100,4,1,0,50,0,0
99716,-100,4,2,0,5,0,0
99820,-100,4,2,0,25,0,0
100233,-100,4,1,0,50,0,0
100440,-100,4,2,0,25,0,0
100647,-100,4,1,0,50,0,0
101371,-100,4,2,0,5,0,0
101475,-100,4,1,0,50,0,0
103027,-100,4,2,0,5,0,0
103130,-100,4,2,0,25,0,0
103544,-100,4,1,0,50,0,0
104682,-100,4,2,0,5,0,0
104785,-100,4,1,0,50,0,0
105096,-100,4,2,0,5,0,0
105199,-100,4,1,0,50,0,0
105509,-100,4,2,0,5,0,0
105613,-100,4,1,0,50,0,0
105923,-100,4,2,0,5,0,0
106027,-100,4,1,0,50,0,0
106337,-100,4,2,0,5,0,0
106440,-100,4,2,0,25,0,0
106854,-100,4,1,0,50,0,0
107164,-100,4,2,0,5,0,0
107268,-100,4,1,0,50,0,0
107992,-100,4,2,0,5,0,0
108096,-100,4,1,0,50,0,0
109233,-100,4,2,0,5,0,0
109337,-100,4,1,0,50,0,0
109647,-100,4,2,0,5,0,0
109751,-100,4,2,0,25,0,0
110061,-100,4,2,0,5,0,0
110164,-100,4,1,0,50,0,0
111302,-100,4,2,0,5,0,0
111406,-100,4,1,0,50,0,0
112958,-100,4,2,0,5,0,0
113061,-100,4,2,0,25,0,0
113475,-100,4,1,0,50,0,0
113682,-100,4,2,0,25,0,0
113889,-100,4,1,0,35,0,0
114096,-100,4,1,0,25,0,0
114302,-100,4,1,0,15,0,0
120923,-100,4,2,0,5,0,0

[Colours]
Combo1 : 126,224,132
Combo2 : 208,95,245
Combo3 : 61,219,213

[HitObjects]
67,73,12923,6,0,L|91:193,1,115
59,332,13337,2,0,P|98:284|207:311,1,172.5,6|0,0:0|0:0,0:0:0:0:
278,346,13751,2,0,B|264:323|264:323|279:224,1,115
300,72,14164,1,10,0:0:0:0:
347,301,14371,1,0,0:0:0:0:
380,68,14578,2,0,P|359:134|265:146,1,172.5,6|0,0:0|0:0,0:0:0:0:
367,55,14992,2,0,B|404:99|404:99|322:192,1,172.5
122,98,15406,2,0,P|174:134|147:230,1,172.5
104,104,15820,1,8,0:0:0:0:
300,72,16027,5,0,0:0:0:0:
122,98,16233,2,0,L|127:37,1,57.5
100,176,16440,1,0,0:0:0:0:
19,297,16647,6,0,B|33:274|33:274|171:340,1,172.5,6|0,0:0|0:0,0:0:0:0:
52,367,17061,1,0,0:0:0:0:
150,228,17268,1,0,0:0:0:0:
278,340,17475,1,10,0:0:0:0:
142,143,17682,1,0,0:0:0:0:
52,367,17889,1,6,0:0:0:0:
134,58,18096,1,0,0:0:0:0:
278,340,18302,2,0,P|326:300|426:346,1,172.5
483,291,18716,6,0,B|432:243|432:243|430:192,1,115
376,23,19130,2,0,B|427:71|427:71|428:115,1,115,8|0,0:0|0:0,0:0:0:0:
222,103,19544,6,0,P|277:129|334:114,1,115
137,49,19958,2,0,L|153:229,1,172.5,6|0,0:0|0:0,0:0:0:0:
152,322,20371,2,0,B|158:295|158:295|250:265,1,115
36,139,20785,1,10,0:0:0:0:
83,368,20992,1,0,0:0:0:0:
313,322,21199,2,0,L|252:342,1,57.5,6|0,0:0|0:0,0:0:0:0:
428,299,21406,1,0,0:0:0:0:
482,223,21613,2,0,P|418:202|342:268,1,172.5
264,266,22027,6,0,B|266:195|266:195|299:146,1,115
425,57,22440,1,8,0:0:0:0:
366,356,22647,5,0,0:0:0:0:
482,223,22854,1,0,0:0:0:0:
425,57,23061,1,0,0:0:0:0:
388,254,23268,6,0,L|334:85,1,172.5,6|0,0:0|0:0,0:0:0:0:
280,172,23682,1,0,0:0:0:0:
283,188,23785,1,0,0:0:0:0:
286,205,23889,2,0,L|201:221,1,57.5
189,292,24096,1,10,0:0:0:0:
186,308,24199,1,0,0:0:0:0:
183,325,24302,2,0,L|267:341,1,57.5
109,212,24509,1,6,0:0:0:0:
125,215,24613,1,0,0:0:0:0:
142,218,24716,2,0,L|158:133,1,57.5
82,354,24923,2,0,B|98:324|98:324|246:352,1,172.5
314,346,25337,6,0,P|306:312|290:291,1,57.5
191,265,25544,1,0,0:0:0:0:
411,301,25751,2,0,B|376:287|376:287|333:157,1,172.5,8|0,0:0|0:0,0:0:0:0:
448,219,26164,6,0,L|411:104,1,115
236,86,26578,2,0,P|291:28|381:51,1,172.5,6|0,0:0|0:0,0:0:0:0:
143,95,26992,2,0,P|178:155|169:203,1,115
32,53,27406,1,10,0:0:0:0:
79,282,27613,1,0,0:0:0:0:
254,127,27820,2,0,P|282:196|252:288,1,172.5,6|0,0:0|0:0,0:0:0:0:
240,114,28233,2,0,B|289:186|289:186|238:275,1,172.5
377,333,28647,2,0,P|349:264|379:172,1,172.5
391,346,29061,1,8,0:0:0:0:
273,384,29268,5,0,0:0:0:0:
146,260,29475,2,0,L|206:280,1,57.5
275,301,29682,1,0,0:0:0:0:
107,271,29889,6,0,B|145:262|145:262|128:121,1,172.5,6|0,0:0|0:0,0:0:0:0:
94,141,30302,1,0,0:0:0:0:
249,52,30509,1,0,0:0:0:0:
404,141,30716,1,10,0:0:0:0:
249,26,30923,1,0,0:0:0:0:
94,141,31130,1,6,0:0:0:0:
249,0,31337,1,0,0:0:0:0:
404,141,31544,2,0,L|427:322,1,172.5
362,308,31958,6,0,B|357:273|357:273|271:280,1,115
128,298,32371,2,0,B|133:333|133:333|219:326,1,115,8|0,0:0|0:0,0:0:0:0:
60,357,32785,6,0,P|33:286|59:240,1,115
186,119,33199,2,0,B|98:101|98:101|84:182,1,172.5,6|0,0:0|0:0,0:0:0:0:
197,198,33613,2,0,B|260:177|260:177|264:107,1,115
55,35,34027,1,10,0:0:0:0:
101,264,34234,1,0,0:0:0:0:
331,218,34441,2,0,L|270:238,1,57.5,6|0,0:0|0:0,0:0:0:0:
446,195,34648,1,0,0:0:0:0:
492,352,34854,2,0,B|356:352|356:352|326:324,1,172.5
395,269,35268,6,0,L|524:269,1,115
422,103,35682,1,8,0:0:0:0:
330,328,35889,5,0,0:0:0:0:
446,195,36096,1,0,0:0:0:0:
389,29,36303,1,0,0:0:0:0:
310,26,36509,6,0,P|324:87|434:92,1,172.5,6|0,0:0|0:0,0:0:0:0:
327,190,36923,1,0,0:0:0:0:
312,196,37027,1,0,0:0:0:0:
296,203,37130,2,0,L|261:123,1,57.5
216,243,37337,1,10,0:0:0:0:
220,257,37440,1,0,0:0:0:0:
225,274,37544,2,0,L|142:300,1,57.5
94,162,37751,1,6,0:0:0:0:
90,176,37854,1,0,0:0:0:0:
85,193,37958,2,0,L|167:219,1,57.5
164,109,38164,2,0,P|88:74|14:126,1,172.5
10,224,38578,6,0,P|25:255|67:264,1,57.5
85,193,38785,1,0,0:0:0:0:
92,351,38992,2,0,B|110:327|110:327|271:346,1,172.5,8|0,0:0|0:0,0:0:0:0:
337,254,39406,2,0,P|332:321|370:348,1,115
350,116,39820,5,6,0:0:0:0:
198,20,40027,1,0,0:0:0:0:
250,267,40233,1,0,0:0:0:0:
101,167,40440,1,0,0:0:0:0:
343,219,40647,2,0,B|389:219|389:219|485:126,1,172.5,10|0,0:0|0:0,0:0:0:0:
337,254,41061,2,0,B|383:254|383:254|473:165,1,172.5,6|0,0:0|0:0,0:0:0:0:
358,323,41475,2,0,B|448:234|448:234|494:234,1,172.5
283,306,41889,2,0,B|237:306|237:306|147:217,1,172.5
262,375,42302,2,0,B|172:286|172:286|126:286,1,172.5,8|0,0:0|0:0,0:0:0:0:
54,316,42716,6,0,P|63:335|92:356,1,57.5
65,239,42923,1,0,0:0:0:0:
43,94,43130,2,0,P|101:138|193:88,1,172.5,6|0,0:0|0:0,0:0:0:0:
248,161,43544,2,0,P|290:116|354:124,1,115
245,44,43958,5,10,0:0:0:0:
172,288,44371,1,6,0:0:0:0:
420,230,44785,1,0,0:0:0:0:
70,228,45199,5,0,0:0:0:0:
274,348,45613,1,8,0:0:0:0:
354,277,45820,6,0,B|330:246|330:246|248:238,1,115
70,228,46233,1,0,0:0:0:0:
32,136,46440,5,6,0:0:0:0:
55,330,46647,1,0,0:0:0:0:
145,41,46854,2,0,L|123:154,1,115
55,330,47268,1,10,0:0:0:0:
15,40,47475,1,0,0:0:0:0:
124,288,47682,2,0,B|143:246|143:246|266:292,1,172.5,6|0,0:0|0:0,0:0:0:0:
129,313,48096,2,0,P|184:285|252:364,1,172.5
329,225,48509,6,0,L|333:345,1,115
388,169,48923,2,0,B|405:202|405:202|492:202,1,115,8|0,0:0|0:0,0:0:0:0:
350,51,49337,1,0,0:0:0:0:
397,280,49544,1,0,0:0:0:0:
258,185,49751,6,0,L|134:198,1,115,6|0,0:0|0:0,0:0:0:0:
26,59,50164,1,0,0:0:0:0:
73,288,50371,1,0,0:0:0:0:
78,157,50578,2,0,B|88:130|88:130|180:119,1,115,10|0,0:0|0:0,0:0:0:0:
151,297,50992,2,0,P|119:354|65:368,2,115,6|0|0,0:0|0:0|0:0,0:0:0:0:
317,309,51820,5,2,0:0:0:0:
201,191,52027,1,2,0:0:0:0:
317,73,52233,1,2,0:0:0:0:
201,191,52440,1,2,0:0:0:0:
317,309,52647,1,2,0:0:0:0:
360,225,53061,6,0,L|436:216,2,76.6666666666667,6|0|0,0:0|0:0|0:0,0:0:0:0:
398,302,53475,2,0,P|397:347|367:376,2,76.6666666666667
293,338,53889,5,10,0:0:0:0:
247,260,54027,1,0,0:0:0:0:
262,171,54164,1,0,0:0:0:0:
329,107,54302,5,6,0:0:0:0:
252,62,54440,1,0,0:0:0:0:
171,98,54578,1,0,0:0:0:0:
152,185,54716,6,0,L|181:271,1,76.6666666666667
216,362,54992,1,0,0:0:0:0:
46,166,55130,2,0,L|75:252,1,76.6666666666667
110,343,55406,1,0,0:0:0:0:
80,96,55544,5,8,0:0:0:0:
171,98,55682,1,0,0:0:0:0:
263,101,55820,1,0,0:0:0:0:
355,103,55958,5,0,0:0:0:0:
307,180,56096,1,0,0:0:0:0:
259,258,56233,1,0,0:0:0:0:
211,337,56371,6,0,B|241:326|241:326|294:342,2,76.6666666666667,6|0|0,0:0|0:0|0:0,0:0:0:0:
363,368,56785,2,0,B|376:339|376:339|425:312,2,76.6666666666667
342,266,57199,5,10,0:0:0:0:
332,177,57337,1,0,0:0:0:0:
390,110,57475,1,0,0:0:0:0:
480,108,57613,6,0,L|396:86,1,76.6666666666667,6|0,0:0|0:0,0:0:0:0:
19,81,58027,5,0,0:0:0:0:
73,151,58164,1,0,0:0:0:0:
162,154,58302,1,0,0:0:0:0:
222,88,58440,5,0,0:0:0:0:
226,177,58578,1,0,0:0:0:0:
161,238,58716,1,0,0:0:0:0:
73,227,58854,5,8,0:0:0:0:
128,296,58992,1,0,0:0:0:0:
216,300,59130,1,0,0:0:0:0:
276,234,59268,6,0,B|316:310|316:310|389:336,1,153.333333333333
478,349,59682,6,0,L|455:280,1,57.5,6|0,0:0|0:0,0:0:0:0:
474,199,59889,2,0,L|451:130,1,57.5
396,234,60096,5,0,0:0:0:0:
318,221,60199,1,0,0:0:0:0:
272,158,60302,1,0,0:0:0:0:
284,80,60406,1,0,0:0:0:0:
347,34,60509,6,0,B|357:71|357:71|352:106,1,57.5,10|0,0:0|0:0,0:0:0:0:
211,109,60716,1,0,0:0:0:0:
130,116,60820,1,0,0:0:0:0:
50,123,60923,6,0,B|40:160|40:160|45:195,1,57.5,6|0,0:0|0:0,0:0:0:0:
62,334,61130,1,0,0:0:0:0:
117,279,61233,1,0,0:0:0:0:
194,290,61337,6,0,P|219:265|271:266,2,76.6666666666667
298,346,61751,2,0,P|322:320|374:321,1,76.6666666666667
446,348,62027,1,0,0:0:0:0:
432,257,62164,6,0,L|415:172,2,76.6666666666667,8|0|0,0:0|0:0|0:0,0:0:0:0:
499,203,62578,1,0,0:0:0:0:
43,44,62992,5,6,0:0:0:0:
204,84,63406,2,0,B|140:69|140:69|67:238,1,230,0|10,0:0|0:0,0:0:0:0:
43,44,64233,1,6,0:0:0:0:
469,44,64647,5,0,0:0:0:0:
308,84,65061,2,0,B|372:69|372:69|445:238,1,230
469,44,65889,1,0,0:0:0:0:
332,297,66302,5,6,0:0:0:0:
452,318,66509,1,0,0:0:0:0:
212,276,66716,2,0,L|270:376,1,115
316,191,67130,1,10,0:0:0:0:
133,242,67337,1,0,0:0:0:0:
237,157,67544,2,0,L|178:56,1,115,2|0,0:0|0:0,0:0:0:0:
289,51,67958,2,0,B|323:112|323:112|386:8,1,172.5
446,42,68371,5,2,0:0:0:0:
485,354,68785,1,8,0:0:0:0:
451,257,68992,1,2,0:0:0:0:
273,354,69199,2,0,B|330:357|330:357|392:331,1,115
201,221,69613,5,6,0:0:0:0:
122,349,69820,1,0,0:0:0:0:
50,216,70027,2,0,L|102:325,1,115
33,131,70440,2,0,P|71:70|172:97,1,172.5,10|0,0:0|0:0,0:0:0:0:
246,54,70854,2,0,B|238:139|238:139|267:169,1,115,6|0,0:0|0:0,0:0:0:0:
412,52,71268,5,0,0:0:0:0:
439,315,71682,1,2,0:0:0:0:
197,206,72096,2,0,L|213:331,1,115,8|2,0:0|0:0,0:0:0:0:
49,83,72716,5,0,0:0:0:0:
155,118,72923,2,0,B|82:166|82:166|49:171,1,115,6|0,0:0|0:0,0:0:0:0:
152,34,73337,2,0,B|214:54|214:54|237:112,1,115
386,141,73751,2,0,P|333:173|277:154,1,115,10|0,0:0|0:0,0:0:0:0:
343,266,74164,1,6,0:0:0:0:
324,97,74371,1,0,0:0:0:0:
474,81,74578,6,0,L|454:270,1,172.5
482,336,74992,1,2,0:0:0:0:
182,340,75406,1,0,0:0:0:0:
284,335,75613,1,2,0:0:0:0:
102,331,75820,2,0,P|136:274|182:260,1,115
52,246,76233,6,0,B|101:203|101:203|80:82,1,172.5,6|0,0:0|0:0,0:0:0:0:
172,136,76647,2,0,B|178:171|178:171|260:170,1,115
380,70,77061,1,10,0:0:0:0:
477,329,77475,1,6,0:0:0:0:
203,283,77889,1,0,0:0:0:0:
464,186,78302,1,2,0:0:0:0:
203,89,78716,2,0,B|226:76|226:76|295:136,1,115,8|2,0:0|0:0,0:0:0:0:
105,121,79130,2,0,L|200:204,1,115
59,199,79544,5,6,0:0:0:0:
140,48,79751,1,0,0:0:0:0:
104,271,79958,1,0,0:0:0:0:
23,120,80165,1,0,0:0:0:0:
43,338,80371,2,0,B|105:346|105:346|234:331,1,172.5,10|0,0:0|0:0,0:0:0:0:
269,270,80785,2,0,B|280:303|280:303|381:343,1,115,6|0,0:0|0:0,0:0:0:0:
191,262,81199,1,0,0:0:0:0:
481,300,81613,1,0,0:0:0:0:
369,30,82027,1,8,0:0:0:0:
402,289,82440,6,0,B|426:228|426:228|480:221,1,115
392,375,82854,2,0,P|336:350|318:278,1,115,6|0,0:0|0:0,0:0:0:0:
304,156,83268,2,0,B|366:182|366:182|451:99,1,172.5
320,80,83682,2,0,P|252:93|232:131,1,115,10|0,0:0|0:0,0:0:0:0:
248,344,84096,1,6,0:0:0:0:
142,58,84509,1,0,0:0:0:0:
442,109,84923,1,0,0:0:0:0:
157,215,85337,1,8,0:0:0:0:
442,321,85751,1,0,0:0:0:0:
340,326,85958,1,0,0:0:0:0:
472,213,86164,6,0,B|471:237|471:237|376:245,1,115,6|0,0:0|0:0,0:0:0:0:
398,148,86578,1,0,0:0:0:0:
340,326,86785,1,0,0:0:0:0:
292,122,86992,2,0,L|303:249,1,115,10|0,0:0|0:0,0:0:0:0:
476,112,87406,1,6,0:0:0:0:
153,55,87820,1,0,0:0:0:0:
266,364,88233,1,0,0:0:0:0:
476,112,88647,2,0,B|452:206|452:206|459:237,1,115,8|0,0:0|0:0,0:0:0:0:
367,359,89061,2,0,B|403:308|403:308|363:203,1,172.5
278,201,89475,6,0,P|295:140|348:127,1,115,6|0,0:0|0:0,0:0:0:0:
181,187,89889,2,0,L|204:311,1,115
97,221,90302,1,10,0:0:0:0:
278,201,90509,1,0,0:0:0:0:
146,39,90716,2,0,L|112:164,1,115,6|0,0:0|0:0,0:0:0:0:
246,84,91130,6,0,B|271:98|271:98|300:98|300:98|318:110|345:101|345:101|339:121,1,115
256,192,91544,12,0,93820,0:0:0:0:
406,72,94027,6,0,L|385:193,1,115
407,328,94440,2,0,P|370:274|275:304,1,172.5,6|0,0:0|0:0,0:0:0:0:
192,253,94854,2,0,B|203:286|203:286|123:314,1,115
79,113,95268,1,10,0:0:0:0:
36,342,95475,1,0,0:0:0:0:
150,44,95682,2,0,P|164:115|120:209,1,172.5,6|0,0:0|0:0,0:0:0:0:
127,34,96096,2,0,B|189:37|189:37|189:158,1,172.5
232,348,96509,2,0,P|218:277|262:183,1,172.5
255,358,96923,1,8,0:0:0:0:
251,103,97130,5,0,0:0:0:0:
444,180,97337,2,0,L|380:157,1,57.5
462,87,97544,1,0,0:0:0:0:
374,329,97751,6,0,B|432:356|432:356|481:235,1,172.5,6|0,0:0|0:0,0:0:0:0:
364,254,98164,1,0,0:0:0:0:
229,150,98371,1,0,0:0:0:0:
251,319,98578,1,10,0:0:0:0:
190,85,98785,1,0,0:0:0:0:
364,254,98992,1,6,0:0:0:0:
151,20,99199,1,0,0:0:0:0:
251,319,99406,2,0,P|177:283|111:336,1,172.5
35,275,99820,6,0,B|52:288|52:288|127:203,1,115
246,102,100233,2,0,B|229:89|229:89|154:174,1,115,8|0,0:0|0:0,0:0:0:0:
36,120,100647,6,0,P|103:124|124:64,1,115
210,14,101061,2,0,B|268:23|268:23|346:108,1,172.5,6|0,0:0|0:0,0:0:0:0:
412,49,101475,2,0,L|422:178,1,115
246,102,101889,1,10,0:0:0:0:
361,305,102096,1,0,0:0:0:0:
252,188,102302,2,0,L|219:235,1,57.5,6|0,0:0|0:0,0:0:0:0:
170,138,102509,1,0,0:0:0:0:
12,104,102716,2,0,B|51:168|51:168|154:227,1,172.5
31,250,103130,6,0,B|55:263|55:263|28:353,1,115
150,309,103544,1,8,0:0:0:0:
106,115,103751,5,0,0:0:0:0:
143,376,103958,1,0,0:0:0:0:
167,56,104165,1,0,0:0:0:0:
263,334,104371,6,0,B|223:210|223:210|276:210,1,172.5,6|0,0:0|0:0,0:0:0:0:
383,224,104785,1,0,0:0:0:0:
386,238,104888,1,0,0:0:0:0:
390,255,104992,2,0,L|306:278,1,57.5
427,112,105199,1,10,0:0:0:0:
424,126,105302,1,0,0:0:0:0:
420,143,105406,2,0,L|503:166,1,57.5
356,87,105613,1,6,0:0:0:0:
353,73,105716,1,0,0:0:0:0:
349,56,105820,2,0,L|432:32,1,57.5
298,147,106027,2,0,P|261:93|153:113,1,172.5
178,201,106440,6,0,L|224:157,1,57.5
94,161,106647,1,0,0:0:0:0:
42,247,106854,2,0,B|112:245|112:245|137:354,1,172.5,8|0,0:0|0:0,0:0:0:0:
178,201,107268,6,0,L|206:316,1,115
401,358,107682,2,0,P|374:297|274:303,1,172.5,6|0,0:0|0:0,0:0:0:0:
368,205,108096,2,0,B|431:244|431:244|464:289,1,115
436,123,108509,1,10,0:0:0:0:
483,352,108716,1,0,0:0:0:0:
351,91,108923,6,0,P|395:44|496:61,1,172.5,6|0,0:0|0:0,0:0:0:0:
345,116,109337,2,0,B|325:62|325:62|428:8,1,172.5
250,152,109751,2,0,P|206:105|105:122,1,172.5,6|0,0:0|0:0,0:0:0:0:
256,177,110164,1,8,0:0:0:0:
23,154,110371,5,0,0:0:0:0:
187,273,110578,2,0,L|177:210,1,57.5
266,260,110785,1,0,0:0:0:0:
90,345,110992,6,0,L|273:349,1,172.5,6|0,0:0|0:0,0:0:0:0:
365,359,111406,1,0,0:0:0:0:
373,158,111613,1,0,0:0:0:0:
510,306,111820,1,10,0:0:0:0:
340,82,112027,1,0,0:0:0:0:
365,359,112233,1,6,0:0:0:0:
307,6,112440,1,0,0:0:0:0:
510,306,112647,2,0,B|492:270|492:270|351:271,1,172.5
265,352,113061,6,0,B|284:295|284:295|253:242,1,115
192,85,113475,2,0,B|173:142|173:142|204:195,1,115,8|0,0:0|0:0,0:0:0:0:
46,70,113889,6,0,L|53:192,1,115
63,325,114302,1,6,0:0:0:0:
256,192,114406,12,0,121027,0:0:0:0:
