osu file format v14

[General]
AudioFilename: audio.mp3
AudioLeadIn: 0
PreviewTime: 12964
Countdown: 0
SampleSet: None
StackLeniency: 0.2
Mode: 0
LetterboxInBreaks: 0
WidescreenStoryboard: 0

[Editor]
DistanceSpacing: 0.2
BeatDivisor: 4
GridSize: 4
TimelineZoom: 1.750001

[Metadata]
Title:VENOM
TitleUnicode:VENOM
Artist:GHOSTEMANE
ArtistUnicode:GHOSTEMANE
Creator:Bakugou
Version:ADDICTION
Source:
Tags:
BeatmapID:1931201
BeatmapSetID:924583

[Difficulty]
HPDrainRate:6
CircleSize:6
OverallDifficulty:8
ApproachRate:9.7
SliderMultiplier:3.59999990463257
SliderTickRate:1

[Events]
//Background and Video events
0,0,"VENOM.png",0,0
//Break Periods
//Storyboard Layer 0 (Background)
//Storyboard Layer 1 (Fail)
//Storyboard Layer 2 (Pass)
//Storyboard Layer 3 (Foreground)
//Storyboard Sound Samples

[TimingPoints]
137,413.793103448276,4,1,1,60,1,0
13068,-100,4,1,1,5,0,0
13171,-100,4,1,1,60,0,0
13274,-100,4,1,1,5,0,0
13378,-100,4,1,1,80,0,1
13688,-100,4,1,1,5,0,1
13792,-100,4,1,1,80,0,1
13895,-100,4,1,1,5,0,1
13999,-100,4,1,1,80,0,1
14102,-100,4,1,1,5,0,1
14205,-100,4,1,1,80,0,1
14309,-100,4,1,1,5,0,1
14412,-100,4,1,1,80,0,1
14516,-100,4,1,1,5,0,1
14619,-100,4,1,1,80,0,1
14930,-100,4,1,1,5,0,1
15033,-100,4,1,1,80,0,1
15343,-100,4,1,1,5,0,1
15447,-133.333333333333,4,1,1,70,0,0
15757,-133.333333333333,4,1,1,5,0,0
15861,-133.333333333333,4,1,1,70,0,0
15964,-133.333333333333,4,1,1,5,0,0
16068,-133.333333333333,4,1,1,70,0,0
16171,-133.333333333333,4,1,1,5,0,0
16274,-133.333333333333,4,1,1,70,0,0
16585,-133.333333333333,4,1,1,5,0,0
16688,-100,4,1,1,80,0,1
16999,-100,4,1,1,5,0,1
17102,-100,4,1,1,80,0,1
17205,-100,4,1,1,5,0,1
17309,-100,4,1,1,80,0,1
17412,-100,4,1,1,5,0,1
17516,-100,4,1,1,80,0,1
17619,-100,4,1,1,5,0,1
17723,-100,4,1,1,80,0,1
17826,-100,4,1,1,5,0,1
17930,-100,4,1,1,80,0,1
18033,-100,4,1,1,5,0,1
18137,-100,4,1,1,80,0,1
18240,-100,4,1,1,5,0,1
18343,-100,4,1,1,80,0,1
18654,-100,4,1,1,5,0,1
18757,-133.333333333333,4,1,1,70,0,0
18861,-133.333333333333,4,1,1,5,0,0
18964,-133.333333333333,4,1,1,70,0,0
19068,-133.333333333333,4,1,1,5,0,0
19171,-133.333333333333,4,1,1,70,0,0
19481,-133.333333333333,4,1,1,5,0,0
19585,-133.333333333333,4,1,1,70,0,0
19688,-133.333333333333,4,1,1,5,0,0
19792,-133.333333333333,4,1,1,70,0,0
19895,-133.333333333333,4,1,1,5,0,0
19999,-100,4,1,1,80,0,1
20309,-100,4,1,1,5,0,1
20412,-100,4,1,1,80,0,1
20516,-100,4,1,1,5,0,1
20619,-100,4,1,1,80,0,1
20723,-100,4,1,1,5,0,1
20826,-100,4,1,1,80,0,1
20930,-100,4,1,1,5,0,1
21033,-100,4,1,1,80,0,1
21137,-100,4,1,1,5,0,1
21240,-100,4,1,1,80,0,1
21550,-100,4,1,1,5,0,1
21654,-100,4,1,1,80,0,1
21964,-100,4,1,1,5,0,1
22068,-133.333333333333,4,1,1,70,0,0
22171,-133.333333333333,4,1,1,5,0,0
22274,-133.333333333333,4,1,1,70,0,0
22378,-133.333333333333,4,1,1,5,0,0
22481,-133.333333333333,4,1,1,70,0,0
22585,-133.333333333333,4,1,1,5,0,0
22688,-133.333333333333,4,1,1,70,0,0
22792,-133.333333333333,4,1,1,5,0,0
22895,-133.333333333333,4,1,1,70,0,0
22999,-133.333333333333,4,1,1,5,0,0
23102,-133.333333333333,4,1,1,70,0,0
23205,-133.333333333333,4,1,1,5,0,0
23309,-100,4,1,1,80,0,1
23619,-100,4,1,1,5,0,1
23723,-100,4,1,1,80,0,1
25240,-100,4,1,1,5,0,1
25378,-133.333333333333,4,1,1,70,0,0
25481,-133.333333333333,4,1,1,5,0,0
25585,-133.333333333333,4,1,1,70,0,0
25688,-133.333333333333,4,1,1,5,0,0
25792,-133.333333333333,4,1,1,70,0,0
25895,-133.333333333333,4,1,1,5,0,0
25999,-133.333333333333,4,1,1,70,0,0
26102,-133.333333333333,4,1,1,5,0,0
26205,-133.333333333333,4,1,1,70,0,0
26309,-133.333333333333,4,1,1,5,0,0
26412,-133.333333333333,4,1,1,70,0,0
26516,-133.333333333333,4,1,1,5,0,0
26619,-100,4,1,1,80,0,1
26930,-100,4,1,1,5,0,1
27033,-100,4,1,1,80,0,1
27137,-100,4,1,1,5,0,1
27240,-100,4,1,1,80,0,1
27343,-100,4,1,1,5,0,1
27447,-100,4,1,1,80,0,1
27550,-100,4,1,1,5,0,1
27654,-100,4,1,1,80,0,1
27757,-100,4,1,1,5,0,1
27861,-100,4,1,1,80,0,1
28171,-100,4,1,1,5,0,1
28274,-100,4,1,1,80,0,1
28585,-100,4,1,1,5,0,1
28688,-133.333333333333,4,1,1,70,0,0
28999,-133.333333333333,4,1,1,5,0,0
29102,-133.333333333333,4,1,1,70,0,0
29205,-133.333333333333,4,1,1,5,0,0
29309,-133.333333333333,4,1,1,70,0,0
29412,-133.333333333333,4,1,1,5,0,0
29516,-133.333333333333,4,1,1,70,0,0
29826,-133.333333333333,4,1,1,5,0,0
29930,-100,4,1,1,80,0,1
30240,-100,4,1,1,5,0,1
30343,-100,4,1,1,80,0,1
30447,-100,4,1,1,5,0,1
30550,-100,4,1,1,80,0,1
30654,-100,4,1,1,5,0,1
30757,-100,4,1,1,80,0,1
30861,-100,4,1,1,5,0,1
30964,-100,4,1,1,80,0,1
31068,-100,4,1,1,5,0,1
31171,-100,4,1,1,80,0,1
31274,-100,4,1,1,5,0,1
31378,-100,4,1,1,80,0,1
31481,-100,4,1,1,5,0,1
31585,-100,4,1,1,80,0,1
31895,-100,4,1,1,5,0,1
31999,-133.333333333333,4,1,1,70,0,0
32102,-133.333333333333,4,1,1,5,0,0
32205,-133.333333333333,4,1,1,70,0,0
32309,-133.333333333333,4,1,1,5,0,0
32412,-133.333333333333,4,1,1,70,0,0
32723,-133.333333333333,4,1,1,5,0,0
32826,-133.333333333333,4,1,1,70,0,0
32930,-133.333333333333,4,1,1,5,0,0
33033,-133.333333333333,4,1,1,70,0,0
33137,-133.333333333333,4,1,1,5,0,0
33240,-100,4,1,1,80,0,1
33550,-100,4,1,1,5,0,1
33654,-100,4,1,1,80,0,1
33757,-100,4,1,1,5,0,1
33861,-100,4,1,1,80,0,1
33964,-100,4,1,1,5,0,1
34068,-100,4,1,1,80,0,1
34171,-100,4,1,1,5,0,1
34274,-100,4,1,1,80,0,1
34378,-100,4,1,1,5,0,1
34481,-100,4,1,1,80,0,1
34792,-100,4,1,1,5,0,1
34895,-100,4,1,1,80,0,1
35309,-133.333333333333,4,1,1,70,0,0
35412,-133.333333333333,4,1,1,5,0,0
35516,-133.333333333333,4,1,1,70,0,0
35619,-133.333333333333,4,1,1,5,0,0
35723,-133.333333333333,4,1,1,70,0,0
35826,-133.333333333333,4,1,1,5,0,0
35930,-133.333333333333,4,1,1,70,0,0
36033,-133.333333333333,4,1,1,5,0,0
36137,-133.333333333333,4,1,1,70,0,0
36240,-133.333333333333,4,1,1,5,0,0
36343,-133.333333333333,4,1,1,70,0,0
36447,-133.333333333333,4,1,1,5,0,0
36550,-100,4,1,1,80,0,1
36861,-100,4,1,1,5,0,1
36964,-100,4,1,1,80,0,1
38481,-100,4,1,1,5,0,1
38619,-133.333333333333,4,1,1,70,0,0
38723,-133.333333333333,4,1,1,5,0,0
38826,-133.333333333333,4,1,1,70,0,0
38930,-133.333333333333,4,1,1,5,0,0
39033,-133.333333333333,4,1,1,70,0,0
39137,-133.333333333333,4,1,1,5,0,0
39240,-133.333333333333,4,1,1,70,0,0
39343,-133.333333333333,4,1,1,5,0,0
39447,-133.333333333333,4,1,1,70,0,0
39550,-133.333333333333,4,1,1,5,0,0
39654,-133.333333333333,4,1,1,70,0,0
39757,-133.333333333333,4,1,1,5,0,0
39861,-100,4,1,1,75,0,0
40171,-100,4,1,1,5,0,0
40274,-100,4,1,1,75,0,0
40585,-100,4,1,1,5,0,0
40688,-100,4,1,1,75,0,0
40999,-100,4,1,1,5,0,0
41102,-100,4,1,1,75,0,0
41826,-100,4,1,1,5,0,0
41930,-133.333333333333,4,1,1,65,0,0
42654,-133.333333333333,4,1,1,5,0,0
42757,-133.333333333333,4,1,1,65,0,0
43171,-100,4,1,1,75,0,0
43481,-100,4,1,1,5,0,0
43585,-100,4,1,1,75,0,0
43688,-100,4,1,1,5,0,0
43792,-100,4,1,1,75,0,0
43895,-100,4,1,1,5,0,0
43999,-100,4,1,1,75,0,0
44309,-100,4,1,1,5,0,0
44412,-100,4,1,1,75,0,0
44723,-100,4,1,1,5,0,0
44826,-100,4,1,1,75,0,0
45240,-133.333333333333,4,1,1,65,0,0
45550,-133.333333333333,4,1,1,5,0,0
45654,-133.333333333333,4,1,1,65,0,0
45964,-133.333333333333,4,1,1,5,0,0
46068,-133.333333333333,4,1,1,65,0,0
46171,-133.333333333333,4,1,1,5,0,0
46274,-133.333333333333,4,1,1,65,0,0
46378,-133.333333333333,4,1,1,5,0,0
46481,-100,4,1,1,75,0,0
46792,-100,4,1,1,5,0,0
46895,-100,4,1,1,75,0,0
46999,-100,4,1,1,5,0,0
47102,-100,4,1,1,75,0,0
47205,-100,4,1,1,5,0,0
47309,-100,4,1,1,75,0,0
47412,-100,4,1,1,5,0,0
47516,-100,4,1,1,75,0,0
48033,-100,4,1,1,5,0,0
48137,-100,4,1,1,75,0,0
48550,-133.333333333333,4,1,1,65,0,0
48861,-133.333333333333,4,1,1,5,0,0
48964,-133.333333333333,4,1,1,65,0,0
49068,-133.333333333333,4,1,1,5,0,0
49171,-133.333333333333,4,1,1,65,0,0
49274,-133.333333333333,4,1,1,5,0,0
49378,-133.333333333333,4,1,1,65,0,0
49481,-133.333333333333,4,1,1,5,0,0
49585,-133.333333333333,4,1,1,65,0,0
49688,-133.333333333333,4,1,1,5,0,0
49792,-100,4,1,1,75,0,0
50102,-100,4,1,1,5,0,0
50205,-100,4,1,1,75,0,0
50309,-100,4,1,1,5,0,0
50412,-100,4,1,1,75,0,0
50516,-100,4,1,1,5,0,0
50619,-100,4,1,1,75,0,0
50930,-100,4,1,1,5,0,0
51033,-100,4,1,1,75,0,0
51137,-100,4,1,1,5,0,0
51240,-100,4,1,1,75,0,0
51343,-100,4,1,1,5,0,0
51447,-100,4,1,1,75,0,0
53102,-100,4,1,1,85,0,1
63343,-100,4,1,1,5,0,1
63447,-100,4,1,1,85,0,1
63550,-100,4,1,1,5,0,1
63654,-100,4,1,1,85,0,1
63757,-100,4,1,1,5,0,1
63861,-100,4,1,1,85,0,1
64171,-100,4,1,1,5,0,1
64274,-100,4,1,1,85,0,1
64999,-100,4,1,1,5,0,1
65102,-100,4,1,1,85,0,1
65205,-100,4,1,1,5,0,1
65309,-100,4,1,1,85,0,1
65412,-100,4,1,1,5,0,1
65516,-100,4,1,1,85,0,1
65826,-100,4,1,1,5,0,1
65930,-100,4,1,1,85,0,1
66343,-100,4,1,1,40,0,0

[Colours]
Combo1 : 204,6,41
Combo2 : 255,55,131
Combo3 : 83,83,83
Combo4 : 210,215,223

[HitObjects]
134,316,12964,6,0,P|127:270|150:222,1,89.9999976158143,0|0,0:1|0:1,0:1:0:0:
262,18,13171,2,0,P|278:59|270:103,1,89.9999976158143,0|0,0:1|0:1,0:1:0:0:
203,197,13378,6,0,B|184:173|164:166|164:166|196:163|216:143|216:143|240:166|282:168|282:168|306:156|340:152|340:152|311:142|302:118,1,269.999992847443,2|0,3:1|0:1,0:1:0:0:
417,100,13791,6,0,P|416:55|388:22,1,89.9999976158143,0|0,0:1|0:1,0:1:0:0:
286,59,13998,2,0,P|287:104|315:137,1,89.9999976158143,0|0,0:1|0:1,0:1:0:0:
386,253,14205,6,0,P|415:219|416:175,1,89.9999976158143,10|0,0:1|0:1,0:1:0:0:
315,137,14412,2,0,P|286:171|286:216,1,89.9999976158143,0|0,0:1|0:1,0:1:0:0:
386,253,14619,6,0,B|392:270|430:287|430:287|371:287|335:305|335:305|320:279|320:279|283:305|233:286,1,269.999992847443,2|0,0:1|0:1,0:1:0:0:
93,256,15033,6,0,B|87:239|49:222|49:222|108:222|144:204|144:204|159:230|159:230|196:204|246:223,1,269.999992847443,0|0,0:1|0:1,0:1:0:0:
349,253,15447,6,0,B|353:266|382:278|382:278|338:278|311:292|311:292|299:272|299:272|272:292|234:278,1,202.500002360344,0|0,0:1|0:1,0:1:0:0:
129,255,15860,6,0,P|116:290|128:336,1,67.5000007867814,8|0,0:1|0:1,0:1:0:0:
240,221,16067,2,0,P|243:187|229:156,1,67.5000007867814,0|0,0:1|0:1,0:1:0:0:
100,56,16274,5,0,0:1:0:0:
110,122,16377,1,0,0:1:0:0:
120,188,16481,2,0,L|136:304,1,67.5000007867814,0|0,0:1|0:1,0:1:0:0:
341,128,16688,6,0,B|268:122|254:68|254:68|190:65|159:96|159:96|189:82|243:92,1,269.999992847443,2|0,3:1|0:1,0:1:0:0:
442,90,17102,6,0,P|441:45|413:12,1,89.9999976158143,0|0,0:1|0:1,0:1:0:0:
311,49,17309,2,0,P|312:94|340:127,1,89.9999976158143,0|0,0:1|0:1,0:1:0:0:
413,243,17515,6,0,P|441:209|442:164,1,89.9999976158143,10|0,0:1|0:1,0:1:0:0:
340,127,17722,2,0,P|311:160|310:205,1,89.9999976158143,0|0,0:1|0:1,0:1:0:0:
442,321,17929,6,0,P|441:276|412:242,1,89.9999976158143,2|0,0:1|0:1,0:1:0:0:
310,280,18136,2,0,P|310:324|339:358,1,89.9999976158143,0|0,0:1|0:1,0:1:0:0:
310,205,18343,6,0,B|263:188|246:159|246:159|252:203|223:221|223:221|195:237|162:221|162:221|121:202|83:232,1,269.999992847443,0|0,0:1|0:1,0:1:0:0:
113,337,18757,6,0,P|127:306|130:273,1,67.5000007867814,0|0,0:1|0:1,0:1:0:0:
0,140,18964,2,0,P|19:167|46:187,1,67.5000007867814,0|0,0:1|0:1,0:1:0:0:
194,132,19171,6,0,B|207:111|242:101|242:101|194:111|168:100|168:100|139:88|85:108,1,202.500002360344,8|0,0:1|0:1,0:1:0:0:
46,187,19584,6,0,P|57:155|57:122,1,67.5000007867814,0|0,0:1|0:1,0:1:0:0:
171,9,19791,2,0,P|170:42|182:73,1,67.5000007867814,0|0,0:1|0:1,0:1:0:0:
267,146,19999,6,0,B|303:146|305:176|284:194|255:190|236:155|233:127|233:127|229:101|182:74|182:74|207:106|185:157,1,269.999992847443,2|0,3:1|0:1,0:1:0:0:
91,93,20412,6,0,P|62:126|61:171,1,89.9999976158143,0|0,0:1|0:1,0:1:0:0:
163,209,20619,2,0,P|191:175|192:130,1,89.9999976158143,0|0,0:1|0:1,0:1:0:0:
61,246,20826,6,0,P|61:290|90:324,1,89.9999976158143,10|0,0:1|0:1,0:1:0:0:
192,287,21033,2,0,P|191:242|162:208,1,89.9999976158143,0|0,0:1|0:1,0:1:0:0:
90,324,21240,5,2,0:1:0:0:
180,324,21343,1,0,0:1:0:0:
270,324,21446,2,0,L|360:324,1,89.9999976158143,0|0,0:1|0:1,0:1:0:0:
417,280,21653,6,0,B|434:232|428:200|428:200|408:208|389:225|389:225|377:189|384:160|384:160|397:117|380:80,1,269.999992847443,0|0,0:1|0:1,0:1:0:0:
264,108,22068,6,0,P|308:125|364:115,1,67.5000007867814,0|0,0:1|0:1,0:1:0:0:
492,218,22274,2,0,P|461:203|428:200,1,67.5000007867814,0|0,0:1|0:1,0:1:0:0:
266,298,22481,6,0,P|293:278|312:251,1,67.5000007867814,8|0,0:1|0:1,0:1:0:0:
310,61,22688,2,0,P|312:94|326:124,1,67.5000007867814,0|0,0:1|0:1,0:1:0:0:
491,183,22895,6,0,P|460:197|427:199,1,67.5000007867814,0|0,0:1|0:1,0:1:0:0:
248,268,23102,2,0,P|278:253|311:251,1,67.5000007867814,0|0,0:1|0:1,0:1:0:0:
428,200,23309,6,0,B|437:234|475:256|475:256|430:243|398:255|398:255|363:268|312:251|312:251|344:248|366:225,1,269.999992847443,2|0,3:1|0:1,0:1:0:0:
352,153,23722,5,0,0:1:0:0:
431,110,23860,1,0,0:1:0:0:
428,200,23998,1,0,0:1:0:0:
355,64,24136,5,10,0:1:0:0:
275,106,24274,1,0,0:1:0:0:
352,153,24412,1,0,0:1:0:0:
272,195,24550,5,2,0:1:0:0:
352,153,24688,1,0,0:1:0:0:
275,106,24826,1,0,0:1:0:0:
349,242,24964,6,0,B|375:243|400:226|400:226|380:262|356:272|356:272|317:258|288:267|288:267|252:278|200:259,1,239.999993642171,0|0,0:1|0:1,0:1:0:0:
105,259,25378,6,0,P|112:299|148:325,1,67.5000007867814,0|0,0:1|0:1,0:1:0:0:
237,269,25585,2,0,P|229:228|193:202,1,67.5000007867814,0|0,0:1|0:1,0:1:0:0:
130,103,25791,6,0,P|108:128|104:161,1,67.5000007867814,8|0,0:1|0:1,0:1:0:0:
211,210,25998,2,0,P|232:184|236:151,1,67.5000007867814,0|0,0:1|0:1,0:1:0:0:
147,22,26205,6,0,P|158:53|185:73,1,67.5000007867814,0|0,0:1|0:1,0:1:0:0:
341,60,26412,2,0,P|308:54|277:67,1,67.5000007867814,0|0,0:1|0:1,0:1:0:0:
305,177,26619,6,0,B|324:201|344:208|344:208|312:211|292:231|292:231|268:208|226:206|226:206|202:218|168:222|168:222|197:232|206:256,1,269.999992847443,2|0,3:1|0:1,0:1:0:0:
91,274,27032,6,0,P|92:319|120:352,1,89.9999976158143,0|0,0:1|0:1,0:1:0:0:
222,315,27239,2,0,P|221:270|193:237,1,89.9999976158143,0|0,0:1|0:1,0:1:0:0:
122,121,27446,6,0,P|93:155|92:199,1,89.9999976158143,10|0,0:1|0:1,0:1:0:0:
193,237,27653,2,0,P|222:203|222:158,1,89.9999976158143,0|0,0:1|0:1,0:1:0:0:
122,121,27860,6,0,B|116:104|78:87|78:87|137:87|173:69|173:69|188:95|188:95|225:69|275:88,1,269.999992847443,2|0,0:1|0:1,0:1:0:0:
415,118,28274,6,0,B|421:135|459:152|459:152|400:152|364:170|364:170|349:144|349:144|312:170|262:151,1,269.999992847443,0|0,0:1|0:1,0:1:0:0:
163,123,28688,6,0,B|159:110|130:98|130:98|174:98|201:84|201:84|213:104|213:104|240:84|278:98,1,202.500002360344,0|0,0:1|0:1,0:1:0:0:
379,119,29101,6,0,P|392:84|380:38,1,67.5000007867814,8|0,0:1|0:1,0:1:0:0:
268,153,29308,2,0,P|265:187|279:218,1,67.5000007867814,0|0,0:1|0:1,0:1:0:0:
408,318,29515,5,0,0:1:0:0:
398,252,29618,1,0,0:1:0:0:
388,186,29722,2,0,L|372:70,1,67.5000007867814,0|0,0:1|0:1,0:1:0:0:
167,246,29930,6,0,B|240:252|254:306|254:306|318:309|349:278|349:278|319:292|265:282,1,269.999992847443,2|0,3:1|0:1,0:1:0:0:
66,284,30343,6,0,P|67:329|95:362,1,89.9999976158143,0|0,0:1|0:1,0:1:0:0:
197,325,30550,2,0,P|196:280|168:247,1,89.9999976158143,0|0,0:1|0:1,0:1:0:0:
95,131,30756,6,0,P|67:165|66:210,1,89.9999976158143,10|0,0:1|0:1,0:1:0:0:
168,247,30963,2,0,P|197:214|198:169,1,89.9999976158143,0|0,0:1|0:1,0:1:0:0:
66,53,31170,6,0,P|67:98|96:132,1,89.9999976158143,2|0,0:1|0:1,0:1:0:0:
198,94,31377,2,0,P|198:50|169:16,1,89.9999976158143,0|0,0:1|0:1,0:1:0:0:
198,169,31584,6,0,B|245:186|262:215|262:215|256:171|285:153|285:153|313:137|346:153|346:153|387:172|425:142,1,269.999992847443,0|0,0:1|0:1,0:1:0:0:
395,37,31999,6,0,P|381:68|378:101,1,67.5000007867814,0|0,0:1|0:1,0:1:0:0:
508,234,32205,2,0,P|489:207|462:187,1,67.5000007867814,0|0,0:1|0:1,0:1:0:0:
314,242,32412,6,0,B|301:263|266:273|266:273|314:263|340:274|340:274|369:286|423:266,1,202.500002360344,8|0,0:1|0:1,0:1:0:0:
462,187,32825,6,0,P|450:218|450:251,1,67.5000007867814,0|0,0:1|0:1,0:1:0:0:
337,365,33032,2,0,P|337:331|325:300,1,67.5000007867814,0|0,0:1|0:1,0:1:0:0:
241,227,33240,6,0,B|205:227|203:197|224:179|253:183|272:218|275:246|275:246|279:272|326:299|326:299|301:267|323:216,1,269.999992847443,2|0,3:1|0:1,0:1:0:0:
417,281,33653,6,0,P|445:247|446:202,1,89.9999976158143,0|0,0:1|0:1,0:1:0:0:
345,165,33860,2,0,P|316:198|315:243,1,89.9999976158143,0|0,0:1|0:1,0:1:0:0:
447,128,34067,6,0,P|446:83|417:49,1,89.9999976158143,10|0,0:1|0:1,0:1:0:0:
316,87,34274,2,0,P|316:131|345:165,1,89.9999976158143,0|0,0:1|0:1,0:1:0:0:
418,50,34481,5,2,0:1:0:0:
328,50,34584,1,0,0:1:0:0:
238,50,34687,2,0,L|148:50,1,89.9999976158143,0|0,0:1|0:1,0:1:0:0:
91,94,34894,6,0,B|74:142|80:174|80:174|100:166|119:149|119:149|131:185|124:214|124:214|111:257|128:294,1,269.999992847443,0|0,0:1|0:1,0:1:0:0:
244,266,35309,6,0,P|200:249|144:259,1,67.5000007867814,0|0,0:1|0:1,0:1:0:0:
16,156,35515,2,0,P|46:170|79:173,1,67.5000007867814,0|0,0:1|0:1,0:1:0:0:
242,76,35722,6,0,P|214:95|195:122,1,67.5000007867814,8|0,0:1|0:1,0:1:0:0:
198,313,35929,2,0,P|195:279|181:249,1,67.5000007867814,0|0,0:1|0:1,0:1:0:0:
16,191,36136,6,0,P|46:176|79:174,1,67.5000007867814,0|0,0:1|0:1,0:1:0:0:
260,106,36343,2,0,P|229:120|196:122,1,67.5000007867814,0|0,0:1|0:1,0:1:0:0:
80,174,36550,6,0,B|71:140|33:118|33:118|78:131|110:119|110:119|145:106|196:123|196:123|164:126|142:149,1,269.999992847443,2|0,3:1|0:1,0:1:0:0:
156,221,36963,5,0,0:1:0:0:
77,264,37101,1,0,0:1:0:0:
80,174,37239,1,0,0:1:0:0:
153,310,37377,5,10,0:1:0:0:
233,268,37515,1,0,0:1:0:0:
156,221,37653,1,0,0:1:0:0:
236,179,37791,5,2,0:1:0:0:
156,221,37929,1,0,0:1:0:0:
233,268,38067,1,0,0:1:0:0:
159,132,38205,6,0,B|133:131|108:148|108:148|128:112|152:102|152:102|191:116|220:107|220:107|256:96|308:115,1,239.999993642171,0|0,0:1|0:1,0:1:0:0:
403,115,38619,6,0,P|395:74|359:48,1,67.5000007867814,0|0,0:1|0:1,0:1:0:0:
271,105,38826,2,0,P|278:145|314:171,1,67.5000007867814,0|0,0:1|0:1,0:1:0:0:
378,271,39032,6,0,P|399:245|403:212,1,67.5000007867814,8|0,0:1|0:1,0:1:0:0:
297,164,39239,2,0,P|275:189|271:222,1,67.5000007867814,0|0,0:1|0:1,0:1:0:0:
361,352,39446,6,0,P|349:320|322:300,1,67.5000007867814,0|0,0:1|0:1,0:1:0:0:
167,314,39653,2,0,P|199:319|230:306,1,67.5000007867814,0|0,0:1|0:1,0:1:0:0:
169,192,39861,6,0,B|127:175|122:126|122:126|102:168|120:206|120:206|127:241|120:269|120:269|114:238|91:201,1,269.999992847443,2|0,3:1|0:1,0:1:0:0:
54,146,40274,1,0,0:1:0:0:
201,120,40481,6,0,P|236:130|289:121,1,89.9999976158143,0|0,0:1|0:1,0:1:0:0:
318,82,40688,2,0,B|301:124|326:173|326:173|349:226|331:285|331:285|328:246|257:191,1,269.999992847443,10|0,0:1|0:1,0:1:0:0:
225,183,41102,1,2,0:1:0:0:
225,183,41515,6,0,B|190:160|190:136|201:116|231:112|255:143|263:204|249:214|219:231|188:249|183:290|196:349,1,269.999992847443,0|0,0:1|0:1,0:1:0:0:
236,378,41929,1,0,0:1:0:0:
236,378,42343,6,0,B|267:378|281:354|302:354|333:371|333:371|347:365|359:356|361:328|347:311|334:298|316:304|309:323|329:333,1,202.500002360344,8|0,0:1|0:1,0:1:0:0:
319,324,42757,6,0,P|314:289|319:252,1,67.5000007867814,0|0,0:1|0:1,0:1:0:0:
354,140,42964,1,0,0:1:0:0:
333,46,43171,6,0,B|339:67|382:89|382:89|334:73|305:106|305:106|276:94|250:91|250:91|222:116|168:112,1,269.999992847443,2|0,3:1|0:1,0:1:0:0:
141,236,43584,6,0,P|107:202|107:142,1,89.9999976158143,0|0,0:1|0:1,0:1:0:0:
193,112,43791,2,0,P|227:146|227:206,1,89.9999976158143,0|0,0:1|0:1,0:1:0:0:
173,297,43998,6,0,B|157:311|126:306|126:306|154:331|188:333|188:333|232:311|284:310|284:310|241:323|217:353,1,269.999992847443,10|0,0:1|0:1,0:1:0:0:
125,372,44412,6,0,B|74:353|64:298|64:298|93:246|92:205|92:205|78:245|26:276,1,269.999992847443,2|0,0:1|0:1,0:1:0:0:
0,294,44826,1,0,0:1:0:0:
0,294,45240,6,0,B|27:253|18:209|18:209|9:162|25:112|60:122|74:144|57:183|30:179|20:149,1,202.500002360344,0|0,0:1|0:1,0:1:0:0:
52,159,45653,1,8,0:1:0:0:
80,262,45860,6,0,P|99:235|98:173,1,67.5000007867814,0|0,0:1|0:1,0:1:0:0:
12,107,46067,2,0,P|25:136|80:167,1,67.5000007867814,0|0,0:1|0:1,0:1:0:0:
180,125,46274,2,0,P|147:122|93:153,1,67.5000007867814,0|0,0:1|0:1,0:1:0:0:
104,201,46481,6,0,B|85:268|141:294|189:260|189:260|232:229|285:237|281:284|261:304|241:312|206:279|237:254,1,269.999992847443,2|0,3:1|0:1,0:1:0:0:
203,381,46895,6,0,P|208:340|250:291,1,89.9999976158143,0|0,0:1|0:1,0:1:0:0:
234,133,47102,2,0,P|267:157|288:218,1,89.9999976158143,0|0,0:1|0:1,0:1:0:0:
433,283,47309,6,0,P|394:299|331:287,1,89.9999976158143,10|0,0:1|0:1,0:1:0:0:
287,201,47515,1,0,0:1:0:0:
235,300,47722,6,0,B|211:299|190:327|190:327|187:265|206:228|206:228|195:210|195:210|216:167|205:102,1,269.999992847443,2|0,0:1|0:1,0:1:0:0:
211,49,48136,1,0,0:1:0:0:
211,49,48550,6,0,B|245:42|262:20|262:20|247:53|259:81|259:81|269:108|259:143|259:143|290:112|320:97,1,202.500002360344,0|0,0:1|0:1,0:1:0:0:
319,91,48964,6,0,P|349:74|436:78,1,67.5000007867814,8|0,0:1|0:1,0:1:0:0:
321,104,49171,2,0,P|351:87|438:91,1,67.5000007867814,0|0,0:1|0:1,0:1:0:0:
502,141,49378,6,0,P|472:124|385:128,1,67.5000007867814,0|0,0:1|0:1,0:1:0:0:
500,154,49585,2,0,P|470:137|383:141,1,67.5000007867814,0|0,0:1|0:1,0:1:0:0:
322,219,49792,6,0,B|351:218|378:240|378:240|352:200|330:118|314:91|347:61|362:44|391:59|406:98|399:111|362:133|352:95,1,269.999992847443,2|0,3:1|0:1,0:1:0:0:
382,79,50205,6,0,P|342:89|269:61,1,89.9999976158143,0|0,0:1|0:1,0:1:0:0:
189,37,50412,2,0,P|217:67|229:144,1,89.9999976158143,0|0,0:1|0:1,0:1:0:0:
200,274,50619,6,0,B|193:244|168:243|168:243|211:218|206:181|206:181|178:158|186:127|186:127|196:88|228:69|250:106|218:131,1,269.999992847443,10|0,0:1|0:1,0:1:0:0:
231,112,51033,6,0,P|187:132|104:116,1,89.9999976158143,2|0,0:1|0:1,0:1:0:0:
53,212,51240,2,0,P|93:193|138:191,1,89.9999976158143,0|0,0:1|0:1,0:1:0:0:
255,240,51446,1,0,0:1:0:0:
119,135,53102,5,2,3:1:0:0:
97,211,53240,1,0,0:1:0:0:
190,111,53378,1,0,0:1:0:0:
234,246,53515,5,0,0:1:0:0:
168,218,53653,1,0,0:1:0:0:
292,151,53791,5,0,0:1:0:0:
230,183,53929,1,10,0:1:0:0:
357,282,54067,1,0,0:1:0:0:
316,219,54205,1,0,0:1:0:0:
285,343,54343,5,2,0:1:0:0:
391,214,54481,1,0,0:1:0:0:
354,291,54619,1,0,0:1:0:0:
386,142,54757,5,0,0:1:0:0:
466,238,54895,1,0,0:1:0:0:
292,151,55033,1,0,0:1:0:0:
473,109,55171,5,0,0:1:0:0:
447,174,55309,1,0,0:1:0:0:
360,78,55446,5,0,0:1:0:0:
419,31,55584,1,8,0:1:0:0:
367,211,55722,1,0,0:1:0:0:
285,82,55860,1,0,0:1:0:0:
294,264,55998,5,0,0:1:0:0:
394,141,56136,1,0,0:1:0:0:
353,318,56274,1,0,0:1:0:0:
241,160,56412,5,2,3:1:0:0:
319,157,56550,1,0,0:1:0:0:
193,220,56688,1,0,0:1:0:0:
232,88,56826,5,0,0:1:0:0:
329,161,56964,1,0,0:1:0:0:
117,150,57102,5,0,0:1:0:0:
165,93,57240,1,10,0:1:0:0:
285,229,57378,1,0,0:1:0:0:
119,220,57515,1,0,0:1:0:0:
294,110,57654,5,2,0:1:0:0:
294,110,58067,5,0,0:1:0:0:
357,137,58205,1,0,0:1:0:0:
209,261,58343,1,0,0:1:0:0:
237,153,58481,5,0,0:1:0:0:
270,220,58619,1,0,0:1:0:0:
171,124,58757,1,0,0:1:0:0:
277,228,58895,5,8,0:1:0:0:
119,194,59033,1,0,0:1:0:0:
245,146,59171,1,0,0:1:0:0:
122,285,59309,5,0,0:1:0:0:
122,285,59722,5,2,3:1:0:0:
138,289,59826,1,0,0:1:0:0:
181,353,59929,5,0,0:1:0:0:
197,349,60033,1,0,0:1:0:0:
272,281,60136,5,0,0:1:0:0:
260,269,60240,1,0,0:1:0:0:
165,239,60343,5,0,0:1:0:0:
160,254,60447,1,0,0:1:0:0:
272,281,60550,6,0,P|290:242|274:186,1,89.9999976158143,10|0,0:1|0:1,0:1:0:0:
244,112,60757,5,0,0:1:0:0:
230,166,60860,1,0,0:1:0:0:
291,77,60964,2,0,P|334:64|412:87,1,89.9999976158143,2|0,0:1|0:1,0:1:0:0:
426,111,61171,1,0,0:1:0:0:
408,174,61274,1,0,0:1:0:0:
413,289,61378,5,0,0:1:0:0:
356,227,61515,1,0,0:1:0:0:
492,296,61653,1,0,0:1:0:0:
362,349,61791,5,0,0:1:0:0:
458,216,61929,1,0,0:1:0:0:
410,300,62067,1,0,0:1:0:0:
409,161,62205,5,8,0:1:0:0:
467,224,62343,1,0,0:1:0:0:
332,288,62481,1,0,0:1:0:0:
410,148,62619,5,0,0:1:0:0:
410,148,63033,6,0,B|423:110|459:95|459:95|404:112|374:108|374:108|361:90|346:88|346:88|318:107|257:108,1,269.999992847443,2|0,3:1|0:1,0:1:0:0:
261,112,63446,6,0,P|256:164|219:206,1,89.9999976158143,0|0,0:1|0:1,0:1:0:0:
274,305,63653,2,0,P|276:260|299:222,1,89.9999976158143,0|0,0:1|0:1,0:1:0:0:
371,175,63860,6,0,B|357:146|371:129|400:123|428:135|439:178|400:191|386:211|398:248|398:248|413:287|399:340,1,269.999992847443,10|0,0:1|0:1,0:1:0:0:
397,349,64274,1,2,0:1:0:0:
248,313,64688,6,0,B|235:351|198:365|198:365|254:349|284:353|284:353|297:371|312:373|312:373|340:354|401:353,1,269.999992847443,0|0,0:1|0:1,0:1:0:0:
397,349,65101,6,0,P|402:297|439:255,1,89.9999976158143,0|0,0:1|0:1,0:1:0:0:
384,156,65308,2,0,P|381:200|358:238,1,89.9999976158143,0|0,0:1|0:1,0:1:0:0:
287,286,65515,6,0,B|301:315|287:332|258:338|230:326|219:283|258:270|272:250|260:213|260:213|245:174|259:121,1,269.999992847443,0|0,0:1|0:1,0:1:0:0:
261,112,65929,1,0,0:1:0:0:
