osu file format v14

[General]
AudioFilename: audio.mp3
AudioLeadIn: 0
PreviewTime: 30725
Countdown: 0
SampleSet: Soft
StackLeniency: 0.6
Mode: 0
LetterboxInBreaks: 0
EpilepsyWarning: 1
WidescreenStoryboard: 1

[Editor]
DistanceSpacing: 1.2
BeatDivisor: 4
GridSize: 32
TimelineZoom: 3.199999

[Metadata]
Title:Mercury: Retrograde
TitleUnicode:Mercury: Retrograde
Artist:GHOSTEMANE
ArtistUnicode:GHOSTEMANE
Creator:Anishina Kodoku
Version:Collab Hard
Source:
Tags:rap trap hip-hop m3gb3g kalindraz nattu kreep noise hexada english
BeatmapID:1850887
BeatmapSetID:838193

[Difficulty]
HPDrainRate:5
CircleSize:4
OverallDifficulty:6.5
ApproachRate:7.5
SliderMultiplier:1.5
SliderTickRate:1

[Events]
//Background and Video events
0,0,"The Face of Mephastophilis.png",0,0
Video,-150,"satan.mp4"
//Break Periods
2,55193,60473
//Storyboard Layer 0 (Background)
//Storyboard Layer 1 (Fail)
//Storyboard Layer 2 (Pass)
//Storyboard Layer 3 (Foreground)
//Storyboard Sound Samples

[TimingPoints]
6267,382.165605095541,4,2,2,60,1,0
30725,-100,4,2,2,80,0,1
42572,-100,4,2,2,60,0,0
80610,382.165605095541,4,2,2,77,1,0
93221,-100,4,2,2,80,0,1
116533,-100,4,2,2,60,0,0
118262,495.867768595041,4,2,2,77,1,0
119747,454.545454545455,4,2,10,77,1,0

[Colours]
Combo1 : 239,203,186
Combo2 : 205,193,236
Combo3 : 231,227,209

[HitObjects]
22,283,6267,6,0,L|17:322,2,37.5,2|2|2,0:0|0:0|0:0,0:0:0:0:
97,233,6649,2,0,L|172:221,1,75,2|2,0:0|0:0,0:0:0:0:
260,210,7031,2,0,L|232:280,1,75,2|2,0:0|0:0,0:0:0:0:
198,363,7413,2,0,L|150:304,1,75,2|2,0:0|0:0,0:0:0:0:
97,233,7795,6,0,L|172:221,1,75,2|2,0:0|0:0,0:0:0:0:
260,210,8177,2,0,L|335:198,1,75,2|2,0:0|0:0,0:0:0:0:
386,124,8560,1,2,0:0:0:0:
438,197,8751,2,0,L|437:250,2,37.5,2|2|2,0:0|0:0|0:0,0:0:0:0:
491,124,9133,1,2,0:0:0:0:
503,34,9324,6,0,B|467:25|467:25|420:57,1,75
355,5,9706,2,0,B|329:31|329:31|333:88,1,75
253,112,10088,2,0,B|263:147|263:147|314:172,1,75
385,180,10470,2,0,L|387:133,2,37.5,2|2|2,0:0|0:0|0:0,0:0:0:0:
337,256,10853,6,0,P|300:262|263:255,1,75
208,326,11235,2,0,P|184:297|171:262,1,75
84,288,11617,2,0,P|84:250|97:215,1,75
16,175,11999,2,0,P|40:146|72:128,1,75
149,81,12381,6,0,L|153:43,2,37.5,2|2|2,0:0|0:0|0:0,0:0:0:0:
219,137,12763,2,0,L|219:212,1,75,0|0,0:0|0:0,0:0:0:0:
216,302,13145,2,0,L|150:264,1,75,0|0,0:0|0:0,0:0:0:0:
75,217,13527,2,0,L|140:178,1,75,0|0,0:0|0:0,0:0:0:0:
219,137,13909,6,0,L|219:212,1,75,0|0,0:0|0:0,0:0:0:0:
301,248,14291,2,0,L|300:172,1,75,0|0,0:0|0:0,0:0:0:0:
356,102,14674,5,0,0:0:0:0:
435,143,14865,2,0,L|488:133,2,37.5,2|2|2,0:0|0:0|0:0,0:0:0:0:
356,102,15247,1,2,0:0:0:0:
389,18,15438,6,0,B|356:4|356:4|311:26,1,75
252,80,15821,2,0,B|219:94|219:94|174:72,1,75
109,25,16203,2,0,B|76:11|76:11|31:33,1,75
27,117,16585,2,0,L|75:108,2,37.5,2|2|2,0:0|0:0|0:0,0:0:0:0:
57,201,16967,6,0,L|143:202,1,75,0|0,0:0|0:0,0:0:0:0:
211,243,17349,2,0,P|223:204|200:153,1,75,0|0,0:0|0:0,0:0:0:0:
257,92,17732,2,0,L|171:91,1,75,0|0,0:0|0:0,0:0:0:0:
103,50,18114,2,0,P|91:88|114:140,1,75,0|0,0:0|0:0,0:0:0:0:
131,201,18496,6,0,L|83:202,2,37.5,2|2|2,0:0|0:0|0:0,0:0:0:0:
181,275,18878,1,2,0:0:0:0:
181,275,19069,1,2,0:0:0:0:
240,342,19260,2,0,L|335:322,1,75,8|2,0:0|0:0,0:0:0:0:
369,255,19642,1,2,0:0:0:0:
369,255,19833,1,2,0:0:0:0:
377,164,20024,6,0,B|341:154|341:154|303:177,1,75,2|2,0:0|0:0,0:0:0:0:
227,213,20407,1,2,0:0:0:0:
186,132,20598,1,2,0:0:0:0:
129,201,20789,2,0,L|132:289,1,75,8|2,0:0|0:0,0:0:0:0:
51,235,21171,2,0,L|53:160,1,75,2|2,0:0|0:0,0:0:0:0:
15,78,21553,6,0,P|54:71|99:83,1,75,2|2,0:0|0:0,0:0:0:0:
159,133,21935,1,2,0:0:0:0:
159,133,22126,1,2,0:0:0:0:
240,171,22317,2,0,P|246:134|239:97,1,75,8|2,0:0|0:0,0:0:0:0:
175,34,22699,1,2,0:0:0:0:
175,34,22890,1,0,0:0:0:0:
239,97,23081,6,0,L|313:88,1,75,2|2,0:0|0:0,0:0:0:0:
400,112,23464,1,2,0:0:0:0:
347,184,23655,1,2,0:0:0:0:
432,211,23846,2,0,P|425:247|430:284,1,75,8|2,0:0|0:0,0:0:0:0:
505,334,24228,2,0,P|511:297|506:260,1,75,2|2,0:0|0:0,0:0:0:0:
419,281,24610,6,0,L|310:297,1,75,2|2,0:0|0:0,0:0:0:0:
286,222,24993,1,2,0:0:0:0:
286,222,25184,1,2,0:0:0:0:
329,143,25375,2,0,L|403:147,1,75,8|2,0:0|0:0,0:0:0:0:
467,210,25757,1,2,0:0:0:0:
467,210,25948,1,2,0:0:0:0:
403,147,26139,6,0,B|390:114|390:114|404:62,1,75,2|2,0:0|0:0,0:0:0:0:
332,15,26522,1,2,0:0:0:0:
260,69,26713,1,2,0:0:0:0:
174,41,26904,2,0,L|180:115,1,75,8|2,0:0|0:0,0:0:0:0:
95,86,27286,2,0,L|104:167,1,75,2|2,0:0|0:0,0:0:0:0:
82,248,27668,6,0,P|116:260|149:219,1,75,2|2,0:0|0:0,0:0:0:0:
214,295,28050,2,0,P|241:271|222:222,1,75,2|2,0:0|0:0,0:0:0:0:
323,209,28432,2,0,P|316:173|264:165,1,75,8|2,0:0|0:0,0:0:0:0:
300,70,28814,2,0,P|265:57|233:98,1,75,2|2,0:0|0:0,0:0:0:0:
488,58,30725,6,0,B|460:84|460:84|403:64,1,75,4|0,3:3|0:0,0:0:0:0:
385,154,31107,1,0,0:0:0:0:
465,194,31298,1,0,0:0:0:0:
423,273,31489,2,0,L|432:354,1,75,8|0,0:0|0:0,0:0:0:0:
342,332,31871,1,0,0:0:0:0:
259,368,32062,1,0,0:0:0:0:
177,330,32253,2,0,L|184:253,1,75
247,190,32636,1,0,3:0:0:0:
247,190,32827,1,0,0:0:0:0:
165,152,33018,2,0,P|127:160|92:180,1,75,8|2,0:0|0:0,0:0:0:0:
42,104,33400,2,0,P|18:134|5:172,1,75,4|0,0:1|3:0,0:0:0:0:
57,17,33782,6,0,L|131:32,1,75,4|0,3:3|0:0,0:0:0:0:
205,82,34165,1,0,0:0:0:0:
266,16,34356,1,0,0:0:0:0:
320,87,34547,2,0,L|395:79,1,75,8|0,0:0|0:0,0:0:0:0:
461,18,34929,1,0,0:0:0:0:
503,97,35120,1,0,0:0:0:0:
438,163,35311,2,0,L|446:238,1,75
487,316,35693,1,0,3:0:0:0:
487,316,35884,1,0,0:0:0:0:
407,359,36076,2,0,P|368:364|328:355,1,75,8|0,0:0|0:0,0:0:0:0:
271,291,36458,2,0,B|285:273|287:255|287:255|300:268|328:279,1,75,4|0,0:1|3:0,0:0:0:0:
441,246,36840,6,0,L|433:171,1,75,4|2,3:3|0:0,0:0:0:0:
379,99,37222,1,0,0:0:0:0:
306,152,37413,1,0,0:0:0:0:
231,101,37604,2,0,L|226:181,1,75,8|0,0:0|0:0,0:0:0:0:
154,229,37986,1,0,0:0:0:0:
84,171,38177,1,0,0:0:0:0:
33,245,38368,2,0,L|41:320,1,75
124,353,38751,1,0,3:0:0:0:
124,353,38942,1,0,0:0:0:0:
198,302,39133,2,0,P|235:304|272:297,1,75,8|0,0:0|0:0,0:0:0:0:
227,219,39515,2,0,P|263:211|300:213,1,75,4|0,0:1|3:0,0:0:0:0:
363,278,39897,6,0,L|360:352,1,75,4|0,3:0|0:0,0:0:0:0:
447,332,40279,2,0,L|448:244,1,75,0|0,0:0|0:0,0:0:0:0:
467,169,40661,2,0,L|376:193,1,75,8|0,0:0|0:0,0:0:0:0:
381,98,41044,2,0,L|290:122,1,75,2|2,0:0|0:0,0:0:0:0:
248,184,41426,1,0,0:0:0:0:
218,98,41617,1,0,0:0:0:0:
133,129,41808,1,0,3:0:0:0:
108,42,41999,1,0,0:0:0:0:
41,103,42190,2,0,B|60:214|60:214|76:174,1,150,8|4,0:0|0:1,0:0:0:0:
74,179,42954,5,4,3:0:0:0:
129,250,43146,1,0,0:0:0:0:
87,329,43337,2,0,P|122:338|167:328,1,75,0|0,0:0|0:0,0:0:0:0:
225,270,43719,2,0,L|322:250,1,75,8|0,0:0|0:0,0:0:0:0:
276,342,44101,2,0,L|373:322,1,75,0|0,0:0|0:0,0:0:0:0:
439,319,44483,6,0,B|486:336|486:336|462:218,1,150,0|0,0:0|3:0,0:0:0:0:
388,217,45056,1,0,0:0:0:0:
454,167,45247,2,0,B|471:202|471:202|465:237,1,75,8|0,0:0|0:0,0:0:0:0:
322,263,45630,2,0,B|304:227|304:227|310:192,1,75,4|0,0:1|3:0,0:0:0:0:
368,124,46012,5,4,3:0:0:0:
318,48,46203,1,0,0:0:0:0:
255,113,46394,2,0,L|175:117,1,75,0|0,0:0|0:0,0:0:0:0:
83,128,46776,2,0,L|126:194,1,75,8|0,0:0|0:0,0:0:0:0:
181,269,47158,2,0,L|216:198,1,75,0|0,0:0|0:0,0:0:0:0:
255,113,47540,6,0,L|180:115,1,75,0|0,0:0|0:0,0:0:0:0:
294,193,47923,2,0,L|381:189,1,75,0|0,0:0|0:0,0:0:0:0:
456,211,48305,1,8,0:0:0:0:
392,275,48496,1,0,0:0:0:0:
440,350,48687,2,0,P|406:361|351:345,1,75,4|0,0:1|3:0,0:0:0:0:
289,310,49069,5,4,3:0:0:0:
207,347,49260,1,2,0:0:0:0:
213,257,49451,1,0,0:0:0:0:
213,257,49547,1,0,0:0:0:0:
213,257,49642,1,0,0:0:0:0:
133,299,49833,2,0,B|102:295|102:295|91:289|91:289|44:285,2,75,8|0|0,0:0|0:0|0:0,0:0:0:0:
130,208,50407,1,0,0:0:0:0:
130,208,50503,1,0,0:0:0:0:
130,208,50598,6,0,B|130:176|130:176|126:166|126:166|128:117,2,75,0|0|0,0:0|0:0|3:0,0:0:0:0:
212,171,51171,1,0,0:0:0:0:
212,171,51267,1,0,0:0:0:0:
212,171,51362,1,8,0:0:0:0:
279,111,51553,1,0,0:0:0:0:
337,179,51744,2,0,L|343:253,1,75,4|0,0:1|3:0,0:0:0:0:
323,341,52126,6,0,B|362:346|362:346|414:319,1,75,4|0,3:0|0:0,0:0:0:0:
434,248,52509,1,0,0:0:0:0:
434,248,52605,1,0,0:0:0:0:
434,248,52700,1,0,0:0:0:0:
343,253,52891,2,0,L|268:260,1,75,8|0,0:0|0:0,0:0:0:0:
269,170,53273,2,0,L|194:178,1,75,2|2,0:0|0:0,0:0:0:0:
110,147,53655,6,0,B|95:114|95:114|105:63,1,75,0|0,0:0|0:0,0:0:0:0:
166,13,54037,1,0,3:0:0:0:
220,84,54228,1,0,0:0:0:0:
288,26,54419,5,8,0:0:0:0:
310,113,54610,1,0,0:0:0:0:
274,29,54802,1,0,0:0:0:0:
296,116,54993,1,0,3:0:0:0:
410,301,61298,5,4,3:0:0:0:
348,235,61489,1,2,0:0:0:0:
348,235,61585,1,0,0:0:0:0:
348,235,61681,1,0,0:0:0:0:
258,247,61872,1,0,0:0:0:0:
234,333,62063,2,0,P|199:330|144:335,1,75,8|0,0:0|0:0,0:0:0:0:
72,353,62445,1,0,3:0:0:0:
72,353,62540,1,0,0:0:0:0:
72,353,62636,1,0,0:0:0:0:
59,263,62827,6,0,L|51:159,1,75
114,122,63209,1,0,3:0:0:0:
122,119,63305,1,0,0:0:0:0:
128,115,63400,1,0,0:0:0:0:
135,111,63496,1,0,0:0:0:0:
143,107,63591,2,0,L|153:190,1,75,8|0,0:0|0:0,0:0:0:0:
220,240,63973,1,4,0:1:0:0:
310,235,64165,1,0,3:0:0:0:
375,172,64356,6,0,L|430:174,2,50,4|0|0,3:0|0:0|0:0,0:0:0:0:
325,137,64738,2,0,L|246:139,2,50,8|0|0,0:0|0:0|0:0,0:0:0:0:
369,96,65120,2,0,L|429:94,2,50,8|0|0,0:0|0:0|0:0,0:0:0:0:
316,66,65502,2,0,L|233:69,2,50,0|0|0,3:0|0:0|0:0,0:0:0:0:
358,23,65884,6,0,L|283:25,1,75
241,42,66171,1,0,0:0:0:0:
241,42,66267,2,0,L|165:41,1,75,0|0,3:0|0:0,0:0:0:0:
76,49,66649,1,0,0:0:0:0:
21,120,66840,2,0,L|52:285,1,150
160,343,67413,6,0,B|212:323|212:323|252:343|252:343|316:319,1,150,4|0,3:0|0:0,0:0:0:0:
444,221,68177,2,0,B|397:238|397:238|357:218|357:218|305:238,1,150,2|0,0:0|0:0,0:0:0:0:
163,126,68942,6,0,B|109:125|109:125|167:235,1,150,8|2,0:0|0:0,0:0:0:0:
302,109,69706,2,0,B|223:104|268:40|176:43,1,150,2|2,0:0|0:0,0:0:0:0:
13,114,70470,6,0,P|87:118|172:127,1,150,4|0,3:0|0:0,0:0:0:0:
326,55,71235,2,0,P|251:50|176:43,1,150,2|0,0:0|0:0,0:0:0:0:
73,190,71999,6,0,B|110:221|110:254|110:254|128:227|172:218,1,150,8|2,0:0|0:0,0:0:0:0:
349,245,72763,2,0,B|257:241|302:305|223:310,1,150,2|2,0:0|0:0,0:0:0:0:
148,146,73528,6,0,P|162:78|232:79,1,150,4|0,3:0|0:0,0:0:0:0:
411,93,74292,2,0,P|396:160|326:159,1,150,2|0,0:0|0:0,0:0:0:0:
243,319,75056,6,0,P|241:241|228:147,1,150,8|2,0:0|0:0,0:0:0:0:
67,96,75821,2,0,B|144:123|127:49|208:66,1,150,2|2,0:0|0:0,0:0:0:0:
382,32,76585,6,0,B|403:83|374:121|374:121|390:174,1,150,4|0,3:0|0:0,0:0:0:0:
312,337,77349,2,0,B|290:285|319:247|319:247|303:194,1,150,2|2,0:0|0:0,0:0:0:0:
130,142,78114,6,0,P|196:169|253:111,1,150,8|0,0:0|0:0,0:0:0:0:
213,300,78878,2,0,B|140:275|143:332|66:308,1,150,0|0,0:0|0:0,0:0:0:0:
463,105,80610,5,4,3:0:0:0:
399,169,80801,2,0,P|362:162|312:165,2,75,0|0|0,0:0|0:0|0:0,0:0:0:0:
457,237,81374,2,0,P|459:271|453:324,1,75,8|0,0:0|0:0,0:0:0:0:
368,275,81756,2,0,L|281:271,1,75,0|0,0:0|0:0,0:0:0:0:
203,271,82138,2,0,L|116:276,1,75,0|0,0:0|0:0,0:0:0:0:
45,243,82521,1,0,3:0:0:0:
45,243,83667,5,4,3:0:0:0:
108,178,83858,2,0,B|148:188|148:188|196:177,2,75,0|0|0,0:0|0:0|0:0,0:0:0:0:
57,105,84431,2,0,B|50:68|50:68|61:18,1,75,8|0,0:0|0:0,0:0:0:0:
140,73,84813,2,0,L|227:77,1,75,0|0,0:0|0:0,0:0:0:0:
305,77,85195,2,0,L|391:71,1,75,0|0,0:0|0:0,0:0:0:0:
463,105,85578,1,0,3:0:0:0:
463,105,86724,6,0,L|455:181,1,75,4|2,3:0|0:0,0:0:0:0:
371,145,87107,2,0,L|363:221,1,75,0|0,0:0|0:0,0:0:0:0:
279,185,87489,1,8,0:0:0:0:
198,145,87680,1,0,0:0:0:0:
49,105,89591,5,0,3:0:0:0:
49,105,89686,1,0,0:0:0:0:
49,105,89782,2,0,L|57:181,1,75,4|0,3:0|0:0,0:0:0:0:
141,145,90165,2,0,L|149:221,1,75,0|0,0:0|0:0,0:0:0:0:
233,185,90547,1,8,0:0:0:0:
314,145,90738,1,0,0:0:0:0:
397,170,92122,6,2,L|506:188,2,93.75
310,150,92839,2,0,L|260:141,2,37.5,4|2|2,0:1|0:0|0:0,0:0:0:0:
336,236,93221,5,0,0:0:0:0:
336,236,93412,1,0,0:0:0:0:
397,170,93603,2,0,L|394:93,1,75,8|0,0:0|0:0,0:0:0:0:
313,55,93985,1,0,0:0:0:0:
313,55,94176,1,0,0:0:0:0:
239,107,94367,2,0,L|242:199,1,75,0|0,0:0|0:0,0:0:0:0:
197,260,94750,1,0,3:0:0:0:
133,196,94941,1,0,0:0:0:0:
51,158,95132,2,0,P|46:195|52:231,1,75,8|0,0:0|0:0,0:0:0:0:
39,320,95514,2,0,L|113:305,1,75,4|0,0:1|3:0,0:0:0:0:
197,333,95896,6,0,P|202:296|196:259,1,75,4|0,3:0|0:0,0:0:0:0:
133,196,96279,1,0,0:0:0:0:
133,196,96470,1,0,0:0:0:0:
184,122,96661,2,0,L|265:117,1,75,8|0,0:0|0:0,0:0:0:0:
338,160,97043,1,2,0:0:0:0:
338,160,97234,1,2,0:0:0:0:
419,121,97425,2,0,B|433:152|433:152|421:190,1,75,0|0,0:0|0:0,0:0:0:0:
377,269,97808,1,0,3:0:0:0:
294,233,97999,1,0,0:0:0:0:
209,264,98190,2,0,L|213:338,1,75,8|0,0:0|0:0,0:0:0:0:
301,355,98572,2,0,B|340:369|340:369|377:351,1,75,4|0,0:1|3:0,0:0:0:0:
461,352,98954,6,0,P|470:315|468:278,1,75,4|2,3:0|0:0,0:0:0:0:
431,196,99337,1,0,0:0:0:0:
431,196,99527,1,0,0:0:0:0:
353,241,99719,2,0,L|279:245,1,75,8|0,0:0|0:0,0:0:0:0:
192,216,100101,1,0,0:0:0:0:
192,216,100292,1,0,0:0:0:0:
130,150,100483,2,0,L|54:153,1,75,0|0,0:0|0:0,0:0:0:0:
8,230,100864,1,0,3:0:0:0:
47,310,101055,1,0,0:0:0:0:
123,357,101246,2,0,P|131:320|131:283,1,75,8|0,0:0|0:0,0:0:0:0:
221,277,101630,2,0,P|204:241|174:212,1,75,4|0,0:1|0:0,0:0:0:0:
94,188,102012,6,0,L|90:99,1,75,4|0,3:0|0:0,0:0:0:0:
175,143,102394,2,0,L|182:63,1,75,0|0,0:0|0:0,0:0:0:0:
262,108,102776,2,0,L|255:21,1,75,8|0,0:0|0:0,0:0:0:0:
335,75,103158,2,0,L|338:-9,1,75,2|2,0:0|0:0,0:0:0:0:
415,44,103540,1,0,0:0:0:0:
498,11,103731,1,0,0:0:0:0:
483,99,103922,2,0,L|473:190,1,75,0|0,3:0|0:0,0:0:0:0:
467,263,104304,2,0,P|444:205|337:209,1,150,8|4,0:0|0:1,0:0:0:0:
226,305,105068,6,0,B|245:320|245:320|269:306|282:287,1,75,4|2,3:0|0:0,0:0:0:0:
265,198,105450,1,0,0:0:0:0:
183,235,105641,1,0,0:0:0:0:
97,207,105832,2,0,L|91:124,1,75,8|0,0:0|0:0,0:0:0:0:
131,51,106214,1,0,0:0:0:0:
216,80,106405,1,0,0:0:0:0:
291,31,106596,2,0,L|298:115,1,75,0|0,0:0|0:0,0:0:0:0:
254,185,106979,1,0,3:0:0:0:
254,185,107170,1,0,0:0:0:0:
325,239,107361,2,0,P|363:231|398:211,1,75,8|0,0:0|0:0,0:0:0:0:
393,123,107744,2,0,P|431:131|466:151,1,75,4|0,0:1|3:0,0:0:0:0:
506,305,108125,6,0,L|432:290,1,75,4|0,3:0|0:0,0:0:0:0:
354,335,108508,1,0,0:0:0:0:
287,274,108699,1,0,0:0:0:0:
218,332,108890,2,0,L|143:340,1,75,8|0,0:0|0:0,0:0:0:0:
56,361,109272,1,2,0:0:0:0:
5,286,109463,1,2,0:0:0:0:
71,225,109654,2,0,L|63:150,1,75,0|0,0:0|0:0,0:0:0:0:
25,68,110036,1,0,3:0:0:0:
25,68,110227,1,0,0:0:0:0:
104,24,110419,2,0,P|143:19|183:28,1,75,8|0,0:0|0:0,0:0:0:0:
214,108,110801,2,0,B|210:164|210:164|181:138,1,75,4|0,0:1|3:0,0:0:0:0:
71,138,111183,6,0,L|79:213,1,75,4|2,3:0|0:0,0:0:0:0:
143,277,111565,1,0,0:0:0:0:
223,236,111756,1,0,0:0:0:0:
301,280,111947,2,0,L|306:202,1,75,8|0,0:0|0:0,0:0:0:0:
385,163,112329,1,0,0:0:0:0:
315,106,112520,1,0,0:0:0:0:
376,40,112711,2,0,B|411:52|411:52|461:35,1,75,0|0,0:0|0:0,0:0:0:0:
468,127,113094,1,0,3:0:0:0:
468,127,113285,1,0,0:0:0:0:
385,163,113476,2,0,L|390:252,1,75,8|0,0:0|0:0,0:0:0:0:
428,319,113858,2,0,P|391:325|354:319,1,75,4|0,0:1|3:0,0:0:0:0:
296,250,114240,6,0,L|201:248,1,75,4|0,3:0|0:0,0:0:0:0:
136,279,114622,2,0,B|127:243|127:243|148:183,1,75,0|0,0:0|0:0,0:0:0:0:
224,176,115005,2,0,B|233:212|233:212|212:272,1,75,8|0,0:0|0:0,0:0:0:0:
136,279,115387,2,0,L|41:277,1,75,2|2,0:0|0:0,0:0:0:0:
0,211,115769,1,0,0:0:0:0:
76,164,115960,1,0,0:0:0:0:
9,103,116151,1,0,3:0:0:0:
88,61,116342,1,0,0:0:0:0:
162,111,116533,6,0,P|227:134|264:75,1,150,8|0,0:0|0:0,0:0:0:0:
256,192,117106,12,0,120656,0:0:0:0:
