osu file format v14

[General]
AudioFilename: audio.mp3
AudioLeadIn: 0
PreviewTime: -1
Countdown: 0
SampleSet: Soft
StackLeniency: 0.7
Mode: 2
LetterboxInBreaks: 0
WidescreenStoryboard: 0

[Editor]
DistanceSpacing: 2
BeatDivisor: 3
GridSize: 8
TimelineZoom: 2.899999

[Metadata]
Title:Mercury
TitleUnicode:Mercury
Artist:GHOSTEMANE
ArtistUnicode:GHOSTEMANE
Creator:-Ken
Version:80
Source:
Tags:
BeatmapID:1719340
BeatmapSetID:820126

[Difficulty]
HPDrainRate:5
CircleSize:4
OverallDifficulty:9.6
ApproachRate:9.6
SliderMultiplier:2.5
SliderTickRate:1

[Events]
//Background and Video events
Video,0,"GHOSTEMANE - Mercury.mp4"
0,0,"81de0b67fe7b40d87abbf5f01410ca8a-700.jpg",0,0
//Break Periods
//Storyboard Layer 0 (Background)
//Storyboard Layer 1 (Fail)
//Storyboard Layer 2 (Pass)
//Storyboard Layer 3 (Foreground)
//Storyboard Sound Samples

[TimingPoints]
6208,382.165605095541,4,2,0,76,1,0
30666,-100,4,1,0,100,0,0
31048,-100,4,1,0,100,0,0
54743,-100,4,2,0,100,0,0
61239,-100,4,1,0,100,0,0
67354,-50,4,1,0,100,0,0
78055,-66.6666666666667,4,1,0,100,0,0
78819,-100,4,1,0,100,0,0
80539,382.165605095541,4,1,0,100,1,0

[Colours]
Combo1 : 255,255,255
Combo2 : 0,0,0

[HitObjects]
344,240,18819,5,0,0:0:0:0:
192,232,19010,1,0,0:0:0:0:
352,192,19201,1,0,0:0:0:0:
40,208,19392,1,0,0:0:0:0:
352,200,19583,5,0,0:0:0:0:
240,168,19774,1,0,0:0:0:0:
488,176,19965,1,0,0:0:0:0:
472,80,20157,1,0,0:0:0:0:
80,216,20348,1,0,0:0:0:0:
400,232,20539,1,0,0:0:0:0:
112,288,20730,5,0,0:0:0:0:
408,304,20921,2,0,L|464:304,2,41.6666666666667
120,288,21112,2,0,P|64:256|48:184,1,125
368,184,21494,1,0,0:0:0:0:
176,184,21876,5,0,0:0:0:0:
328,144,22067,1,0,0:0:0:0:
128,136,22258,5,0,0:0:0:0:
464,80,22450,1,0,0:0:0:0:
320,104,22641,1,0,0:0:0:0:
464,80,22832,1,0,0:0:0:0:
176,272,23023,1,0,0:0:0:0:
320,264,23214,1,0,0:0:0:0:
176,272,23405,2,0,L|320:272,1,125
8,256,23787,1,0,0:0:0:0:
176,256,23978,2,0,L|301:256,2,125
48,256,24551,6,0,L|40:208,2,41.6666666666667
208,256,24743,6,0,L|360:256,1,125
208,256,25125,1,0,0:0:0:0:
376,192,25316,1,0,0:0:0:0:
56,144,25507,1,0,0:0:0:0:
368,296,25698,1,0,0:0:0:0:
224,304,25889,1,0,0:0:0:0:
304,264,26080,5,0,0:0:0:0:
144,256,26271,1,0,0:0:0:0:
272,200,26462,1,0,0:0:0:0:
88,216,26653,1,0,0:0:0:0:
400,192,26844,1,0,0:0:0:0:
96,152,27036,1,0,0:0:0:0:
448,200,27227,6,0,L|488:64,1,125
256,256,27609,5,0,0:0:0:0:
128,216,27800,2,0,L|264:216,2,125
440,192,28373,1,0,0:0:0:0:
280,224,28564,2,0,L|405:224,2,125
120,216,29137,1,0,0:0:0:0:
56,312,29329,1,0,0:0:0:0:
320,272,29520,1,0,0:0:0:0:
312,200,29711,1,0,0:0:0:0:
128,176,29902,1,0,0:0:0:0:
512,200,30666,5,0,0:0:0:0:
496,192,30666,5,0,0:0:0:0:
496,184,30666,5,0,0:0:0:0:
496,184,30666,5,0,0:0:0:0:
512,200,30666,5,0,0:0:0:0:
480,184,30666,5,0,0:0:0:0:
0,216,31048,5,0,0:0:0:0:
144,192,31239,1,0,0:0:0:0:
0,256,31430,1,0,0:0:0:0:
480,224,31622,1,0,0:0:0:0:
184,288,31813,1,0,0:0:0:0:
472,168,32004,1,0,0:0:0:0:
112,192,32195,1,0,0:0:0:0:
264,224,32386,5,0,0:0:0:0:
16,112,32577,1,0,0:0:0:0:
472,96,32768,1,0,0:0:0:0:
48,256,32959,1,0,0:0:0:0:
432,264,33150,2,0,L|440:200,1,62.5
168,200,33341,1,0,0:0:0:0:
304,176,33532,1,0,0:0:0:0:
16,184,33723,5,0,0:0:0:0:
0,200,33723,5,0,0:0:0:0:
32,184,33723,5,0,0:0:0:0:
0,200,33723,5,0,0:0:0:0:
16,192,33723,5,0,0:0:0:0:
16,184,33723,5,0,0:0:0:0:
512,224,34106,5,0,0:0:0:0:
368,272,34297,1,0,0:0:0:0:
0,272,34488,5,0,0:0:0:0:
368,272,34679,1,0,0:0:0:0:
88,216,34870,1,0,0:0:0:0:
456,160,35061,1,0,0:0:0:0:
296,176,35252,5,0,0:0:0:0:
464,152,35443,1,0,0:0:0:0:
128,112,35634,1,0,0:0:0:0:
488,56,35825,1,0,0:0:0:0:
32,224,36016,5,0,0:0:0:0:
192,216,36207,1,0,0:0:0:0:
504,200,36399,1,0,0:0:0:0:
344,208,36590,1,0,0:0:0:0:
0,200,36781,5,0,0:0:0:0:
16,192,36781,5,0,0:0:0:0:
16,184,36781,5,0,0:0:0:0:
16,184,36781,5,0,0:0:0:0:
0,200,36781,5,0,0:0:0:0:
32,184,36781,5,0,0:0:0:0:
504,256,37163,5,0,0:0:0:0:
512,160,37354,1,0,0:0:0:0:
136,168,37545,1,0,0:0:0:0:
440,152,37736,1,0,0:0:0:0:
16,256,37927,1,0,0:0:0:0:
8,160,38118,1,0,0:0:0:0:
360,152,38309,5,0,0:0:0:0:
208,128,38500,1,0,0:0:0:0:
480,160,38692,1,0,0:0:0:0:
160,184,38883,1,0,0:0:0:0:
480,40,39074,1,0,0:0:0:0:
32,256,39456,1,0,0:0:0:0:
496,184,39838,5,0,0:0:0:0:
512,200,39838,5,0,0:0:0:0:
480,184,39838,5,0,0:0:0:0:
512,200,39838,5,0,0:0:0:0:
496,192,39838,5,0,0:0:0:0:
496,184,39838,5,0,0:0:0:0:
240,192,40029,5,0,0:0:0:0:
512,136,40220,1,0,0:0:0:0:
64,144,40411,1,0,0:0:0:0:
496,80,40602,1,0,0:0:0:0:
336,104,40793,1,0,0:0:0:0:
512,160,40985,1,0,0:0:0:0:
72,272,41176,1,0,0:0:0:0:
440,248,41367,5,0,0:0:0:0:
464,120,41558,1,0,0:0:0:0:
72,248,41749,1,0,0:0:0:0:
472,168,41940,1,0,0:0:0:0:
8,136,42131,1,0,0:0:0:0:
496,80,42513,1,0,0:0:0:0:
0,200,42895,5,0,0:0:0:0:
16,192,42895,5,0,0:0:0:0:
16,184,42895,5,0,0:0:0:0:
16,184,42895,5,0,0:0:0:0:
0,200,42895,5,0,0:0:0:0:
32,184,42895,5,0,0:0:0:0:
360,256,43086,5,0,0:0:0:0:
200,272,43278,1,0,0:0:0:0:
272,216,43469,1,0,0:0:0:0:
0,224,43660,1,0,0:0:0:0:
312,176,43851,1,0,0:0:0:0:
32,144,44042,1,0,0:0:0:0:
184,104,44233,1,0,0:0:0:0:
32,184,44424,1,0,0:0:0:0:
496,176,44806,5,0,0:0:0:0:
368,216,44997,1,0,0:0:0:0:
488,136,45188,1,0,0:0:0:0:
72,240,45379,1,0,0:0:0:0:
416,240,45571,1,0,0:0:0:0:
48,152,45762,1,0,0:0:0:0:
496,184,45953,5,0,0:0:0:0:
512,200,45953,5,0,0:0:0:0:
480,184,45953,5,0,0:0:0:0:
512,200,45953,5,0,0:0:0:0:
496,192,45953,5,0,0:0:0:0:
496,184,45953,5,0,0:0:0:0:
360,184,46144,5,0,0:0:0:0:
88,200,46335,2,0,P|32:120|40:56,1,125
384,248,46717,2,0,P|448:208|456:112,1,125
80,160,47099,5,0,0:0:0:0:
360,104,47290,1,0,0:0:0:0:
40,272,47481,1,0,0:0:0:0:
216,208,47672,1,0,0:0:0:0:
104,224,47864,1,0,0:0:0:0:
224,264,48055,1,0,0:0:0:0:
40,272,48246,1,0,0:0:0:0:
224,208,48437,1,0,0:0:0:0:
32,192,48628,1,0,0:0:0:0:
456,152,48819,1,0,0:0:0:0:
384,152,48915,1,0,0:0:0:0:
96,144,49010,5,0,0:0:0:0:
104,152,49010,5,0,0:0:0:0:
104,144,49010,5,0,0:0:0:0:
104,144,49010,5,0,0:0:0:0:
104,144,49010,5,0,0:0:0:0:
112,144,49010,5,0,0:0:0:0:
368,96,49201,1,0,0:0:0:0:
112,72,49392,5,0,0:0:0:0:
280,72,49488,1,0,0:0:0:0:
448,64,49583,1,0,0:0:0:0:
152,96,49774,2,0,L|152:264,1,125
344,208,50348,5,0,0:0:0:0:
112,192,50443,1,0,0:0:0:0:
344,208,50539,1,0,0:0:0:0:
0,144,50730,1,0,0:0:0:0:
368,184,51112,6,0,L|280:184,1,62.5
64,208,51303,1,0,0:0:0:0:
448,112,51494,1,0,0:0:0:0:
88,144,51685,1,0,0:0:0:0:
488,208,51876,1,0,0:0:0:0:
152,240,52067,5,0,0:0:0:0:
152,240,52067,5,0,0:0:0:0:
160,240,52067,5,0,0:0:0:0:
144,240,52067,5,0,0:0:0:0:
152,248,52067,5,0,0:0:0:0:
152,240,52067,5,0,0:0:0:0:
288,216,52258,1,0,0:0:0:0:
152,192,52450,2,0,L|144:112,1,62.5
352,96,52641,1,0,0:0:0:0:
64,192,52832,2,0,L|48:40,1,125
400,232,53214,2,0,L|424:64,1,125
112,168,53596,5,0,0:0:0:0:
272,152,53787,1,0,0:0:0:0:
24,304,53978,1,0,0:0:0:0:
384,240,54169,1,0,0:0:0:0:
56,208,54360,1,0,0:0:0:0:
440,112,54551,1,0,0:0:0:0:
56,136,54743,6,0,L|224:136,2,125
160,136,55220,1,0,0:0:0:0:
56,136,55316,1,0,0:0:0:0:
224,224,55507,6,0,L|48:224,1,125
328,304,55889,2,0,L|152:304,1,125
424,224,56271,2,0,L|264:224,1,125
0,288,56653,6,0,L|176:288,1,125
296,288,57036,2,0,L|136:288,1,125
400,224,57418,1,0,0:0:0:0:
416,104,57609,1,0,0:0:0:0:
16,136,57800,1,0,0:0:0:0:
176,184,57991,1,0,0:0:0:0:
96,184,58086,1,0,0:0:0:0:
16,184,58182,1,0,0:0:0:0:
424,168,58373,1,0,0:0:0:0:
168,256,58564,1,0,0:0:0:0:
464,240,58755,1,0,0:0:0:0:
168,144,58946,5,0,0:0:0:0:
280,136,59074,1,0,0:0:0:0:
392,128,59201,1,0,0:0:0:0:
88,272,59329,1,0,0:0:0:0:
64,128,59520,1,0,0:0:0:0:
344,240,59711,5,0,0:0:0:0:
248,232,59902,2,0,L|248:88,1,125
448,192,60284,2,0,L|464:40,1,125
128,200,60666,2,0,L|72:64,1,125
304,72,60953,1,0,0:0:0:0:
400,64,61048,1,0,0:0:0:0:
40,256,61239,5,0,0:0:0:0:
416,240,61430,1,0,0:0:0:0:
176,240,61526,1,0,0:0:0:0:
416,240,61622,1,0,0:0:0:0:
416,176,61813,5,0,0:0:0:0:
176,168,61908,1,0,0:0:0:0:
416,176,62004,1,0,0:0:0:0:
416,120,62386,1,0,0:0:0:0:
256,128,62481,1,0,0:0:0:0:
96,128,62577,1,0,0:0:0:0:
384,224,62768,1,0,0:0:0:0:
80,256,63150,5,0,0:0:0:0:
240,224,63246,1,0,0:0:0:0:
80,288,63341,1,0,0:0:0:0:
240,224,63437,1,0,0:0:0:0:
64,224,63532,2,0,L|64:80,1,125
472,200,63915,2,0,L|448:56,1,125
160,256,64297,5,0,0:0:0:0:
432,248,64424,2,0,L|472:152,1,83.3333333333333
327,252,64679,5,0,0:0:0:0:
32,248,64806,2,0,L|-8:152,1,83.3333333333333
392,152,65061,5,0,0:0:0:0:
264,160,65188,1,0,0:0:0:0:
392,152,65316,1,0,0:0:0:0:
128,168,65443,1,0,0:0:0:0:
400,232,65571,1,0,0:0:0:0:
112,232,65698,1,0,0:0:0:0:
488,152,65825,6,0,P|504:216|488:296,1,125
416,272,66112,1,0,0:0:0:0:
192,288,66207,2,0,P|120:280|80:224,1,125
464,152,66590,1,0,0:0:0:0:
216,296,66876,2,0,L|80:160,1,187.5
488,184,67354,6,0,L|-16:184,1,500
471,181,67354,5,0,0:0:0:0:
480,182,67354,5,0,0:0:0:0:
488,184,68118,6,0,L|-16:184,1,500
488,184,68883,6,0,L|-16:184,1,500
488,184,69647,5,0,0:0:0:0:
0,184,70029,1,0,0:0:0:0:
480,182,70411,5,0,0:0:0:0:
471,181,70411,5,0,0:0:0:0:
488,184,70411,6,0,L|-16:184,1,500
500,184,71176,6,0,L|-4:184,1,500
500,184,71940,6,0,L|-4:184,1,500
488,184,72704,5,0,0:0:0:0:
0,184,73086,1,0,0:0:0:0:
488,184,73469,6,0,L|-16:184,1,500
471,181,73469,5,0,0:0:0:0:
480,182,73469,5,0,0:0:0:0:
500,184,74233,6,0,L|-4:184,1,500
500,184,74997,6,0,L|-4:184,1,500
488,184,75762,5,0,0:0:0:0:
0,184,76144,1,0,0:0:0:0:
488,184,76526,6,0,L|-19:182,1,500
480,182,76526,5,0,0:0:0:0:
471,181,76526,5,0,0:0:0:0:
512,184,77290,6,0,L|8:184,1,500
512,184,78055,6,0,L|80:184,1,375.000014305115
512,184,78819,6,0,L|232:184,1,250
408,255,80539,5,0,0:0:0:0:
128,259,80730,5,0,0:0:0:0:
485,165,80921,1,0,0:0:0:0:
124,198,81112,1,0,0:0:0:0:
485,165,81303,1,0,0:0:0:0:
43,171,81685,1,0,0:0:0:0:
237,167,81876,1,0,0:0:0:0:
494,91,82067,1,0,0:0:0:0:
202,102,82258,1,0,0:0:0:0:
507,172,82449,1,0,0:0:0:0:
30,254,82831,5,0,0:0:0:0:
287,178,83022,1,0,0:0:0:0:
31,181,83213,1,0,0:0:0:0:
317,252,83404,1,0,0:0:0:0:
1,285,83596,5,0,0:0:0:0:
316,303,83787,5,0,0:0:0:0:
15,323,83978,1,0,0:0:0:0:
316,303,84169,1,0,0:0:0:0:
10,262,84360,1,0,0:0:0:0:
488,204,84742,1,0,0:0:0:0:
218,247,84933,5,0,0:0:0:0:
195,230,84996,1,0,0:0:0:0:
219,221,85060,1,0,0:0:0:0:
452,149,85124,1,0,0:0:0:0:
137,257,85316,5,0,0:0:0:0:
408,151,85507,1,0,0:0:0:0:
257,129,85698,1,0,0:0:0:0:
409,201,85889,5,0,0:0:0:0:
248,193,86080,1,0,0:0:0:0:
409,201,86271,1,0,0:0:0:0:
248,193,86462,1,0,0:0:0:0:
496,282,86653,5,0,0:0:0:0:
270,297,86749,1,0,0:0:0:0:
365,301,86844,5,0,0:0:0:0:
370,235,86940,1,0,0:0:0:0:
63,241,87035,5,0,0:0:0:0:
59,163,87131,1,0,0:0:0:0:
219,145,87226,5,0,0:0:0:0:
59,163,87322,1,0,0:0:0:0:
219,145,87417,5,0,0:0:0:0:
234,81,87513,1,0,0:0:0:0:
60,103,87609,1,0,0:0:0:0:
260,128,87895,6,0,L|472:129,2,187.5
429,68,88660,6,0,L|217:69,2,187.5
220,131,89424,2,0,L|407:131,1,187.5
251,215,89806,5,0,0:0:0:0:
432,218,89902,1,0,0:0:0:0:
253,280,89997,1,0,0:0:0:0:
422,167,90093,1,0,0:0:0:0:
458,106,90188,1,0,0:0:0:0:
141,214,90284,1,0,0:0:0:0:
106,151,90379,1,0,0:0:0:0:
357,106,90475,1,0,0:0:0:0:
62,92,90666,5,0,0:0:0:0:
106,90,90714,1,0,0:0:0:0:
150,90,90761,1,0,0:0:0:0:
62,92,90905,5,0,0:0:0:0:
106,90,90953,1,0,0:0:0:0:
150,90,91000,1,0,0:0:0:0:
62,92,91144,5,0,0:0:0:0:
106,90,91192,1,0,0:0:0:0:
150,90,91239,1,0,0:0:0:0:
62,92,91382,5,0,0:0:0:0:
106,90,91430,1,0,0:0:0:0:
150,90,91477,1,0,0:0:0:0:
260,90,91621,1,0,0:0:0:0:
145,259,91812,5,0,0:0:0:0:
360,257,92003,5,0,0:0:0:0:
360,257,92027,1,0,0:0:0:0:
360,248,92051,1,0,0:0:0:0:
22,170,92290,1,0,0:0:0:0:
22,170,92314,1,0,0:0:0:0:
22,170,92338,1,0,0:0:0:0:
411,203,92529,1,0,0:0:0:0:
411,203,92553,1,0,0:0:0:0:
411,203,92577,1,0,0:0:0:0:
139,240,92768,6,0,L|96:242,3,41.6666666666667
408,115,93150,5,0,0:0:0:0:
305,190,93341,1,0,0:0:0:0:
472,108,93532,1,0,0:0:0:0:
132,197,93723,1,0,0:0:0:0:
254,187,93914,1,0,0:0:0:0:
88,144,94105,1,0,0:0:0:0:
292,153,94296,2,0,L|265:20,1,125
112,228,94679,1,0,0:0:0:0:
292,215,94870,1,0,0:0:0:0:
2,311,95061,5,0,0:0:0:0:
470,246,95443,1,0,0:0:0:0:
0,200,95825,5,0,0:0:0:0:
16,192,95825,5,0,0:0:0:0:
16,184,95825,5,0,0:0:0:0:
16,184,95825,5,0,0:0:0:0:
0,200,95825,5,0,0:0:0:0:
32,184,95825,5,0,0:0:0:0:
505,175,96207,5,0,0:0:0:0:
205,157,96398,1,0,0:0:0:0:
319,123,96589,1,0,0:0:0:0:
5,113,96781,1,0,0:0:0:0:
319,123,96972,1,0,0:0:0:0:
205,157,97163,1,0,0:0:0:0:
505,175,97354,1,0,0:0:0:0:
135,249,97545,1,0,0:0:0:0:
461,219,97736,5,0,0:0:0:0:
163,166,97927,1,0,0:0:0:0:
444,215,98118,1,0,0:0:0:0:
190,238,98309,1,0,0:0:0:0:
22,225,98372,1,0,0:0:0:0:
23,184,98436,1,0,0:0:0:0:
316,161,98500,1,0,0:0:0:0:
432,158,98691,1,0,0:0:0:0:
16,184,98882,5,0,0:0:0:0:
0,200,98882,5,0,0:0:0:0:
32,184,98882,5,0,0:0:0:0:
0,200,98882,5,0,0:0:0:0:
16,192,98882,5,0,0:0:0:0:
16,184,98882,5,0,0:0:0:0:
495,248,99265,5,0,0:0:0:0:
239,248,99456,1,0,0:0:0:0:
495,248,99647,1,0,0:0:0:0:
123,250,99838,2,0,L|93:114,2,125
495,248,100411,1,0,0:0:0:0:
181,257,100602,1,0,0:0:0:0:
445,242,100793,2,0,P|482:183|472:104,1,125
19,128,101175,5,0,0:0:0:0:
508,124,101558,1,0,0:0:0:0:
24,215,101940,5,0,0:0:0:0:
40,207,101940,5,0,0:0:0:0:
40,199,101940,5,0,0:0:0:0:
40,199,101940,5,0,0:0:0:0:
24,215,101940,5,0,0:0:0:0:
56,199,101940,5,0,0:0:0:0:
195,190,102131,1,0,0:0:0:0:
488,188,102322,1,0,0:0:0:0:
151,195,102513,1,0,0:0:0:0:
473,192,102704,6,0,L|308:198,2,125
114,121,103277,1,0,0:0:0:0:
413,88,103468,6,0,L|519:199,1,125
80,89,103851,2,0,L|74:231,1,125
497,133,104233,1,0,0:0:0:0:
12,147,104615,1,0,0:0:0:0:
496,199,104997,5,0,0:0:0:0:
512,215,104997,5,0,0:0:0:0:
480,199,104997,5,0,0:0:0:0:
512,215,104997,5,0,0:0:0:0:
496,207,104997,5,0,0:0:0:0:
15,217,105379,5,0,0:0:0:0:
171,200,105570,1,0,0:0:0:0:
497,217,105761,5,0,0:0:0:0:
341,200,105952,1,0,0:0:0:0:
52,205,106144,1,0,0:0:0:0:
472,155,106335,1,0,0:0:0:0:
160,149,106526,1,0,0:0:0:0:
301,109,106717,1,0,0:0:0:0:
29,262,106908,1,0,0:0:0:0:
372,255,107099,1,0,0:0:0:0:
31,177,107290,5,0,0:0:0:0:
503,181,107672,1,0,0:0:0:0:
6,218,108054,5,0,0:0:0:0:
22,210,108054,5,0,0:0:0:0:
6,218,108054,5,0,0:0:0:0:
37,204,108054,5,0,0:0:0:0:
494,148,108437,5,0,0:0:0:0:
365,156,108628,1,0,0:0:0:0:
32,157,108819,1,0,0:0:0:0:
494,148,109010,2,0,L|337:152,2,125
58,204,109583,1,0,0:0:0:0:
388,193,109774,1,0,0:0:0:0:
58,204,109965,2,0,L|228:201,2,125
230,194,110538,5,0,0:0:0:0:
423,154,110601,1,0,0:0:0:0:
421,118,110665,1,0,0:0:0:0:
137,116,110729,1,0,0:0:0:0:
12,123,110921,5,0,0:0:0:0:
506,218,111112,5,0,0:0:0:0:
475,204,111112,5,0,0:0:0:0:
506,218,111112,5,0,0:0:0:0:
490,210,111112,5,0,0:0:0:0:
28,250,111494,5,0,0:0:0:0:
331,203,111685,1,0,0:0:0:0:
21,188,111876,1,0,0:0:0:0:
436,148,112067,1,0,0:0:0:0:
171,147,112258,1,0,0:0:0:0:
436,148,112449,1,0,0:0:0:0:
65,166,112640,2,0,L|71:314,1,125
459,199,113023,5,0,0:0:0:0:
20,198,113405,1,0,0:0:0:0:
468,175,113787,1,0,0:0:0:0:
6,218,114169,5,0,0:0:0:0:
22,210,114169,5,0,0:0:0:0:
6,218,114169,5,0,0:0:0:0:
37,204,114169,5,0,0:0:0:0:
204,180,114360,1,0,0:0:0:0:
40,143,114551,1,0,0:0:0:0:
410,122,114742,5,0,0:0:0:0:
69,81,114933,1,0,0:0:0:0:
410,122,115124,2,0,L|259:124,2,125
19,280,115698,2,0,L|177:277,2,125
466,263,116271,1,0,0:0:0:0:
256,192,116462,12,0,117991,0:0:0:0:
256,192,117991,12,0,118246,0:0:0:0:
256,192,118246,12,0,118500,0:0:0:0:
256,192,118500,12,0,118755,0:0:0:0:
256,192,118755,12,0,119010,0:0:0:0:
256,192,119010,12,0,119265,0:0:0:0:
256,192,119265,12,0,119520,0:0:0:0:
256,192,119519,12,0,119774,0:0:0:0:
256,192,119774,12,0,120029,0:0:0:0:
256,192,119774,12,0,120029,0:0:0:0:
256,192,119774,12,0,120029,0:0:0:0:
256,192,119774,12,0,120029,0:0:0:0:
256,192,119774,12,0,120029,0:0:0:0:
256,192,119774,12,0,120029,0:0:0:0:
256,192,120029,12,0,120284,0:0:0:0:
256,192,120029,12,0,120284,0:0:0:0:
256,192,120029,12,0,120284,0:0:0:0:
256,192,120029,12,0,120284,0:0:0:0:
256,192,120029,12,0,120284,0:0:0:0:
256,192,120029,12,0,120284,0:0:0:0:
256,192,120284,12,0,120539,0:0:0:0:
256,192,120284,12,0,120539,0:0:0:0:
256,192,120284,12,0,120539,0:0:0:0:
256,192,120538,12,0,120793,0:0:0:0:
256,192,120538,12,0,120793,0:0:0:0:
256,192,120538,12,0,120793,0:0:0:0:
256,192,120793,12,0,121048,0:0:0:0:
256,192,121048,12,0,121303,0:0:0:0:
256,192,121303,12,0,121558,0:0:0:0:
256,192,121558,12,0,121813,0:0:0:0:
