osu file format v14

[General]
AudioFilename: audio.mp3
AudioLeadIn: 0
PreviewTime: -1
Countdown: 1
SampleSet: Normal
StackLeniency: 0.7
Mode: 0
LetterboxInBreaks: 0
WidescreenStoryboard: 0

[Editor]
Bookmarks: 15108
DistanceSpacing: 0.8
BeatDivisor: 4
GridSize: 32
TimelineZoom: 1.5

[Metadata]
Title:Hexada
TitleUnicode:Hexada
Artist:GHOSTEMANE
ArtistUnicode:GHOSTEMANE
Creator:dota2thebest
Version:Insane
Source:
Tags:
BeatmapID:1786274
BeatmapSetID:854849

[Difficulty]
HPDrainRate:10
CircleSize:7
OverallDifficulty:10
ApproachRate:10
SliderMultiplier:1.4
SliderTickRate:1

[Events]
//Background and Video events
0,0,"big_1517227776_image.jpg",0,0
//Break Periods
//Storyboard Layer 0 (Background)
//Storyboard Layer 1 (Fail)
//Storyboard Layer 2 (Pass)
//Storyboard Layer 3 (Foreground)
//Storyboard Sound Samples

[TimingPoints]
-32.5088564232392,571.428571428571,4,1,0,100,1,0
67.4911435767608,-100,4,1,0,100,0,0
8608.8138425862,285.714285714286,4,1,0,100,1,0
15465,-66.6666666666667,4,1,0,100,0,0
30323,-100,4,1,0,100,0,0

[HitObjects]
256,96,538,6,0,L|256:256,2,140
416,288,2253,1,0,0:0:0:0:
128,64,2824,2,0,L|128:224,2,140
448,64,4538,1,0,0:0:0:0:
256,96,5110,2,0,P|256:192|288:192,2,140
256,288,6824,1,0,0:0:0:0:
256,64,7396,1,0,0:0:0:0:
256,192,7967,1,8,0:0:0:0:
128,192,8538,6,12,P|128:64|160:64,1,140
352,288,9465,1,4,0:0:0:0:
191,191,9681,2,10,P|191:95|159:63,1,140
165,67,10253,1,0,0:0:0:0:
128,320,10894,2,10,B|96:288|128:224|64:192,1,140
416,64,11465,1,0,0:0:0:0:
448,320,11751,2,10,L|320:224,1,140
64,64,12323,2,10,P|96:128|128:96,1,140
256,192,13037,5,0,0:0:0:0:
256,224,13180,2,10,L|128:320,1,140
96,192,13608,1,0,0:0:0:0:
96,160,13751,2,10,L|224:64,1,140
256,192,14180,1,4,0:0:0:0:
384,96,14323,1,4,0:0:0:0:
128,96,14465,1,4,0:0:0:0:
416,320,14608,2,10,P|352:288|288:320,1,140
96,64,15180,1,4,0:0:0:0:
416,64,15465,2,0,P|416:160|320:192,1,210.000008010865
256,288,16037,2,0,L|256:128,1,157.500006008148
256,128,16608,2,2,L|256:224,9,52.5000020027161
256,180,17323,2,0,L|256:256,5,52.5000020027161
384,64,17894,2,10,P|416:128|416:160,1,105.000004005432
96,320,18180,1,0,0:0:0:0:
288,192,18608,2,10,P|288:96|224:64,2,157.500006008148
128,96,19108,2,2,P|192:160|128:256,1,210.000008010865
64,64,19680,1,4,0:0:0:0:
256,192,19965,1,4,0:0:0:0:
64,320,20251,1,4,0:0:0:0:
160,192,21180,6,0,P|320:192|288:192,1,157.500006008148
320,288,21465,2,10,L|160:288,1,157.500006008148
160,96,21751,2,0,L|320:96,1,157.500006008148
64,288,22037,2,0,L|64:128,1,157.500006008148
416,128,22323,2,10,L|416:288,1,157.500006008148
96,192,22608,2,0,P|96:96|160:32,1,157.500006008148
128,96,23180,5,4,0:0:0:0:
384,288,23323,1,4,0:0:0:0:
183,263,23465,2,0,B|247:231|279:135|343:71,1,210.000008010865
256,64,24037,1,0,0:0:0:0:
448,192,24323,2,10,P|448:128|352:64,1,157.500006008148
64,192,24608,2,0,P|64:256|128:320,1,157.500006008148
288,256,24894,2,0,P|288:192|192:224,1,157.500006008148
96,64,25465,1,8,0:0:0:0:
352,256,25751,2,0,L|352:192,2,52.5000020027161
128,256,25965,2,0,L|128:192,5,52.5000020027161
256,64,26394,2,10,P|352:64|384:128,1,157.500006008148
320,160,26680,1,10,0:0:0:0:
448,64,27465,6,10,B|320:32|256:160|416:224|160:224|128:32|96:32,1,420.000016021729
119,54,28323,1,8,0:0:0:0:
32,192,28608,1,0,0:0:0:0:
480,192,28894,1,0,0:0:0:0:
256,32,29180,1,8,0:0:0:0:
256,320,29465,1,0,0:0:0:0:
256,192,29751,2,0,B|320:96|320:256|320:288|448:256,1,210.000008010865
96,320,30323,2,10,B|128:160|208:277|187:42|288:160,1,280
268,140,30965,1,0,0:0:0:0:
448,64,31394,1,0,0:0:0:0:
448,64,31465,2,0,L|352:128,2,105
448,192,32037,1,0,0:0:0:0:
448,192,32108,2,0,P|384:224|320:192,1,140
160,96,32537,1,0,0:0:0:0:
256,128,32608,2,0,P|256:224|224:224,1,140
160,224,32894,2,0,P|128:256|128:288,1,70
416,320,33180,2,0,P|384:288|288:256,1,140
96,64,33751,6,0,L|96:192,1,105
256,352,34037,2,0,L|256:224,1,105
416,64,34323,2,0,L|416:192,1,105
128,192,34608,2,0,L|160:96,2,70
416,288,34965,2,0,L|352:224,1,70
384,64,35180,2,0,L|288:128,1,105
256,224,35465,2,0,P|256:288|192:320,1,140
192,64,35823,2,0,P|128:64|96:96,1,105
