osu file format v14

[General]
AudioFilename: audio.mp3
AudioLeadIn: 0
PreviewTime: 80547
Countdown: 0
SampleSet: Normal
StackLeniency: 0.4
Mode: 0
LetterboxInBreaks: 0
WidescreenStoryboard: 0

[Editor]
Bookmarks: 1579,13966,26353,51127,75901,100676,125450,137837,150224,174998,187385,212160,236934,261708,262869
DistanceSpacing: 1
BeatDivisor: 4
GridSize: 8
TimelineZoom: 2

[Metadata]
Title:Doll Princess
TitleUnicode:Doll Princess
Artist:GHOST DATA
ArtistUnicode:GHOST DATA
Creator:-Tochi
Version:Ex
Source:
Tags:Oishii Symphony
BeatmapID:1909533
BeatmapSetID:914229

[Difficulty]
HPDrainRate:6
CircleSize:4.2
OverallDifficulty:8
ApproachRate:9.4
SliderMultiplier:2
SliderTickRate:2

[Events]
//Background and Video events
0,0,"bg.jpg",0,0
//Break Periods
2,113263,124676
//Storyboard Layer 0 (Background)
//Storyboard Layer 1 (Fail)
//Storyboard Layer 2 (Pass)
//Storyboard Layer 3 (Foreground)
//Storyboard Sound Samples

[TimingPoints]
31,387.096774193548,4,1,1,30,1,0
1579,-166.666666666667,4,1,1,30,0,0
3127,-250.000000000001,4,1,1,30,0,0
5063,-166.666666666667,4,1,1,30,0,0
6224,-250.000000000001,4,1,1,30,0,0
7772,-166.666666666667,4,1,1,30,0,0
9321,-250.000000000001,4,1,1,30,0,0
11256,-166.666666666667,4,1,1,30,0,0
12418,-250.000000000001,4,1,1,30,0,0
13966,-166.666666666667,4,1,1,30,0,0
18611,-250.000000000001,4,1,1,30,0,0
20160,-166.666666666667,4,1,1,30,0,0
22289,-250.000000000001,4,1,1,30,0,0
23256,-166.666666666667,4,1,1,30,0,0
25385,-250.000000000001,4,1,1,30,0,0
26353,-125,4,2,1,40,0,0
50353,-125,4,1,1,40,0,0
50740,-125,4,3,1,40,0,0
51127,-58.8235294117647,4,1,1,60,0,1
52482,-50,4,1,1,60,0,1
53643,-142.857142857143,4,2,1,40,0,1
54224,-58.8235294117647,4,1,1,60,0,1
55579,-50,4,1,1,60,0,1
56547,-200,4,1,1,60,0,1
57224,-200,4,1,1,5,0,1
57321,-58.8235294117647,4,1,1,60,0,1
58676,-50,4,1,1,60,0,1
59643,-100,4,1,1,60,0,1
60321,-100,4,1,1,5,0,1
60418,-58.8235294117647,4,1,1,60,0,1
61772,-50,4,1,1,60,0,1
63514,-58.8235294117647,4,1,1,60,0,1
64869,-50,4,1,1,60,0,1
66030,-142.857142857143,4,2,1,60,0,1
66611,-58.8235294117647,4,1,1,60,0,1
67966,-50,4,1,1,60,0,1
68934,-200,4,1,1,60,0,1
69611,-200,4,1,1,5,0,1
69708,-58.8235294117647,4,1,1,60,0,1
71063,-50,4,1,1,60,0,1
72030,-100,4,1,1,60,0,1
72708,-100,4,1,1,5,0,1
72805,-58.8235294117647,4,1,1,60,0,1
74353,-142.857142857143,4,1,1,60,0,0
74740,-111.111111111111,4,1,1,60,0,0
75901,-66.6666666666666,4,1,1,60,0,1
78998,-58.8235294117647,4,1,1,60,0,1
79966,-66.6666666666667,4,1,1,60,0,1
80934,-58.8235294117647,4,1,1,60,0,1
81901,-66.6666666666667,4,1,1,60,0,1
84030,-58.8235294117647,4,1,1,60,0,1
84998,-66.6666666666667,4,1,1,60,0,1
85192,-58.8235294117647,4,1,1,60,0,1
85966,-66.6666666666667,4,1,1,60,0,1
86740,-58.8235294117647,4,1,1,60,0,0
88289,-41.6666666666667,4,1,1,60,0,1
88676,-50,4,1,1,60,0,1
89256,-66.6666666666667,4,1,1,60,0,1
91772,-50,4,1,1,60,0,1
92353,-66.6666666666667,4,1,1,60,0,1
96418,-50,4,1,1,60,0,1
96998,-66.6666666666667,4,1,1,60,0,1
97579,-50,4,1,1,60,0,1
97966,-66.6666666666667,4,1,1,60,0,1
99127,-50,4,1,1,60,0,1
100676,-50,4,1,1,60,0,0
101837,-50,4,1,1,50,0,0
102998,-166.666666666667,4,1,1,40,0,0
103772,-166.666666666667,4,1,1,60,0,0
107450,-166.666666666667,4,1,1,50,0,0
108030,-166.666666666667,4,1,1,40,0,0
108611,-166.666666666667,4,1,1,30,0,0
109966,-166.666666666667,4,1,1,60,0,0
110547,-166.666666666667,4,1,1,40,0,0
111514,-166.666666666667,4,1,1,60,0,0
125450,-125,4,1,1,40,0,0

[Colours]
Combo1 : 226,101,69
Combo2 : 68,151,200
Combo3 : 223,141,117
Combo4 : 74,113,213

[HitObjects]
203,137,1579,6,0,L|134:124,1,59.9999981689454,2|2,0:0|0:0,0:0:0:0:
131,105,1966,2,0,L|270:89,1,119.999996337891,2|0,0:0|0:0,0:0:0:0:
308,159,2547,2,0,L|447:175,1,119.999996337891,2|0,0:0|0:0,0:0:0:0:
465,245,3127,6,0,P|427:261|380:260,1,80,2|0,0:0|0:0,0:0:0:0:
298,268,3708,2,0,P|335:253|375:252,1,80,2|0,0:0|0:0,0:0:0:0:
395,352,4289,2,0,P|379:314|380:267,1,80,2|2,0:0|0:0,0:0:0:0:
425,187,4869,1,2,0:0:0:0:
425,187,5063,6,0,P|369:155|302:155,1,119.999996337891,2|0,0:0|0:0,0:0:0:0:
223,138,5643,2,0,P|279:106|346:106,1,119.999996337891,2|0,0:0|0:0,0:0:0:0:
317,260,6224,6,0,P|277:257|243:236,1,80,2|0,0:0|0:0,0:0:0:0:
305,185,6805,2,0,P|343:181|388:187,1,80,2|0,0:0|0:0,0:0:0:0:
223,138,7385,1,2,0:0:0:0:
53,340,7772,6,0,L|42:280,1,59.9999981689454,2|2,0:0|0:0,0:0:0:0:
132,285,8160,2,0,P|141:225|143:165,1,119.999996337891,2|0,0:0|0:0,0:0:0:0:
63,151,8740,2,0,P|53:91|51:31,1,119.999996337891,2|0,0:0|0:0,0:0:0:0:
161,20,9321,6,0,L|251:33,1,80,2|0,0:0|0:0,0:0:0:0:
349,126,9901,2,0,L|270:115,1,80,2|0,0:0|0:0,0:0:0:0:
379,210,10482,2,0,L|458:221,1,80,2|2,0:0|0:0,0:0:0:0:
427,319,11063,1,2,0:0:0:0:
427,319,11256,6,0,P|361:315|306:336,1,119.999996337891,2|0,0:0|0:0,0:0:0:0:
210,296,11837,2,0,P|276:292|331:313,1,119.999996337891,2|0,0:0|0:0,0:0:0:0:
378,209,12418,6,0,P|416:196|456:200,1,80,2|0,0:0|0:0,0:0:0:0:
316,149,12998,2,0,P|276:152|238:139,1,80,2|0,0:0|0:0,0:0:0:0:
425,280,13579,1,2,0:0:0:0:
167,75,13966,6,0,B|213:-4|63:-9|44:89|160:142|309:193|101:316|69:284|13:208|63:121,2,479.999985351563,4|0|0,0:2|0:0|0:0,0:0:0:0:
182,158,17450,2,0,L|315:178,1,119.999996337891,2|0,0:0|0:0,0:0:0:0:
304,200,18030,2,0,L|185:217,1,119.999996337891,2|0,0:0|0:0,0:0:0:0:
300,175,18611,6,0,L|390:188,1,80,2|0,0:0|0:0,0:0:0:0:
404,206,19192,2,0,L|310:220,1,80,2|0,0:0|0:0,0:0:0:0:
481,194,19772,1,2,0:0:0:0:
290,37,20160,6,0,L|205:27,1,59.9999981689454,2|2,0:0|0:0,0:0:0:0:
256,192,20547,5,2,0:0:0:0:
290,347,20934,2,0,L|230:354,2,59.9999981689454,0|2|0,0:0|0:0|0:0,0:0:0:0:
256,192,21708,6,0,P|197:186|133:174,1,119.999996337891,2|0,0:0|0:0,0:0:0:0:
56,171,22289,2,0,P|98:163|140:158,1,80,2|0,0:0|0:0,0:0:0:0:
56,171,22869,1,2,0:0:0:0:
411,226,23256,2,0,L|421:141,1,59.9999981689454,2|2,0:0|0:0,0:0:0:0:
256,192,23643,5,2,0:0:0:0:
101,226,24030,2,0,L|93:166,2,59.9999981689454,0|2|0,0:0|0:0|0:0,0:0:0:0:
256,192,24805,6,0,P|264:141|270:68,1,119.999996337891,2|0,0:0|0:0,0:0:0:0:
239,0,25385,2,0,P|244:39|248:79,1,80,2|0,0:0|0:0,0:0:0:0:
239,0,25966,1,2,0:0:0:0:
441,296,26353,5,0,1:0:0:0:
421,291,26450,1,0,0:0:0:0:
401,286,26547,1,0,0:0:0:0:
326,329,26740,2,0,L|280:334,2,40,2|0|2,1:2|0:0|0:0,0:0:0:0:
437,199,27127,2,0,L|451:99,1,80,0|0,1:0|0:0,0:0:0:0:
165,16,27514,1,0,1:0:0:0:
165,16,27708,2,0,L|73:27,1,80,0|0,1:0|1:0,0:0:0:0:
256,192,28095,1,0,1:0:0:0:
176,201,28289,2,0,L|136:205,2,40,2|0|2,1:2|0:0|0:2,0:0:0:0:
267,377,28676,2,0,L|347:368,1,80,0|0,1:0|0:0,0:0:0:0:
366,366,28966,1,0,1:0:0:0:
349,355,29063,1,0,1:0:0:0:
185,354,29256,1,0,1:0:0:0:
482,301,29450,5,0,1:0:0:0:
415,260,29643,1,0,0:0:0:0:
403,276,29740,1,0,0:0:0:0:
405,295,29837,2,0,L|456:303,2,40,2|0|2,1:2|0:0|0:0,0:0:0:0:
210,122,30224,2,0,L|298:110,1,80,0|0,1:0|0:0,0:0:0:0:
185,354,30611,1,0,1:0:0:0:
185,354,30805,2,0,L|105:343,1,80,0|0,1:0|1:0,0:0:0:0:
267,213,31192,5,0,1:0:0:0:
187,202,31385,2,0,L|142:195,2,40,2|0|2,1:2|0:0|0:2,0:0:0:0:
349,72,31772,2,0,L|269:61,1,80,0|0,1:0|0:0,0:0:0:0:
249,59,32063,1,0,1:0:0:0:
266,49,32160,1,0,1:0:0:0:
432,81,32353,1,0,1:0:0:0:
88,63,32547,5,0,1:0:0:0:
84,82,32643,1,0,0:0:0:0:
80,101,32740,1,0,0:0:0:0:
107,215,32934,2,0,L|116:176,2,40,2|0|2,1:2|0:0|0:2,0:0:0:0:
56,328,33321,1,0,1:0:0:0:
135,317,33514,2,0,L|55:327,1,80,0|0,0:0|1:0,0:0:0:0:
27,225,33901,6,0,L|107:215,1,80,0|0,1:0|1:0,0:0:0:0:
0,123,34289,1,0,1:0:0:0:
79,113,34482,2,0,L|0:123,1,80,2|2,1:2|0:2,0:0:0:0:
253,29,34869,1,0,1:0:0:0:
456,222,35160,1,0,1:0:0:0:
456,222,35256,1,0,1:0:0:0:
512,123,35450,1,0,1:0:0:0:
432,112,35643,6,0,L|512:123,1,80,0|0,1:0|0:0,0:0:0:0:
455,326,36030,2,0,L|414:320,2,40,2|0|2,1:2|0:0|0:2,0:0:0:0:
448,239,36418,1,0,1:0:0:0:
257,329,36611,2,0,L|337:318,1,80,0|0,0:0|1:0,0:0:0:0:
448,239,36998,1,0,1:0:0:0:
337,159,37192,6,0,L|257:149,1,80,0|0,1:0|1:0,0:0:0:0:
240,245,37579,1,2,1:2:0:0:
181,296,37772,1,2,0:2:0:0:
181,296,37966,2,0,P|160:240|192:185,1,120,0|0,1:0|1:0,0:0:0:0:
186,188,38353,1,0,1:0:0:0:
257,149,38547,1,0,1:0:0:0:
337,195,38740,5,0,1:0:0:0:
356,197,38837,1,0,0:0:0:0:
375,199,38934,1,0,0:0:0:0:
448,239,39127,2,0,L|456:283,2,40,2|0|2,1:2|0:0|0:0,0:0:0:0:
461,72,39514,2,0,L|446:150,1,80,0|0,1:0|0:0,0:0:0:0:
181,296,39901,1,0,1:0:0:0:
181,296,40095,6,0,L|166:217,1,80,0|0,1:0|1:0,0:0:0:0:
324,49,40482,1,0,1:0:0:0:
308,127,40676,2,0,L|300:171,2,40,2|0|0,1:2|0:0|1:0,0:0:0:0:
146,60,41063,2,0,L|131:138,1,80,0|0,1:0|0:0,0:0:0:0:
117,152,41353,1,0,1:0:0:0:
111,132,41450,1,0,1:0:0:0:
222,13,41643,1,0,1:0:0:0:
166,217,41837,5,0,1:0:0:0:
117,152,42030,1,0,0:0:0:0:
133,140,42127,1,0,0:0:0:0:
152,137,42224,2,0,L|200:141,2,40,2|0|2,1:2|0:0|0:0,0:0:0:0:
23,332,42611,2,0,L|102:324,1,80,0|0,1:0|0:0,0:0:0:0:
332,311,42998,1,0,1:0:0:0:
332,311,43192,6,0,L|253:303,1,80,0|0,1:0|1:0,0:0:0:0:
196,157,43579,1,0,1:0:0:0:
275,166,43772,2,0,L|314:170,2,40,2|0|2,1:2|0:0|0:0,0:0:0:0:
139,12,44160,2,0,L|218:20,1,80,0|0,1:0|0:0,0:0:0:0:
238,18,44450,1,0,1:0:0:0:
221,6,44547,1,0,1:0:0:0:
52,28,44740,1,0,1:0:0:0:
316,63,44934,5,0,1:0:0:0:
334,57,45030,1,0,0:0:0:0:
353,51,45127,1,0,0:0:0:0:
477,94,45321,2,0,L|432:108,2,40,2|0|2,1:2|0:0|0:0,0:0:0:0:
406,201,45708,1,0,1:0:0:0:
484,213,45901,2,0,L|406:201,1,80,0|0,0:0|1:0,0:0:0:0:
388,282,46289,6,0,L|466:294,1,80,0|0,1:0|1:0,0:0:0:0:
447,374,46676,1,0,1:0:0:0:
369,362,46869,2,0,L|447:374,1,80,2|2,1:2|0:0,0:0:0:0:
236,340,47256,1,0,1:0:0:0:
236,340,47547,1,0,1:0:0:0:
236,340,47643,1,0,1:0:0:0:
24,374,47837,1,0,1:0:0:0:
103,362,48030,6,0,L|24:374,1,80,0|0,1:0|0:0,0:0:0:0:
96,259,48418,2,0,L|142:266,2,40,2|0|2,1:2|0:0|0:0,0:0:0:0:
132,174,48805,1,0,1:0:0:0:
0,107,48998,2,0,L|78:94,1,80,0|0,0:0|1:0,0:0:0:0:
469,161,49579,5,0,3:0:0:0:
449,159,49676,1,0,0:0:0:0:
449,230,49772,5,0,3:0:0:0:
429,228,49869,1,0,0:0:0:0:
429,299,49966,6,0,L|389:294,1,40,0|0,3:0|0:0,0:0:0:0:
316,214,50160,2,0,L|355:218,1,40,2|0,3:2|0:0,0:0:0:0:
449,159,50353,5,0,0:0:0:0:
422,140,50450,1,0,0:0:0:0:
418,108,50547,1,0,0:0:0:0:
437,83,50643,1,0,0:0:0:0:
512,119,50740,5,8,0:0:0:0:
512,119,50837,1,8,0:0:0:0:
512,119,50934,1,0,0:0:0:0:
443,54,51127,6,0,P|324:38|157:29,1,255.000004863739,4|0,0:2|0:0,0:0:0:0:
220,153,51514,2,0,P|141:185|66:224,1,170.000003242493,4|0,0:2|3:0,0:0:0:0:
107,296,51805,1,0,3:0:0:0:
113,291,51901,2,0,B|159:318|159:318|142:191,1,170.000003242493,8|0,0:0|3:0,0:0:0:0:
469,161,52289,1,0,3:0:0:0:
469,161,52385,1,0,3:0:0:0:
469,161,52482,6,0,B|388:127|388:127|356:145|356:145|267:137,1,200,4|0,0:2|0:0,0:0:0:0:
469,161,52869,1,4,0:2:0:0:
280,138,53063,2,0,B|366:124|366:124|393:149|393:149|481:163,1,200,4|0,0:2|3:0,0:0:0:0:
468,160,53353,1,0,3:0:0:0:
468,160,53450,1,8,0:0:0:0:
197,51,53643,6,0,L|204:85,1,34.9999989318848,0|0,3:0|0:0,0:0:0:0:
227,213,53837,2,0,L|234:247,1,34.9999989318848,0|0,3:0|0:0,0:0:0:0:
157,164,54030,2,0,L|122:171,1,34.9999989318848,0|0,3:0|0:0,0:0:0:0:
280,138,54224,6,0,P|413:105|534:89,1,255.000004863739,4|0,0:2|0:0,0:0:0:0:
466,241,54611,2,0,P|378:262|299:273,1,170.000003242493,4|0,0:2|3:0,0:0:0:0:
256,226,54901,1,0,3:0:0:0:
250,219,54998,2,0,B|216:184|216:184|230:316,1,170.000003242493,8|0,0:0|3:0,0:0:0:0:
457,40,55385,1,0,3:0:0:0:
457,40,55482,1,0,3:0:0:0:
457,40,55579,6,0,B|406:56|406:56|317:11|317:11|262:28,1,200,4|0,0:2|0:0,0:0:0:0:
457,40,55966,1,4,0:2:0:0:
272,24,56160,2,0,B|319:47|319:47|414:17|414:17|456:37,1,200,4|0,0:2|0:0,0:0:0:0:
117,316,56547,6,0,P|102:377|135:327,1,175,8|0,3:1|0:0,0:0:0:0:
160,253,57321,6,0,P|156:146|93:-6,1,255.000004863739,4|0,0:2|0:0,0:0:0:0:
33,183,57708,2,0,P|7:262|0:360,1,170.000003242493,4|0,0:2|3:0,0:0:0:0:
74,331,57998,1,0,3:0:0:0:
83,327,58095,2,0,B|181:292|181:292|239:337,1,170.000003242493,8|0,0:0|3:0,0:0:0:0:
449,89,58482,1,0,3:0:0:0:
396,45,58579,1,0,3:0:0:0:
329,59,58676,6,0,P|308:161|335:252,1,200,4|0,0:2|0:0,0:0:0:0:
329,59,59063,1,4,0:2:0:0:
334,251,59256,2,0,P|355:149|328:58,1,200,4|0,0:2|0:0,0:0:0:0:
0,115,59643,6,0,B|-28:201|70:259|70:259|158:196|126:106,1,350,8|0,2:1|0:0,0:0:0:0:
111,107,60418,6,0,P|71:235|106:347,1,255.000004863739,4|0,0:2|0:0,0:0:0:0:
235,342,60805,2,0,P|261:255|238:180,1,170.000003242493,4|0,0:2|3:0,0:0:0:0:
239,182,61095,1,0,3:0:0:0:
239,182,61192,1,8,0:0:0:0:
0,240,61385,1,0,3:0:0:0:
127,273,61579,1,0,3:0:0:0:
151,208,61676,1,0,3:0:0:0:
108,156,61772,6,0,P|83:278|116:355,1,200,4|0,0:2|0:0,0:0:0:0:
108,156,62160,1,4,0:2:0:0:
108,345,62353,2,0,P|135:250|107:155,1,200,4|0,0:2|0:0,0:0:0:0:
0,70,62740,1,8,0:0:0:0:
236,209,62934,5,8,0:2:0:0:
315,202,63030,1,8,0:2:0:0:
396,199,63127,1,8,0:2:0:0:
397,200,63321,1,8,0:2:0:0:
36,240,63514,6,0,P|156:177|279:153,1,255.000004863739,4|0,0:2|0:0,0:0:0:0:
497,163,63901,2,0,P|415:120|331:103,1,170.000003242493,4|0,0:2|3:0,0:0:0:0:
280,157,64192,1,0,3:0:0:0:
272,153,64289,2,0,P|189:140|105:151,1,170.000003242493,8|0,0:0|3:0,0:0:0:0:
396,199,64676,1,0,3:0:0:0:
396,199,64772,1,0,3:0:0:0:
396,199,64869,6,0,B|387:154|360:119|360:119|368:190|320:236,1,200,4|0,0:2|0:0,0:0:0:0:
104,151,65256,1,4,0:2:0:0:
331,223,65450,2,0,B|368:190|360:119|360:119|387:154|396:199,1,200,4|0,0:2|3:0,0:0:0:0:
395,197,65740,1,0,3:0:0:0:
395,197,65837,1,8,0:0:0:0:
87,232,66030,6,0,L|50:222,1,34.9999989318848,0|0,3:0|0:0,0:0:0:0:
234,275,66224,2,0,L|267:283,1,34.9999989318848,0|0,3:0|0:0,0:0:0:0:
139,327,66418,2,0,L|128:361,1,34.9999989318848,0|0,3:0|0:0,0:0:0:0:
182,180,66611,6,0,B|214:84|143:4|143:4|168:48|154:102,1,255.000004863739,4|0,0:2|0:0,0:0:0:0:
87,232,66998,2,0,B|65:295|112:348|112:348|96:319|102:307,1,170.000003242493,4|0,0:2|3:0,0:0:0:0:
112,301,67289,1,0,3:0:0:0:
102,306,67385,2,0,P|212:292|287:278,1,170.000003242493,8|0,0:0|3:0,0:0:0:0:
463,67,67772,1,0,3:0:0:0:
463,67,67869,1,0,3:0:0:0:
463,67,67966,6,0,B|392:41|392:41|274:85,1,200,4|0,0:2|0:0,0:0:0:0:
463,67,68353,1,4,0:2:0:0:
275,84,68547,2,0,B|346:110|346:110|462:66,1,200,4|0,0:2|3:0,0:0:0:0:
512,148,68837,1,0,3:0:0:0:
511,246,68934,6,0,P|452:266|500:227,1,175,8|0,0:0|0:0,0:0:0:0:
479,172,69708,6,0,P|356:135|212:122,1,255.000004863739,4|0,0:2|0:0,0:0:0:0:
216,351,70095,2,0,P|300:342|381:317,1,170.000003242493,4|0,0:2|3:0,0:0:0:0:
455,322,70385,1,0,3:0:0:0:
463,325,70482,2,0,B|492:336|500:360|500:360|490:304|511:242,1,170.000003242493,8|0,0:0|3:0,0:0:0:0:
224,24,70869,1,0,3:0:0:0:
183,78,70966,1,0,3:0:0:0:
216,137,71063,6,0,B|389:117|389:117|426:130,1,200,4|0,0:2|0:0,0:0:0:0:
216,137,71450,1,4,0:2:0:0:
413,125,71643,2,0,B|240:145|240:145|216:137,1,200,4|0,0:2|0:0,0:0:0:0:
479,354,72030,6,0,B|391:385|328:297|328:297|386:199|472:227,1,350,8|0,2:1|0:0,0:0:0:0:
470,252,72805,6,0,P|333:231|177:216,1,255.000004863739,4|0,0:2|0:0,0:0:0:0:
331,119,73192,2,0,P|411:106|502:97,1,170.000003242493,4|0,0:2|3:0,0:0:0:0:
470,30,73482,1,0,3:0:0:0:
462,28,73579,2,0,P|381:15|290:6,1,170.000003242493,8|0,0:0|3:0,0:0:0:0:
48,262,73966,1,0,3:0:0:0:
104,299,74063,1,0,3:0:0:0:
170,282,74160,1,4,0:2:0:0:
331,119,74353,5,0,3:0:0:0:
114,217,74547,1,4,0:2:0:0:
114,217,74740,6,0,L|144:79,1,134.999995880127,4|0,3:2|0:0,0:0:0:0:
137,72,75127,1,0,3:0:0:0:
376,234,75321,1,8,0:2:0:0:
376,234,75418,1,8,0:2:0:0:
376,234,75514,2,0,L|327:246,1,44.999998626709,8|0,3:2|0:0,0:0:0:0:
271,110,75708,2,0,L|222:98,1,44.999998626709,8|0,3:2|0:0,0:0:0:0:
170,282,75901,6,0,P|112:317|18:306,1,150.000005722046,4|2,0:2|0:0,0:0:0:0:
142,85,76289,2,0,P|254:75|353:131,1,225.000008583069,4|0,0:2|0:0,0:0:0:0:
349,128,76676,1,8,0:0:0:0:
38,35,76869,1,4,0:2:0:0:
142,85,77063,1,0,0:0:0:0:
142,85,77160,1,0,0:0:0:0:
142,85,77256,6,0,B|122:124|122:124|131:163,1,75.0000028610231,4|0,0:2|0:0,0:0:0:0:
149,89,77643,2,0,B|129:128|129:128|136:158,1,75.0000028610231,4|0,0:2|0:0,0:0:0:0:
208,243,77837,6,0,B|238:250|238:250|277:230,1,75.0000028610231,4|0,0:2|0:0,0:0:0:0:
208,235,78224,2,0,B|238:242|238:242|277:222,1,75.0000028610231,4|0,0:2|0:0,0:0:0:0:
349,127,78418,6,0,B|350:96|350:96|324:61,1,75.0000028610231,4|0,0:2|0:0,0:0:0:0:
342,131,78805,2,0,B|343:99|343:99|317:64,1,75.0000028610231,4|0,0:2|0:0,0:0:0:0:
142,85,78998,6,0,P|82:178|41:330,1,255.000004863739,4|0,0:2|0:0,0:0:0:0:
142,299,79385,2,0,P|75:190|42:68,1,255.000004863739,4|0,0:2|0:0,0:0:0:0:
42,68,79772,1,8,0:0:0:0:
353,57,79966,6,0,P|348:95|341:131,1,75.0000028610231,4|0,0:2|0:0,0:0:0:0:
345,57,80353,2,0,P|340:94|333:130,1,75.0000028610231,4|0,0:2|0:0,0:0:0:0:
349,295,80547,6,0,P|344:257|337:221,1,75.0000028610231,0|0,3:0|0:0,0:0:0:0:
255,81,80740,1,4,3:2:0:0:
263,291,80934,6,0,P|237:165|201:43,1,255.000004863739,4|0,3:2|0:0,0:0:0:0:
201,43,81321,1,8,3:1:0:0:
18,259,81514,1,8,0:2:0:0:
85,268,81611,1,8,0:2:0:0:
152,280,81708,1,8,3:2:0:0:
152,280,81901,6,0,P|122:299|79:284,1,75.0000028610231,8|0,3:2|3:0,0:0:0:0:
107,87,82095,5,4,3:2:0:0:
124,171,82289,1,0,3:0:0:0:
97,91,82482,1,4,3:2:0:0:
70,348,82676,6,0,P|101:367|136:358,1,75.0000028610231,0|0,3:0|3:0,0:0:0:0:
141,255,82869,1,8,3:1:0:0:
464,238,83063,6,0,P|432:257|397:248,1,75.0000028610231,0|0,3:0|3:0,0:0:0:0:
393,145,83256,1,0,3:0:0:0:
26,184,83450,6,0,P|57:203|92:194,1,75.0000028610231,4|0,3:2|3:0,0:0:0:0:
97,91,83643,1,0,3:0:0:0:
441,84,83837,6,0,P|476:92|508:74,1,75.0000028610231,4|0,3:2|3:0,0:0:0:0:
334,33,84030,2,0,P|241:1|54:29,1,255.000004863739,4|0,3:2|0:0,0:0:0:0:
97,91,84418,1,8,3:1:0:0:
392,270,84611,6,0,P|424:177|396:-10,1,255.000004863739,0|0,3:0|0:0,0:0:0:0:
334,33,84998,2,0,P|303:51|268:43,1,75.0000028610231,0|0,3:0|3:0,0:0:0:0:
105,261,85192,6,0,B|65:138|65:138|86:14,1,255.000004863739,4|0,0:2|0:0,0:0:0:0:
301,109,85579,2,0,P|318:234|282:355,1,255.000004863739,4|0,3:2|0:0,0:0:0:0:
209,333,85966,6,0,P|200:297|219:266,1,75.0000028610231,8|0,3:1|0:0,0:0:0:0:
472,308,86160,2,0,B|481:345|481:345|461:374,1,75.0000028610231,0|0,3:0|0:0,0:0:0:0:
214,187,86353,6,0,P|205:151|224:119,1,75.0000028610231,0|0,3:0|0:0,0:0:0:0:
423,156,86547,2,0,B|432:193|432:193|412:222,1,75.0000028610231,4|0,3:2|0:0,0:0:0:0:
185,345,86740,5,4,0:2:0:0:
223,60,86934,2,0,P|186:145|203:229,1,170.000003242493,4|0,0:2|0:0,0:0:0:0:
488,281,87321,2,0,P|523:205|512:122,1,170.000003242493,4|8,0:2|0:0,0:0:0:0:
144,28,87708,5,12,0:2:0:0:
144,28,87805,1,8,0:2:0:0:
144,28,87901,1,8,0:2:0:0:
252,322,88095,1,12,0:2:0:0:
252,322,88192,1,0,3:0:0:0:
252,322,88289,6,0,P|344:195|231:32,1,359.999989013672,4|0,0:2|0:0,0:0:0:0:
167,64,88676,6,0,P|88:183|168:302,1,300,4|0,0:2|0:0,0:0:0:0:
165,301,89063,1,8,0:0:0:0:
174,71,89256,6,0,L|77:58,1,75.0000028610231,4|0,0:2|0:0,0:0:0:0:
100,69,89643,2,0,L|174:78,1,75.0000028610231,4|0,0:2|0:0,0:0:0:0:
175,86,90030,2,0,L|100:76,1,75.0000028610231,4|0,0:2|0:0,0:0:0:0:
89,276,90224,6,0,L|163:285,1,75.0000028610231,4|0,0:2|0:0,0:0:0:0:
164,293,90611,2,0,L|89:283,1,75.0000028610231,4|0,0:2|0:0,0:0:0:0:
103,194,90805,6,0,L|177:203,1,75.0000028610231,4|0,0:2|0:0,0:0:0:0:
177,195,91192,2,0,L|102:185,1,75.0000028610231,4|0,0:2|0:0,0:0:0:0:
101,176,91579,2,0,L|176:186,1,75.0000028610231,4|0,0:2|0:0,0:0:0:0:
419,92,91772,6,0,L|117:51,1,300,4|0,0:2|0:0,0:0:0:0:
114,41,92160,1,8,0:0:0:0:
341,325,92353,6,0,L|415:315,1,75.0000028610231,4|0,0:2|0:0,0:0:0:0:
411,306,92740,2,0,L|336:315,1,75.0000028610231,4|0,0:2|0:0,0:0:0:0:
174,281,92934,6,0,L|99:271,1,75.0000028610231,0|0,3:0|0:0,0:0:0:0:
336,225,93127,2,0,L|261:215,1,75.0000028610231,4|0,3:2|0:0,0:0:0:0:
121,117,93321,6,0,L|195:126,1,75.0000028610231,4|0,3:2|0:0,0:0:0:0:
199,116,93708,2,0,L|125:107,1,75.0000028610231,4|0,3:2|0:0,0:0:0:0:
37,185,93901,5,12,0:2:0:0:
111,195,93998,1,8,0:2:0:0:
186,203,94094,1,8,0:2:0:0:
215,28,94289,6,0,L|140:18,1,75.0000028610231,4|0,0:2|0:0,0:0:0:0:
67,264,94482,5,4,3:2:0:0:
107,12,94676,6,0,P|119:44|151:68,1,75.0000028610231,0|0,3:0|0:0,0:0:0:0:
327,182,94869,2,0,B|347:212|347:212|341:250,1,75.0000028610231,4|0,3:2|0:0,0:0:0:0:
232,274,95063,2,0,B|212:244|212:244|217:205,1,75.0000028610231,0|0,3:0|0:0,0:0:0:0:
213,196,95256,1,8,0:0:0:0:
64,348,95450,6,0,L|34:265,1,75.0000028610231,0|0,3:0|3:0,0:0:0:0:
135,278,95643,1,0,3:0:0:0:
64,36,95837,6,0,L|34:119,1,75.0000028610231,4|0,3:2|3:0,0:0:0:0:
135,106,96030,1,0,3:0:0:0:
8,192,96224,5,4,3:2:0:0:
135,106,96418,2,0,B|209:68|284:118|259:162|334:205|408:168,1,300,4|0,3:2|0:0,0:0:0:0:
414,156,96805,1,8,3:1:0:0:
135,278,96998,2,0,P|163:297|220:308,1,75.0000028610231,0|0,3:0|3:0,0:0:0:0:
387,261,97192,1,0,3:0:0:0:
228,66,97385,2,0,P|260:73|307:107,1,75.0000028610231,0|0,3:0|3:0,0:0:0:0:
387,261,97579,6,0,P|239:192|91:138,1,300,4|0,0:2|0:0,0:0:0:0:
228,66,97966,6,0,P|263:54|300:45,1,75.0000028610231,4|0,3:2|0:0,0:0:0:0:
302,54,98353,2,0,P|265:63|230:75,1,75.0000028610231,8|0,3:1|0:0,0:0:0:0:
504,169,98547,2,0,P|495:132|484:97,1,75.0000028610231,0|0,3:0|0:0,0:0:0:0:
389,371,98740,2,0,P|426:362|462:351,1,75.0000028610231,0|0,3:0|0:0,0:0:0:0:
187,256,98934,2,0,P|196:293|208:329,1,75.0000028610231,0|0,3:0|0:0,0:0:0:0:
346,214,99127,6,0,P|224:132|46:142,1,300,0|0,3:0|0:0,0:0:0:0:
187,256,99514,2,0,P|334:255|457:173,1,300,0|0,3:0|0:0,0:0:0:0:
325,62,99901,6,0,P|269:145|269:245,1,200,8|8,3:1|0:2,0:0:0:0:
268,242,100192,1,8,0:2:0:0:
268,242,100289,1,8,3:2:0:0:
400,19,100482,1,8,0:2:0:0:
310,324,100676,5,6,1:2:0:0:
325,62,101256,1,2,0:0:0:0:
268,242,101837,1,2,0:0:0:0:
251,106,102418,1,2,0:0:0:0:
201,183,102998,2,0,P|137:189|75:189,1,119.999996337891,2|2,0:0|0:2,0:0:0:0:
466,353,103772,5,2,0:0:0:0:
384,21,104353,1,2,0:0:0:0:
511,282,104934,1,2,0:0:0:0:
351,104,105321,2,0,P|266:110|170:87,1,179.999994506836,2|2,0:0|0:2,0:0:0:0:
273,13,106095,1,2,0:0:0:0:
261,322,106482,1,2,0:0:0:0:
261,322,106676,1,2,0:0:0:0:
261,322,106869,6,0,L|395:310,1,119.999996337891,2|2,0:0|0:0,0:0:0:0:
351,104,107450,2,0,L|231:93,1,119.999996337891,2|2,0:0|0:0,0:0:0:0:
253,275,108030,2,0,L|372:264,1,119.999996337891,2|2,0:0|0:0,0:0:0:0:
342,150,108611,2,0,L|223:140,1,119.999996337891,2|2,0:0|0:2,0:0:0:0:
180,221,109192,1,2,0:0:0:0:
33,31,109966,6,0,P|58:117|39:216,2,179.999994506836,2|2|2,0:0|0:0|0:0,0:0:0:0:
0,292,111514,6,0,P|88:306|173:281,1,179.999994506836,2|2,0:0|0:0,0:0:0:0:
338,102,112289,2,0,P|423:77|512:92,1,179.999994506836,2|2,0:0|0:0,0:0:0:0:
256,192,113063,5,2,0:0:0:0:
256,192,125450,5,0,0:0:0:0:
