osu file format v14

[General]
AudioFilename: audio.mp3
AudioLeadIn: 0
PreviewTime: 24517
Countdown: 0
SampleSet: None
StackLeniency: 0.7
Mode: 3
LetterboxInBreaks: 0
SpecialStyle: 0
WidescreenStoryboard: 1

[Editor]
Bookmarks: 1660,9279,24517,39755,54993,70231,84993,100707,104517,112136,119755,134993
DistanceSpacing: 1
BeatDivisor: 12
GridSize: 32
TimelineZoom: 1.8

[Metadata]
Title:perfect nothing
TitleUnicode:perfect nothing
Artist:GHOST
ArtistUnicode:GHOST
Creator:Hlimak
Version:noise
Source:
Tags:dump vocaloid stream
BeatmapID:2959429
BeatmapSetID:989656

[Difficulty]
HPDrainRate:7
CircleSize:4
OverallDifficulty:7
ApproachRate:5
SliderMultiplier:1.4
SliderTickRate:1

[Events]
//Background and Video events
0,0,"bg.jpg",0,0
//Break Periods
//Storyboard Layer 0 (Background)
//Storyboard Layer 1 (Fail)
//Storyboard Layer 2 (Pass)
//Storyboard Layer 3 (Foreground)
//Storyboard Layer 4 (Overlay)
//Storyboard Sound Samples

[TimingPoints]
1660,476.190476190476,4,1,0,50,1,0

[HitObjects]
64,192,1660,5,0,0:0:0:0:
320,192,1660,1,0,0:0:0:0:
448,192,1660,1,0,0:0:0:0:
320,192,1898,1,0,0:0:0:0:
448,192,1898,1,0,0:0:0:0:
64,192,1898,1,0,0:0:0:0:
192,192,2136,1,0,0:0:0:0:
320,192,2136,1,0,0:0:0:0:
64,192,2165,1,0,0:0:0:0:
192,192,2374,1,0,0:0:0:0:
320,192,2374,1,0,0:0:0:0:
64,192,2374,1,0,0:0:0:0:
448,192,2612,1,0,0:0:0:0:
192,192,2612,1,0,0:0:0:0:
64,192,2612,1,0,0:0:0:0:
448,192,2850,1,0,0:0:0:0:
320,192,2850,1,0,0:0:0:0:
192,192,2850,1,0,0:0:0:0:
64,192,3088,1,0,0:0:0:0:
448,192,3088,1,0,0:0:0:0:
320,192,3118,1,0,0:0:0:0:
448,192,3326,1,0,0:0:0:0:
320,192,3326,1,0,0:0:0:0:
192,192,3326,1,0,0:0:0:0:
448,192,3564,1,0,0:0:0:0:
192,192,3564,1,0,0:0:0:0:
64,192,3564,1,0,0:0:0:0:
320,192,3802,1,0,0:0:0:0:
192,192,3802,1,0,0:0:0:0:
448,192,3802,1,0,0:0:0:0:
448,192,4040,1,0,0:0:0:0:
64,192,4040,1,0,0:0:0:0:
192,192,4070,1,0,0:0:0:0:
448,192,4279,1,0,0:0:0:0:
320,192,4279,1,0,0:0:0:0:
192,192,4279,1,0,0:0:0:0:
64,192,4517,1,0,0:0:0:0:
448,192,4517,1,0,0:0:0:0:
192,192,4556,1,0,0:0:0:0:
320,192,4596,1,0,0:0:0:0:
448,192,4715,1,0,0:0:0:0:
320,192,4755,1,0,0:0:0:0:
192,192,4755,1,0,0:0:0:0:
64,192,4794,1,0,0:0:0:0:
448,192,4874,1,0,0:0:0:0:
64,192,4953,1,0,0:0:0:0:
192,192,4953,1,0,0:0:0:0:
320,192,4993,1,0,0:0:0:0:
448,192,5033,1,0,0:0:0:0:
64,192,5072,1,0,0:0:0:0:
192,192,5112,1,0,0:0:0:0:
320,192,5152,1,0,0:0:0:0:
448,192,5191,1,0,0:0:0:0:
192,192,5231,1,0,0:0:0:0:
448,192,5310,1,0,0:0:0:0:
64,192,5350,1,0,0:0:0:0:
192,192,5390,1,0,0:0:0:0:
320,192,5429,1,0,0:0:0:0:
64,192,5469,1,0,0:0:0:0:
320,192,5509,1,0,0:0:0:0:
448,192,5548,1,0,0:0:0:0:
192,192,5588,1,0,0:0:0:0:
320,192,5628,1,0,0:0:0:0:
64,192,5707,1,0,0:0:0:0:
192,192,5707,1,0,0:0:0:0:
448,192,5707,1,0,0:0:0:0:
320,192,5945,1,0,0:0:0:0:
64,192,5945,1,0,0:0:0:0:
192,192,5975,1,0,0:0:0:0:
448,192,6183,1,0,0:0:0:0:
192,192,6183,1,0,0:0:0:0:
320,192,6213,1,0,0:0:0:0:
448,192,6421,1,0,0:0:0:0:
192,192,6421,1,0,0:0:0:0:
64,192,6451,1,0,0:0:0:0:
320,192,6659,1,0,0:0:0:0:
64,192,6659,1,0,0:0:0:0:
448,192,6689,1,0,0:0:0:0:
192,192,6898,1,0,0:0:0:0:
64,192,6898,1,0,0:0:0:0:
320,192,6927,1,0,0:0:0:0:
448,192,7136,1,0,0:0:0:0:
320,192,7136,1,0,0:0:0:0:
192,192,7165,1,0,0:0:0:0:
320,192,7374,1,0,0:0:0:0:
192,192,7374,1,0,0:0:0:0:
64,192,7413,1,0,0:0:0:0:
448,192,7453,1,0,0:0:0:0:
320,192,7493,1,0,0:0:0:0:
64,192,7572,1,0,0:0:0:0:
192,192,7612,1,0,0:0:0:0:
320,192,7652,1,0,0:0:0:0:
448,192,7691,1,0,0:0:0:0:
320,192,7771,1,0,0:0:0:0:
64,192,7850,1,0,0:0:0:0:
192,192,7850,1,0,0:0:0:0:
448,192,7929,1,0,0:0:0:0:
192,192,7969,1,0,0:0:0:0:
64,192,8009,1,0,0:0:0:0:
448,192,8088,1,0,0:0:0:0:
320,192,8118,1,0,0:0:0:0:
64,192,8326,1,0,0:0:0:0:
192,192,8326,1,0,0:0:0:0:
448,192,8366,1,0,0:0:0:0:
320,192,8406,1,0,0:0:0:0:
192,192,8445,1,0,0:0:0:0:
64,192,8485,1,0,0:0:0:0:
448,192,8525,1,0,0:0:0:0:
192,192,8564,1,0,0:0:0:0:
320,192,8564,1,0,0:0:0:0:
64,192,8802,1,0,0:0:0:0:
192,192,8802,1,0,0:0:0:0:
320,192,8842,1,0,0:0:0:0:
448,192,8882,1,0,0:0:0:0:
64,192,8921,1,0,0:0:0:0:
192,192,8961,1,0,0:0:0:0:
320,192,9001,1,0,0:0:0:0:
64,192,9040,1,0,0:0:0:0:
192,192,9080,1,0,0:0:0:0:
320,192,9120,1,0,0:0:0:0:
448,192,9159,1,0,0:0:0:0:
192,192,9199,1,0,0:0:0:0:
320,192,9239,1,0,0:0:0:0:
448,192,9279,1,0,0:0:0:0:
64,192,9279,1,0,0:0:0:0:
448,192,9437,1,0,0:0:0:0:
320,192,9477,1,0,0:0:0:0:
192,192,9517,1,0,0:0:0:0:
448,192,9556,1,0,0:0:0:0:
64,192,9596,1,0,0:0:0:0:
192,192,9636,1,0,0:0:0:0:
320,192,9675,1,0,0:0:0:0:
64,192,9755,1,0,0:0:0:0:
192,192,9755,1,0,0:0:0:0:
448,192,9874,1,0,0:0:0:0:
64,192,9993,1,0,0:0:0:0:
320,192,10033,1,0,0:0:0:0:
192,192,10072,1,0,0:0:0:0:
64,192,10112,1,0,0:0:0:0:
448,192,10152,1,0,0:0:0:0:
320,192,10191,1,0,0:0:0:0:
192,192,10231,1,0,0:0:0:0:
64,192,10231,1,0,0:0:0:0:
320,192,10310,1,0,0:0:0:0:
448,192,10350,1,0,0:0:0:0:
192,192,10469,1,0,0:0:0:0:
320,192,10509,1,0,0:0:0:0:
448,192,10548,1,0,0:0:0:0:
192,192,10588,1,0,0:0:0:0:
64,192,10628,1,0,0:0:0:0:
448,192,10667,1,0,0:0:0:0:
320,192,10707,1,0,0:0:0:0:
192,192,10707,1,0,0:0:0:0:
320,192,10826,1,0,0:0:0:0:
64,192,10945,1,0,0:0:0:0:
192,192,10985,1,0,0:0:0:0:
448,192,11025,1,0,0:0:0:0:
320,192,11064,1,0,0:0:0:0:
192,192,11104,1,0,0:0:0:0:
64,192,11144,1,0,0:0:0:0:
448,192,11183,1,0,0:0:0:0:
320,192,11183,1,0,0:0:0:0:
192,192,11302,1,0,0:0:0:0:
320,192,11421,1,0,0:0:0:0:
448,192,11461,1,0,0:0:0:0:
64,192,11501,1,0,0:0:0:0:
192,192,11540,1,0,0:0:0:0:
320,192,11580,1,0,0:0:0:0:
448,192,11620,1,0,0:0:0:0:
192,192,11659,1,0,0:0:0:0:
64,192,11659,1,0,0:0:0:0:
320,192,11779,1,0,0:0:0:0:
64,192,11898,1,0,0:0:0:0:
448,192,11937,1,0,0:0:0:0:
320,192,11977,1,0,0:0:0:0:
192,192,12017,1,0,0:0:0:0:
64,192,12056,1,0,0:0:0:0:
192,192,12096,1,0,0:0:0:0:
320,192,12136,1,0,0:0:0:0:
448,192,12136,1,0,0:0:0:0:
320,192,12255,1,0,0:0:0:0:
192,192,12374,1,0,0:0:0:0:
64,192,12493,1,0,0:0:0:0:
448,192,12612,1,0,0:0:0:0:
320,192,12652,1,0,0:0:0:0:
64,192,12691,1,0,0:0:0:0:
448,192,12731,1,0,0:0:0:0:
320,192,12771,1,0,0:0:0:0:
192,192,12810,1,0,0:0:0:0:
448,192,12850,1,0,0:0:0:0:
320,192,12890,1,0,0:0:0:0:
64,192,12929,1,0,0:0:0:0:
448,192,12969,1,0,0:0:0:0:
320,192,13009,1,0,0:0:0:0:
192,192,13048,1,0,0:0:0:0:
448,192,13088,1,0,0:0:0:0:
64,192,13088,1,0,0:0:0:0:
64,192,13247,1,0,0:0:0:0:
192,192,13286,1,0,0:0:0:0:
320,192,13326,1,0,0:0:0:0:
64,192,13366,1,0,0:0:0:0:
448,192,13406,1,0,0:0:0:0:
320,192,13445,1,0,0:0:0:0:
192,192,13485,1,0,0:0:0:0:
448,192,13564,1,0,0:0:0:0:
320,192,13564,1,0,0:0:0:0:
64,192,13683,1,0,0:0:0:0:
448,192,13802,1,0,0:0:0:0:
192,192,13842,1,0,0:0:0:0:
320,192,13882,1,0,0:0:0:0:
448,192,13921,1,0,0:0:0:0:
64,192,13961,1,0,0:0:0:0:
192,192,14001,1,0,0:0:0:0:
320,192,14040,1,0,0:0:0:0:
448,192,14040,1,0,0:0:0:0:
192,192,14120,1,0,0:0:0:0:
64,192,14159,1,0,0:0:0:0:
320,192,14279,1,0,0:0:0:0:
192,192,14318,1,0,0:0:0:0:
64,192,14358,1,0,0:0:0:0:
320,192,14398,1,0,0:0:0:0:
448,192,14437,1,0,0:0:0:0:
64,192,14477,1,0,0:0:0:0:
192,192,14517,1,0,0:0:0:0:
320,192,14517,1,0,0:0:0:0:
192,192,14636,1,0,0:0:0:0:
448,192,14755,1,0,0:0:0:0:
320,192,14794,1,0,0:0:0:0:
64,192,14834,1,0,0:0:0:0:
192,192,14874,1,0,0:0:0:0:
320,192,14913,1,0,0:0:0:0:
448,192,14953,1,0,0:0:0:0:
64,192,14993,1,0,0:0:0:0:
192,192,14993,1,0,0:0:0:0:
320,192,15112,1,0,0:0:0:0:
192,192,15231,1,0,0:0:0:0:
64,192,15271,1,0,0:0:0:0:
448,192,15310,1,0,0:0:0:0:
320,192,15350,1,0,0:0:0:0:
192,192,15390,1,0,0:0:0:0:
64,192,15429,1,0,0:0:0:0:
320,192,15469,1,0,0:0:0:0:
448,192,15469,1,0,0:0:0:0:
192,192,15588,1,0,0:0:0:0:
448,192,15707,1,0,0:0:0:0:
64,192,15747,1,0,0:0:0:0:
192,192,15786,1,0,0:0:0:0:
320,192,15826,1,0,0:0:0:0:
448,192,15866,1,0,0:0:0:0:
320,192,15906,1,0,0:0:0:0:
192,192,15945,1,0,0:0:0:0:
64,192,15945,1,0,0:0:0:0:
320,192,16064,1,0,0:0:0:0:
192,192,16183,1,0,0:0:0:0:
448,192,16302,1,0,0:0:0:0:
64,192,16421,1,0,0:0:0:0:
192,192,16461,1,0,0:0:0:0:
448,192,16501,1,0,0:0:0:0:
64,192,16540,1,0,0:0:0:0:
192,192,16580,1,0,0:0:0:0:
320,192,16620,1,0,0:0:0:0:
64,192,16659,1,0,0:0:0:0:
192,192,16699,1,0,0:0:0:0:
448,192,16739,1,0,0:0:0:0:
64,192,16779,1,0,0:0:0:0:
192,192,16818,1,0,0:0:0:0:
320,192,16858,1,0,0:0:0:0:
64,192,16898,1,0,0:0:0:0:
448,192,16898,1,0,0:0:0:0:
448,192,17056,1,0,0:0:0:0:
320,192,17096,1,0,0:0:0:0:
192,192,17136,1,0,0:0:0:0:
448,192,17175,1,0,0:0:0:0:
64,192,17215,1,0,0:0:0:0:
192,192,17255,1,0,0:0:0:0:
320,192,17294,1,0,0:0:0:0:
192,192,17374,1,0,0:0:0:0:
64,192,17374,1,0,0:0:0:0:
448,192,17493,1,0,0:0:0:0:
64,192,17612,1,0,0:0:0:0:
320,192,17652,1,0,0:0:0:0:
192,192,17691,1,0,0:0:0:0:
64,192,17731,1,0,0:0:0:0:
448,192,17771,1,0,0:0:0:0:
320,192,17810,1,0,0:0:0:0:
64,192,17850,1,0,0:0:0:0:
192,192,17850,1,0,0:0:0:0:
320,192,17929,1,0,0:0:0:0:
448,192,17969,1,0,0:0:0:0:
320,192,18009,1,0,0:0:0:0:
64,192,18048,1,0,0:0:0:0:
192,192,18088,1,0,0:0:0:0:
320,192,18128,1,0,0:0:0:0:
448,192,18167,1,0,0:0:0:0:
192,192,18207,1,0,0:0:0:0:
64,192,18247,1,0,0:0:0:0:
448,192,18286,1,0,0:0:0:0:
192,192,18326,1,0,0:0:0:0:
320,192,18326,1,0,0:0:0:0:
448,192,18406,1,0,0:0:0:0:
320,192,18445,1,0,0:0:0:0:
64,192,18485,1,0,0:0:0:0:
192,192,18525,1,0,0:0:0:0:
320,192,18564,1,0,0:0:0:0:
192,192,18604,1,0,0:0:0:0:
448,192,18644,1,0,0:0:0:0:
320,192,18683,1,0,0:0:0:0:
192,192,18723,1,0,0:0:0:0:
64,192,18763,1,0,0:0:0:0:
320,192,18802,1,0,0:0:0:0:
448,192,18802,1,0,0:0:0:0:
192,192,18921,1,0,0:0:0:0:
320,192,19040,1,0,0:0:0:0:
448,192,19080,1,0,0:0:0:0:
64,192,19120,1,0,0:0:0:0:
192,192,19159,1,0,0:0:0:0:
320,192,19199,1,0,0:0:0:0:
448,192,19239,1,0,0:0:0:0:
64,192,19279,1,0,0:0:0:0:
192,192,19279,1,0,0:0:0:0:
320,192,19398,1,0,0:0:0:0:
64,192,19517,1,0,0:0:0:0:
448,192,19556,1,0,0:0:0:0:
320,192,19596,1,0,0:0:0:0:
192,192,19636,1,0,0:0:0:0:
64,192,19675,1,0,0:0:0:0:
192,192,19715,1,0,0:0:0:0:
448,192,19755,1,0,0:0:0:0:
320,192,19755,1,0,0:0:0:0:
64,192,19874,1,0,0:0:0:0:
192,192,19993,1,0,0:0:0:0:
320,192,20112,1,0,0:0:0:0:
448,192,20231,1,0,0:0:0:0:
320,192,20271,1,0,0:0:0:0:
64,192,20310,1,0,0:0:0:0:
448,192,20350,1,0,0:0:0:0:
320,192,20390,1,0,0:0:0:0:
192,192,20429,1,0,0:0:0:0:
448,192,20469,1,0,0:0:0:0:
320,192,20509,1,0,0:0:0:0:
64,192,20548,1,0,0:0:0:0:
448,192,20588,1,0,0:0:0:0:
320,192,20628,1,0,0:0:0:0:
192,192,20667,1,0,0:0:0:0:
64,192,20707,1,0,0:0:0:0:
448,192,20707,1,0,0:0:0:0:
64,192,20866,1,0,0:0:0:0:
192,192,20906,1,0,0:0:0:0:
320,192,20945,1,0,0:0:0:0:
64,192,20985,1,0,0:0:0:0:
448,192,21025,1,0,0:0:0:0:
320,192,21064,1,0,0:0:0:0:
192,192,21104,1,0,0:0:0:0:
448,192,21183,1,0,0:0:0:0:
320,192,21183,1,0,0:0:0:0:
64,192,21302,1,0,0:0:0:0:
448,192,21421,1,0,0:0:0:0:
192,192,21461,1,0,0:0:0:0:
320,192,21501,1,0,0:0:0:0:
448,192,21540,1,0,0:0:0:0:
64,192,21580,1,0,0:0:0:0:
192,192,21620,1,0,0:0:0:0:
320,192,21659,1,0,0:0:0:0:
448,192,21659,1,0,0:0:0:0:
192,192,21739,1,0,0:0:0:0:
64,192,21779,1,0,0:0:0:0:
448,192,21818,1,0,0:0:0:0:
192,192,21858,1,0,0:0:0:0:
320,192,21898,1,0,0:0:0:0:
192,192,21937,1,0,0:0:0:0:
64,192,21977,1,0,0:0:0:0:
320,192,22017,1,0,0:0:0:0:
448,192,22056,1,0,0:0:0:0:
64,192,22096,1,0,0:0:0:0:
192,192,22136,1,0,0:0:0:0:
320,192,22136,1,0,0:0:0:0:
448,192,22215,1,0,0:0:0:0:
192,192,22255,1,0,0:0:0:0:
64,192,22294,1,0,0:0:0:0:
320,192,22334,1,0,0:0:0:0:
448,192,22374,1,0,0:0:0:0:
320,192,22413,1,0,0:0:0:0:
64,192,22453,1,0,0:0:0:0:
192,192,22493,1,0,0:0:0:0:
320,192,22533,1,0,0:0:0:0:
448,192,22572,1,0,0:0:0:0:
64,192,22612,1,0,0:0:0:0:
192,192,22612,1,0,0:0:0:0:
320,192,22731,1,0,0:0:0:0:
192,192,22850,1,0,0:0:0:0:
64,192,22890,1,0,0:0:0:0:
448,192,22929,1,0,0:0:0:0:
320,192,22969,1,0,0:0:0:0:
192,192,23009,1,0,0:0:0:0:
64,192,23048,1,0,0:0:0:0:
320,192,23088,1,0,0:0:0:0:
448,192,23088,1,0,0:0:0:0:
192,192,23207,1,0,0:0:0:0:
448,192,23326,1,0,0:0:0:0:
64,192,23366,1,0,0:0:0:0:
192,192,23406,1,0,0:0:0:0:
320,192,23445,1,0,0:0:0:0:
448,192,23485,1,0,0:0:0:0:
320,192,23525,1,0,0:0:0:0:
192,192,23564,1,0,0:0:0:0:
64,192,23564,1,0,0:0:0:0:
320,192,23683,1,0,0:0:0:0:
192,192,23802,1,0,0:0:0:0:
448,192,23921,1,0,0:0:0:0:
64,192,24040,1,0,0:0:0:0:
192,192,24080,1,0,0:0:0:0:
448,192,24120,1,0,0:0:0:0:
64,192,24159,1,0,0:0:0:0:
192,192,24199,1,0,0:0:0:0:
320,192,24239,1,0,0:0:0:0:
64,192,24279,1,0,0:0:0:0:
192,192,24318,1,0,0:0:0:0:
448,192,24358,1,0,0:0:0:0:
64,192,24398,1,0,0:0:0:0:
192,192,24437,1,0,0:0:0:0:
320,192,24477,1,0,0:0:0:0:
448,192,24517,1,0,0:0:0:0:
64,192,24517,1,0,0:0:0:0:
448,192,24675,1,0,0:0:0:0:
64,192,24715,1,0,0:0:0:0:
192,192,24755,1,0,0:0:0:0:
320,192,24794,1,0,0:0:0:0:
448,192,24834,1,0,0:0:0:0:
192,192,24874,1,0,0:0:0:0:
64,192,24913,1,0,0:0:0:0:
192,192,24993,1,0,0:0:0:0:
320,192,24993,1,0,0:0:0:0:
448,192,25112,1,0,0:0:0:0:
64,192,25231,1,0,0:0:0:0:
192,192,25271,1,0,0:0:0:0:
320,192,25310,1,0,0:0:0:0:
64,192,25350,1,0,0:0:0:0:
192,192,25390,1,0,0:0:0:0:
320,192,25429,1,0,0:0:0:0:
64,192,25469,1,0,0:0:0:0:
448,192,25469,1,0,0:0:0:0:
192,192,25548,1,0,0:0:0:0:
320,192,25588,1,0,0:0:0:0:
448,192,25628,1,0,0:0:0:0:
64,192,25667,1,0,0:0:0:0:
192,192,25707,1,0,0:0:0:0:
320,192,25747,1,0,0:0:0:0:
448,192,25786,1,0,0:0:0:0:
192,192,25826,1,0,0:0:0:0:
64,192,25866,1,0,0:0:0:0:
448,192,25906,1,0,0:0:0:0:
192,192,25945,1,0,0:0:0:0:
320,192,25945,1,0,0:0:0:0:
64,192,26025,1,0,0:0:0:0:
448,192,26064,1,0,0:0:0:0:
320,192,26104,1,0,0:0:0:0:
192,192,26144,1,0,0:0:0:0:
64,192,26183,1,0,0:0:0:0:
448,192,26223,1,0,0:0:0:0:
320,192,26263,1,0,0:0:0:0:
192,192,26302,1,0,0:0:0:0:
64,192,26342,1,0,0:0:0:0:
192,192,26382,1,0,0:0:0:0:
320,192,26421,1,0,0:0:0:0:
448,192,26421,1,0,0:0:0:0:
192,192,26540,1,0,0:0:0:0:
448,192,26659,1,0,0:0:0:0:
320,192,26699,1,0,0:0:0:0:
192,192,26739,1,0,0:0:0:0:
448,192,26779,1,0,0:0:0:0:
64,192,26818,1,0,0:0:0:0:
192,192,26858,1,0,0:0:0:0:
320,192,26898,1,0,0:0:0:0:
448,192,26898,1,0,0:0:0:0:
320,192,27017,1,0,0:0:0:0:
192,192,27136,1,0,0:0:0:0:
320,192,27175,1,0,0:0:0:0:
448,192,27215,1,0,0:0:0:0:
64,192,27255,1,0,0:0:0:0:
192,192,27294,1,0,0:0:0:0:
320,192,27334,1,0,0:0:0:0:
64,192,27374,1,0,0:0:0:0:
448,192,27374,1,0,0:0:0:0:
320,192,27493,1,0,0:0:0:0:
192,192,27612,1,0,0:0:0:0:
64,192,27731,1,0,0:0:0:0:
320,192,27850,1,0,0:0:0:0:
192,192,27890,1,0,0:0:0:0:
64,192,27929,1,0,0:0:0:0:
192,192,27969,1,0,0:0:0:0:
320,192,28009,1,0,0:0:0:0:
448,192,28048,1,0,0:0:0:0:
192,192,28088,1,0,0:0:0:0:
320,192,28128,1,0,0:0:0:0:
64,192,28167,1,0,0:0:0:0:
192,192,28207,1,0,0:0:0:0:
448,192,28247,1,0,0:0:0:0:
320,192,28286,1,0,0:0:0:0:
448,192,28326,1,0,0:0:0:0:
64,192,28326,1,0,0:0:0:0:
64,192,28485,1,0,0:0:0:0:
448,192,28525,1,0,0:0:0:0:
320,192,28564,1,0,0:0:0:0:
192,192,28604,1,0,0:0:0:0:
64,192,28644,1,0,0:0:0:0:
320,192,28683,1,0,0:0:0:0:
448,192,28723,1,0,0:0:0:0:
320,192,28802,1,0,0:0:0:0:
192,192,28802,1,0,0:0:0:0:
64,192,28921,1,0,0:0:0:0:
448,192,29040,1,0,0:0:0:0:
320,192,29080,1,0,0:0:0:0:
192,192,29120,1,0,0:0:0:0:
448,192,29159,1,0,0:0:0:0:
320,192,29199,1,0,0:0:0:0:
192,192,29239,1,0,0:0:0:0:
448,192,29279,1,0,0:0:0:0:
64,192,29279,1,0,0:0:0:0:
320,192,29358,1,0,0:0:0:0:
192,192,29398,1,0,0:0:0:0:
64,192,29437,1,0,0:0:0:0:
448,192,29477,1,0,0:0:0:0:
320,192,29517,1,0,0:0:0:0:
192,192,29556,1,0,0:0:0:0:
64,192,29596,1,0,0:0:0:0:
320,192,29636,1,0,0:0:0:0:
448,192,29675,1,0,0:0:0:0:
64,192,29715,1,0,0:0:0:0:
320,192,29755,1,0,0:0:0:0:
192,192,29755,1,0,0:0:0:0:
448,192,29834,1,0,0:0:0:0:
64,192,29874,1,0,0:0:0:0:
192,192,29913,1,0,0:0:0:0:
320,192,29953,1,0,0:0:0:0:
448,192,29993,1,0,0:0:0:0:
64,192,30033,1,0,0:0:0:0:
192,192,30072,1,0,0:0:0:0:
320,192,30112,1,0,0:0:0:0:
448,192,30152,1,0,0:0:0:0:
320,192,30191,1,0,0:0:0:0:
192,192,30231,1,0,0:0:0:0:
64,192,30231,1,0,0:0:0:0:
320,192,30350,1,0,0:0:0:0:
64,192,30469,1,0,0:0:0:0:
192,192,30509,1,0,0:0:0:0:
320,192,30548,1,0,0:0:0:0:
64,192,30588,1,0,0:0:0:0:
448,192,30628,1,0,0:0:0:0:
320,192,30667,1,0,0:0:0:0:
192,192,30707,1,0,0:0:0:0:
64,192,30707,1,0,0:0:0:0:
192,192,30826,1,0,0:0:0:0:
320,192,30945,1,0,0:0:0:0:
192,192,30985,1,0,0:0:0:0:
64,192,31025,1,0,0:0:0:0:
448,192,31064,1,0,0:0:0:0:
320,192,31104,1,0,0:0:0:0:
192,192,31144,1,0,0:0:0:0:
448,192,31183,1,0,0:0:0:0:
64,192,31183,1,0,0:0:0:0:
192,192,31302,1,0,0:0:0:0:
320,192,31421,1,0,0:0:0:0:
448,192,31540,1,0,0:0:0:0:
192,192,31659,1,0,0:0:0:0:
320,192,31699,1,0,0:0:0:0:
448,192,31739,1,0,0:0:0:0:
320,192,31779,1,0,0:0:0:0:
192,192,31818,1,0,0:0:0:0:
64,192,31858,1,0,0:0:0:0:
320,192,31898,1,0,0:0:0:0:
192,192,31937,1,0,0:0:0:0:
448,192,31977,1,0,0:0:0:0:
320,192,32017,1,0,0:0:0:0:
64,192,32056,1,0,0:0:0:0:
192,192,32096,1,0,0:0:0:0:
64,192,32136,1,0,0:0:0:0:
448,192,32136,1,0,0:0:0:0:
448,192,32294,1,0,0:0:0:0:
64,192,32334,1,0,0:0:0:0:
192,192,32374,1,0,0:0:0:0:
320,192,32413,1,0,0:0:0:0:
448,192,32453,1,0,0:0:0:0:
192,192,32493,1,0,0:0:0:0:
64,192,32533,1,0,0:0:0:0:
320,192,32612,1,0,0:0:0:0:
192,192,32612,1,0,0:0:0:0:
448,192,32731,1,0,0:0:0:0:
64,192,32850,1,0,0:0:0:0:
192,192,32890,1,0,0:0:0:0:
320,192,32929,1,0,0:0:0:0:
64,192,32969,1,0,0:0:0:0:
192,192,33009,1,0,0:0:0:0:
320,192,33048,1,0,0:0:0:0:
448,192,33088,1,0,0:0:0:0:
64,192,33088,1,0,0:0:0:0:
192,192,33167,1,0,0:0:0:0:
320,192,33207,1,0,0:0:0:0:
448,192,33247,1,0,0:0:0:0:
64,192,33286,1,0,0:0:0:0:
192,192,33326,1,0,0:0:0:0:
320,192,33366,1,0,0:0:0:0:
448,192,33406,1,0,0:0:0:0:
192,192,33445,1,0,0:0:0:0:
64,192,33485,1,0,0:0:0:0:
448,192,33525,1,0,0:0:0:0:
320,192,33564,1,0,0:0:0:0:
192,192,33564,1,0,0:0:0:0:
64,192,33644,1,0,0:0:0:0:
448,192,33683,1,0,0:0:0:0:
320,192,33723,1,0,0:0:0:0:
192,192,33763,1,0,0:0:0:0:
64,192,33802,1,0,0:0:0:0:
448,192,33842,1,0,0:0:0:0:
320,192,33882,1,0,0:0:0:0:
192,192,33921,1,0,0:0:0:0:
64,192,33961,1,0,0:0:0:0:
192,192,34001,1,0,0:0:0:0:
448,192,34040,1,0,0:0:0:0:
320,192,34040,1,0,0:0:0:0:
192,192,34159,1,0,0:0:0:0:
448,192,34279,1,0,0:0:0:0:
320,192,34318,1,0,0:0:0:0:
192,192,34358,1,0,0:0:0:0:
448,192,34398,1,0,0:0:0:0:
64,192,34437,1,0,0:0:0:0:
192,192,34477,1,0,0:0:0:0:
448,192,34517,1,0,0:0:0:0:
320,192,34517,1,0,0:0:0:0:
320,192,34636,1,0,0:0:0:0:
192,192,34755,1,0,0:0:0:0:
320,192,34794,1,0,0:0:0:0:
448,192,34834,1,0,0:0:0:0:
64,192,34874,1,0,0:0:0:0:
192,192,34913,1,0,0:0:0:0:
320,192,34953,1,0,0:0:0:0:
448,192,34993,1,0,0:0:0:0:
64,192,34993,1,0,0:0:0:0:
320,192,35112,1,0,0:0:0:0:
192,192,35231,1,0,0:0:0:0:
64,192,35350,1,0,0:0:0:0:
320,192,35469,1,0,0:0:0:0:
448,192,35509,1,0,0:0:0:0:
64,192,35548,1,0,0:0:0:0:
192,192,35588,1,0,0:0:0:0:
320,192,35628,1,0,0:0:0:0:
448,192,35667,1,0,0:0:0:0:
192,192,35707,1,0,0:0:0:0:
320,192,35747,1,0,0:0:0:0:
64,192,35786,1,0,0:0:0:0:
192,192,35826,1,0,0:0:0:0:
320,192,35866,1,0,0:0:0:0:
192,192,35906,1,0,0:0:0:0:
448,192,35945,1,0,0:0:0:0:
64,192,35945,1,0,0:0:0:0:
64,192,36104,1,0,0:0:0:0:
448,192,36144,1,0,0:0:0:0:
320,192,36183,1,0,0:0:0:0:
192,192,36223,1,0,0:0:0:0:
64,192,36263,1,0,0:0:0:0:
320,192,36302,1,0,0:0:0:0:
448,192,36342,1,0,0:0:0:0:
320,192,36421,1,0,0:0:0:0:
192,192,36421,1,0,0:0:0:0:
64,192,36540,1,0,0:0:0:0:
448,192,36659,1,0,0:0:0:0:
320,192,36699,1,0,0:0:0:0:
192,192,36739,1,0,0:0:0:0:
448,192,36779,1,0,0:0:0:0:
320,192,36818,1,0,0:0:0:0:
192,192,36858,1,0,0:0:0:0:
448,192,36898,1,0,0:0:0:0:
64,192,36898,1,0,0:0:0:0:
320,192,36977,1,0,0:0:0:0:
192,192,37017,1,0,0:0:0:0:
64,192,37056,1,0,0:0:0:0:
448,192,37096,1,0,0:0:0:0:
320,192,37136,1,0,0:0:0:0:
192,192,37175,1,0,0:0:0:0:
64,192,37215,1,0,0:0:0:0:
320,192,37255,1,0,0:0:0:0:
448,192,37294,1,0,0:0:0:0:
64,192,37334,1,0,0:0:0:0:
320,192,37374,1,0,0:0:0:0:
192,192,37374,1,0,0:0:0:0:
448,192,37453,1,0,0:0:0:0:
64,192,37493,1,0,0:0:0:0:
192,192,37533,1,0,0:0:0:0:
320,192,37572,1,0,0:0:0:0:
448,192,37612,1,0,0:0:0:0:
64,192,37652,1,0,0:0:0:0:
192,192,37691,1,0,0:0:0:0:
320,192,37731,1,0,0:0:0:0:
448,192,37771,1,0,0:0:0:0:
320,192,37810,1,0,0:0:0:0:
192,192,37850,1,0,0:0:0:0:
64,192,37850,1,0,0:0:0:0:
320,192,37969,1,0,0:0:0:0:
64,192,38088,1,0,0:0:0:0:
192,192,38128,1,0,0:0:0:0:
320,192,38167,1,0,0:0:0:0:
64,192,38207,1,0,0:0:0:0:
448,192,38247,1,0,0:0:0:0:
320,192,38286,1,0,0:0:0:0:
192,192,38326,1,0,0:0:0:0:
64,192,38326,1,0,0:0:0:0:
192,192,38445,1,0,0:0:0:0:
320,192,38564,1,0,0:0:0:0:
192,192,38604,1,0,0:0:0:0:
64,192,38644,1,0,0:0:0:0:
448,192,38683,1,0,0:0:0:0:
320,192,38723,1,0,0:0:0:0:
192,192,38763,1,0,0:0:0:0:
448,192,38802,1,0,0:0:0:0:
64,192,38802,1,0,0:0:0:0:
192,192,38921,1,0,0:0:0:0:
320,192,39040,1,0,0:0:0:0:
448,192,39159,1,0,0:0:0:0:
192,192,39279,1,0,0:0:0:0:
64,192,39318,1,0,0:0:0:0:
448,192,39358,1,0,0:0:0:0:
320,192,39398,1,0,0:0:0:0:
192,192,39437,1,0,0:0:0:0:
64,192,39477,1,0,0:0:0:0:
448,192,39517,1,0,0:0:0:0:
192,192,39556,1,0,0:0:0:0:
320,192,39596,1,0,0:0:0:0:
64,192,39636,1,0,0:0:0:0:
448,192,39675,1,0,0:0:0:0:
320,192,39715,1,0,0:0:0:0:
64,192,39755,1,0,0:0:0:0:
192,192,39794,1,0,0:0:0:0:
320,192,39834,1,0,0:0:0:0:
448,192,39874,1,0,0:0:0:0:
64,192,39913,1,0,0:0:0:0:
192,192,39953,1,0,0:0:0:0:
320,192,39993,1,0,0:0:0:0:
448,192,40033,1,0,0:0:0:0:
64,192,40072,1,0,0:0:0:0:
192,192,40112,1,0,0:0:0:0:
320,192,40152,1,0,0:0:0:0:
448,192,40191,1,0,0:0:0:0:
320,192,40231,1,0,0:0:0:0:
192,192,40271,1,0,0:0:0:0:
64,192,40310,1,0,0:0:0:0:
448,192,40350,1,0,0:0:0:0:
320,192,40390,1,0,0:0:0:0:
192,192,40429,1,0,0:0:0:0:
64,192,40469,1,0,0:0:0:0:
448,192,40509,1,0,0:0:0:0:
320,192,40548,1,0,0:0:0:0:
192,192,40588,1,0,0:0:0:0:
64,192,40628,1,0,0:0:0:0:
448,192,40667,1,0,0:0:0:0:
320,192,40707,1,0,0:0:0:0:
192,192,40747,1,0,0:0:0:0:
64,192,40786,1,0,0:0:0:0:
448,192,40826,1,0,0:0:0:0:
320,192,40866,1,0,0:0:0:0:
192,192,40906,1,0,0:0:0:0:
64,192,40945,1,0,0:0:0:0:
448,192,40945,1,0,0:0:0:0:
320,192,41025,1,0,0:0:0:0:
192,192,41104,1,0,0:0:0:0:
448,192,41183,1,0,0:0:0:0:
320,192,41183,1,0,0:0:0:0:
64,192,41263,1,0,0:0:0:0:
448,192,41342,1,0,0:0:0:0:
320,192,41421,1,0,0:0:0:0:
192,192,41421,1,0,0:0:0:0:
64,192,41501,1,0,0:0:0:0:
448,192,41580,1,0,0:0:0:0:
64,192,41659,1,0,0:0:0:0:
192,192,41699,1,0,0:0:0:0:
320,192,41739,1,0,0:0:0:0:
448,192,41779,1,0,0:0:0:0:
64,192,41818,1,0,0:0:0:0:
192,192,41858,1,0,0:0:0:0:
320,192,41898,1,0,0:0:0:0:
448,192,41937,1,0,0:0:0:0:
64,192,41977,1,0,0:0:0:0:
192,192,42017,1,0,0:0:0:0:
320,192,42056,1,0,0:0:0:0:
448,192,42096,1,0,0:0:0:0:
320,192,42136,1,0,0:0:0:0:
192,192,42175,1,0,0:0:0:0:
64,192,42215,1,0,0:0:0:0:
448,192,42255,1,0,0:0:0:0:
320,192,42294,1,0,0:0:0:0:
192,192,42334,1,0,0:0:0:0:
64,192,42374,1,0,0:0:0:0:
448,192,42413,1,0,0:0:0:0:
320,192,42453,1,0,0:0:0:0:
192,192,42493,1,0,0:0:0:0:
64,192,42533,1,0,0:0:0:0:
448,192,42572,1,0,0:0:0:0:
320,192,42612,1,0,0:0:0:0:
192,192,42652,1,0,0:0:0:0:
64,192,42691,1,0,0:0:0:0:
448,192,42731,1,0,0:0:0:0:
320,192,42771,1,0,0:0:0:0:
192,192,42810,1,0,0:0:0:0:
64,192,42850,1,0,0:0:0:0:
448,192,42850,1,0,0:0:0:0:
192,192,42929,1,0,0:0:0:0:
320,192,43009,1,0,0:0:0:0:
192,192,43088,1,0,0:0:0:0:
448,192,43088,1,0,0:0:0:0:
320,192,43167,1,0,0:0:0:0:
64,192,43247,1,0,0:0:0:0:
320,192,43326,1,0,0:0:0:0:
192,192,43326,1,0,0:0:0:0:
448,192,43406,1,0,0:0:0:0:
320,192,43485,1,0,0:0:0:0:
64,192,43564,1,0,0:0:0:0:
192,192,43604,1,0,0:0:0:0:
320,192,43644,1,0,0:0:0:0:
448,192,43683,1,0,0:0:0:0:
64,192,43723,1,0,0:0:0:0:
192,192,43763,1,0,0:0:0:0:
320,192,43802,1,0,0:0:0:0:
448,192,43842,1,0,0:0:0:0:
64,192,43882,1,0,0:0:0:0:
192,192,43921,1,0,0:0:0:0:
320,192,43961,1,0,0:0:0:0:
448,192,44001,1,0,0:0:0:0:
320,192,44040,1,0,0:0:0:0:
192,192,44080,1,0,0:0:0:0:
64,192,44120,1,0,0:0:0:0:
448,192,44159,1,0,0:0:0:0:
320,192,44199,1,0,0:0:0:0:
192,192,44239,1,0,0:0:0:0:
64,192,44279,1,0,0:0:0:0:
448,192,44318,1,0,0:0:0:0:
320,192,44358,1,0,0:0:0:0:
192,192,44398,1,0,0:0:0:0:
64,192,44437,1,0,0:0:0:0:
448,192,44477,1,0,0:0:0:0:
320,192,44517,1,0,0:0:0:0:
192,192,44556,1,0,0:0:0:0:
64,192,44596,1,0,0:0:0:0:
448,192,44636,1,0,0:0:0:0:
320,192,44675,1,0,0:0:0:0:
192,192,44715,1,0,0:0:0:0:
448,192,44755,1,0,0:0:0:0:
64,192,44755,1,0,0:0:0:0:
320,192,44834,1,0,0:0:0:0:
448,192,44913,1,0,0:0:0:0:
192,192,44993,1,0,0:0:0:0:
64,192,44993,1,0,0:0:0:0:
320,192,45072,1,0,0:0:0:0:
192,192,45152,1,0,0:0:0:0:
320,192,45231,1,0,0:0:0:0:
448,192,45231,1,0,0:0:0:0:
64,192,45310,1,0,0:0:0:0:
192,192,45390,1,0,0:0:0:0:
448,192,45469,1,0,0:0:0:0:
64,192,45469,1,0,0:0:0:0:
320,192,45509,1,0,0:0:0:0:
192,192,45588,1,0,0:0:0:0:
320,192,45707,1,0,0:0:0:0:
64,192,45826,1,0,0:0:0:0:
448,192,45826,1,0,0:0:0:0:
320,192,45866,1,0,0:0:0:0:
192,192,45945,1,0,0:0:0:0:
448,192,46064,1,0,0:0:0:0:
64,192,46183,1,0,0:0:0:0:
320,192,46183,1,0,0:0:0:0:
192,192,46223,1,0,0:0:0:0:
448,192,46243,1,0,0:0:0:0:
448,192,46421,1,0,0:0:0:0:
64,192,46421,1,0,0:0:0:0:
320,192,46461,1,0,0:0:0:0:
192,192,46501,1,0,0:0:0:0:
64,192,46540,1,0,0:0:0:0:
448,192,46580,1,0,0:0:0:0:
320,192,46620,1,0,0:0:0:0:
192,192,46659,1,0,0:0:0:0:
448,192,46699,1,0,0:0:0:0:
320,192,46739,1,0,0:0:0:0:
64,192,46779,1,0,0:0:0:0:
192,192,46818,1,0,0:0:0:0:
320,192,46858,1,0,0:0:0:0:
448,192,46898,1,0,0:0:0:0:
64,192,46937,1,0,0:0:0:0:
192,192,46977,1,0,0:0:0:0:
320,192,47017,1,0,0:0:0:0:
64,192,47056,1,0,0:0:0:0:
192,192,47096,1,0,0:0:0:0:
320,192,47136,1,0,0:0:0:0:
448,192,47175,1,0,0:0:0:0:
192,192,47215,1,0,0:0:0:0:
320,192,47255,1,0,0:0:0:0:
448,192,47294,1,0,0:0:0:0:
64,192,47374,1,0,0:0:0:0:
192,192,47413,1,0,0:0:0:0:
320,192,47453,1,0,0:0:0:0:
448,192,47493,1,0,0:0:0:0:
64,192,47533,1,0,0:0:0:0:
192,192,47572,1,0,0:0:0:0:
320,192,47612,1,0,0:0:0:0:
448,192,47652,1,0,0:0:0:0:
64,192,47691,1,0,0:0:0:0:
192,192,47731,1,0,0:0:0:0:
320,192,47771,1,0,0:0:0:0:
448,192,47810,1,0,0:0:0:0:
320,192,47850,1,0,0:0:0:0:
192,192,47890,1,0,0:0:0:0:
64,192,47929,1,0,0:0:0:0:
448,192,47969,1,0,0:0:0:0:
320,192,48009,1,0,0:0:0:0:
192,192,48048,1,0,0:0:0:0:
64,192,48088,1,0,0:0:0:0:
448,192,48128,1,0,0:0:0:0:
320,192,48167,1,0,0:0:0:0:
192,192,48207,1,0,0:0:0:0:
64,192,48247,1,0,0:0:0:0:
448,192,48286,1,0,0:0:0:0:
320,192,48326,1,0,0:0:0:0:
192,192,48366,1,0,0:0:0:0:
64,192,48406,1,0,0:0:0:0:
448,192,48445,1,0,0:0:0:0:
320,192,48485,1,0,0:0:0:0:
192,192,48525,1,0,0:0:0:0:
64,192,48564,1,0,0:0:0:0:
448,192,48564,1,0,0:0:0:0:
320,192,48644,1,0,0:0:0:0:
192,192,48723,1,0,0:0:0:0:
448,192,48802,1,0,0:0:0:0:
320,192,48802,1,0,0:0:0:0:
64,192,48882,1,0,0:0:0:0:
448,192,48961,1,0,0:0:0:0:
320,192,49040,1,0,0:0:0:0:
192,192,49040,1,0,0:0:0:0:
64,192,49120,1,0,0:0:0:0:
448,192,49199,1,0,0:0:0:0:
64,192,49279,1,0,0:0:0:0:
192,192,49318,1,0,0:0:0:0:
320,192,49358,1,0,0:0:0:0:
448,192,49398,1,0,0:0:0:0:
64,192,49437,1,0,0:0:0:0:
192,192,49477,1,0,0:0:0:0:
320,192,49517,1,0,0:0:0:0:
448,192,49556,1,0,0:0:0:0:
64,192,49596,1,0,0:0:0:0:
192,192,49636,1,0,0:0:0:0:
320,192,49675,1,0,0:0:0:0:
448,192,49715,1,0,0:0:0:0:
320,192,49755,1,0,0:0:0:0:
192,192,49794,1,0,0:0:0:0:
64,192,49834,1,0,0:0:0:0:
448,192,49874,1,0,0:0:0:0:
320,192,49913,1,0,0:0:0:0:
192,192,49953,1,0,0:0:0:0:
64,192,49993,1,0,0:0:0:0:
448,192,50033,1,0,0:0:0:0:
320,192,50072,1,0,0:0:0:0:
192,192,50112,1,0,0:0:0:0:
64,192,50152,1,0,0:0:0:0:
448,192,50191,1,0,0:0:0:0:
320,192,50231,1,0,0:0:0:0:
192,192,50271,1,0,0:0:0:0:
64,192,50310,1,0,0:0:0:0:
448,192,50350,1,0,0:0:0:0:
320,192,50390,1,0,0:0:0:0:
192,192,50429,1,0,0:0:0:0:
64,192,50469,1,0,0:0:0:0:
448,192,50469,1,0,0:0:0:0:
192,192,50548,1,0,0:0:0:0:
320,192,50628,1,0,0:0:0:0:
192,192,50707,1,0,0:0:0:0:
448,192,50707,1,0,0:0:0:0:
320,192,50786,1,0,0:0:0:0:
64,192,50866,1,0,0:0:0:0:
320,192,50945,1,0,0:0:0:0:
192,192,50945,1,0,0:0:0:0:
448,192,51025,1,0,0:0:0:0:
320,192,51104,1,0,0:0:0:0:
64,192,51183,1,0,0:0:0:0:
192,192,51223,1,0,0:0:0:0:
320,192,51263,1,0,0:0:0:0:
448,192,51302,1,0,0:0:0:0:
64,192,51342,1,0,0:0:0:0:
192,192,51382,1,0,0:0:0:0:
320,192,51421,1,0,0:0:0:0:
448,192,51461,1,0,0:0:0:0:
64,192,51501,1,0,0:0:0:0:
192,192,51540,1,0,0:0:0:0:
320,192,51580,1,0,0:0:0:0:
448,192,51620,1,0,0:0:0:0:
320,192,51659,1,0,0:0:0:0:
192,192,51699,1,0,0:0:0:0:
64,192,51739,1,0,0:0:0:0:
448,192,51779,1,0,0:0:0:0:
320,192,51818,1,0,0:0:0:0:
192,192,51858,1,0,0:0:0:0:
64,192,51898,1,0,0:0:0:0:
448,192,51937,1,0,0:0:0:0:
320,192,51977,1,0,0:0:0:0:
192,192,52017,1,0,0:0:0:0:
64,192,52056,1,0,0:0:0:0:
448,192,52096,1,0,0:0:0:0:
320,192,52136,1,0,0:0:0:0:
192,192,52175,1,0,0:0:0:0:
64,192,52215,1,0,0:0:0:0:
448,192,52255,1,0,0:0:0:0:
320,192,52294,1,0,0:0:0:0:
192,192,52334,1,0,0:0:0:0:
448,192,52374,1,0,0:0:0:0:
64,192,52374,1,0,0:0:0:0:
320,192,52453,1,0,0:0:0:0:
448,192,52533,1,0,0:0:0:0:
192,192,52612,1,0,0:0:0:0:
64,192,52612,1,0,0:0:0:0:
320,192,52691,1,0,0:0:0:0:
192,192,52771,1,0,0:0:0:0:
320,192,52850,1,0,0:0:0:0:
448,192,52850,1,0,0:0:0:0:
64,192,52929,1,0,0:0:0:0:
192,192,53009,1,0,0:0:0:0:
448,192,53088,1,0,0:0:0:0:
64,192,53088,1,0,0:0:0:0:
320,192,53128,1,0,0:0:0:0:
192,192,53207,1,0,0:0:0:0:
320,192,53326,1,0,0:0:0:0:
64,192,53445,1,0,0:0:0:0:
448,192,53445,1,0,0:0:0:0:
320,192,53485,1,0,0:0:0:0:
192,192,53564,1,0,0:0:0:0:
448,192,53683,1,0,0:0:0:0:
64,192,53802,1,0,0:0:0:0:
320,192,53802,1,0,0:0:0:0:
192,192,53842,1,0,0:0:0:0:
448,192,53862,1,0,0:0:0:0:
448,192,54040,1,0,0:0:0:0:
64,192,54040,1,0,0:0:0:0:
320,192,54080,1,0,0:0:0:0:
192,192,54120,1,0,0:0:0:0:
64,192,54159,1,0,0:0:0:0:
448,192,54199,1,0,0:0:0:0:
320,192,54239,1,0,0:0:0:0:
192,192,54279,1,0,0:0:0:0:
448,192,54318,1,0,0:0:0:0:
320,192,54358,1,0,0:0:0:0:
64,192,54398,1,0,0:0:0:0:
192,192,54437,1,0,0:0:0:0:
320,192,54477,1,0,0:0:0:0:
448,192,54517,1,0,0:0:0:0:
64,192,54556,1,0,0:0:0:0:
192,192,54596,1,0,0:0:0:0:
320,192,54636,1,0,0:0:0:0:
64,192,54675,1,0,0:0:0:0:
192,192,54715,1,0,0:0:0:0:
320,192,54755,1,0,0:0:0:0:
448,192,54794,1,0,0:0:0:0:
192,192,54834,1,0,0:0:0:0:
320,192,54874,1,0,0:0:0:0:
448,192,54913,1,0,0:0:0:0:
64,192,54993,1,0,0:0:0:0:
192,192,54993,1,0,0:0:0:0:
320,192,55033,1,0,0:0:0:0:
448,192,55072,1,0,0:0:0:0:
192,192,55112,1,0,0:0:0:0:
320,192,55152,1,0,0:0:0:0:
448,192,55191,1,0,0:0:0:0:
192,192,55231,1,0,0:0:0:0:
320,192,55271,1,0,0:0:0:0:
448,192,55310,1,0,0:0:0:0:
192,192,55350,1,0,0:0:0:0:
320,192,55390,1,0,0:0:0:0:
448,192,55429,1,0,0:0:0:0:
320,192,55469,1,0,0:0:0:0:
192,192,55509,1,0,0:0:0:0:
64,192,55548,1,0,0:0:0:0:
320,192,55588,1,0,0:0:0:0:
192,192,55628,1,0,0:0:0:0:
64,192,55667,1,0,0:0:0:0:
320,192,55707,1,0,0:0:0:0:
192,192,55747,1,0,0:0:0:0:
64,192,55786,1,0,0:0:0:0:
320,192,55826,1,0,0:0:0:0:
192,192,55866,1,0,0:0:0:0:
64,192,55906,1,0,0:0:0:0:
320,192,55945,1,0,0:0:0:0:
192,192,55985,1,0,0:0:0:0:
64,192,56025,1,0,0:0:0:0:
320,192,56064,1,0,0:0:0:0:
192,192,56104,1,0,0:0:0:0:
64,192,56144,1,0,0:0:0:0:
192,192,56183,1,0,0:0:0:0:
448,192,56183,1,0,0:0:0:0:
320,192,56263,1,0,0:0:0:0:
192,192,56342,1,0,0:0:0:0:
448,192,56421,1,0,0:0:0:0:
320,192,56421,1,0,0:0:0:0:
64,192,56501,1,0,0:0:0:0:
448,192,56580,1,0,0:0:0:0:
320,192,56659,1,0,0:0:0:0:
192,192,56659,1,0,0:0:0:0:
64,192,56739,1,0,0:0:0:0:
448,192,56818,1,0,0:0:0:0:
192,192,56898,1,0,0:0:0:0:
320,192,56937,1,0,0:0:0:0:
448,192,56977,1,0,0:0:0:0:
192,192,57017,1,0,0:0:0:0:
320,192,57056,1,0,0:0:0:0:
448,192,57096,1,0,0:0:0:0:
192,192,57136,1,0,0:0:0:0:
320,192,57175,1,0,0:0:0:0:
448,192,57215,1,0,0:0:0:0:
192,192,57255,1,0,0:0:0:0:
320,192,57294,1,0,0:0:0:0:
448,192,57334,1,0,0:0:0:0:
320,192,57374,1,0,0:0:0:0:
192,192,57413,1,0,0:0:0:0:
64,192,57453,1,0,0:0:0:0:
320,192,57493,1,0,0:0:0:0:
192,192,57533,1,0,0:0:0:0:
64,192,57572,1,0,0:0:0:0:
320,192,57612,1,0,0:0:0:0:
192,192,57652,1,0,0:0:0:0:
64,192,57691,1,0,0:0:0:0:
320,192,57731,1,0,0:0:0:0:
192,192,57771,1,0,0:0:0:0:
64,192,57810,1,0,0:0:0:0:
320,192,57850,1,0,0:0:0:0:
192,192,57890,1,0,0:0:0:0:
64,192,57929,1,0,0:0:0:0:
320,192,57969,1,0,0:0:0:0:
192,192,58009,1,0,0:0:0:0:
64,192,58048,1,0,0:0:0:0:
320,192,58088,1,0,0:0:0:0:
448,192,58088,1,0,0:0:0:0:
192,192,58167,1,0,0:0:0:0:
320,192,58247,1,0,0:0:0:0:
192,192,58326,1,0,0:0:0:0:
448,192,58326,1,0,0:0:0:0:
320,192,58406,1,0,0:0:0:0:
64,192,58485,1,0,0:0:0:0:
320,192,58564,1,0,0:0:0:0:
192,192,58564,1,0,0:0:0:0:
448,192,58644,1,0,0:0:0:0:
320,192,58723,1,0,0:0:0:0:
192,192,58802,1,0,0:0:0:0:
64,192,58802,1,0,0:0:0:0:
320,192,58842,1,0,0:0:0:0:
448,192,58882,1,0,0:0:0:0:
192,192,58921,1,0,0:0:0:0:
320,192,58961,1,0,0:0:0:0:
448,192,59001,1,0,0:0:0:0:
192,192,59040,1,0,0:0:0:0:
320,192,59080,1,0,0:0:0:0:
448,192,59120,1,0,0:0:0:0:
192,192,59159,1,0,0:0:0:0:
320,192,59199,1,0,0:0:0:0:
448,192,59239,1,0,0:0:0:0:
320,192,59279,1,0,0:0:0:0:
192,192,59318,1,0,0:0:0:0:
64,192,59358,1,0,0:0:0:0:
320,192,59398,1,0,0:0:0:0:
192,192,59437,1,0,0:0:0:0:
64,192,59477,1,0,0:0:0:0:
320,192,59517,1,0,0:0:0:0:
192,192,59556,1,0,0:0:0:0:
64,192,59596,1,0,0:0:0:0:
320,192,59636,1,0,0:0:0:0:
192,192,59675,1,0,0:0:0:0:
64,192,59715,1,0,0:0:0:0:
320,192,59755,1,0,0:0:0:0:
192,192,59794,1,0,0:0:0:0:
64,192,59834,1,0,0:0:0:0:
320,192,59874,1,0,0:0:0:0:
192,192,59913,1,0,0:0:0:0:
64,192,59953,1,0,0:0:0:0:
448,192,59993,1,0,0:0:0:0:
320,192,59993,1,0,0:0:0:0:
192,192,60072,1,0,0:0:0:0:
448,192,60152,1,0,0:0:0:0:
192,192,60231,1,0,0:0:0:0:
64,192,60231,1,0,0:0:0:0:
320,192,60310,1,0,0:0:0:0:
192,192,60390,1,0,0:0:0:0:
320,192,60469,1,0,0:0:0:0:
448,192,60469,1,0,0:0:0:0:
64,192,60548,1,0,0:0:0:0:
192,192,60628,1,0,0:0:0:0:
448,192,60707,1,0,0:0:0:0:
64,192,60707,1,0,0:0:0:0:
320,192,60747,1,0,0:0:0:0:
192,192,60826,1,0,0:0:0:0:
320,192,60945,1,0,0:0:0:0:
64,192,61064,1,0,0:0:0:0:
448,192,61064,1,0,0:0:0:0:
320,192,61104,1,0,0:0:0:0:
192,192,61183,1,0,0:0:0:0:
448,192,61302,1,0,0:0:0:0:
64,192,61421,1,0,0:0:0:0:
320,192,61421,1,0,0:0:0:0:
192,192,61461,1,0,0:0:0:0:
448,192,61481,1,0,0:0:0:0:
448,192,61659,1,0,0:0:0:0:
64,192,61659,1,0,0:0:0:0:
320,192,61699,1,0,0:0:0:0:
192,192,61739,1,0,0:0:0:0:
64,192,61779,1,0,0:0:0:0:
448,192,61818,1,0,0:0:0:0:
320,192,61858,1,0,0:0:0:0:
192,192,61898,1,0,0:0:0:0:
448,192,61937,1,0,0:0:0:0:
320,192,61977,1,0,0:0:0:0:
64,192,62017,1,0,0:0:0:0:
192,192,62056,1,0,0:0:0:0:
320,192,62096,1,0,0:0:0:0:
448,192,62136,1,0,0:0:0:0:
64,192,62175,1,0,0:0:0:0:
192,192,62215,1,0,0:0:0:0:
320,192,62255,1,0,0:0:0:0:
64,192,62294,1,0,0:0:0:0:
192,192,62334,1,0,0:0:0:0:
320,192,62374,1,0,0:0:0:0:
448,192,62413,1,0,0:0:0:0:
192,192,62453,1,0,0:0:0:0:
320,192,62493,1,0,0:0:0:0:
448,192,62533,1,0,0:0:0:0:
64,192,62612,1,0,0:0:0:0:
192,192,62612,1,0,0:0:0:0:
320,192,62652,1,0,0:0:0:0:
448,192,62691,1,0,0:0:0:0:
192,192,62731,1,0,0:0:0:0:
320,192,62771,1,0,0:0:0:0:
448,192,62810,1,0,0:0:0:0:
192,192,62850,1,0,0:0:0:0:
320,192,62890,1,0,0:0:0:0:
448,192,62929,1,0,0:0:0:0:
192,192,62969,1,0,0:0:0:0:
320,192,63009,1,0,0:0:0:0:
448,192,63048,1,0,0:0:0:0:
320,192,63088,1,0,0:0:0:0:
192,192,63128,1,0,0:0:0:0:
64,192,63167,1,0,0:0:0:0:
320,192,63207,1,0,0:0:0:0:
192,192,63247,1,0,0:0:0:0:
64,192,63286,1,0,0:0:0:0:
320,192,63326,1,0,0:0:0:0:
192,192,63366,1,0,0:0:0:0:
64,192,63406,1,0,0:0:0:0:
320,192,63445,1,0,0:0:0:0:
192,192,63485,1,0,0:0:0:0:
64,192,63525,1,0,0:0:0:0:
320,192,63564,1,0,0:0:0:0:
192,192,63604,1,0,0:0:0:0:
64,192,63644,1,0,0:0:0:0:
320,192,63683,1,0,0:0:0:0:
192,192,63723,1,0,0:0:0:0:
64,192,63763,1,0,0:0:0:0:
320,192,63802,1,0,0:0:0:0:
448,192,63802,1,0,0:0:0:0:
192,192,63882,1,0,0:0:0:0:
320,192,63961,1,0,0:0:0:0:
448,192,64040,1,0,0:0:0:0:
192,192,64040,1,0,0:0:0:0:
64,192,64120,1,0,0:0:0:0:
448,192,64199,1,0,0:0:0:0:
320,192,64279,1,0,0:0:0:0:
192,192,64279,1,0,0:0:0:0:
64,192,64358,1,0,0:0:0:0:
448,192,64437,1,0,0:0:0:0:
192,192,64517,1,0,0:0:0:0:
320,192,64556,1,0,0:0:0:0:
448,192,64596,1,0,0:0:0:0:
192,192,64636,1,0,0:0:0:0:
320,192,64675,1,0,0:0:0:0:
448,192,64715,1,0,0:0:0:0:
192,192,64755,1,0,0:0:0:0:
320,192,64794,1,0,0:0:0:0:
448,192,64834,1,0,0:0:0:0:
192,192,64874,1,0,0:0:0:0:
320,192,64913,1,0,0:0:0:0:
448,192,64953,1,0,0:0:0:0:
320,192,64993,1,0,0:0:0:0:
192,192,65033,1,0,0:0:0:0:
64,192,65072,1,0,0:0:0:0:
320,192,65112,1,0,0:0:0:0:
192,192,65152,1,0,0:0:0:0:
64,192,65191,1,0,0:0:0:0:
320,192,65231,1,0,0:0:0:0:
192,192,65271,1,0,0:0:0:0:
64,192,65310,1,0,0:0:0:0:
320,192,65350,1,0,0:0:0:0:
192,192,65390,1,0,0:0:0:0:
64,192,65429,1,0,0:0:0:0:
320,192,65469,1,0,0:0:0:0:
192,192,65509,1,0,0:0:0:0:
64,192,65548,1,0,0:0:0:0:
320,192,65588,1,0,0:0:0:0:
192,192,65628,1,0,0:0:0:0:
64,192,65667,1,0,0:0:0:0:
320,192,65707,1,0,0:0:0:0:
448,192,65707,1,0,0:0:0:0:
192,192,65786,1,0,0:0:0:0:
320,192,65866,1,0,0:0:0:0:
192,192,65945,1,0,0:0:0:0:
448,192,65945,1,0,0:0:0:0:
320,192,66025,1,0,0:0:0:0:
64,192,66104,1,0,0:0:0:0:
320,192,66183,1,0,0:0:0:0:
192,192,66183,1,0,0:0:0:0:
448,192,66263,1,0,0:0:0:0:
320,192,66342,1,0,0:0:0:0:
192,192,66421,1,0,0:0:0:0:
64,192,66421,1,0,0:0:0:0:
320,192,66461,1,0,0:0:0:0:
448,192,66501,1,0,0:0:0:0:
192,192,66540,1,0,0:0:0:0:
320,192,66580,1,0,0:0:0:0:
448,192,66620,1,0,0:0:0:0:
192,192,66659,1,0,0:0:0:0:
320,192,66699,1,0,0:0:0:0:
448,192,66739,1,0,0:0:0:0:
192,192,66779,1,0,0:0:0:0:
320,192,66818,1,0,0:0:0:0:
448,192,66858,1,0,0:0:0:0:
320,192,66898,1,0,0:0:0:0:
192,192,66937,1,0,0:0:0:0:
64,192,66977,1,0,0:0:0:0:
320,192,67017,1,0,0:0:0:0:
192,192,67056,1,0,0:0:0:0:
64,192,67096,1,0,0:0:0:0:
320,192,67136,1,0,0:0:0:0:
192,192,67175,1,0,0:0:0:0:
64,192,67215,1,0,0:0:0:0:
320,192,67255,1,0,0:0:0:0:
192,192,67294,1,0,0:0:0:0:
64,192,67334,1,0,0:0:0:0:
320,192,67374,1,0,0:0:0:0:
192,192,67413,1,0,0:0:0:0:
64,192,67453,1,0,0:0:0:0:
320,192,67493,1,0,0:0:0:0:
192,192,67533,1,0,0:0:0:0:
64,192,67572,1,0,0:0:0:0:
448,192,67612,1,0,0:0:0:0:
192,192,67612,1,0,0:0:0:0:
320,192,67691,1,0,0:0:0:0:
448,192,67771,1,0,0:0:0:0:
192,192,67850,1,0,0:0:0:0:
64,192,67850,1,0,0:0:0:0:
320,192,67929,1,0,0:0:0:0:
192,192,68009,1,0,0:0:0:0:
320,192,68088,1,0,0:0:0:0:
448,192,68088,1,0,0:0:0:0:
64,192,68167,1,0,0:0:0:0:
192,192,68247,1,0,0:0:0:0:
448,192,68326,1,0,0:0:0:0:
64,192,68326,1,0,0:0:0:0:
320,192,68366,1,0,0:0:0:0:
192,192,68445,1,0,0:0:0:0:
320,192,68564,1,0,0:0:0:0:
64,192,68683,1,0,0:0:0:0:
448,192,68683,1,0,0:0:0:0:
320,192,68723,1,0,0:0:0:0:
192,192,68802,1,0,0:0:0:0:
448,192,68921,1,0,0:0:0:0:
64,192,69040,5,0,0:0:0:0:
320,192,69040,1,0,0:0:0:0:
192,192,69080,1,0,0:0:0:0:
448,192,69100,1,0,0:0:0:0:
448,192,69279,1,0,0:0:0:0:
64,192,69279,1,0,0:0:0:0:
192,192,69318,1,0,0:0:0:0:
320,192,69358,1,0,0:0:0:0:
64,192,69398,1,0,0:0:0:0:
448,192,69437,1,0,0:0:0:0:
320,192,69477,1,0,0:0:0:0:
192,192,69517,1,0,0:0:0:0:
448,192,69556,1,0,0:0:0:0:
320,192,69596,1,0,0:0:0:0:
64,192,69636,1,0,0:0:0:0:
192,192,69675,1,0,0:0:0:0:
320,192,69715,1,0,0:0:0:0:
448,192,69755,1,0,0:0:0:0:
64,192,69794,1,0,0:0:0:0:
192,192,69834,1,0,0:0:0:0:
320,192,69874,1,0,0:0:0:0:
64,192,69913,1,0,0:0:0:0:
192,192,69953,1,0,0:0:0:0:
320,192,69993,1,0,0:0:0:0:
448,192,70033,1,0,0:0:0:0:
192,192,70072,1,0,0:0:0:0:
320,192,70112,1,0,0:0:0:0:
64,192,70152,1,0,0:0:0:0:
192,192,70231,5,0,0:0:0:0:
448,192,70231,1,0,0:0:0:0:
320,192,70231,1,0,0:0:0:0:
64,192,70469,1,0,0:0:0:0:
320,192,70469,1,0,0:0:0:0:
448,192,70469,1,0,0:0:0:0:
192,192,70707,1,0,0:0:0:0:
320,192,70707,1,0,0:0:0:0:
64,192,70707,1,0,0:0:0:0:
448,192,70945,1,0,0:0:0:0:
64,192,70945,1,0,0:0:0:0:
192,192,70945,1,0,0:0:0:0:
320,192,71183,1,0,0:0:0:0:
448,192,71183,1,0,0:0:0:0:
64,192,71183,1,0,0:0:0:0:
448,192,71421,1,0,0:0:0:0:
192,192,71421,1,0,0:0:0:0:
320,192,71421,1,0,0:0:0:0:
320,192,71659,1,0,0:0:0:0:
64,192,71659,1,0,0:0:0:0:
192,192,71659,1,0,0:0:0:0:
64,192,71898,1,0,0:0:0:0:
448,192,71898,1,0,0:0:0:0:
64,192,72136,1,0,0:0:0:0:
448,192,72136,1,0,0:0:0:0:
192,192,72136,1,0,0:0:0:0:
320,192,72136,1,0,0:0:0:0:
192,192,72374,1,0,0:0:0:0:
64,192,72374,1,0,0:0:0:0:
64,192,72612,1,0,0:0:0:0:
448,192,72612,1,0,0:0:0:0:
320,192,72612,1,0,0:0:0:0:
192,192,72612,1,0,0:0:0:0:
192,192,72850,1,0,0:0:0:0:
448,192,72850,1,0,0:0:0:0:
192,192,73088,1,0,0:0:0:0:
448,192,73088,1,0,0:0:0:0:
320,192,73088,1,0,0:0:0:0:
64,192,73088,1,0,0:0:0:0:
64,192,73326,1,0,0:0:0:0:
320,192,73326,1,0,0:0:0:0:
192,192,73564,1,0,0:0:0:0:
448,192,73564,1,0,0:0:0:0:
64,192,73564,1,0,0:0:0:0:
320,192,73564,1,0,0:0:0:0:
448,192,73802,1,0,0:0:0:0:
320,192,73802,1,0,0:0:0:0:
192,192,74040,1,0,0:0:0:0:
320,192,74040,1,0,0:0:0:0:
64,192,74040,1,0,0:0:0:0:
64,192,74279,1,0,0:0:0:0:
320,192,74279,1,0,0:0:0:0:
448,192,74279,1,0,0:0:0:0:
64,192,74517,1,0,0:0:0:0:
448,192,74517,1,0,0:0:0:0:
192,192,74517,1,0,0:0:0:0:
64,192,74755,1,0,0:0:0:0:
192,192,74755,1,0,0:0:0:0:
320,192,74755,1,0,0:0:0:0:
448,192,74993,1,0,0:0:0:0:
320,192,74993,1,0,0:0:0:0:
64,192,74993,1,0,0:0:0:0:
192,192,75231,1,0,0:0:0:0:
320,192,75231,1,0,0:0:0:0:
448,192,75231,1,0,0:0:0:0:
320,192,75469,1,0,0:0:0:0:
64,192,75469,1,0,0:0:0:0:
192,192,75469,1,0,0:0:0:0:
448,192,75707,1,0,0:0:0:0:
64,192,75707,1,0,0:0:0:0:
64,192,75945,1,0,0:0:0:0:
192,192,75945,1,0,0:0:0:0:
448,192,75945,1,0,0:0:0:0:
320,192,75945,1,0,0:0:0:0:
192,192,76183,1,0,0:0:0:0:
448,192,76183,1,0,0:0:0:0:
448,192,76421,1,0,0:0:0:0:
320,192,76421,1,0,0:0:0:0:
192,192,76421,1,0,0:0:0:0:
64,192,76421,1,0,0:0:0:0:
320,192,76659,1,0,0:0:0:0:
448,192,76659,1,0,0:0:0:0:
64,192,76898,1,0,0:0:0:0:
192,192,76898,1,0,0:0:0:0:
448,192,76898,1,0,0:0:0:0:
320,192,76898,1,0,0:0:0:0:
320,192,77136,1,0,0:0:0:0:
64,192,77136,1,0,0:0:0:0:
64,192,77374,1,0,0:0:0:0:
192,192,77374,1,0,0:0:0:0:
320,192,77374,1,0,0:0:0:0:
448,192,77374,1,0,0:0:0:0:
64,192,77612,1,0,0:0:0:0:
192,192,77612,1,0,0:0:0:0:
64,192,77850,1,0,0:0:0:0:
192,192,77850,1,0,0:0:0:0:
320,192,77850,1,0,0:0:0:0:
64,192,78088,1,0,0:0:0:0:
448,192,78088,1,0,0:0:0:0:
320,192,78088,1,0,0:0:0:0:
64,192,78326,1,0,0:0:0:0:
192,192,78326,1,0,0:0:0:0:
320,192,78326,1,0,0:0:0:0:
448,192,78564,1,0,0:0:0:0:
64,192,78564,1,0,0:0:0:0:
192,192,78564,1,0,0:0:0:0:
320,192,78802,1,0,0:0:0:0:
64,192,78802,1,0,0:0:0:0:
448,192,78802,1,0,0:0:0:0:
192,192,78842,1,0,0:0:0:0:
64,192,78882,1,0,0:0:0:0:
448,192,78921,1,0,0:0:0:0:
320,192,78961,1,0,0:0:0:0:
64,192,79001,1,0,0:0:0:0:
192,192,79040,1,0,0:0:0:0:
448,192,79040,1,0,0:0:0:0:
320,192,79080,1,0,0:0:0:0:
64,192,79120,1,0,0:0:0:0:
192,192,79159,1,0,0:0:0:0:
448,192,79199,1,0,0:0:0:0:
320,192,79239,1,0,0:0:0:0:
64,192,79279,1,0,0:0:0:0:
192,192,79279,1,0,0:0:0:0:
64,192,79517,1,0,0:0:0:0:
448,192,79517,1,0,0:0:0:0:
64,192,79755,1,0,0:0:0:0:
448,192,79755,1,0,0:0:0:0:
192,192,79755,1,0,0:0:0:0:
320,192,79755,1,0,0:0:0:0:
320,192,79993,1,0,0:0:0:0:
192,192,79993,1,0,0:0:0:0:
64,192,80231,1,0,0:0:0:0:
448,192,80231,1,0,0:0:0:0:
320,192,80231,1,0,0:0:0:0:
192,192,80231,1,0,0:0:0:0:
192,192,80469,1,0,0:0:0:0:
448,192,80469,1,0,0:0:0:0:
192,192,80707,1,0,0:0:0:0:
448,192,80707,1,0,0:0:0:0:
320,192,80707,1,0,0:0:0:0:
64,192,80707,1,0,0:0:0:0:
64,192,80945,1,0,0:0:0:0:
320,192,80945,1,0,0:0:0:0:
192,192,81183,1,0,0:0:0:0:
448,192,81183,1,0,0:0:0:0:
64,192,81183,1,0,0:0:0:0:
320,192,81183,1,0,0:0:0:0:
192,192,81421,1,0,0:0:0:0:
320,192,81421,1,0,0:0:0:0:
192,192,81659,1,0,0:0:0:0:
448,192,81659,1,0,0:0:0:0:
320,192,81659,1,0,0:0:0:0:
64,192,81898,1,0,0:0:0:0:
320,192,81898,1,0,0:0:0:0:
448,192,81898,1,0,0:0:0:0:
64,192,82136,1,0,0:0:0:0:
448,192,82136,1,0,0:0:0:0:
192,192,82136,1,0,0:0:0:0:
64,192,82374,1,0,0:0:0:0:
192,192,82374,1,0,0:0:0:0:
320,192,82374,1,0,0:0:0:0:
192,192,82612,1,0,0:0:0:0:
64,192,82612,1,0,0:0:0:0:
448,192,82612,1,0,0:0:0:0:
320,192,82652,1,0,0:0:0:0:
448,192,82691,1,0,0:0:0:0:
64,192,82731,1,0,0:0:0:0:
192,192,82771,1,0,0:0:0:0:
448,192,82810,1,0,0:0:0:0:
320,192,82850,1,0,0:0:0:0:
64,192,82850,1,0,0:0:0:0:
192,192,82890,1,0,0:0:0:0:
448,192,82929,1,0,0:0:0:0:
320,192,82969,1,0,0:0:0:0:
64,192,83009,1,0,0:0:0:0:
192,192,83048,1,0,0:0:0:0:
448,192,83088,1,0,0:0:0:0:
320,192,83088,1,0,0:0:0:0:
448,192,83326,1,0,0:0:0:0:
64,192,83326,1,0,0:0:0:0:
64,192,83564,1,0,0:0:0:0:
192,192,83564,1,0,0:0:0:0:
448,192,83564,1,0,0:0:0:0:
320,192,83564,1,0,0:0:0:0:
64,192,83802,1,0,0:0:0:0:
192,192,83802,1,0,0:0:0:0:
448,192,84040,1,0,0:0:0:0:
320,192,84040,1,0,0:0:0:0:
192,192,84040,1,0,0:0:0:0:
64,192,84040,1,0,0:0:0:0:
64,192,84279,1,0,0:0:0:0:
320,192,84279,1,0,0:0:0:0:
64,192,84517,1,0,0:0:0:0:
192,192,84517,1,0,0:0:0:0:
448,192,84517,1,0,0:0:0:0:
320,192,84517,1,0,0:0:0:0:
448,192,84755,1,0,0:0:0:0:
192,192,84755,1,0,0:0:0:0:
64,192,84993,1,0,0:0:0:0:
192,192,84993,1,0,0:0:0:0:
320,192,84993,1,0,0:0:0:0:
448,192,84993,1,0,0:0:0:0:
192,192,85112,1,0,0:0:0:0:
448,192,85231,1,0,0:0:0:0:
320,192,85231,1,0,0:0:0:0:
320,192,85350,1,0,0:0:0:0:
64,192,85469,1,0,0:0:0:0:
448,192,85469,1,0,0:0:0:0:
192,192,85469,1,0,0:0:0:0:
192,192,85588,1,0,0:0:0:0:
320,192,85707,1,0,0:0:0:0:
448,192,85707,1,0,0:0:0:0:
64,192,85707,1,0,0:0:0:0:
448,192,85826,1,0,0:0:0:0:
320,192,85945,1,0,0:0:0:0:
192,192,85945,1,0,0:0:0:0:
64,192,85945,1,0,0:0:0:0:
320,192,86064,1,0,0:0:0:0:
192,192,86183,1,0,0:0:0:0:
64,192,86183,1,0,0:0:0:0:
448,192,86183,1,0,0:0:0:0:
192,192,86302,1,0,0:0:0:0:
448,192,86421,1,0,0:0:0:0:
64,192,86421,1,0,0:0:0:0:
320,192,86421,1,0,0:0:0:0:
64,192,86540,1,0,0:0:0:0:
448,192,86659,1,0,0:0:0:0:
320,192,86659,1,0,0:0:0:0:
192,192,86659,1,0,0:0:0:0:
448,192,86779,1,0,0:0:0:0:
320,192,86898,1,0,0:0:0:0:
192,192,86898,1,0,0:0:0:0:
64,192,86898,1,0,0:0:0:0:
192,192,87017,1,0,0:0:0:0:
448,192,87136,1,0,0:0:0:0:
64,192,87136,1,0,0:0:0:0:
192,192,87374,1,0,0:0:0:0:
320,192,87374,1,0,0:0:0:0:
64,192,87374,1,0,0:0:0:0:
448,192,87374,1,0,0:0:0:0:
192,192,87612,1,0,0:0:0:0:
64,192,87612,1,0,0:0:0:0:
320,192,87850,1,0,0:0:0:0:
192,192,87850,1,0,0:0:0:0:
64,192,87850,1,0,0:0:0:0:
448,192,87850,1,0,0:0:0:0:
320,192,87969,1,0,0:0:0:0:
448,192,88088,1,0,0:0:0:0:
192,192,88088,1,0,0:0:0:0:
192,192,88207,1,0,0:0:0:0:
320,192,88326,1,0,0:0:0:0:
64,192,88326,1,0,0:0:0:0:
192,192,88326,1,0,0:0:0:0:
448,192,88326,1,0,0:0:0:0:
448,192,88445,1,0,0:0:0:0:
320,192,88564,1,0,0:0:0:0:
64,192,88564,1,0,0:0:0:0:
320,192,88683,1,0,0:0:0:0:
64,192,88802,1,0,0:0:0:0:
320,192,88802,1,0,0:0:0:0:
192,192,88802,1,0,0:0:0:0:
448,192,88802,1,0,0:0:0:0:
192,192,88921,1,0,0:0:0:0:
320,192,89040,1,0,0:0:0:0:
448,192,89040,1,0,0:0:0:0:
320,192,89279,1,0,0:0:0:0:
448,192,89279,1,0,0:0:0:0:
192,192,89279,1,0,0:0:0:0:
192,192,89398,1,0,0:0:0:0:
448,192,89517,1,0,0:0:0:0:
320,192,89517,1,0,0:0:0:0:
64,192,89517,1,0,0:0:0:0:
192,192,89755,1,0,0:0:0:0:
448,192,89755,1,0,0:0:0:0:
64,192,89755,1,0,0:0:0:0:
448,192,89874,1,0,0:0:0:0:
320,192,89993,1,0,0:0:0:0:
192,192,89993,1,0,0:0:0:0:
64,192,89993,1,0,0:0:0:0:
192,192,90112,1,0,0:0:0:0:
64,192,90231,1,0,0:0:0:0:
320,192,90231,1,0,0:0:0:0:
448,192,90231,1,0,0:0:0:0:
64,192,90350,1,0,0:0:0:0:
448,192,90469,1,0,0:0:0:0:
320,192,90469,1,0,0:0:0:0:
192,192,90469,1,0,0:0:0:0:
448,192,90588,1,0,0:0:0:0:
192,192,90707,1,0,0:0:0:0:
64,192,90707,1,0,0:0:0:0:
320,192,90707,1,0,0:0:0:0:
320,192,90826,1,0,0:0:0:0:
64,192,90945,1,0,0:0:0:0:
448,192,90945,1,0,0:0:0:0:
448,192,91183,1,0,0:0:0:0:
320,192,91183,1,0,0:0:0:0:
64,192,91183,1,0,0:0:0:0:
192,192,91183,1,0,0:0:0:0:
448,192,91421,1,0,0:0:0:0:
320,192,91421,1,0,0:0:0:0:
192,192,91659,1,0,0:0:0:0:
64,192,91659,1,0,0:0:0:0:
448,192,91659,1,0,0:0:0:0:
320,192,91659,1,0,0:0:0:0:
192,192,91779,1,0,0:0:0:0:
320,192,91898,1,0,0:0:0:0:
64,192,91898,1,0,0:0:0:0:
320,192,92017,1,0,0:0:0:0:
448,192,92136,1,0,0:0:0:0:
320,192,92136,1,0,0:0:0:0:
64,192,92136,1,0,0:0:0:0:
192,192,92136,1,0,0:0:0:0:
64,192,92255,1,0,0:0:0:0:
192,192,92374,1,0,0:0:0:0:
448,192,92374,1,0,0:0:0:0:
192,192,92493,1,0,0:0:0:0:
320,192,92612,1,0,0:0:0:0:
448,192,92612,1,0,0:0:0:0:
64,192,92612,1,0,0:0:0:0:
192,192,92612,1,0,0:0:0:0:
320,192,92731,1,0,0:0:0:0:
192,192,92850,1,0,0:0:0:0:
64,192,92850,1,0,0:0:0:0:
64,192,93088,1,0,0:0:0:0:
192,192,93088,1,0,0:0:0:0:
320,192,93088,1,0,0:0:0:0:
448,192,93088,1,0,0:0:0:0:
192,192,93207,1,0,0:0:0:0:
64,192,93326,1,0,0:0:0:0:
448,192,93326,1,0,0:0:0:0:
320,192,93326,1,0,0:0:0:0:
448,192,93445,1,0,0:0:0:0:
64,192,93564,1,0,0:0:0:0:
192,192,93564,1,0,0:0:0:0:
320,192,93564,1,0,0:0:0:0:
320,192,93683,1,0,0:0:0:0:
448,192,93802,1,0,0:0:0:0:
64,192,93802,1,0,0:0:0:0:
192,192,93802,1,0,0:0:0:0:
64,192,94040,1,0,0:0:0:0:
448,192,94040,1,0,0:0:0:0:
192,192,94040,1,0,0:0:0:0:
320,192,94080,1,0,0:0:0:0:
192,192,94120,1,0,0:0:0:0:
448,192,94159,1,0,0:0:0:0:
320,192,94199,1,0,0:0:0:0:
64,192,94239,1,0,0:0:0:0:
448,192,94279,1,0,0:0:0:0:
192,192,94279,1,0,0:0:0:0:
320,192,94318,1,0,0:0:0:0:
64,192,94358,1,0,0:0:0:0:
192,192,94398,1,0,0:0:0:0:
448,192,94437,1,0,0:0:0:0:
320,192,94477,1,0,0:0:0:0:
192,192,94517,1,0,0:0:0:0:
64,192,94517,1,0,0:0:0:0:
64,192,94755,1,0,0:0:0:0:
448,192,94755,1,0,0:0:0:0:
64,192,94993,1,0,0:0:0:0:
448,192,94993,1,0,0:0:0:0:
192,192,94993,1,0,0:0:0:0:
320,192,94993,1,0,0:0:0:0:
320,192,95112,1,0,0:0:0:0:
192,192,95231,1,0,0:0:0:0:
64,192,95231,1,0,0:0:0:0:
192,192,95350,1,0,0:0:0:0:
64,192,95469,1,0,0:0:0:0:
448,192,95469,1,0,0:0:0:0:
320,192,95469,1,0,0:0:0:0:
192,192,95469,1,0,0:0:0:0:
320,192,95588,1,0,0:0:0:0:
192,192,95707,1,0,0:0:0:0:
448,192,95707,1,0,0:0:0:0:
192,192,95945,1,0,0:0:0:0:
448,192,95945,1,0,0:0:0:0:
64,192,95945,1,0,0:0:0:0:
320,192,95985,1,0,0:0:0:0:
192,192,96025,1,0,0:0:0:0:
448,192,96064,1,0,0:0:0:0:
320,192,96104,1,0,0:0:0:0:
192,192,96144,1,0,0:0:0:0:
64,192,96183,1,0,0:0:0:0:
448,192,96183,1,0,0:0:0:0:
192,192,96421,1,0,0:0:0:0:
448,192,96421,1,0,0:0:0:0:
64,192,96421,1,0,0:0:0:0:
320,192,96421,1,0,0:0:0:0:
448,192,96659,1,0,0:0:0:0:
320,192,96659,1,0,0:0:0:0:
192,192,96898,1,0,0:0:0:0:
448,192,96898,1,0,0:0:0:0:
320,192,96898,1,0,0:0:0:0:
192,192,97017,1,0,0:0:0:0:
64,192,97136,1,0,0:0:0:0:
320,192,97136,1,0,0:0:0:0:
448,192,97136,1,0,0:0:0:0:
320,192,97255,1,0,0:0:0:0:
64,192,97374,1,0,0:0:0:0:
448,192,97374,1,0,0:0:0:0:
192,192,97374,1,0,0:0:0:0:
448,192,97493,1,0,0:0:0:0:
64,192,97612,1,0,0:0:0:0:
192,192,97612,1,0,0:0:0:0:
320,192,97612,1,0,0:0:0:0:
320,192,97850,1,0,0:0:0:0:
64,192,97850,1,0,0:0:0:0:
448,192,97850,1,0,0:0:0:0:
192,192,97890,1,0,0:0:0:0:
320,192,97929,1,0,0:0:0:0:
64,192,97969,1,0,0:0:0:0:
192,192,98009,1,0,0:0:0:0:
448,192,98048,1,0,0:0:0:0:
320,192,98088,1,0,0:0:0:0:
64,192,98088,1,0,0:0:0:0:
192,192,98128,1,0,0:0:0:0:
448,192,98167,1,0,0:0:0:0:
320,192,98207,1,0,0:0:0:0:
64,192,98247,1,0,0:0:0:0:
192,192,98286,1,0,0:0:0:0:
448,192,98326,1,0,0:0:0:0:
320,192,98326,1,0,0:0:0:0:
448,192,98564,1,0,0:0:0:0:
64,192,98564,1,0,0:0:0:0:
64,192,98802,1,0,0:0:0:0:
192,192,98802,1,0,0:0:0:0:
448,192,98802,1,0,0:0:0:0:
320,192,98802,1,0,0:0:0:0:
448,192,98921,1,0,0:0:0:0:
192,192,99040,1,0,0:0:0:0:
320,192,99040,1,0,0:0:0:0:
192,192,99159,1,0,0:0:0:0:
448,192,99279,1,0,0:0:0:0:
320,192,99279,1,0,0:0:0:0:
192,192,99279,1,0,0:0:0:0:
64,192,99279,1,0,0:0:0:0:
320,192,99398,1,0,0:0:0:0:
64,192,99517,1,0,0:0:0:0:
448,192,99517,1,0,0:0:0:0:
64,192,99755,1,0,0:0:0:0:
192,192,99755,1,0,0:0:0:0:
448,192,99755,1,0,0:0:0:0:
320,192,99755,1,0,0:0:0:0:
192,192,99993,1,0,0:0:0:0:
320,192,99993,1,0,0:0:0:0:
64,192,100231,1,0,0:0:0:0:
192,192,100231,1,0,0:0:0:0:
320,192,100231,1,0,0:0:0:0:
448,192,100231,1,0,0:0:0:0:
448,192,100469,1,0,0:0:0:0:
320,192,100469,1,0,0:0:0:0:
448,192,100707,1,0,0:0:0:0:
320,192,100707,1,0,0:0:0:0:
192,192,100707,1,0,0:0:0:0:
64,192,100707,1,0,0:0:0:0:
192,192,100826,1,0,0:0:0:0:
64,192,100945,1,0,0:0:0:0:
320,192,100945,1,0,0:0:0:0:
448,192,100945,1,0,0:0:0:0:
320,192,101064,1,0,0:0:0:0:
64,192,101183,1,0,0:0:0:0:
192,192,101183,1,0,0:0:0:0:
448,192,101183,1,0,0:0:0:0:
448,192,101302,1,0,0:0:0:0:
192,192,101421,1,0,0:0:0:0:
64,192,101421,1,0,0:0:0:0:
320,192,101421,1,0,0:0:0:0:
448,192,101659,1,0,0:0:0:0:
320,192,101659,1,0,0:0:0:0:
64,192,101659,1,0,0:0:0:0:
192,192,101898,1,0,0:0:0:0:
64,192,101898,1,0,0:0:0:0:
448,192,101898,1,0,0:0:0:0:
320,192,102136,1,0,0:0:0:0:
192,192,102136,1,0,0:0:0:0:
448,192,102136,1,0,0:0:0:0:
64,192,102374,1,0,0:0:0:0:
320,192,102374,1,0,0:0:0:0:
64,192,102612,1,0,0:0:0:0:
192,192,102612,1,0,0:0:0:0:
320,192,102612,1,0,0:0:0:0:
448,192,102612,1,0,0:0:0:0:
320,192,102731,1,0,0:0:0:0:
64,192,102850,1,0,0:0:0:0:
192,192,102850,1,0,0:0:0:0:
64,192,102969,1,0,0:0:0:0:
448,192,103088,1,0,0:0:0:0:
320,192,103088,1,0,0:0:0:0:
192,192,103088,1,0,0:0:0:0:
64,192,103088,1,0,0:0:0:0:
320,192,103207,1,0,0:0:0:0:
320,192,103326,1,0,0:0:0:0:
448,192,103326,1,0,0:0:0:0:
448,192,103564,1,0,0:0:0:0:
192,192,103564,1,0,0:0:0:0:
320,192,103564,1,0,0:0:0:0:
64,192,103564,1,0,0:0:0:0:
64,192,103802,1,0,0:0:0:0:
320,192,103802,1,0,0:0:0:0:
448,192,104040,1,0,0:0:0:0:
320,192,104040,1,0,0:0:0:0:
64,192,104040,1,0,0:0:0:0:
192,192,104040,1,0,0:0:0:0:
192,192,104279,1,0,0:0:0:0:
448,192,104279,1,0,0:0:0:0:
64,192,104517,1,0,0:0:0:0:
192,192,104517,1,0,0:0:0:0:
320,192,104556,1,0,0:0:0:0:
448,192,104596,1,0,0:0:0:0:
64,192,104636,1,0,0:0:0:0:
192,192,104675,1,0,0:0:0:0:
320,192,104715,1,0,0:0:0:0:
448,192,104755,1,0,0:0:0:0:
192,192,104794,1,0,0:0:0:0:
64,192,104834,1,0,0:0:0:0:
320,192,104874,1,0,0:0:0:0:
192,192,104913,1,0,0:0:0:0:
448,192,104953,1,0,0:0:0:0:
320,192,104993,1,0,0:0:0:0:
64,192,104993,1,0,0:0:0:0:
192,192,105033,1,0,0:0:0:0:
320,192,105072,1,0,0:0:0:0:
448,192,105112,1,0,0:0:0:0:
64,192,105152,1,0,0:0:0:0:
192,192,105191,1,0,0:0:0:0:
320,192,105231,1,0,0:0:0:0:
448,192,105271,1,0,0:0:0:0:
192,192,105310,1,0,0:0:0:0:
320,192,105350,1,0,0:0:0:0:
448,192,105390,1,0,0:0:0:0:
320,192,105429,1,0,0:0:0:0:
192,192,105469,1,0,0:0:0:0:
64,192,105469,1,0,0:0:0:0:
448,192,105509,1,0,0:0:0:0:
320,192,105548,1,0,0:0:0:0:
192,192,105588,1,0,0:0:0:0:
64,192,105628,1,0,0:0:0:0:
320,192,105667,1,0,0:0:0:0:
192,192,105707,1,0,0:0:0:0:
64,192,105747,1,0,0:0:0:0:
448,192,105786,1,0,0:0:0:0:
320,192,105826,1,0,0:0:0:0:
64,192,105866,1,0,0:0:0:0:
192,192,105906,1,0,0:0:0:0:
448,192,105945,1,0,0:0:0:0:
320,192,105945,1,0,0:0:0:0:
192,192,105985,1,0,0:0:0:0:
64,192,106025,1,0,0:0:0:0:
448,192,106064,1,0,0:0:0:0:
320,192,106104,1,0,0:0:0:0:
64,192,106144,1,0,0:0:0:0:
192,192,106183,1,0,0:0:0:0:
320,192,106223,1,0,0:0:0:0:
64,192,106263,1,0,0:0:0:0:
448,192,106302,1,0,0:0:0:0:
320,192,106342,1,0,0:0:0:0:
192,192,106382,1,0,0:0:0:0:
448,192,106421,1,0,0:0:0:0:
64,192,106421,1,0,0:0:0:0:
192,192,106461,1,0,0:0:0:0:
320,192,106501,1,0,0:0:0:0:
448,192,106540,1,0,0:0:0:0:
64,192,106580,1,0,0:0:0:0:
192,192,106620,1,0,0:0:0:0:
320,192,106659,1,0,0:0:0:0:
448,192,106699,1,0,0:0:0:0:
192,192,106739,1,0,0:0:0:0:
320,192,106779,1,0,0:0:0:0:
448,192,106818,1,0,0:0:0:0:
192,192,106858,1,0,0:0:0:0:
320,192,106898,1,0,0:0:0:0:
64,192,106937,1,0,0:0:0:0:
448,192,106977,1,0,0:0:0:0:
320,192,107017,1,0,0:0:0:0:
64,192,107056,1,0,0:0:0:0:
192,192,107096,1,0,0:0:0:0:
320,192,107136,1,0,0:0:0:0:
448,192,107175,1,0,0:0:0:0:
192,192,107215,1,0,0:0:0:0:
320,192,107255,1,0,0:0:0:0:
64,192,107294,1,0,0:0:0:0:
192,192,107334,1,0,0:0:0:0:
448,192,107374,1,0,0:0:0:0:
320,192,107374,1,0,0:0:0:0:
64,192,107413,1,0,0:0:0:0:
192,192,107453,1,0,0:0:0:0:
448,192,107493,1,0,0:0:0:0:
320,192,107533,1,0,0:0:0:0:
192,192,107572,1,0,0:0:0:0:
64,192,107612,1,0,0:0:0:0:
448,192,107652,1,0,0:0:0:0:
320,192,107691,1,0,0:0:0:0:
192,192,107731,1,0,0:0:0:0:
448,192,107771,1,0,0:0:0:0:
64,192,107810,1,0,0:0:0:0:
320,192,107850,1,0,0:0:0:0:
448,192,107850,1,0,0:0:0:0:
192,192,107890,1,0,0:0:0:0:
64,192,107929,1,0,0:0:0:0:
320,192,107969,1,0,0:0:0:0:
448,192,108009,1,0,0:0:0:0:
192,192,108048,1,0,0:0:0:0:
64,192,108088,1,0,0:0:0:0:
448,192,108128,1,0,0:0:0:0:
320,192,108167,1,0,0:0:0:0:
192,192,108207,1,0,0:0:0:0:
64,192,108247,1,0,0:0:0:0:
448,192,108286,1,0,0:0:0:0:
192,192,108326,1,0,0:0:0:0:
320,192,108326,1,0,0:0:0:0:
64,192,108366,1,0,0:0:0:0:
448,192,108406,1,0,0:0:0:0:
320,192,108445,1,0,0:0:0:0:
192,192,108485,1,0,0:0:0:0:
64,192,108525,1,0,0:0:0:0:
448,192,108564,1,0,0:0:0:0:
192,192,108604,1,0,0:0:0:0:
320,192,108644,1,0,0:0:0:0:
64,192,108683,1,0,0:0:0:0:
448,192,108723,1,0,0:0:0:0:
192,192,108763,1,0,0:0:0:0:
320,192,108802,1,0,0:0:0:0:
448,192,108802,1,0,0:0:0:0:
64,192,108842,1,0,0:0:0:0:
192,192,108882,1,0,0:0:0:0:
448,192,108921,1,0,0:0:0:0:
320,192,108961,1,0,0:0:0:0:
64,192,109001,1,0,0:0:0:0:
192,192,109040,1,0,0:0:0:0:
320,192,109080,1,0,0:0:0:0:
64,192,109120,1,0,0:0:0:0:
448,192,109159,1,0,0:0:0:0:
320,192,109199,1,0,0:0:0:0:
192,192,109239,1,0,0:0:0:0:
64,192,109279,1,0,0:0:0:0:
448,192,109279,1,0,0:0:0:0:
320,192,109318,1,0,0:0:0:0:
192,192,109358,1,0,0:0:0:0:
448,192,109398,1,0,0:0:0:0:
320,192,109437,1,0,0:0:0:0:
64,192,109477,1,0,0:0:0:0:
192,192,109517,1,0,0:0:0:0:
448,192,109556,1,0,0:0:0:0:
320,192,109596,1,0,0:0:0:0:
64,192,109636,1,0,0:0:0:0:
192,192,109675,1,0,0:0:0:0:
320,192,109715,1,0,0:0:0:0:
448,192,109755,1,0,0:0:0:0:
192,192,109755,1,0,0:0:0:0:
64,192,109794,1,0,0:0:0:0:
320,192,109834,1,0,0:0:0:0:
448,192,109874,1,0,0:0:0:0:
64,192,109913,1,0,0:0:0:0:
192,192,109953,1,0,0:0:0:0:
320,192,109993,1,0,0:0:0:0:
64,192,110231,1,0,0:0:0:0:
448,192,110231,1,0,0:0:0:0:
320,192,110271,1,0,0:0:0:0:
192,192,110310,1,0,0:0:0:0:
64,192,110350,1,0,0:0:0:0:
320,192,110390,1,0,0:0:0:0:
448,192,110429,1,0,0:0:0:0:
192,192,110469,1,0,0:0:0:0:
64,192,110509,1,0,0:0:0:0:
448,192,110548,1,0,0:0:0:0:
320,192,110588,1,0,0:0:0:0:
192,192,110628,1,0,0:0:0:0:
448,192,110667,1,0,0:0:0:0:
320,192,110707,1,0,0:0:0:0:
64,192,110707,1,0,0:0:0:0:
192,192,110747,1,0,0:0:0:0:
448,192,110786,1,0,0:0:0:0:
320,192,110826,1,0,0:0:0:0:
64,192,110866,1,0,0:0:0:0:
192,192,110906,1,0,0:0:0:0:
320,192,110945,1,0,0:0:0:0:
448,192,110985,1,0,0:0:0:0:
64,192,111025,1,0,0:0:0:0:
320,192,111064,1,0,0:0:0:0:
192,192,111104,1,0,0:0:0:0:
448,192,111144,1,0,0:0:0:0:
320,192,111183,1,0,0:0:0:0:
64,192,111183,1,0,0:0:0:0:
192,192,111223,1,0,0:0:0:0:
320,192,111263,1,0,0:0:0:0:
448,192,111302,1,0,0:0:0:0:
64,192,111342,1,0,0:0:0:0:
192,192,111382,1,0,0:0:0:0:
320,192,111421,1,0,0:0:0:0:
64,192,111461,1,0,0:0:0:0:
448,192,111501,1,0,0:0:0:0:
192,192,111540,1,0,0:0:0:0:
320,192,111580,1,0,0:0:0:0:
448,192,111620,1,0,0:0:0:0:
192,192,111659,1,0,0:0:0:0:
64,192,111659,1,0,0:0:0:0:
320,192,111699,1,0,0:0:0:0:
448,192,111739,1,0,0:0:0:0:
192,192,111779,1,0,0:0:0:0:
64,192,111818,1,0,0:0:0:0:
320,192,111858,1,0,0:0:0:0:
448,192,111898,1,0,0:0:0:0:
64,192,112136,1,0,0:0:0:0:
448,192,112136,1,0,0:0:0:0:
320,192,112136,1,0,0:0:0:0:
192,192,112175,1,0,0:0:0:0:
64,192,112215,1,0,0:0:0:0:
448,192,112255,1,0,0:0:0:0:
320,192,112294,1,0,0:0:0:0:
192,192,112334,1,0,0:0:0:0:
64,192,112374,1,0,0:0:0:0:
320,192,112413,1,0,0:0:0:0:
448,192,112453,1,0,0:0:0:0:
192,192,112493,1,0,0:0:0:0:
320,192,112533,1,0,0:0:0:0:
64,192,112572,1,0,0:0:0:0:
192,192,112612,1,0,0:0:0:0:
448,192,112612,1,0,0:0:0:0:
320,192,112652,1,0,0:0:0:0:
192,192,112691,1,0,0:0:0:0:
64,192,112731,1,0,0:0:0:0:
448,192,112771,1,0,0:0:0:0:
320,192,112810,1,0,0:0:0:0:
192,192,112850,1,0,0:0:0:0:
64,192,112890,1,0,0:0:0:0:
320,192,112929,1,0,0:0:0:0:
192,192,112969,1,0,0:0:0:0:
64,192,113009,1,0,0:0:0:0:
192,192,113048,1,0,0:0:0:0:
320,192,113088,1,0,0:0:0:0:
448,192,113088,1,0,0:0:0:0:
64,192,113128,1,0,0:0:0:0:
192,192,113167,1,0,0:0:0:0:
320,192,113207,1,0,0:0:0:0:
448,192,113247,1,0,0:0:0:0:
192,192,113286,1,0,0:0:0:0:
320,192,113326,1,0,0:0:0:0:
448,192,113366,1,0,0:0:0:0:
64,192,113406,1,0,0:0:0:0:
192,192,113445,1,0,0:0:0:0:
448,192,113485,1,0,0:0:0:0:
320,192,113525,1,0,0:0:0:0:
64,192,113564,1,0,0:0:0:0:
192,192,113564,1,0,0:0:0:0:
320,192,113604,1,0,0:0:0:0:
448,192,113644,1,0,0:0:0:0:
64,192,113683,1,0,0:0:0:0:
192,192,113723,1,0,0:0:0:0:
448,192,113763,1,0,0:0:0:0:
320,192,113802,1,0,0:0:0:0:
192,192,113842,1,0,0:0:0:0:
448,192,113882,1,0,0:0:0:0:
64,192,113921,1,0,0:0:0:0:
192,192,113961,1,0,0:0:0:0:
320,192,114001,1,0,0:0:0:0:
64,192,114040,1,0,0:0:0:0:
448,192,114040,1,0,0:0:0:0:
320,192,114080,1,0,0:0:0:0:
192,192,114120,1,0,0:0:0:0:
64,192,114159,1,0,0:0:0:0:
448,192,114199,1,0,0:0:0:0:
320,192,114239,1,0,0:0:0:0:
192,192,114279,1,0,0:0:0:0:
64,192,114318,1,0,0:0:0:0:
320,192,114358,1,0,0:0:0:0:
192,192,114398,1,0,0:0:0:0:
64,192,114437,1,0,0:0:0:0:
320,192,114477,1,0,0:0:0:0:
192,192,114517,1,0,0:0:0:0:
448,192,114556,1,0,0:0:0:0:
64,192,114596,1,0,0:0:0:0:
192,192,114636,1,0,0:0:0:0:
448,192,114675,1,0,0:0:0:0:
320,192,114715,1,0,0:0:0:0:
192,192,114755,1,0,0:0:0:0:
64,192,114794,1,0,0:0:0:0:
320,192,114834,1,0,0:0:0:0:
192,192,114874,1,0,0:0:0:0:
448,192,114913,1,0,0:0:0:0:
320,192,114953,1,0,0:0:0:0:
64,192,114993,1,0,0:0:0:0:
192,192,114993,1,0,0:0:0:0:
448,192,115033,1,0,0:0:0:0:
320,192,115072,1,0,0:0:0:0:
64,192,115112,1,0,0:0:0:0:
192,192,115152,1,0,0:0:0:0:
320,192,115191,1,0,0:0:0:0:
448,192,115231,1,0,0:0:0:0:
64,192,115271,1,0,0:0:0:0:
192,192,115310,1,0,0:0:0:0:
320,192,115350,1,0,0:0:0:0:
64,192,115390,1,0,0:0:0:0:
448,192,115429,1,0,0:0:0:0:
192,192,115469,1,0,0:0:0:0:
64,192,115469,1,0,0:0:0:0:
320,192,115509,1,0,0:0:0:0:
448,192,115548,1,0,0:0:0:0:
192,192,115588,1,0,0:0:0:0:
64,192,115628,1,0,0:0:0:0:
320,192,115667,1,0,0:0:0:0:
448,192,115707,1,0,0:0:0:0:
64,192,115747,1,0,0:0:0:0:
192,192,115786,1,0,0:0:0:0:
320,192,115826,1,0,0:0:0:0:
448,192,115866,1,0,0:0:0:0:
64,192,115906,1,0,0:0:0:0:
320,192,115945,1,0,0:0:0:0:
192,192,115945,1,0,0:0:0:0:
448,192,115985,1,0,0:0:0:0:
64,192,116025,1,0,0:0:0:0:
192,192,116064,1,0,0:0:0:0:
320,192,116104,1,0,0:0:0:0:
448,192,116144,1,0,0:0:0:0:
64,192,116183,1,0,0:0:0:0:
320,192,116223,1,0,0:0:0:0:
192,192,116263,1,0,0:0:0:0:
448,192,116302,1,0,0:0:0:0:
64,192,116342,1,0,0:0:0:0:
320,192,116382,1,0,0:0:0:0:
192,192,116421,1,0,0:0:0:0:
64,192,116421,1,0,0:0:0:0:
448,192,116461,1,0,0:0:0:0:
320,192,116501,1,0,0:0:0:0:
64,192,116540,1,0,0:0:0:0:
192,192,116580,1,0,0:0:0:0:
448,192,116620,1,0,0:0:0:0:
320,192,116659,1,0,0:0:0:0:
192,192,116699,1,0,0:0:0:0:
448,192,116739,1,0,0:0:0:0:
64,192,116779,1,0,0:0:0:0:
192,192,116818,1,0,0:0:0:0:
320,192,116858,1,0,0:0:0:0:
448,192,116898,1,0,0:0:0:0:
64,192,116898,1,0,0:0:0:0:
192,192,116937,1,0,0:0:0:0:
320,192,116977,1,0,0:0:0:0:
64,192,117017,1,0,0:0:0:0:
192,192,117056,1,0,0:0:0:0:
448,192,117096,1,0,0:0:0:0:
320,192,117136,1,0,0:0:0:0:
64,192,117175,1,0,0:0:0:0:
192,192,117215,1,0,0:0:0:0:
448,192,117255,1,0,0:0:0:0:
320,192,117294,1,0,0:0:0:0:
192,192,117334,1,0,0:0:0:0:
64,192,117374,1,0,0:0:0:0:
320,192,117374,1,0,0:0:0:0:
448,192,117413,1,0,0:0:0:0:
192,192,117453,1,0,0:0:0:0:
64,192,117493,1,0,0:0:0:0:
448,192,117533,1,0,0:0:0:0:
320,192,117572,1,0,0:0:0:0:
192,192,117612,1,0,0:0:0:0:
448,192,117850,1,0,0:0:0:0:
64,192,117850,1,0,0:0:0:0:
192,192,117890,1,0,0:0:0:0:
320,192,117929,1,0,0:0:0:0:
448,192,117969,1,0,0:0:0:0:
192,192,118009,1,0,0:0:0:0:
64,192,118048,1,0,0:0:0:0:
320,192,118088,1,0,0:0:0:0:
448,192,118128,1,0,0:0:0:0:
64,192,118167,1,0,0:0:0:0:
192,192,118207,1,0,0:0:0:0:
320,192,118247,1,0,0:0:0:0:
64,192,118286,1,0,0:0:0:0:
192,192,118326,1,0,0:0:0:0:
448,192,118326,1,0,0:0:0:0:
320,192,118366,1,0,0:0:0:0:
64,192,118406,1,0,0:0:0:0:
192,192,118445,1,0,0:0:0:0:
448,192,118485,1,0,0:0:0:0:
320,192,118525,1,0,0:0:0:0:
192,192,118564,1,0,0:0:0:0:
64,192,118604,1,0,0:0:0:0:
448,192,118644,1,0,0:0:0:0:
192,192,118683,1,0,0:0:0:0:
320,192,118723,1,0,0:0:0:0:
64,192,118763,1,0,0:0:0:0:
192,192,118802,1,0,0:0:0:0:
448,192,118802,1,0,0:0:0:0:
320,192,118842,1,0,0:0:0:0:
192,192,118882,1,0,0:0:0:0:
64,192,118921,1,0,0:0:0:0:
448,192,118961,1,0,0:0:0:0:
320,192,119001,1,0,0:0:0:0:
192,192,119040,1,0,0:0:0:0:
448,192,119080,1,0,0:0:0:0:
64,192,119120,1,0,0:0:0:0:
320,192,119159,1,0,0:0:0:0:
192,192,119199,1,0,0:0:0:0:
64,192,119239,1,0,0:0:0:0:
320,192,119279,1,0,0:0:0:0:
448,192,119279,1,0,0:0:0:0:
192,192,119318,1,0,0:0:0:0:
64,192,119358,1,0,0:0:0:0:
320,192,119398,1,0,0:0:0:0:
448,192,119437,1,0,0:0:0:0:
192,192,119477,1,0,0:0:0:0:
64,192,119517,1,0,0:0:0:0:
64,192,119755,1,0,0:0:0:0:
192,192,119755,1,0,0:0:0:0:
320,192,119794,1,0,0:0:0:0:
448,192,119834,1,0,0:0:0:0:
192,192,119874,1,0,0:0:0:0:
320,192,119913,1,0,0:0:0:0:
448,192,119953,1,0,0:0:0:0:
64,192,119993,1,0,0:0:0:0:
320,192,119993,1,0,0:0:0:0:
192,192,120033,1,0,0:0:0:0:
448,192,120072,1,0,0:0:0:0:
64,192,120112,1,0,0:0:0:0:
192,192,120152,1,0,0:0:0:0:
320,192,120191,1,0,0:0:0:0:
448,192,120231,1,0,0:0:0:0:
64,192,120231,1,0,0:0:0:0:
192,192,120271,1,0,0:0:0:0:
320,192,120310,1,0,0:0:0:0:
64,192,120350,1,0,0:0:0:0:
448,192,120390,1,0,0:0:0:0:
192,192,120429,1,0,0:0:0:0:
320,192,120469,1,0,0:0:0:0:
448,192,120469,1,0,0:0:0:0:
64,192,120509,1,0,0:0:0:0:
192,192,120548,1,0,0:0:0:0:
448,192,120588,1,0,0:0:0:0:
320,192,120628,1,0,0:0:0:0:
192,192,120667,1,0,0:0:0:0:
64,192,120707,1,0,0:0:0:0:
448,192,120707,1,0,0:0:0:0:
320,192,120747,1,0,0:0:0:0:
192,192,120786,1,0,0:0:0:0:
448,192,120826,1,0,0:0:0:0:
64,192,120866,1,0,0:0:0:0:
192,192,120906,1,0,0:0:0:0:
448,192,120945,1,0,0:0:0:0:
320,192,120945,1,0,0:0:0:0:
64,192,120985,1,0,0:0:0:0:
192,192,121025,1,0,0:0:0:0:
448,192,121064,1,0,0:0:0:0:
320,192,121104,1,0,0:0:0:0:
64,192,121144,1,0,0:0:0:0:
192,192,121183,1,0,0:0:0:0:
448,192,121183,1,0,0:0:0:0:
320,192,121223,1,0,0:0:0:0:
448,192,121263,1,0,0:0:0:0:
192,192,121302,1,0,0:0:0:0:
64,192,121342,1,0,0:0:0:0:
320,192,121382,1,0,0:0:0:0:
448,192,121421,1,0,0:0:0:0:
192,192,121421,1,0,0:0:0:0:
64,192,121461,1,0,0:0:0:0:
320,192,121501,1,0,0:0:0:0:
192,192,121540,1,0,0:0:0:0:
64,192,121580,1,0,0:0:0:0:
448,192,121620,1,0,0:0:0:0:
320,192,121659,1,0,0:0:0:0:
192,192,121659,1,0,0:0:0:0:
64,192,121699,1,0,0:0:0:0:
448,192,121739,1,0,0:0:0:0:
192,192,121779,1,0,0:0:0:0:
320,192,121818,1,0,0:0:0:0:
448,192,121858,1,0,0:0:0:0:
64,192,121898,1,0,0:0:0:0:
192,192,121898,1,0,0:0:0:0:
320,192,121937,1,0,0:0:0:0:
448,192,121977,1,0,0:0:0:0:
64,192,122017,1,0,0:0:0:0:
192,192,122056,1,0,0:0:0:0:
320,192,122096,1,0,0:0:0:0:
64,192,122136,1,0,0:0:0:0:
448,192,122136,1,0,0:0:0:0:
192,192,122175,1,0,0:0:0:0:
320,192,122215,1,0,0:0:0:0:
64,192,122255,1,0,0:0:0:0:
448,192,122294,1,0,0:0:0:0:
320,192,122334,1,0,0:0:0:0:
192,192,122374,1,0,0:0:0:0:
64,192,122374,1,0,0:0:0:0:
448,192,122413,1,0,0:0:0:0:
320,192,122453,1,0,0:0:0:0:
192,192,122493,1,0,0:0:0:0:
64,192,122533,1,0,0:0:0:0:
448,192,122572,1,0,0:0:0:0:
320,192,122612,1,0,0:0:0:0:
192,192,122612,1,0,0:0:0:0:
64,192,122652,1,0,0:0:0:0:
320,192,122691,1,0,0:0:0:0:
448,192,122731,1,0,0:0:0:0:
192,192,122771,1,0,0:0:0:0:
320,192,122810,1,0,0:0:0:0:
64,192,122850,1,0,0:0:0:0:
448,192,122850,1,0,0:0:0:0:
192,192,122890,1,0,0:0:0:0:
320,192,122929,1,0,0:0:0:0:
448,192,122969,1,0,0:0:0:0:
64,192,123009,1,0,0:0:0:0:
192,192,123048,1,0,0:0:0:0:
448,192,123088,1,0,0:0:0:0:
320,192,123088,1,0,0:0:0:0:
192,192,123128,1,0,0:0:0:0:
64,192,123167,1,0,0:0:0:0:
448,192,123207,1,0,0:0:0:0:
320,192,123247,1,0,0:0:0:0:
192,192,123286,1,0,0:0:0:0:
64,192,123326,1,0,0:0:0:0:
448,192,123326,1,0,0:0:0:0:
320,192,123366,1,0,0:0:0:0:
192,192,123406,1,0,0:0:0:0:
448,192,123445,1,0,0:0:0:0:
320,192,123485,1,0,0:0:0:0:
448,192,123525,1,0,0:0:0:0:
64,192,123564,1,0,0:0:0:0:
192,192,123564,1,0,0:0:0:0:
320,192,123604,1,0,0:0:0:0:
448,192,123644,1,0,0:0:0:0:
64,192,123683,1,0,0:0:0:0:
192,192,123723,1,0,0:0:0:0:
320,192,123763,1,0,0:0:0:0:
448,192,123802,1,0,0:0:0:0:
64,192,123802,1,0,0:0:0:0:
192,192,123842,1,0,0:0:0:0:
320,192,123882,1,0,0:0:0:0:
64,192,123921,1,0,0:0:0:0:
192,192,123961,1,0,0:0:0:0:
448,192,124001,1,0,0:0:0:0:
320,192,124040,1,0,0:0:0:0:
64,192,124040,1,0,0:0:0:0:
192,192,124080,1,0,0:0:0:0:
448,192,124120,1,0,0:0:0:0:
320,192,124159,1,0,0:0:0:0:
64,192,124199,1,0,0:0:0:0:
192,192,124239,1,0,0:0:0:0:
448,192,124279,1,0,0:0:0:0:
320,192,124279,1,0,0:0:0:0:
64,192,124318,1,0,0:0:0:0:
192,192,124358,1,0,0:0:0:0:
448,192,124398,1,0,0:0:0:0:
320,192,124437,1,0,0:0:0:0:
192,192,124477,1,0,0:0:0:0:
64,192,124517,1,0,0:0:0:0:
448,192,124517,1,0,0:0:0:0:
320,192,124556,1,0,0:0:0:0:
192,192,124596,1,0,0:0:0:0:
320,192,124636,1,0,0:0:0:0:
448,192,124675,1,0,0:0:0:0:
64,192,124715,1,0,0:0:0:0:
192,192,124755,1,0,0:0:0:0:
320,192,124755,1,0,0:0:0:0:
448,192,124794,1,0,0:0:0:0:
64,192,124834,1,0,0:0:0:0:
320,192,124874,1,0,0:0:0:0:
192,192,124913,1,0,0:0:0:0:
448,192,124953,1,0,0:0:0:0:
320,192,124993,1,0,0:0:0:0:
64,192,124993,1,0,0:0:0:0:
192,192,125033,1,0,0:0:0:0:
320,192,125072,1,0,0:0:0:0:
448,192,125112,1,0,0:0:0:0:
64,192,125152,1,0,0:0:0:0:
192,192,125191,1,0,0:0:0:0:
320,192,125231,1,0,0:0:0:0:
64,192,125271,1,0,0:0:0:0:
192,192,125310,1,0,0:0:0:0:
448,192,125350,1,0,0:0:0:0:
320,192,125390,1,0,0:0:0:0:
64,192,125429,1,0,0:0:0:0:
192,192,125469,1,0,0:0:0:0:
320,192,125509,1,0,0:0:0:0:
448,192,125548,1,0,0:0:0:0:
192,192,125588,1,0,0:0:0:0:
320,192,125628,1,0,0:0:0:0:
64,192,125667,1,0,0:0:0:0:
192,192,125707,1,0,0:0:0:0:
448,192,125707,1,0,0:0:0:0:
320,192,125747,1,0,0:0:0:0:
64,192,125786,1,0,0:0:0:0:
192,192,125826,1,0,0:0:0:0:
320,192,125866,1,0,0:0:0:0:
448,192,125906,1,0,0:0:0:0:
192,192,125945,1,0,0:0:0:0:
64,192,125945,1,0,0:0:0:0:
320,192,125985,1,0,0:0:0:0:
448,192,126025,1,0,0:0:0:0:
192,192,126064,1,0,0:0:0:0:
64,192,126104,1,0,0:0:0:0:
448,192,126144,1,0,0:0:0:0:
320,192,126183,1,0,0:0:0:0:
192,192,126183,1,0,0:0:0:0:
64,192,126223,1,0,0:0:0:0:
448,192,126263,1,0,0:0:0:0:
192,192,126302,1,0,0:0:0:0:
320,192,126342,1,0,0:0:0:0:
64,192,126382,1,0,0:0:0:0:
448,192,126421,1,0,0:0:0:0:
192,192,126421,1,0,0:0:0:0:
320,192,126461,1,0,0:0:0:0:
448,192,126501,1,0,0:0:0:0:
64,192,126540,1,0,0:0:0:0:
192,192,126580,1,0,0:0:0:0:
320,192,126620,1,0,0:0:0:0:
448,192,126659,1,0,0:0:0:0:
64,192,126659,1,0,0:0:0:0:
192,192,126699,1,0,0:0:0:0:
320,192,126739,1,0,0:0:0:0:
448,192,126779,1,0,0:0:0:0:
64,192,126818,1,0,0:0:0:0:
320,192,126858,1,0,0:0:0:0:
448,192,126898,1,0,0:0:0:0:
192,192,126898,1,0,0:0:0:0:
64,192,126937,1,0,0:0:0:0:
320,192,126977,1,0,0:0:0:0:
192,192,127017,1,0,0:0:0:0:
64,192,127056,1,0,0:0:0:0:
448,192,127096,1,0,0:0:0:0:
320,192,127136,1,0,0:0:0:0:
192,192,127136,1,0,0:0:0:0:
64,192,127175,1,0,0:0:0:0:
448,192,127215,1,0,0:0:0:0:
320,192,127255,1,0,0:0:0:0:
192,192,127294,1,0,0:0:0:0:
448,192,127334,1,0,0:0:0:0:
64,192,127374,1,0,0:0:0:0:
320,192,127413,1,0,0:0:0:0:
448,192,127453,1,0,0:0:0:0:
64,192,127493,1,0,0:0:0:0:
192,192,127533,1,0,0:0:0:0:
320,192,127572,1,0,0:0:0:0:
64,192,127612,1,0,0:0:0:0:
448,192,127612,1,0,0:0:0:0:
192,192,127652,1,0,0:0:0:0:
320,192,127691,1,0,0:0:0:0:
64,192,127731,1,0,0:0:0:0:
192,192,127771,1,0,0:0:0:0:
320,192,127810,1,0,0:0:0:0:
448,192,127850,1,0,0:0:0:0:
64,192,127850,1,0,0:0:0:0:
192,192,127890,1,0,0:0:0:0:
320,192,127929,1,0,0:0:0:0:
64,192,127969,1,0,0:0:0:0:
448,192,128009,1,0,0:0:0:0:
192,192,128048,1,0,0:0:0:0:
320,192,128088,1,0,0:0:0:0:
448,192,128088,1,0,0:0:0:0:
64,192,128128,1,0,0:0:0:0:
192,192,128167,1,0,0:0:0:0:
448,192,128207,1,0,0:0:0:0:
320,192,128247,1,0,0:0:0:0:
192,192,128286,1,0,0:0:0:0:
64,192,128326,1,0,0:0:0:0:
448,192,128326,1,0,0:0:0:0:
320,192,128366,1,0,0:0:0:0:
192,192,128406,1,0,0:0:0:0:
320,192,128445,1,0,0:0:0:0:
64,192,128485,1,0,0:0:0:0:
192,192,128525,1,0,0:0:0:0:
448,192,128564,1,0,0:0:0:0:
320,192,128564,1,0,0:0:0:0:
64,192,128604,1,0,0:0:0:0:
192,192,128644,1,0,0:0:0:0:
448,192,128683,1,0,0:0:0:0:
320,192,128723,1,0,0:0:0:0:
64,192,128763,1,0,0:0:0:0:
192,192,128802,1,0,0:0:0:0:
448,192,128802,1,0,0:0:0:0:
320,192,128842,1,0,0:0:0:0:
64,192,128882,1,0,0:0:0:0:
448,192,128921,1,0,0:0:0:0:
192,192,128961,1,0,0:0:0:0:
64,192,129001,1,0,0:0:0:0:
320,192,129040,1,0,0:0:0:0:
192,192,129040,1,0,0:0:0:0:
448,192,129080,1,0,0:0:0:0:
320,192,129120,1,0,0:0:0:0:
192,192,129159,1,0,0:0:0:0:
64,192,129199,1,0,0:0:0:0:
448,192,129239,1,0,0:0:0:0:
320,192,129279,1,0,0:0:0:0:
192,192,129279,1,0,0:0:0:0:
64,192,129318,1,0,0:0:0:0:
448,192,129358,1,0,0:0:0:0:
192,192,129398,1,0,0:0:0:0:
320,192,129437,1,0,0:0:0:0:
448,192,129477,1,0,0:0:0:0:
64,192,129517,1,0,0:0:0:0:
192,192,129517,1,0,0:0:0:0:
320,192,129556,1,0,0:0:0:0:
448,192,129596,1,0,0:0:0:0:
64,192,129636,1,0,0:0:0:0:
192,192,129675,1,0,0:0:0:0:
320,192,129715,1,0,0:0:0:0:
64,192,129755,1,0,0:0:0:0:
448,192,129755,1,0,0:0:0:0:
192,192,129794,1,0,0:0:0:0:
320,192,129834,1,0,0:0:0:0:
64,192,129874,1,0,0:0:0:0:
448,192,129913,1,0,0:0:0:0:
320,192,129953,1,0,0:0:0:0:
192,192,129993,1,0,0:0:0:0:
64,192,129993,1,0,0:0:0:0:
448,192,130033,1,0,0:0:0:0:
320,192,130072,1,0,0:0:0:0:
192,192,130112,1,0,0:0:0:0:
64,192,130152,1,0,0:0:0:0:
448,192,130191,1,0,0:0:0:0:
320,192,130231,1,0,0:0:0:0:
192,192,130231,1,0,0:0:0:0:
64,192,130271,1,0,0:0:0:0:
320,192,130310,1,0,0:0:0:0:
448,192,130350,1,0,0:0:0:0:
192,192,130390,1,0,0:0:0:0:
320,192,130429,1,0,0:0:0:0:
64,192,130469,1,0,0:0:0:0:
448,192,130469,1,0,0:0:0:0:
192,192,130509,1,0,0:0:0:0:
320,192,130548,1,0,0:0:0:0:
448,192,130588,1,0,0:0:0:0:
64,192,130628,1,0,0:0:0:0:
192,192,130667,1,0,0:0:0:0:
448,192,130707,1,0,0:0:0:0:
320,192,130707,1,0,0:0:0:0:
192,192,130747,1,0,0:0:0:0:
64,192,130786,1,0,0:0:0:0:
448,192,130826,1,0,0:0:0:0:
320,192,130866,1,0,0:0:0:0:
192,192,130906,1,0,0:0:0:0:
64,192,130945,1,0,0:0:0:0:
448,192,130945,1,0,0:0:0:0:
320,192,130985,1,0,0:0:0:0:
192,192,131025,1,0,0:0:0:0:
448,192,131064,1,0,0:0:0:0:
320,192,131104,1,0,0:0:0:0:
192,192,131144,1,0,0:0:0:0:
64,192,131183,1,0,0:0:0:0:
320,192,131223,1,0,0:0:0:0:
448,192,131263,1,0,0:0:0:0:
64,192,131302,1,0,0:0:0:0:
192,192,131342,1,0,0:0:0:0:
320,192,131382,1,0,0:0:0:0:
448,192,131421,1,0,0:0:0:0:
64,192,131421,1,0,0:0:0:0:
192,192,131461,1,0,0:0:0:0:
320,192,131501,1,0,0:0:0:0:
64,192,131540,1,0,0:0:0:0:
192,192,131580,1,0,0:0:0:0:
448,192,131620,1,0,0:0:0:0:
320,192,131659,1,0,0:0:0:0:
64,192,131659,1,0,0:0:0:0:
192,192,131699,1,0,0:0:0:0:
448,192,131739,1,0,0:0:0:0:
320,192,131779,1,0,0:0:0:0:
64,192,131818,1,0,0:0:0:0:
192,192,131858,1,0,0:0:0:0:
448,192,131898,1,0,0:0:0:0:
320,192,131898,1,0,0:0:0:0:
64,192,131937,1,0,0:0:0:0:
192,192,131977,1,0,0:0:0:0:
448,192,132017,1,0,0:0:0:0:
320,192,132056,1,0,0:0:0:0:
192,192,132096,1,0,0:0:0:0:
64,192,132136,1,0,0:0:0:0:
448,192,132136,1,0,0:0:0:0:
320,192,132175,1,0,0:0:0:0:
192,192,132215,1,0,0:0:0:0:
320,192,132255,1,0,0:0:0:0:
448,192,132294,1,0,0:0:0:0:
64,192,132334,1,0,0:0:0:0:
192,192,132374,1,0,0:0:0:0:
320,192,132374,1,0,0:0:0:0:
448,192,132413,1,0,0:0:0:0:
64,192,132453,1,0,0:0:0:0:
320,192,132493,1,0,0:0:0:0:
192,192,132533,1,0,0:0:0:0:
448,192,132572,1,0,0:0:0:0:
320,192,132612,1,0,0:0:0:0:
64,192,132612,1,0,0:0:0:0:
192,192,132652,1,0,0:0:0:0:
320,192,132691,1,0,0:0:0:0:
448,192,132731,1,0,0:0:0:0:
64,192,132771,1,0,0:0:0:0:
192,192,132810,1,0,0:0:0:0:
320,192,132850,1,0,0:0:0:0:
64,192,132890,1,0,0:0:0:0:
192,192,132929,1,0,0:0:0:0:
448,192,132969,1,0,0:0:0:0:
320,192,133009,1,0,0:0:0:0:
64,192,133048,1,0,0:0:0:0:
192,192,133088,1,0,0:0:0:0:
448,192,133088,1,0,0:0:0:0:
320,192,133128,1,0,0:0:0:0:
64,192,133167,1,0,0:0:0:0:
192,192,133207,1,0,0:0:0:0:
320,192,133247,1,0,0:0:0:0:
64,192,133286,1,0,0:0:0:0:
192,192,133326,1,0,0:0:0:0:
448,192,133326,1,0,0:0:0:0:
320,192,133366,1,0,0:0:0:0:
64,192,133406,1,0,0:0:0:0:
192,192,133445,1,0,0:0:0:0:
320,192,133485,1,0,0:0:0:0:
448,192,133525,1,0,0:0:0:0:
192,192,133564,1,0,0:0:0:0:
64,192,133564,1,0,0:0:0:0:
320,192,133604,1,0,0:0:0:0:
448,192,133644,1,0,0:0:0:0:
192,192,133683,1,0,0:0:0:0:
64,192,133723,1,0,0:0:0:0:
448,192,133763,1,0,0:0:0:0:
320,192,133802,1,0,0:0:0:0:
192,192,133802,1,0,0:0:0:0:
64,192,133842,1,0,0:0:0:0:
448,192,133882,1,0,0:0:0:0:
192,192,133921,1,0,0:0:0:0:
320,192,133961,1,0,0:0:0:0:
64,192,134001,1,0,0:0:0:0:
192,192,134040,1,0,0:0:0:0:
320,192,134080,1,0,0:0:0:0:
448,192,134120,1,0,0:0:0:0:
64,192,134159,1,0,0:0:0:0:
192,192,134199,1,0,0:0:0:0:
320,192,134239,1,0,0:0:0:0:
448,192,134279,1,0,0:0:0:0:
64,192,134318,1,0,0:0:0:0:
192,192,134358,1,0,0:0:0:0:
320,192,134437,1,0,0:0:0:0:
448,192,134517,1,0,0:0:0:0:
64,192,134596,1,0,0:0:0:0:
192,192,134675,1,0,0:0:0:0:
320,192,134755,1,0,0:0:0:0:
448,192,134834,1,0,0:0:0:0:
192,192,134874,1,0,0:0:0:0:
64,192,134993,1,0,0:0:0:0:
192,192,135231,1,0,0:0:0:0:
320,192,135469,1,0,0:0:0:0:
