osu file format v14

[General]
AudioFilename: audio110.mp3
AudioLeadIn: 0
PreviewTime: 22288
Countdown: 0
SampleSet: None
StackLeniency: 0.7
Mode: 3
LetterboxInBreaks: 0
SpecialStyle: 0
WidescreenStoryboard: 1

[Editor]
Bookmarks: 1589,8515,22368,36221,50074,63926,77346,91632,95095,102022,108948,122801
DistanceSpacing: 1
BeatDivisor: 12
GridSize: 32
TimelineZoom: 1.8

[Metadata]
Title:perfect nothing
TitleUnicode:perfect nothing
Artist:GHOST
ArtistUnicode:GHOST
Creator:Hlimak
Version:noise [1,1x Rate]
Source:
Tags:dump vocaloid stream
BeatmapID:2959428
BeatmapSetID:989656

[Difficulty]
HPDrainRate:7
CircleSize:4
OverallDifficulty:7
ApproachRate:5
SliderMultiplier:1.4
SliderTickRate:1

[Events]
//Background and Video events
0,0,"bg.jpg",0,0
//Break Periods
//Storyboard Layer 0 (Background)
//Storyboard Layer 1 (Fail)
//Storyboard Layer 2 (Pass)
//Storyboard Layer 3 (Foreground)
//Storyboard Layer 4 (Overlay)
//Storyboard Sound Samples

[TimingPoints]
1589,432.900432900433,4,1,0,50,1,0

[HitObjects]
64,192,1589,5,0,0:0:0:0:
320,192,1589,1,0,0:0:0:0:
448,192,1589,1,0,0:0:0:0:
320,192,1805,1,0,0:0:0:0:
448,192,1805,1,0,0:0:0:0:
64,192,1805,1,0,0:0:0:0:
192,192,2022,1,0,0:0:0:0:
320,192,2022,1,0,0:0:0:0:
64,192,2048,1,0,0:0:0:0:
192,192,2238,1,0,0:0:0:0:
320,192,2238,1,0,0:0:0:0:
64,192,2238,1,0,0:0:0:0:
448,192,2455,1,0,0:0:0:0:
192,192,2455,1,0,0:0:0:0:
64,192,2455,1,0,0:0:0:0:
448,192,2671,1,0,0:0:0:0:
320,192,2671,1,0,0:0:0:0:
192,192,2671,1,0,0:0:0:0:
64,192,2887,1,0,0:0:0:0:
448,192,2887,1,0,0:0:0:0:
320,192,2915,1,0,0:0:0:0:
448,192,3104,1,0,0:0:0:0:
320,192,3104,1,0,0:0:0:0:
192,192,3104,1,0,0:0:0:0:
448,192,3320,1,0,0:0:0:0:
192,192,3320,1,0,0:0:0:0:
64,192,3320,1,0,0:0:0:0:
320,192,3536,1,0,0:0:0:0:
192,192,3536,1,0,0:0:0:0:
448,192,3536,1,0,0:0:0:0:
448,192,3753,1,0,0:0:0:0:
64,192,3753,1,0,0:0:0:0:
192,192,3780,1,0,0:0:0:0:
448,192,3970,1,0,0:0:0:0:
320,192,3970,1,0,0:0:0:0:
192,192,3970,1,0,0:0:0:0:
64,192,4186,1,0,0:0:0:0:
448,192,4186,1,0,0:0:0:0:
192,192,4222,1,0,0:0:0:0:
320,192,4258,1,0,0:0:0:0:
448,192,4366,1,0,0:0:0:0:
320,192,4403,1,0,0:0:0:0:
192,192,4403,1,0,0:0:0:0:
64,192,4438,1,0,0:0:0:0:
448,192,4511,1,0,0:0:0:0:
64,192,4583,1,0,0:0:0:0:
192,192,4583,1,0,0:0:0:0:
320,192,4619,1,0,0:0:0:0:
448,192,4655,1,0,0:0:0:0:
64,192,4691,1,0,0:0:0:0:
192,192,4727,1,0,0:0:0:0:
320,192,4764,1,0,0:0:0:0:
448,192,4799,1,0,0:0:0:0:
192,192,4835,1,0,0:0:0:0:
448,192,4907,1,0,0:0:0:0:
64,192,4944,1,0,0:0:0:0:
192,192,4980,1,0,0:0:0:0:
320,192,5015,1,0,0:0:0:0:
64,192,5052,1,0,0:0:0:0:
320,192,5088,1,0,0:0:0:0:
448,192,5124,1,0,0:0:0:0:
192,192,5160,1,0,0:0:0:0:
320,192,5196,1,0,0:0:0:0:
64,192,5268,1,0,0:0:0:0:
192,192,5268,1,0,0:0:0:0:
448,192,5268,1,0,0:0:0:0:
320,192,5485,1,0,0:0:0:0:
64,192,5485,1,0,0:0:0:0:
192,192,5512,1,0,0:0:0:0:
448,192,5701,1,0,0:0:0:0:
192,192,5701,1,0,0:0:0:0:
320,192,5728,1,0,0:0:0:0:
448,192,5917,1,0,0:0:0:0:
192,192,5917,1,0,0:0:0:0:
64,192,5945,1,0,0:0:0:0:
320,192,6134,1,0,0:0:0:0:
64,192,6134,1,0,0:0:0:0:
448,192,6161,1,0,0:0:0:0:
192,192,6351,1,0,0:0:0:0:
64,192,6351,1,0,0:0:0:0:
320,192,6377,1,0,0:0:0:0:
448,192,6567,1,0,0:0:0:0:
320,192,6567,1,0,0:0:0:0:
192,192,6594,1,0,0:0:0:0:
320,192,6784,1,0,0:0:0:0:
192,192,6784,1,0,0:0:0:0:
64,192,6819,1,0,0:0:0:0:
448,192,6855,1,0,0:0:0:0:
320,192,6892,1,0,0:0:0:0:
64,192,6964,1,0,0:0:0:0:
192,192,7000,1,0,0:0:0:0:
320,192,7036,1,0,0:0:0:0:
448,192,7072,1,0,0:0:0:0:
320,192,7145,1,0,0:0:0:0:
64,192,7216,1,0,0:0:0:0:
192,192,7216,1,0,0:0:0:0:
448,192,7288,1,0,0:0:0:0:
192,192,7325,1,0,0:0:0:0:
64,192,7361,1,0,0:0:0:0:
448,192,7433,1,0,0:0:0:0:
320,192,7460,1,0,0:0:0:0:
64,192,7649,1,0,0:0:0:0:
192,192,7649,1,0,0:0:0:0:
448,192,7685,1,0,0:0:0:0:
320,192,7722,1,0,0:0:0:0:
192,192,7757,1,0,0:0:0:0:
64,192,7794,1,0,0:0:0:0:
448,192,7830,1,0,0:0:0:0:
192,192,7865,1,0,0:0:0:0:
320,192,7865,1,0,0:0:0:0:
64,192,8082,1,0,0:0:0:0:
192,192,8082,1,0,0:0:0:0:
320,192,8118,1,0,0:0:0:0:
448,192,8155,1,0,0:0:0:0:
64,192,8190,1,0,0:0:0:0:
192,192,8226,1,0,0:0:0:0:
320,192,8263,1,0,0:0:0:0:
64,192,8298,1,0,0:0:0:0:
192,192,8335,1,0,0:0:0:0:
320,192,8371,1,0,0:0:0:0:
448,192,8406,1,0,0:0:0:0:
192,192,8443,1,0,0:0:0:0:
320,192,8479,1,0,0:0:0:0:
448,192,8515,1,0,0:0:0:0:
64,192,8515,1,0,0:0:0:0:
448,192,8659,1,0,0:0:0:0:
320,192,8695,1,0,0:0:0:0:
192,192,8732,1,0,0:0:0:0:
448,192,8767,1,0,0:0:0:0:
64,192,8804,1,0,0:0:0:0:
192,192,8840,1,0,0:0:0:0:
320,192,8875,1,0,0:0:0:0:
64,192,8948,1,0,0:0:0:0:
192,192,8948,1,0,0:0:0:0:
448,192,9056,1,0,0:0:0:0:
64,192,9165,1,0,0:0:0:0:
320,192,9201,1,0,0:0:0:0:
192,192,9236,1,0,0:0:0:0:
64,192,9273,1,0,0:0:0:0:
448,192,9309,1,0,0:0:0:0:
320,192,9345,1,0,0:0:0:0:
192,192,9381,1,0,0:0:0:0:
64,192,9381,1,0,0:0:0:0:
320,192,9453,1,0,0:0:0:0:
448,192,9489,1,0,0:0:0:0:
192,192,9597,1,0,0:0:0:0:
320,192,9634,1,0,0:0:0:0:
448,192,9669,1,0,0:0:0:0:
192,192,9705,1,0,0:0:0:0:
64,192,9742,1,0,0:0:0:0:
448,192,9777,1,0,0:0:0:0:
320,192,9814,1,0,0:0:0:0:
192,192,9814,1,0,0:0:0:0:
320,192,9922,1,0,0:0:0:0:
64,192,10030,1,0,0:0:0:0:
192,192,10066,1,0,0:0:0:0:
448,192,10103,1,0,0:0:0:0:
320,192,10138,1,0,0:0:0:0:
192,192,10175,1,0,0:0:0:0:
64,192,10211,1,0,0:0:0:0:
448,192,10246,1,0,0:0:0:0:
320,192,10246,1,0,0:0:0:0:
192,192,10355,1,0,0:0:0:0:
320,192,10463,1,0,0:0:0:0:
448,192,10499,1,0,0:0:0:0:
64,192,10535,1,0,0:0:0:0:
192,192,10571,1,0,0:0:0:0:
320,192,10607,1,0,0:0:0:0:
448,192,10644,1,0,0:0:0:0:
192,192,10679,1,0,0:0:0:0:
64,192,10679,1,0,0:0:0:0:
320,192,10788,1,0,0:0:0:0:
64,192,10896,1,0,0:0:0:0:
448,192,10932,1,0,0:0:0:0:
320,192,10968,1,0,0:0:0:0:
192,192,11005,1,0,0:0:0:0:
64,192,11040,1,0,0:0:0:0:
192,192,11076,1,0,0:0:0:0:
320,192,11113,1,0,0:0:0:0:
448,192,11113,1,0,0:0:0:0:
320,192,11221,1,0,0:0:0:0:
192,192,11329,1,0,0:0:0:0:
64,192,11437,1,0,0:0:0:0:
448,192,11545,1,0,0:0:0:0:
320,192,11582,1,0,0:0:0:0:
64,192,11617,1,0,0:0:0:0:
448,192,11654,1,0,0:0:0:0:
320,192,11690,1,0,0:0:0:0:
192,192,11725,1,0,0:0:0:0:
448,192,11762,1,0,0:0:0:0:
320,192,11798,1,0,0:0:0:0:
64,192,11834,1,0,0:0:0:0:
448,192,11870,1,0,0:0:0:0:
320,192,11906,1,0,0:0:0:0:
192,192,11942,1,0,0:0:0:0:
448,192,11978,1,0,0:0:0:0:
64,192,11978,1,0,0:0:0:0:
64,192,12123,1,0,0:0:0:0:
192,192,12158,1,0,0:0:0:0:
320,192,12195,1,0,0:0:0:0:
64,192,12231,1,0,0:0:0:0:
448,192,12267,1,0,0:0:0:0:
320,192,12303,1,0,0:0:0:0:
192,192,12339,1,0,0:0:0:0:
448,192,12411,1,0,0:0:0:0:
320,192,12411,1,0,0:0:0:0:
64,192,12519,1,0,0:0:0:0:
448,192,12627,1,0,0:0:0:0:
192,192,12664,1,0,0:0:0:0:
320,192,12700,1,0,0:0:0:0:
448,192,12735,1,0,0:0:0:0:
64,192,12772,1,0,0:0:0:0:
192,192,12808,1,0,0:0:0:0:
320,192,12844,1,0,0:0:0:0:
448,192,12844,1,0,0:0:0:0:
192,192,12916,1,0,0:0:0:0:
64,192,12952,1,0,0:0:0:0:
320,192,13061,1,0,0:0:0:0:
192,192,13096,1,0,0:0:0:0:
64,192,13133,1,0,0:0:0:0:
320,192,13169,1,0,0:0:0:0:
448,192,13205,1,0,0:0:0:0:
64,192,13241,1,0,0:0:0:0:
192,192,13277,1,0,0:0:0:0:
320,192,13277,1,0,0:0:0:0:
192,192,13385,1,0,0:0:0:0:
448,192,13494,1,0,0:0:0:0:
320,192,13529,1,0,0:0:0:0:
64,192,13565,1,0,0:0:0:0:
192,192,13602,1,0,0:0:0:0:
320,192,13637,1,0,0:0:0:0:
448,192,13674,1,0,0:0:0:0:
64,192,13710,1,0,0:0:0:0:
192,192,13710,1,0,0:0:0:0:
320,192,13818,1,0,0:0:0:0:
192,192,13926,1,0,0:0:0:0:
64,192,13963,1,0,0:0:0:0:
448,192,13998,1,0,0:0:0:0:
320,192,14035,1,0,0:0:0:0:
192,192,14071,1,0,0:0:0:0:
64,192,14106,1,0,0:0:0:0:
320,192,14143,1,0,0:0:0:0:
448,192,14143,1,0,0:0:0:0:
192,192,14251,1,0,0:0:0:0:
448,192,14359,1,0,0:0:0:0:
64,192,14395,1,0,0:0:0:0:
192,192,14431,1,0,0:0:0:0:
320,192,14467,1,0,0:0:0:0:
448,192,14504,1,0,0:0:0:0:
320,192,14540,1,0,0:0:0:0:
192,192,14575,1,0,0:0:0:0:
64,192,14575,1,0,0:0:0:0:
320,192,14684,1,0,0:0:0:0:
192,192,14792,1,0,0:0:0:0:
448,192,14900,1,0,0:0:0:0:
64,192,15008,1,0,0:0:0:0:
192,192,15045,1,0,0:0:0:0:
448,192,15081,1,0,0:0:0:0:
64,192,15116,1,0,0:0:0:0:
192,192,15153,1,0,0:0:0:0:
320,192,15189,1,0,0:0:0:0:
64,192,15225,1,0,0:0:0:0:
192,192,15261,1,0,0:0:0:0:
448,192,15297,1,0,0:0:0:0:
64,192,15334,1,0,0:0:0:0:
192,192,15369,1,0,0:0:0:0:
320,192,15405,1,0,0:0:0:0:
64,192,15442,1,0,0:0:0:0:
448,192,15442,1,0,0:0:0:0:
448,192,15585,1,0,0:0:0:0:
320,192,15622,1,0,0:0:0:0:
192,192,15658,1,0,0:0:0:0:
448,192,15694,1,0,0:0:0:0:
64,192,15730,1,0,0:0:0:0:
192,192,15766,1,0,0:0:0:0:
320,192,15802,1,0,0:0:0:0:
192,192,15875,1,0,0:0:0:0:
64,192,15875,1,0,0:0:0:0:
448,192,15983,1,0,0:0:0:0:
64,192,16091,1,0,0:0:0:0:
320,192,16127,1,0,0:0:0:0:
192,192,16163,1,0,0:0:0:0:
64,192,16199,1,0,0:0:0:0:
448,192,16235,1,0,0:0:0:0:
320,192,16271,1,0,0:0:0:0:
64,192,16307,1,0,0:0:0:0:
192,192,16307,1,0,0:0:0:0:
320,192,16379,1,0,0:0:0:0:
448,192,16415,1,0,0:0:0:0:
320,192,16452,1,0,0:0:0:0:
64,192,16487,1,0,0:0:0:0:
192,192,16524,1,0,0:0:0:0:
320,192,16560,1,0,0:0:0:0:
448,192,16595,1,0,0:0:0:0:
192,192,16632,1,0,0:0:0:0:
64,192,16668,1,0,0:0:0:0:
448,192,16704,1,0,0:0:0:0:
192,192,16740,1,0,0:0:0:0:
320,192,16740,1,0,0:0:0:0:
448,192,16813,1,0,0:0:0:0:
320,192,16848,1,0,0:0:0:0:
64,192,16885,1,0,0:0:0:0:
192,192,16921,1,0,0:0:0:0:
320,192,16956,1,0,0:0:0:0:
192,192,16993,1,0,0:0:0:0:
448,192,17029,1,0,0:0:0:0:
320,192,17065,1,0,0:0:0:0:
192,192,17101,1,0,0:0:0:0:
64,192,17137,1,0,0:0:0:0:
320,192,17173,1,0,0:0:0:0:
448,192,17173,1,0,0:0:0:0:
192,192,17281,1,0,0:0:0:0:
320,192,17389,1,0,0:0:0:0:
448,192,17425,1,0,0:0:0:0:
64,192,17462,1,0,0:0:0:0:
192,192,17497,1,0,0:0:0:0:
320,192,17534,1,0,0:0:0:0:
448,192,17570,1,0,0:0:0:0:
64,192,17606,1,0,0:0:0:0:
192,192,17606,1,0,0:0:0:0:
320,192,17715,1,0,0:0:0:0:
64,192,17823,1,0,0:0:0:0:
448,192,17858,1,0,0:0:0:0:
320,192,17895,1,0,0:0:0:0:
192,192,17931,1,0,0:0:0:0:
64,192,17966,1,0,0:0:0:0:
192,192,18003,1,0,0:0:0:0:
448,192,18039,1,0,0:0:0:0:
320,192,18039,1,0,0:0:0:0:
64,192,18147,1,0,0:0:0:0:
192,192,18255,1,0,0:0:0:0:
320,192,18364,1,0,0:0:0:0:
448,192,18472,1,0,0:0:0:0:
320,192,18508,1,0,0:0:0:0:
64,192,18544,1,0,0:0:0:0:
448,192,18580,1,0,0:0:0:0:
320,192,18616,1,0,0:0:0:0:
192,192,18652,1,0,0:0:0:0:
448,192,18688,1,0,0:0:0:0:
320,192,18725,1,0,0:0:0:0:
64,192,18760,1,0,0:0:0:0:
448,192,18796,1,0,0:0:0:0:
320,192,18833,1,0,0:0:0:0:
192,192,18868,1,0,0:0:0:0:
64,192,18905,1,0,0:0:0:0:
448,192,18905,1,0,0:0:0:0:
64,192,19049,1,0,0:0:0:0:
192,192,19085,1,0,0:0:0:0:
320,192,19121,1,0,0:0:0:0:
64,192,19157,1,0,0:0:0:0:
448,192,19194,1,0,0:0:0:0:
320,192,19229,1,0,0:0:0:0:
192,192,19265,1,0,0:0:0:0:
448,192,19337,1,0,0:0:0:0:
320,192,19337,1,0,0:0:0:0:
64,192,19445,1,0,0:0:0:0:
448,192,19554,1,0,0:0:0:0:
192,192,19590,1,0,0:0:0:0:
320,192,19626,1,0,0:0:0:0:
448,192,19662,1,0,0:0:0:0:
64,192,19698,1,0,0:0:0:0:
192,192,19735,1,0,0:0:0:0:
320,192,19770,1,0,0:0:0:0:
448,192,19770,1,0,0:0:0:0:
192,192,19843,1,0,0:0:0:0:
64,192,19879,1,0,0:0:0:0:
448,192,19915,1,0,0:0:0:0:
192,192,19951,1,0,0:0:0:0:
320,192,19987,1,0,0:0:0:0:
192,192,20023,1,0,0:0:0:0:
64,192,20059,1,0,0:0:0:0:
320,192,20095,1,0,0:0:0:0:
448,192,20131,1,0,0:0:0:0:
64,192,20167,1,0,0:0:0:0:
192,192,20204,1,0,0:0:0:0:
320,192,20204,1,0,0:0:0:0:
448,192,20275,1,0,0:0:0:0:
192,192,20312,1,0,0:0:0:0:
64,192,20347,1,0,0:0:0:0:
320,192,20384,1,0,0:0:0:0:
448,192,20420,1,0,0:0:0:0:
320,192,20455,1,0,0:0:0:0:
64,192,20492,1,0,0:0:0:0:
192,192,20528,1,0,0:0:0:0:
320,192,20565,1,0,0:0:0:0:
448,192,20600,1,0,0:0:0:0:
64,192,20636,1,0,0:0:0:0:
192,192,20636,1,0,0:0:0:0:
320,192,20745,1,0,0:0:0:0:
192,192,20853,1,0,0:0:0:0:
64,192,20889,1,0,0:0:0:0:
448,192,20925,1,0,0:0:0:0:
320,192,20961,1,0,0:0:0:0:
192,192,20997,1,0,0:0:0:0:
64,192,21033,1,0,0:0:0:0:
320,192,21069,1,0,0:0:0:0:
448,192,21069,1,0,0:0:0:0:
192,192,21177,1,0,0:0:0:0:
448,192,21285,1,0,0:0:0:0:
64,192,21322,1,0,0:0:0:0:
192,192,21358,1,0,0:0:0:0:
320,192,21394,1,0,0:0:0:0:
448,192,21430,1,0,0:0:0:0:
320,192,21466,1,0,0:0:0:0:
192,192,21502,1,0,0:0:0:0:
64,192,21502,1,0,0:0:0:0:
320,192,21610,1,0,0:0:0:0:
192,192,21718,1,0,0:0:0:0:
448,192,21826,1,0,0:0:0:0:
64,192,21935,1,0,0:0:0:0:
192,192,21971,1,0,0:0:0:0:
448,192,22007,1,0,0:0:0:0:
64,192,22043,1,0,0:0:0:0:
192,192,22079,1,0,0:0:0:0:
320,192,22115,1,0,0:0:0:0:
64,192,22152,1,0,0:0:0:0:
192,192,22187,1,0,0:0:0:0:
448,192,22224,1,0,0:0:0:0:
64,192,22260,1,0,0:0:0:0:
192,192,22295,1,0,0:0:0:0:
320,192,22332,1,0,0:0:0:0:
448,192,22368,1,0,0:0:0:0:
64,192,22368,1,0,0:0:0:0:
448,192,22512,1,0,0:0:0:0:
64,192,22548,1,0,0:0:0:0:
192,192,22585,1,0,0:0:0:0:
320,192,22620,1,0,0:0:0:0:
448,192,22656,1,0,0:0:0:0:
192,192,22693,1,0,0:0:0:0:
64,192,22728,1,0,0:0:0:0:
192,192,22801,1,0,0:0:0:0:
320,192,22801,1,0,0:0:0:0:
448,192,22909,1,0,0:0:0:0:
64,192,23017,1,0,0:0:0:0:
192,192,23054,1,0,0:0:0:0:
320,192,23089,1,0,0:0:0:0:
64,192,23125,1,0,0:0:0:0:
192,192,23162,1,0,0:0:0:0:
320,192,23197,1,0,0:0:0:0:
64,192,23234,1,0,0:0:0:0:
448,192,23234,1,0,0:0:0:0:
192,192,23305,1,0,0:0:0:0:
320,192,23342,1,0,0:0:0:0:
448,192,23378,1,0,0:0:0:0:
64,192,23414,1,0,0:0:0:0:
192,192,23450,1,0,0:0:0:0:
320,192,23486,1,0,0:0:0:0:
448,192,23522,1,0,0:0:0:0:
192,192,23558,1,0,0:0:0:0:
64,192,23595,1,0,0:0:0:0:
448,192,23631,1,0,0:0:0:0:
192,192,23666,1,0,0:0:0:0:
320,192,23666,1,0,0:0:0:0:
64,192,23739,1,0,0:0:0:0:
448,192,23775,1,0,0:0:0:0:
320,192,23811,1,0,0:0:0:0:
192,192,23847,1,0,0:0:0:0:
64,192,23883,1,0,0:0:0:0:
448,192,23919,1,0,0:0:0:0:
320,192,23955,1,0,0:0:0:0:
192,192,23991,1,0,0:0:0:0:
64,192,24027,1,0,0:0:0:0:
192,192,24064,1,0,0:0:0:0:
320,192,24099,1,0,0:0:0:0:
448,192,24099,1,0,0:0:0:0:
192,192,24207,1,0,0:0:0:0:
448,192,24315,1,0,0:0:0:0:
320,192,24352,1,0,0:0:0:0:
192,192,24388,1,0,0:0:0:0:
448,192,24425,1,0,0:0:0:0:
64,192,24460,1,0,0:0:0:0:
192,192,24496,1,0,0:0:0:0:
320,192,24533,1,0,0:0:0:0:
448,192,24533,1,0,0:0:0:0:
320,192,24641,1,0,0:0:0:0:
192,192,24749,1,0,0:0:0:0:
320,192,24785,1,0,0:0:0:0:
448,192,24821,1,0,0:0:0:0:
64,192,24857,1,0,0:0:0:0:
192,192,24893,1,0,0:0:0:0:
320,192,24929,1,0,0:0:0:0:
64,192,24965,1,0,0:0:0:0:
448,192,24965,1,0,0:0:0:0:
320,192,25074,1,0,0:0:0:0:
192,192,25182,1,0,0:0:0:0:
64,192,25290,1,0,0:0:0:0:
320,192,25398,1,0,0:0:0:0:
192,192,25435,1,0,0:0:0:0:
64,192,25470,1,0,0:0:0:0:
192,192,25506,1,0,0:0:0:0:
320,192,25543,1,0,0:0:0:0:
448,192,25578,1,0,0:0:0:0:
192,192,25615,1,0,0:0:0:0:
320,192,25651,1,0,0:0:0:0:
64,192,25686,1,0,0:0:0:0:
192,192,25723,1,0,0:0:0:0:
448,192,25759,1,0,0:0:0:0:
320,192,25795,1,0,0:0:0:0:
448,192,25831,1,0,0:0:0:0:
64,192,25831,1,0,0:0:0:0:
64,192,25975,1,0,0:0:0:0:
448,192,26012,1,0,0:0:0:0:
320,192,26047,1,0,0:0:0:0:
192,192,26084,1,0,0:0:0:0:
64,192,26120,1,0,0:0:0:0:
320,192,26155,1,0,0:0:0:0:
448,192,26192,1,0,0:0:0:0:
320,192,26264,1,0,0:0:0:0:
192,192,26264,1,0,0:0:0:0:
64,192,26372,1,0,0:0:0:0:
448,192,26480,1,0,0:0:0:0:
320,192,26516,1,0,0:0:0:0:
192,192,26553,1,0,0:0:0:0:
448,192,26588,1,0,0:0:0:0:
320,192,26625,1,0,0:0:0:0:
192,192,26661,1,0,0:0:0:0:
448,192,26697,1,0,0:0:0:0:
64,192,26697,1,0,0:0:0:0:
320,192,26769,1,0,0:0:0:0:
192,192,26805,1,0,0:0:0:0:
64,192,26841,1,0,0:0:0:0:
448,192,26877,1,0,0:0:0:0:
320,192,26914,1,0,0:0:0:0:
192,192,26949,1,0,0:0:0:0:
64,192,26985,1,0,0:0:0:0:
320,192,27022,1,0,0:0:0:0:
448,192,27057,1,0,0:0:0:0:
64,192,27094,1,0,0:0:0:0:
320,192,27130,1,0,0:0:0:0:
192,192,27130,1,0,0:0:0:0:
448,192,27202,1,0,0:0:0:0:
64,192,27238,1,0,0:0:0:0:
192,192,27274,1,0,0:0:0:0:
320,192,27310,1,0,0:0:0:0:
448,192,27346,1,0,0:0:0:0:
64,192,27383,1,0,0:0:0:0:
192,192,27418,1,0,0:0:0:0:
320,192,27455,1,0,0:0:0:0:
448,192,27491,1,0,0:0:0:0:
320,192,27526,1,0,0:0:0:0:
192,192,27563,1,0,0:0:0:0:
64,192,27563,1,0,0:0:0:0:
320,192,27671,1,0,0:0:0:0:
64,192,27779,1,0,0:0:0:0:
192,192,27815,1,0,0:0:0:0:
320,192,27851,1,0,0:0:0:0:
64,192,27887,1,0,0:0:0:0:
448,192,27924,1,0,0:0:0:0:
320,192,27959,1,0,0:0:0:0:
192,192,27995,1,0,0:0:0:0:
64,192,27995,1,0,0:0:0:0:
192,192,28104,1,0,0:0:0:0:
320,192,28212,1,0,0:0:0:0:
192,192,28248,1,0,0:0:0:0:
64,192,28285,1,0,0:0:0:0:
448,192,28320,1,0,0:0:0:0:
320,192,28356,1,0,0:0:0:0:
192,192,28393,1,0,0:0:0:0:
448,192,28428,1,0,0:0:0:0:
64,192,28428,1,0,0:0:0:0:
192,192,28536,1,0,0:0:0:0:
320,192,28645,1,0,0:0:0:0:
448,192,28753,1,0,0:0:0:0:
192,192,28861,1,0,0:0:0:0:
320,192,28897,1,0,0:0:0:0:
448,192,28934,1,0,0:0:0:0:
320,192,28970,1,0,0:0:0:0:
192,192,29005,1,0,0:0:0:0:
64,192,29042,1,0,0:0:0:0:
320,192,29078,1,0,0:0:0:0:
192,192,29114,1,0,0:0:0:0:
448,192,29150,1,0,0:0:0:0:
320,192,29186,1,0,0:0:0:0:
64,192,29222,1,0,0:0:0:0:
192,192,29258,1,0,0:0:0:0:
64,192,29295,1,0,0:0:0:0:
448,192,29295,1,0,0:0:0:0:
448,192,29438,1,0,0:0:0:0:
64,192,29475,1,0,0:0:0:0:
192,192,29511,1,0,0:0:0:0:
320,192,29546,1,0,0:0:0:0:
448,192,29583,1,0,0:0:0:0:
192,192,29619,1,0,0:0:0:0:
64,192,29655,1,0,0:0:0:0:
320,192,29727,1,0,0:0:0:0:
192,192,29727,1,0,0:0:0:0:
448,192,29835,1,0,0:0:0:0:
64,192,29944,1,0,0:0:0:0:
192,192,29980,1,0,0:0:0:0:
320,192,30015,1,0,0:0:0:0:
64,192,30052,1,0,0:0:0:0:
192,192,30088,1,0,0:0:0:0:
320,192,30124,1,0,0:0:0:0:
448,192,30160,1,0,0:0:0:0:
64,192,30160,1,0,0:0:0:0:
192,192,30232,1,0,0:0:0:0:
320,192,30268,1,0,0:0:0:0:
448,192,30305,1,0,0:0:0:0:
64,192,30340,1,0,0:0:0:0:
192,192,30376,1,0,0:0:0:0:
320,192,30413,1,0,0:0:0:0:
448,192,30449,1,0,0:0:0:0:
192,192,30485,1,0,0:0:0:0:
64,192,30521,1,0,0:0:0:0:
448,192,30557,1,0,0:0:0:0:
320,192,30593,1,0,0:0:0:0:
192,192,30593,1,0,0:0:0:0:
64,192,30665,1,0,0:0:0:0:
448,192,30701,1,0,0:0:0:0:
320,192,30737,1,0,0:0:0:0:
192,192,30774,1,0,0:0:0:0:
64,192,30809,1,0,0:0:0:0:
448,192,30845,1,0,0:0:0:0:
320,192,30882,1,0,0:0:0:0:
192,192,30917,1,0,0:0:0:0:
64,192,30954,1,0,0:0:0:0:
192,192,30990,1,0,0:0:0:0:
448,192,31025,1,0,0:0:0:0:
320,192,31025,1,0,0:0:0:0:
192,192,31134,1,0,0:0:0:0:
448,192,31243,1,0,0:0:0:0:
320,192,31278,1,0,0:0:0:0:
192,192,31315,1,0,0:0:0:0:
448,192,31351,1,0,0:0:0:0:
64,192,31386,1,0,0:0:0:0:
192,192,31423,1,0,0:0:0:0:
448,192,31459,1,0,0:0:0:0:
320,192,31459,1,0,0:0:0:0:
320,192,31567,1,0,0:0:0:0:
192,192,31675,1,0,0:0:0:0:
320,192,31711,1,0,0:0:0:0:
448,192,31747,1,0,0:0:0:0:
64,192,31784,1,0,0:0:0:0:
192,192,31819,1,0,0:0:0:0:
320,192,31855,1,0,0:0:0:0:
448,192,31892,1,0,0:0:0:0:
64,192,31892,1,0,0:0:0:0:
320,192,32000,1,0,0:0:0:0:
192,192,32108,1,0,0:0:0:0:
64,192,32216,1,0,0:0:0:0:
320,192,32325,1,0,0:0:0:0:
448,192,32361,1,0,0:0:0:0:
64,192,32396,1,0,0:0:0:0:
192,192,32433,1,0,0:0:0:0:
320,192,32469,1,0,0:0:0:0:
448,192,32505,1,0,0:0:0:0:
192,192,32541,1,0,0:0:0:0:
320,192,32577,1,0,0:0:0:0:
64,192,32613,1,0,0:0:0:0:
192,192,32649,1,0,0:0:0:0:
320,192,32685,1,0,0:0:0:0:
192,192,32722,1,0,0:0:0:0:
448,192,32757,1,0,0:0:0:0:
64,192,32757,1,0,0:0:0:0:
64,192,32902,1,0,0:0:0:0:
448,192,32938,1,0,0:0:0:0:
320,192,32974,1,0,0:0:0:0:
192,192,33010,1,0,0:0:0:0:
64,192,33046,1,0,0:0:0:0:
320,192,33082,1,0,0:0:0:0:
448,192,33118,1,0,0:0:0:0:
320,192,33190,1,0,0:0:0:0:
192,192,33190,1,0,0:0:0:0:
64,192,33298,1,0,0:0:0:0:
448,192,33406,1,0,0:0:0:0:
320,192,33443,1,0,0:0:0:0:
192,192,33479,1,0,0:0:0:0:
448,192,33515,1,0,0:0:0:0:
320,192,33551,1,0,0:0:0:0:
192,192,33587,1,0,0:0:0:0:
448,192,33624,1,0,0:0:0:0:
64,192,33624,1,0,0:0:0:0:
320,192,33695,1,0,0:0:0:0:
192,192,33732,1,0,0:0:0:0:
64,192,33767,1,0,0:0:0:0:
448,192,33804,1,0,0:0:0:0:
320,192,33840,1,0,0:0:0:0:
192,192,33875,1,0,0:0:0:0:
64,192,33912,1,0,0:0:0:0:
320,192,33948,1,0,0:0:0:0:
448,192,33984,1,0,0:0:0:0:
64,192,34020,1,0,0:0:0:0:
320,192,34056,1,0,0:0:0:0:
192,192,34056,1,0,0:0:0:0:
448,192,34128,1,0,0:0:0:0:
64,192,34165,1,0,0:0:0:0:
192,192,34201,1,0,0:0:0:0:
320,192,34236,1,0,0:0:0:0:
448,192,34273,1,0,0:0:0:0:
64,192,34309,1,0,0:0:0:0:
192,192,34345,1,0,0:0:0:0:
320,192,34381,1,0,0:0:0:0:
448,192,34417,1,0,0:0:0:0:
320,192,34453,1,0,0:0:0:0:
192,192,34489,1,0,0:0:0:0:
64,192,34489,1,0,0:0:0:0:
320,192,34597,1,0,0:0:0:0:
64,192,34705,1,0,0:0:0:0:
192,192,34742,1,0,0:0:0:0:
320,192,34777,1,0,0:0:0:0:
64,192,34814,1,0,0:0:0:0:
448,192,34850,1,0,0:0:0:0:
320,192,34885,1,0,0:0:0:0:
192,192,34922,1,0,0:0:0:0:
64,192,34922,1,0,0:0:0:0:
192,192,35030,1,0,0:0:0:0:
320,192,35138,1,0,0:0:0:0:
192,192,35175,1,0,0:0:0:0:
64,192,35211,1,0,0:0:0:0:
448,192,35246,1,0,0:0:0:0:
320,192,35283,1,0,0:0:0:0:
192,192,35319,1,0,0:0:0:0:
448,192,35355,1,0,0:0:0:0:
64,192,35355,1,0,0:0:0:0:
192,192,35463,1,0,0:0:0:0:
320,192,35571,1,0,0:0:0:0:
448,192,35679,1,0,0:0:0:0:
192,192,35788,1,0,0:0:0:0:
64,192,35824,1,0,0:0:0:0:
448,192,35860,1,0,0:0:0:0:
320,192,35896,1,0,0:0:0:0:
192,192,35932,1,0,0:0:0:0:
64,192,35968,1,0,0:0:0:0:
448,192,36005,1,0,0:0:0:0:
192,192,36040,1,0,0:0:0:0:
320,192,36076,1,0,0:0:0:0:
64,192,36113,1,0,0:0:0:0:
448,192,36148,1,0,0:0:0:0:
320,192,36185,1,0,0:0:0:0:
64,192,36221,1,0,0:0:0:0:
192,192,36256,1,0,0:0:0:0:
320,192,36293,1,0,0:0:0:0:
448,192,36329,1,0,0:0:0:0:
64,192,36365,1,0,0:0:0:0:
192,192,36401,1,0,0:0:0:0:
320,192,36437,1,0,0:0:0:0:
448,192,36474,1,0,0:0:0:0:
64,192,36509,1,0,0:0:0:0:
192,192,36545,1,0,0:0:0:0:
320,192,36582,1,0,0:0:0:0:
448,192,36617,1,0,0:0:0:0:
320,192,36654,1,0,0:0:0:0:
192,192,36690,1,0,0:0:0:0:
64,192,36725,1,0,0:0:0:0:
448,192,36762,1,0,0:0:0:0:
320,192,36798,1,0,0:0:0:0:
192,192,36834,1,0,0:0:0:0:
64,192,36870,1,0,0:0:0:0:
448,192,36906,1,0,0:0:0:0:
320,192,36942,1,0,0:0:0:0:
192,192,36978,1,0,0:0:0:0:
64,192,37015,1,0,0:0:0:0:
448,192,37050,1,0,0:0:0:0:
320,192,37086,1,0,0:0:0:0:
192,192,37123,1,0,0:0:0:0:
64,192,37158,1,0,0:0:0:0:
448,192,37195,1,0,0:0:0:0:
320,192,37231,1,0,0:0:0:0:
192,192,37267,1,0,0:0:0:0:
64,192,37303,1,0,0:0:0:0:
448,192,37303,1,0,0:0:0:0:
320,192,37375,1,0,0:0:0:0:
192,192,37447,1,0,0:0:0:0:
448,192,37519,1,0,0:0:0:0:
320,192,37519,1,0,0:0:0:0:
64,192,37592,1,0,0:0:0:0:
448,192,37664,1,0,0:0:0:0:
320,192,37735,1,0,0:0:0:0:
192,192,37735,1,0,0:0:0:0:
64,192,37808,1,0,0:0:0:0:
448,192,37880,1,0,0:0:0:0:
64,192,37952,1,0,0:0:0:0:
192,192,37988,1,0,0:0:0:0:
320,192,38025,1,0,0:0:0:0:
448,192,38061,1,0,0:0:0:0:
64,192,38096,1,0,0:0:0:0:
192,192,38133,1,0,0:0:0:0:
320,192,38169,1,0,0:0:0:0:
448,192,38205,1,0,0:0:0:0:
64,192,38241,1,0,0:0:0:0:
192,192,38277,1,0,0:0:0:0:
320,192,38313,1,0,0:0:0:0:
448,192,38349,1,0,0:0:0:0:
320,192,38385,1,0,0:0:0:0:
192,192,38421,1,0,0:0:0:0:
64,192,38457,1,0,0:0:0:0:
448,192,38494,1,0,0:0:0:0:
320,192,38529,1,0,0:0:0:0:
192,192,38565,1,0,0:0:0:0:
64,192,38602,1,0,0:0:0:0:
448,192,38637,1,0,0:0:0:0:
320,192,38674,1,0,0:0:0:0:
192,192,38710,1,0,0:0:0:0:
64,192,38746,1,0,0:0:0:0:
448,192,38782,1,0,0:0:0:0:
320,192,38818,1,0,0:0:0:0:
192,192,38855,1,0,0:0:0:0:
64,192,38890,1,0,0:0:0:0:
448,192,38926,1,0,0:0:0:0:
320,192,38963,1,0,0:0:0:0:
192,192,38998,1,0,0:0:0:0:
64,192,39035,1,0,0:0:0:0:
448,192,39035,1,0,0:0:0:0:
192,192,39106,1,0,0:0:0:0:
320,192,39179,1,0,0:0:0:0:
192,192,39251,1,0,0:0:0:0:
448,192,39251,1,0,0:0:0:0:
320,192,39323,1,0,0:0:0:0:
64,192,39395,1,0,0:0:0:0:
320,192,39467,1,0,0:0:0:0:
192,192,39467,1,0,0:0:0:0:
448,192,39540,1,0,0:0:0:0:
320,192,39612,1,0,0:0:0:0:
64,192,39684,1,0,0:0:0:0:
192,192,39720,1,0,0:0:0:0:
320,192,39756,1,0,0:0:0:0:
448,192,39792,1,0,0:0:0:0:
64,192,39828,1,0,0:0:0:0:
192,192,39865,1,0,0:0:0:0:
320,192,39900,1,0,0:0:0:0:
448,192,39936,1,0,0:0:0:0:
64,192,39973,1,0,0:0:0:0:
192,192,40008,1,0,0:0:0:0:
320,192,40045,1,0,0:0:0:0:
448,192,40081,1,0,0:0:0:0:
320,192,40116,1,0,0:0:0:0:
192,192,40153,1,0,0:0:0:0:
64,192,40189,1,0,0:0:0:0:
448,192,40225,1,0,0:0:0:0:
320,192,40261,1,0,0:0:0:0:
192,192,40297,1,0,0:0:0:0:
64,192,40334,1,0,0:0:0:0:
448,192,40369,1,0,0:0:0:0:
320,192,40405,1,0,0:0:0:0:
192,192,40442,1,0,0:0:0:0:
64,192,40477,1,0,0:0:0:0:
448,192,40514,1,0,0:0:0:0:
320,192,40550,1,0,0:0:0:0:
192,192,40585,1,0,0:0:0:0:
64,192,40622,1,0,0:0:0:0:
448,192,40658,1,0,0:0:0:0:
320,192,40694,1,0,0:0:0:0:
192,192,40730,1,0,0:0:0:0:
448,192,40766,1,0,0:0:0:0:
64,192,40766,1,0,0:0:0:0:
320,192,40838,1,0,0:0:0:0:
448,192,40910,1,0,0:0:0:0:
192,192,40983,1,0,0:0:0:0:
64,192,40983,1,0,0:0:0:0:
320,192,41055,1,0,0:0:0:0:
192,192,41127,1,0,0:0:0:0:
320,192,41199,1,0,0:0:0:0:
448,192,41199,1,0,0:0:0:0:
64,192,41271,1,0,0:0:0:0:
192,192,41344,1,0,0:0:0:0:
448,192,41415,1,0,0:0:0:0:
64,192,41415,1,0,0:0:0:0:
320,192,41452,1,0,0:0:0:0:
192,192,41524,1,0,0:0:0:0:
320,192,41632,1,0,0:0:0:0:
64,192,41740,1,0,0:0:0:0:
448,192,41740,1,0,0:0:0:0:
320,192,41776,1,0,0:0:0:0:
192,192,41848,1,0,0:0:0:0:
448,192,41956,1,0,0:0:0:0:
64,192,42065,1,0,0:0:0:0:
320,192,42065,1,0,0:0:0:0:
192,192,42101,1,0,0:0:0:0:
448,192,42119,1,0,0:0:0:0:
448,192,42281,1,0,0:0:0:0:
64,192,42281,1,0,0:0:0:0:
320,192,42317,1,0,0:0:0:0:
192,192,42354,1,0,0:0:0:0:
64,192,42389,1,0,0:0:0:0:
448,192,42425,1,0,0:0:0:0:
320,192,42462,1,0,0:0:0:0:
192,192,42497,1,0,0:0:0:0:
448,192,42534,1,0,0:0:0:0:
320,192,42570,1,0,0:0:0:0:
64,192,42606,1,0,0:0:0:0:
192,192,42642,1,0,0:0:0:0:
320,192,42678,1,0,0:0:0:0:
448,192,42715,1,0,0:0:0:0:
64,192,42750,1,0,0:0:0:0:
192,192,42786,1,0,0:0:0:0:
320,192,42823,1,0,0:0:0:0:
64,192,42858,1,0,0:0:0:0:
192,192,42895,1,0,0:0:0:0:
320,192,42931,1,0,0:0:0:0:
448,192,42966,1,0,0:0:0:0:
192,192,43003,1,0,0:0:0:0:
320,192,43039,1,0,0:0:0:0:
448,192,43075,1,0,0:0:0:0:
64,192,43147,1,0,0:0:0:0:
192,192,43183,1,0,0:0:0:0:
320,192,43219,1,0,0:0:0:0:
448,192,43255,1,0,0:0:0:0:
64,192,43292,1,0,0:0:0:0:
192,192,43327,1,0,0:0:0:0:
320,192,43364,1,0,0:0:0:0:
448,192,43400,1,0,0:0:0:0:
64,192,43435,1,0,0:0:0:0:
192,192,43472,1,0,0:0:0:0:
320,192,43508,1,0,0:0:0:0:
448,192,43544,1,0,0:0:0:0:
320,192,43580,1,0,0:0:0:0:
192,192,43616,1,0,0:0:0:0:
64,192,43652,1,0,0:0:0:0:
448,192,43688,1,0,0:0:0:0:
320,192,43725,1,0,0:0:0:0:
192,192,43760,1,0,0:0:0:0:
64,192,43796,1,0,0:0:0:0:
448,192,43833,1,0,0:0:0:0:
320,192,43868,1,0,0:0:0:0:
192,192,43905,1,0,0:0:0:0:
64,192,43941,1,0,0:0:0:0:
448,192,43976,1,0,0:0:0:0:
320,192,44013,1,0,0:0:0:0:
192,192,44049,1,0,0:0:0:0:
64,192,44085,1,0,0:0:0:0:
448,192,44121,1,0,0:0:0:0:
320,192,44157,1,0,0:0:0:0:
192,192,44194,1,0,0:0:0:0:
64,192,44229,1,0,0:0:0:0:
448,192,44229,1,0,0:0:0:0:
320,192,44302,1,0,0:0:0:0:
192,192,44374,1,0,0:0:0:0:
448,192,44445,1,0,0:0:0:0:
320,192,44445,1,0,0:0:0:0:
64,192,44518,1,0,0:0:0:0:
448,192,44590,1,0,0:0:0:0:
320,192,44662,1,0,0:0:0:0:
192,192,44662,1,0,0:0:0:0:
64,192,44735,1,0,0:0:0:0:
448,192,44806,1,0,0:0:0:0:
64,192,44879,1,0,0:0:0:0:
192,192,44915,1,0,0:0:0:0:
320,192,44951,1,0,0:0:0:0:
448,192,44987,1,0,0:0:0:0:
64,192,45023,1,0,0:0:0:0:
192,192,45059,1,0,0:0:0:0:
320,192,45095,1,0,0:0:0:0:
448,192,45131,1,0,0:0:0:0:
64,192,45167,1,0,0:0:0:0:
192,192,45204,1,0,0:0:0:0:
320,192,45239,1,0,0:0:0:0:
448,192,45275,1,0,0:0:0:0:
320,192,45312,1,0,0:0:0:0:
192,192,45347,1,0,0:0:0:0:
64,192,45384,1,0,0:0:0:0:
448,192,45420,1,0,0:0:0:0:
320,192,45455,1,0,0:0:0:0:
192,192,45492,1,0,0:0:0:0:
64,192,45528,1,0,0:0:0:0:
448,192,45565,1,0,0:0:0:0:
320,192,45600,1,0,0:0:0:0:
192,192,45636,1,0,0:0:0:0:
64,192,45673,1,0,0:0:0:0:
448,192,45708,1,0,0:0:0:0:
320,192,45745,1,0,0:0:0:0:
192,192,45781,1,0,0:0:0:0:
64,192,45816,1,0,0:0:0:0:
448,192,45853,1,0,0:0:0:0:
320,192,45889,1,0,0:0:0:0:
192,192,45925,1,0,0:0:0:0:
64,192,45961,1,0,0:0:0:0:
448,192,45961,1,0,0:0:0:0:
192,192,46033,1,0,0:0:0:0:
320,192,46105,1,0,0:0:0:0:
192,192,46177,1,0,0:0:0:0:
448,192,46177,1,0,0:0:0:0:
320,192,46249,1,0,0:0:0:0:
64,192,46322,1,0,0:0:0:0:
320,192,46394,1,0,0:0:0:0:
192,192,46394,1,0,0:0:0:0:
448,192,46466,1,0,0:0:0:0:
320,192,46538,1,0,0:0:0:0:
64,192,46610,1,0,0:0:0:0:
192,192,46646,1,0,0:0:0:0:
320,192,46683,1,0,0:0:0:0:
448,192,46718,1,0,0:0:0:0:
64,192,46755,1,0,0:0:0:0:
192,192,46791,1,0,0:0:0:0:
320,192,46826,1,0,0:0:0:0:
448,192,46863,1,0,0:0:0:0:
64,192,46899,1,0,0:0:0:0:
192,192,46935,1,0,0:0:0:0:
320,192,46971,1,0,0:0:0:0:
448,192,47007,1,0,0:0:0:0:
320,192,47043,1,0,0:0:0:0:
192,192,47079,1,0,0:0:0:0:
64,192,47115,1,0,0:0:0:0:
448,192,47152,1,0,0:0:0:0:
320,192,47187,1,0,0:0:0:0:
192,192,47224,1,0,0:0:0:0:
64,192,47260,1,0,0:0:0:0:
448,192,47295,1,0,0:0:0:0:
320,192,47332,1,0,0:0:0:0:
192,192,47368,1,0,0:0:0:0:
64,192,47404,1,0,0:0:0:0:
448,192,47440,1,0,0:0:0:0:
320,192,47476,1,0,0:0:0:0:
192,192,47512,1,0,0:0:0:0:
64,192,47548,1,0,0:0:0:0:
448,192,47585,1,0,0:0:0:0:
320,192,47620,1,0,0:0:0:0:
192,192,47656,1,0,0:0:0:0:
448,192,47693,1,0,0:0:0:0:
64,192,47693,1,0,0:0:0:0:
320,192,47765,1,0,0:0:0:0:
448,192,47837,1,0,0:0:0:0:
192,192,47909,1,0,0:0:0:0:
64,192,47909,1,0,0:0:0:0:
320,192,47981,1,0,0:0:0:0:
192,192,48054,1,0,0:0:0:0:
320,192,48125,1,0,0:0:0:0:
448,192,48125,1,0,0:0:0:0:
64,192,48197,1,0,0:0:0:0:
192,192,48270,1,0,0:0:0:0:
448,192,48342,1,0,0:0:0:0:
64,192,48342,1,0,0:0:0:0:
320,192,48378,1,0,0:0:0:0:
192,192,48450,1,0,0:0:0:0:
320,192,48558,1,0,0:0:0:0:
64,192,48666,1,0,0:0:0:0:
448,192,48666,1,0,0:0:0:0:
320,192,48703,1,0,0:0:0:0:
192,192,48775,1,0,0:0:0:0:
448,192,48883,1,0,0:0:0:0:
64,192,48991,1,0,0:0:0:0:
320,192,48991,1,0,0:0:0:0:
192,192,49027,1,0,0:0:0:0:
448,192,49045,1,0,0:0:0:0:
448,192,49207,1,0,0:0:0:0:
64,192,49207,1,0,0:0:0:0:
320,192,49244,1,0,0:0:0:0:
192,192,49280,1,0,0:0:0:0:
64,192,49315,1,0,0:0:0:0:
448,192,49352,1,0,0:0:0:0:
320,192,49388,1,0,0:0:0:0:
192,192,49425,1,0,0:0:0:0:
448,192,49460,1,0,0:0:0:0:
320,192,49496,1,0,0:0:0:0:
64,192,49533,1,0,0:0:0:0:
192,192,49568,1,0,0:0:0:0:
320,192,49605,1,0,0:0:0:0:
448,192,49641,1,0,0:0:0:0:
64,192,49676,1,0,0:0:0:0:
192,192,49713,1,0,0:0:0:0:
320,192,49749,1,0,0:0:0:0:
64,192,49785,1,0,0:0:0:0:
192,192,49821,1,0,0:0:0:0:
320,192,49857,1,0,0:0:0:0:
448,192,49893,1,0,0:0:0:0:
192,192,49929,1,0,0:0:0:0:
320,192,49965,1,0,0:0:0:0:
448,192,50001,1,0,0:0:0:0:
64,192,50074,1,0,0:0:0:0:
192,192,50074,1,0,0:0:0:0:
320,192,50110,1,0,0:0:0:0:
448,192,50145,1,0,0:0:0:0:
192,192,50182,1,0,0:0:0:0:
320,192,50218,1,0,0:0:0:0:
448,192,50254,1,0,0:0:0:0:
192,192,50290,1,0,0:0:0:0:
320,192,50326,1,0,0:0:0:0:
448,192,50362,1,0,0:0:0:0:
192,192,50398,1,0,0:0:0:0:
320,192,50435,1,0,0:0:0:0:
448,192,50470,1,0,0:0:0:0:
320,192,50506,1,0,0:0:0:0:
192,192,50543,1,0,0:0:0:0:
64,192,50578,1,0,0:0:0:0:
320,192,50615,1,0,0:0:0:0:
192,192,50651,1,0,0:0:0:0:
64,192,50686,1,0,0:0:0:0:
320,192,50723,1,0,0:0:0:0:
192,192,50759,1,0,0:0:0:0:
64,192,50795,1,0,0:0:0:0:
320,192,50831,1,0,0:0:0:0:
192,192,50867,1,0,0:0:0:0:
64,192,50904,1,0,0:0:0:0:
320,192,50939,1,0,0:0:0:0:
192,192,50975,1,0,0:0:0:0:
64,192,51012,1,0,0:0:0:0:
320,192,51047,1,0,0:0:0:0:
192,192,51084,1,0,0:0:0:0:
64,192,51120,1,0,0:0:0:0:
192,192,51155,1,0,0:0:0:0:
448,192,51155,1,0,0:0:0:0:
320,192,51228,1,0,0:0:0:0:
192,192,51300,1,0,0:0:0:0:
448,192,51372,1,0,0:0:0:0:
320,192,51372,1,0,0:0:0:0:
64,192,51445,1,0,0:0:0:0:
448,192,51516,1,0,0:0:0:0:
320,192,51588,1,0,0:0:0:0:
192,192,51588,1,0,0:0:0:0:
64,192,51661,1,0,0:0:0:0:
448,192,51733,1,0,0:0:0:0:
192,192,51805,1,0,0:0:0:0:
320,192,51841,1,0,0:0:0:0:
448,192,51877,1,0,0:0:0:0:
192,192,51914,1,0,0:0:0:0:
320,192,51949,1,0,0:0:0:0:
448,192,51985,1,0,0:0:0:0:
192,192,52022,1,0,0:0:0:0:
320,192,52057,1,0,0:0:0:0:
448,192,52094,1,0,0:0:0:0:
192,192,52130,1,0,0:0:0:0:
320,192,52165,1,0,0:0:0:0:
448,192,52202,1,0,0:0:0:0:
320,192,52238,1,0,0:0:0:0:
192,192,52274,1,0,0:0:0:0:
64,192,52310,1,0,0:0:0:0:
320,192,52346,1,0,0:0:0:0:
192,192,52383,1,0,0:0:0:0:
64,192,52418,1,0,0:0:0:0:
320,192,52455,1,0,0:0:0:0:
192,192,52491,1,0,0:0:0:0:
64,192,52526,1,0,0:0:0:0:
320,192,52563,1,0,0:0:0:0:
192,192,52599,1,0,0:0:0:0:
64,192,52635,1,0,0:0:0:0:
320,192,52671,1,0,0:0:0:0:
192,192,52707,1,0,0:0:0:0:
64,192,52743,1,0,0:0:0:0:
320,192,52779,1,0,0:0:0:0:
192,192,52815,1,0,0:0:0:0:
64,192,52851,1,0,0:0:0:0:
320,192,52887,1,0,0:0:0:0:
448,192,52887,1,0,0:0:0:0:
192,192,52959,1,0,0:0:0:0:
320,192,53032,1,0,0:0:0:0:
192,192,53104,1,0,0:0:0:0:
448,192,53104,1,0,0:0:0:0:
320,192,53176,1,0,0:0:0:0:
64,192,53248,1,0,0:0:0:0:
320,192,53320,1,0,0:0:0:0:
192,192,53320,1,0,0:0:0:0:
448,192,53393,1,0,0:0:0:0:
320,192,53465,1,0,0:0:0:0:
192,192,53536,1,0,0:0:0:0:
64,192,53536,1,0,0:0:0:0:
320,192,53573,1,0,0:0:0:0:
448,192,53609,1,0,0:0:0:0:
192,192,53645,1,0,0:0:0:0:
320,192,53681,1,0,0:0:0:0:
448,192,53717,1,0,0:0:0:0:
192,192,53753,1,0,0:0:0:0:
320,192,53789,1,0,0:0:0:0:
448,192,53825,1,0,0:0:0:0:
192,192,53861,1,0,0:0:0:0:
320,192,53897,1,0,0:0:0:0:
448,192,53934,1,0,0:0:0:0:
320,192,53970,1,0,0:0:0:0:
192,192,54005,1,0,0:0:0:0:
64,192,54042,1,0,0:0:0:0:
320,192,54078,1,0,0:0:0:0:
192,192,54114,1,0,0:0:0:0:
64,192,54150,1,0,0:0:0:0:
320,192,54186,1,0,0:0:0:0:
192,192,54222,1,0,0:0:0:0:
64,192,54258,1,0,0:0:0:0:
320,192,54295,1,0,0:0:0:0:
192,192,54330,1,0,0:0:0:0:
64,192,54366,1,0,0:0:0:0:
320,192,54403,1,0,0:0:0:0:
192,192,54438,1,0,0:0:0:0:
64,192,54475,1,0,0:0:0:0:
320,192,54511,1,0,0:0:0:0:
192,192,54546,1,0,0:0:0:0:
64,192,54583,1,0,0:0:0:0:
448,192,54619,1,0,0:0:0:0:
320,192,54619,1,0,0:0:0:0:
192,192,54691,1,0,0:0:0:0:
448,192,54764,1,0,0:0:0:0:
192,192,54835,1,0,0:0:0:0:
64,192,54835,1,0,0:0:0:0:
320,192,54907,1,0,0:0:0:0:
192,192,54980,1,0,0:0:0:0:
320,192,55052,1,0,0:0:0:0:
448,192,55052,1,0,0:0:0:0:
64,192,55124,1,0,0:0:0:0:
192,192,55196,1,0,0:0:0:0:
448,192,55268,1,0,0:0:0:0:
64,192,55268,1,0,0:0:0:0:
320,192,55305,1,0,0:0:0:0:
192,192,55376,1,0,0:0:0:0:
320,192,55485,1,0,0:0:0:0:
64,192,55593,1,0,0:0:0:0:
448,192,55593,1,0,0:0:0:0:
320,192,55629,1,0,0:0:0:0:
192,192,55701,1,0,0:0:0:0:
448,192,55809,1,0,0:0:0:0:
64,192,55917,1,0,0:0:0:0:
320,192,55917,1,0,0:0:0:0:
192,192,55954,1,0,0:0:0:0:
448,192,55972,1,0,0:0:0:0:
448,192,56134,1,0,0:0:0:0:
64,192,56134,1,0,0:0:0:0:
320,192,56170,1,0,0:0:0:0:
192,192,56206,1,0,0:0:0:0:
64,192,56243,1,0,0:0:0:0:
448,192,56278,1,0,0:0:0:0:
320,192,56315,1,0,0:0:0:0:
192,192,56351,1,0,0:0:0:0:
448,192,56386,1,0,0:0:0:0:
320,192,56423,1,0,0:0:0:0:
64,192,56459,1,0,0:0:0:0:
192,192,56495,1,0,0:0:0:0:
320,192,56531,1,0,0:0:0:0:
448,192,56567,1,0,0:0:0:0:
64,192,56603,1,0,0:0:0:0:
192,192,56639,1,0,0:0:0:0:
320,192,56675,1,0,0:0:0:0:
64,192,56711,1,0,0:0:0:0:
192,192,56747,1,0,0:0:0:0:
320,192,56784,1,0,0:0:0:0:
448,192,56819,1,0,0:0:0:0:
192,192,56855,1,0,0:0:0:0:
320,192,56892,1,0,0:0:0:0:
448,192,56928,1,0,0:0:0:0:
64,192,57000,1,0,0:0:0:0:
192,192,57000,1,0,0:0:0:0:
320,192,57036,1,0,0:0:0:0:
448,192,57072,1,0,0:0:0:0:
192,192,57108,1,0,0:0:0:0:
320,192,57145,1,0,0:0:0:0:
448,192,57180,1,0,0:0:0:0:
192,192,57216,1,0,0:0:0:0:
320,192,57253,1,0,0:0:0:0:
448,192,57288,1,0,0:0:0:0:
192,192,57325,1,0,0:0:0:0:
320,192,57361,1,0,0:0:0:0:
448,192,57396,1,0,0:0:0:0:
320,192,57433,1,0,0:0:0:0:
192,192,57469,1,0,0:0:0:0:
64,192,57505,1,0,0:0:0:0:
320,192,57541,1,0,0:0:0:0:
192,192,57577,1,0,0:0:0:0:
64,192,57613,1,0,0:0:0:0:
320,192,57649,1,0,0:0:0:0:
192,192,57685,1,0,0:0:0:0:
64,192,57722,1,0,0:0:0:0:
320,192,57757,1,0,0:0:0:0:
192,192,57794,1,0,0:0:0:0:
64,192,57830,1,0,0:0:0:0:
320,192,57865,1,0,0:0:0:0:
192,192,57902,1,0,0:0:0:0:
64,192,57938,1,0,0:0:0:0:
320,192,57974,1,0,0:0:0:0:
192,192,58010,1,0,0:0:0:0:
64,192,58046,1,0,0:0:0:0:
320,192,58082,1,0,0:0:0:0:
448,192,58082,1,0,0:0:0:0:
192,192,58155,1,0,0:0:0:0:
320,192,58226,1,0,0:0:0:0:
448,192,58298,1,0,0:0:0:0:
192,192,58298,1,0,0:0:0:0:
64,192,58371,1,0,0:0:0:0:
448,192,58443,1,0,0:0:0:0:
320,192,58515,1,0,0:0:0:0:
192,192,58515,1,0,0:0:0:0:
64,192,58587,1,0,0:0:0:0:
448,192,58659,1,0,0:0:0:0:
192,192,58732,1,0,0:0:0:0:
320,192,58767,1,0,0:0:0:0:
448,192,58804,1,0,0:0:0:0:
192,192,58840,1,0,0:0:0:0:
320,192,58875,1,0,0:0:0:0:
448,192,58912,1,0,0:0:0:0:
192,192,58948,1,0,0:0:0:0:
320,192,58984,1,0,0:0:0:0:
448,192,59020,1,0,0:0:0:0:
192,192,59056,1,0,0:0:0:0:
320,192,59092,1,0,0:0:0:0:
448,192,59128,1,0,0:0:0:0:
320,192,59165,1,0,0:0:0:0:
192,192,59201,1,0,0:0:0:0:
64,192,59236,1,0,0:0:0:0:
320,192,59273,1,0,0:0:0:0:
192,192,59309,1,0,0:0:0:0:
64,192,59345,1,0,0:0:0:0:
320,192,59381,1,0,0:0:0:0:
192,192,59417,1,0,0:0:0:0:
64,192,59453,1,0,0:0:0:0:
320,192,59489,1,0,0:0:0:0:
192,192,59525,1,0,0:0:0:0:
64,192,59561,1,0,0:0:0:0:
320,192,59597,1,0,0:0:0:0:
192,192,59634,1,0,0:0:0:0:
64,192,59669,1,0,0:0:0:0:
320,192,59705,1,0,0:0:0:0:
192,192,59742,1,0,0:0:0:0:
64,192,59777,1,0,0:0:0:0:
320,192,59814,1,0,0:0:0:0:
448,192,59814,1,0,0:0:0:0:
192,192,59885,1,0,0:0:0:0:
320,192,59958,1,0,0:0:0:0:
192,192,60030,1,0,0:0:0:0:
448,192,60030,1,0,0:0:0:0:
320,192,60103,1,0,0:0:0:0:
64,192,60175,1,0,0:0:0:0:
320,192,60246,1,0,0:0:0:0:
192,192,60246,1,0,0:0:0:0:
448,192,60319,1,0,0:0:0:0:
320,192,60391,1,0,0:0:0:0:
192,192,60463,1,0,0:0:0:0:
64,192,60463,1,0,0:0:0:0:
320,192,60499,1,0,0:0:0:0:
448,192,60535,1,0,0:0:0:0:
192,192,60571,1,0,0:0:0:0:
320,192,60607,1,0,0:0:0:0:
448,192,60644,1,0,0:0:0:0:
192,192,60679,1,0,0:0:0:0:
320,192,60715,1,0,0:0:0:0:
448,192,60752,1,0,0:0:0:0:
192,192,60788,1,0,0:0:0:0:
320,192,60824,1,0,0:0:0:0:
448,192,60860,1,0,0:0:0:0:
320,192,60896,1,0,0:0:0:0:
192,192,60932,1,0,0:0:0:0:
64,192,60968,1,0,0:0:0:0:
320,192,61005,1,0,0:0:0:0:
192,192,61040,1,0,0:0:0:0:
64,192,61076,1,0,0:0:0:0:
320,192,61113,1,0,0:0:0:0:
192,192,61148,1,0,0:0:0:0:
64,192,61185,1,0,0:0:0:0:
320,192,61221,1,0,0:0:0:0:
192,192,61256,1,0,0:0:0:0:
64,192,61293,1,0,0:0:0:0:
320,192,61329,1,0,0:0:0:0:
192,192,61365,1,0,0:0:0:0:
64,192,61401,1,0,0:0:0:0:
320,192,61437,1,0,0:0:0:0:
192,192,61474,1,0,0:0:0:0:
64,192,61509,1,0,0:0:0:0:
448,192,61545,1,0,0:0:0:0:
192,192,61545,1,0,0:0:0:0:
320,192,61617,1,0,0:0:0:0:
448,192,61690,1,0,0:0:0:0:
192,192,61762,1,0,0:0:0:0:
64,192,61762,1,0,0:0:0:0:
320,192,61834,1,0,0:0:0:0:
192,192,61906,1,0,0:0:0:0:
320,192,61978,1,0,0:0:0:0:
448,192,61978,1,0,0:0:0:0:
64,192,62050,1,0,0:0:0:0:
192,192,62123,1,0,0:0:0:0:
448,192,62195,1,0,0:0:0:0:
64,192,62195,1,0,0:0:0:0:
320,192,62231,1,0,0:0:0:0:
192,192,62303,1,0,0:0:0:0:
320,192,62411,1,0,0:0:0:0:
64,192,62519,1,0,0:0:0:0:
448,192,62519,1,0,0:0:0:0:
320,192,62555,1,0,0:0:0:0:
192,192,62627,1,0,0:0:0:0:
448,192,62735,1,0,0:0:0:0:
64,192,62844,5,0,0:0:0:0:
320,192,62844,1,0,0:0:0:0:
192,192,62880,1,0,0:0:0:0:
448,192,62898,1,0,0:0:0:0:
448,192,63061,1,0,0:0:0:0:
64,192,63061,1,0,0:0:0:0:
192,192,63096,1,0,0:0:0:0:
320,192,63133,1,0,0:0:0:0:
64,192,63169,1,0,0:0:0:0:
448,192,63205,1,0,0:0:0:0:
320,192,63241,1,0,0:0:0:0:
192,192,63277,1,0,0:0:0:0:
448,192,63313,1,0,0:0:0:0:
320,192,63349,1,0,0:0:0:0:
64,192,63385,1,0,0:0:0:0:
192,192,63421,1,0,0:0:0:0:
320,192,63457,1,0,0:0:0:0:
448,192,63494,1,0,0:0:0:0:
64,192,63529,1,0,0:0:0:0:
192,192,63565,1,0,0:0:0:0:
320,192,63602,1,0,0:0:0:0:
64,192,63637,1,0,0:0:0:0:
192,192,63674,1,0,0:0:0:0:
320,192,63710,1,0,0:0:0:0:
448,192,63746,1,0,0:0:0:0:
192,192,63782,1,0,0:0:0:0:
320,192,63818,1,0,0:0:0:0:
64,192,63855,1,0,0:0:0:0:
192,192,63926,5,0,0:0:0:0:
448,192,63926,1,0,0:0:0:0:
320,192,63926,1,0,0:0:0:0:
64,192,64143,1,0,0:0:0:0:
320,192,64143,1,0,0:0:0:0:
448,192,64143,1,0,0:0:0:0:
192,192,64359,1,0,0:0:0:0:
320,192,64359,1,0,0:0:0:0:
64,192,64359,1,0,0:0:0:0:
448,192,64575,1,0,0:0:0:0:
64,192,64575,1,0,0:0:0:0:
192,192,64575,1,0,0:0:0:0:
320,192,64792,1,0,0:0:0:0:
448,192,64792,1,0,0:0:0:0:
64,192,64792,1,0,0:0:0:0:
448,192,65008,1,0,0:0:0:0:
192,192,65008,1,0,0:0:0:0:
320,192,65008,1,0,0:0:0:0:
320,192,65225,1,0,0:0:0:0:
64,192,65225,1,0,0:0:0:0:
192,192,65225,1,0,0:0:0:0:
64,192,65442,1,0,0:0:0:0:
448,192,65442,1,0,0:0:0:0:
64,192,65658,1,0,0:0:0:0:
448,192,65658,1,0,0:0:0:0:
192,192,65658,1,0,0:0:0:0:
320,192,65658,1,0,0:0:0:0:
192,192,65875,1,0,0:0:0:0:
64,192,65875,1,0,0:0:0:0:
64,192,66091,1,0,0:0:0:0:
448,192,66091,1,0,0:0:0:0:
320,192,66091,1,0,0:0:0:0:
192,192,66091,1,0,0:0:0:0:
192,192,66307,1,0,0:0:0:0:
448,192,66307,1,0,0:0:0:0:
192,192,66524,1,0,0:0:0:0:
448,192,66524,1,0,0:0:0:0:
320,192,66524,1,0,0:0:0:0:
64,192,66524,1,0,0:0:0:0:
64,192,66740,1,0,0:0:0:0:
320,192,66740,1,0,0:0:0:0:
192,192,66956,1,0,0:0:0:0:
448,192,66956,1,0,0:0:0:0:
64,192,66956,1,0,0:0:0:0:
320,192,66956,1,0,0:0:0:0:
448,192,67173,1,0,0:0:0:0:
320,192,67173,1,0,0:0:0:0:
192,192,67389,1,0,0:0:0:0:
320,192,67389,1,0,0:0:0:0:
64,192,67389,1,0,0:0:0:0:
64,192,67606,1,0,0:0:0:0:
320,192,67606,1,0,0:0:0:0:
448,192,67606,1,0,0:0:0:0:
64,192,67823,1,0,0:0:0:0:
448,192,67823,1,0,0:0:0:0:
192,192,67823,1,0,0:0:0:0:
64,192,68039,1,0,0:0:0:0:
192,192,68039,1,0,0:0:0:0:
320,192,68039,1,0,0:0:0:0:
448,192,68255,1,0,0:0:0:0:
320,192,68255,1,0,0:0:0:0:
64,192,68255,1,0,0:0:0:0:
192,192,68472,1,0,0:0:0:0:
320,192,68472,1,0,0:0:0:0:
448,192,68472,1,0,0:0:0:0:
320,192,68688,1,0,0:0:0:0:
64,192,68688,1,0,0:0:0:0:
192,192,68688,1,0,0:0:0:0:
448,192,68905,1,0,0:0:0:0:
64,192,68905,1,0,0:0:0:0:
64,192,69121,1,0,0:0:0:0:
192,192,69121,1,0,0:0:0:0:
448,192,69121,1,0,0:0:0:0:
320,192,69121,1,0,0:0:0:0:
192,192,69337,1,0,0:0:0:0:
448,192,69337,1,0,0:0:0:0:
448,192,69554,1,0,0:0:0:0:
320,192,69554,1,0,0:0:0:0:
192,192,69554,1,0,0:0:0:0:
64,192,69554,1,0,0:0:0:0:
320,192,69770,1,0,0:0:0:0:
448,192,69770,1,0,0:0:0:0:
64,192,69987,1,0,0:0:0:0:
192,192,69987,1,0,0:0:0:0:
448,192,69987,1,0,0:0:0:0:
320,192,69987,1,0,0:0:0:0:
320,192,70204,1,0,0:0:0:0:
64,192,70204,1,0,0:0:0:0:
64,192,70420,1,0,0:0:0:0:
192,192,70420,1,0,0:0:0:0:
320,192,70420,1,0,0:0:0:0:
448,192,70420,1,0,0:0:0:0:
64,192,70636,1,0,0:0:0:0:
192,192,70636,1,0,0:0:0:0:
64,192,70853,1,0,0:0:0:0:
192,192,70853,1,0,0:0:0:0:
320,192,70853,1,0,0:0:0:0:
64,192,71069,1,0,0:0:0:0:
448,192,71069,1,0,0:0:0:0:
320,192,71069,1,0,0:0:0:0:
64,192,71285,1,0,0:0:0:0:
192,192,71285,1,0,0:0:0:0:
320,192,71285,1,0,0:0:0:0:
448,192,71502,1,0,0:0:0:0:
64,192,71502,1,0,0:0:0:0:
192,192,71502,1,0,0:0:0:0:
320,192,71718,1,0,0:0:0:0:
64,192,71718,1,0,0:0:0:0:
448,192,71718,1,0,0:0:0:0:
192,192,71755,1,0,0:0:0:0:
64,192,71791,1,0,0:0:0:0:
448,192,71826,1,0,0:0:0:0:
320,192,71863,1,0,0:0:0:0:
64,192,71899,1,0,0:0:0:0:
192,192,71935,1,0,0:0:0:0:
448,192,71935,1,0,0:0:0:0:
320,192,71971,1,0,0:0:0:0:
64,192,72007,1,0,0:0:0:0:
192,192,72043,1,0,0:0:0:0:
448,192,72079,1,0,0:0:0:0:
320,192,72115,1,0,0:0:0:0:
64,192,72152,1,0,0:0:0:0:
192,192,72152,1,0,0:0:0:0:
64,192,72368,1,0,0:0:0:0:
448,192,72368,1,0,0:0:0:0:
64,192,72585,1,0,0:0:0:0:
448,192,72585,1,0,0:0:0:0:
192,192,72585,1,0,0:0:0:0:
320,192,72585,1,0,0:0:0:0:
320,192,72801,1,0,0:0:0:0:
192,192,72801,1,0,0:0:0:0:
64,192,73017,1,0,0:0:0:0:
448,192,73017,1,0,0:0:0:0:
320,192,73017,1,0,0:0:0:0:
192,192,73017,1,0,0:0:0:0:
192,192,73234,1,0,0:0:0:0:
448,192,73234,1,0,0:0:0:0:
192,192,73450,1,0,0:0:0:0:
448,192,73450,1,0,0:0:0:0:
320,192,73450,1,0,0:0:0:0:
64,192,73450,1,0,0:0:0:0:
64,192,73666,1,0,0:0:0:0:
320,192,73666,1,0,0:0:0:0:
192,192,73883,1,0,0:0:0:0:
448,192,73883,1,0,0:0:0:0:
64,192,73883,1,0,0:0:0:0:
320,192,73883,1,0,0:0:0:0:
192,192,74099,1,0,0:0:0:0:
320,192,74099,1,0,0:0:0:0:
192,192,74315,1,0,0:0:0:0:
448,192,74315,1,0,0:0:0:0:
320,192,74315,1,0,0:0:0:0:
64,192,74533,1,0,0:0:0:0:
320,192,74533,1,0,0:0:0:0:
448,192,74533,1,0,0:0:0:0:
64,192,74749,1,0,0:0:0:0:
448,192,74749,1,0,0:0:0:0:
192,192,74749,1,0,0:0:0:0:
64,192,74965,1,0,0:0:0:0:
192,192,74965,1,0,0:0:0:0:
320,192,74965,1,0,0:0:0:0:
192,192,75182,1,0,0:0:0:0:
64,192,75182,1,0,0:0:0:0:
448,192,75182,1,0,0:0:0:0:
320,192,75218,1,0,0:0:0:0:
448,192,75254,1,0,0:0:0:0:
64,192,75290,1,0,0:0:0:0:
192,192,75326,1,0,0:0:0:0:
448,192,75362,1,0,0:0:0:0:
320,192,75398,1,0,0:0:0:0:
64,192,75398,1,0,0:0:0:0:
192,192,75435,1,0,0:0:0:0:
448,192,75470,1,0,0:0:0:0:
320,192,75506,1,0,0:0:0:0:
64,192,75543,1,0,0:0:0:0:
192,192,75578,1,0,0:0:0:0:
448,192,75615,1,0,0:0:0:0:
320,192,75615,1,0,0:0:0:0:
448,192,75831,1,0,0:0:0:0:
64,192,75831,1,0,0:0:0:0:
64,192,76047,1,0,0:0:0:0:
192,192,76047,1,0,0:0:0:0:
448,192,76047,1,0,0:0:0:0:
320,192,76047,1,0,0:0:0:0:
64,192,76264,1,0,0:0:0:0:
192,192,76264,1,0,0:0:0:0:
448,192,76480,1,0,0:0:0:0:
320,192,76480,1,0,0:0:0:0:
192,192,76480,1,0,0:0:0:0:
64,192,76480,1,0,0:0:0:0:
64,192,76697,1,0,0:0:0:0:
320,192,76697,1,0,0:0:0:0:
64,192,76914,1,0,0:0:0:0:
192,192,76914,1,0,0:0:0:0:
448,192,76914,1,0,0:0:0:0:
320,192,76914,1,0,0:0:0:0:
448,192,77130,1,0,0:0:0:0:
192,192,77130,1,0,0:0:0:0:
64,192,77346,1,0,0:0:0:0:
192,192,77346,1,0,0:0:0:0:
320,192,77346,1,0,0:0:0:0:
448,192,77346,1,0,0:0:0:0:
192,192,77455,1,0,0:0:0:0:
448,192,77563,1,0,0:0:0:0:
320,192,77563,1,0,0:0:0:0:
320,192,77671,1,0,0:0:0:0:
64,192,77779,1,0,0:0:0:0:
448,192,77779,1,0,0:0:0:0:
192,192,77779,1,0,0:0:0:0:
192,192,77887,1,0,0:0:0:0:
320,192,77995,1,0,0:0:0:0:
448,192,77995,1,0,0:0:0:0:
64,192,77995,1,0,0:0:0:0:
448,192,78104,1,0,0:0:0:0:
320,192,78212,1,0,0:0:0:0:
192,192,78212,1,0,0:0:0:0:
64,192,78212,1,0,0:0:0:0:
320,192,78320,1,0,0:0:0:0:
192,192,78428,1,0,0:0:0:0:
64,192,78428,1,0,0:0:0:0:
448,192,78428,1,0,0:0:0:0:
192,192,78536,1,0,0:0:0:0:
448,192,78645,1,0,0:0:0:0:
64,192,78645,1,0,0:0:0:0:
320,192,78645,1,0,0:0:0:0:
64,192,78753,1,0,0:0:0:0:
448,192,78861,1,0,0:0:0:0:
320,192,78861,1,0,0:0:0:0:
192,192,78861,1,0,0:0:0:0:
448,192,78970,1,0,0:0:0:0:
320,192,79078,1,0,0:0:0:0:
192,192,79078,1,0,0:0:0:0:
64,192,79078,1,0,0:0:0:0:
192,192,79186,1,0,0:0:0:0:
448,192,79295,1,0,0:0:0:0:
64,192,79295,1,0,0:0:0:0:
192,192,79511,1,0,0:0:0:0:
320,192,79511,1,0,0:0:0:0:
64,192,79511,1,0,0:0:0:0:
448,192,79511,1,0,0:0:0:0:
192,192,79727,1,0,0:0:0:0:
64,192,79727,1,0,0:0:0:0:
320,192,79944,1,0,0:0:0:0:
192,192,79944,1,0,0:0:0:0:
64,192,79944,1,0,0:0:0:0:
448,192,79944,1,0,0:0:0:0:
320,192,80052,1,0,0:0:0:0:
448,192,80160,1,0,0:0:0:0:
192,192,80160,1,0,0:0:0:0:
192,192,80268,1,0,0:0:0:0:
320,192,80376,1,0,0:0:0:0:
64,192,80376,1,0,0:0:0:0:
192,192,80376,1,0,0:0:0:0:
448,192,80376,1,0,0:0:0:0:
448,192,80485,1,0,0:0:0:0:
320,192,80593,1,0,0:0:0:0:
64,192,80593,1,0,0:0:0:0:
320,192,80701,1,0,0:0:0:0:
64,192,80809,1,0,0:0:0:0:
320,192,80809,1,0,0:0:0:0:
192,192,80809,1,0,0:0:0:0:
448,192,80809,1,0,0:0:0:0:
192,192,80917,1,0,0:0:0:0:
320,192,81025,1,0,0:0:0:0:
448,192,81025,1,0,0:0:0:0:
320,192,81243,1,0,0:0:0:0:
448,192,81243,1,0,0:0:0:0:
192,192,81243,1,0,0:0:0:0:
192,192,81351,1,0,0:0:0:0:
448,192,81459,1,0,0:0:0:0:
320,192,81459,1,0,0:0:0:0:
64,192,81459,1,0,0:0:0:0:
192,192,81675,1,0,0:0:0:0:
448,192,81675,1,0,0:0:0:0:
64,192,81675,1,0,0:0:0:0:
448,192,81784,1,0,0:0:0:0:
320,192,81892,1,0,0:0:0:0:
192,192,81892,1,0,0:0:0:0:
64,192,81892,1,0,0:0:0:0:
192,192,82000,1,0,0:0:0:0:
64,192,82108,1,0,0:0:0:0:
320,192,82108,1,0,0:0:0:0:
448,192,82108,1,0,0:0:0:0:
64,192,82216,1,0,0:0:0:0:
448,192,82325,1,0,0:0:0:0:
320,192,82325,1,0,0:0:0:0:
192,192,82325,1,0,0:0:0:0:
448,192,82433,1,0,0:0:0:0:
192,192,82541,1,0,0:0:0:0:
64,192,82541,1,0,0:0:0:0:
320,192,82541,1,0,0:0:0:0:
320,192,82649,1,0,0:0:0:0:
64,192,82757,1,0,0:0:0:0:
448,192,82757,1,0,0:0:0:0:
448,192,82974,1,0,0:0:0:0:
320,192,82974,1,0,0:0:0:0:
64,192,82974,1,0,0:0:0:0:
192,192,82974,1,0,0:0:0:0:
448,192,83190,1,0,0:0:0:0:
320,192,83190,1,0,0:0:0:0:
192,192,83406,1,0,0:0:0:0:
64,192,83406,1,0,0:0:0:0:
448,192,83406,1,0,0:0:0:0:
320,192,83406,1,0,0:0:0:0:
192,192,83515,1,0,0:0:0:0:
320,192,83624,1,0,0:0:0:0:
64,192,83624,1,0,0:0:0:0:
320,192,83732,1,0,0:0:0:0:
448,192,83840,1,0,0:0:0:0:
320,192,83840,1,0,0:0:0:0:
64,192,83840,1,0,0:0:0:0:
192,192,83840,1,0,0:0:0:0:
64,192,83948,1,0,0:0:0:0:
192,192,84056,1,0,0:0:0:0:
448,192,84056,1,0,0:0:0:0:
192,192,84165,1,0,0:0:0:0:
320,192,84273,1,0,0:0:0:0:
448,192,84273,1,0,0:0:0:0:
64,192,84273,1,0,0:0:0:0:
192,192,84273,1,0,0:0:0:0:
320,192,84381,1,0,0:0:0:0:
192,192,84489,1,0,0:0:0:0:
64,192,84489,1,0,0:0:0:0:
64,192,84705,1,0,0:0:0:0:
192,192,84705,1,0,0:0:0:0:
320,192,84705,1,0,0:0:0:0:
448,192,84705,1,0,0:0:0:0:
192,192,84814,1,0,0:0:0:0:
64,192,84922,1,0,0:0:0:0:
448,192,84922,1,0,0:0:0:0:
320,192,84922,1,0,0:0:0:0:
448,192,85030,1,0,0:0:0:0:
64,192,85138,1,0,0:0:0:0:
192,192,85138,1,0,0:0:0:0:
320,192,85138,1,0,0:0:0:0:
320,192,85246,1,0,0:0:0:0:
448,192,85355,1,0,0:0:0:0:
64,192,85355,1,0,0:0:0:0:
192,192,85355,1,0,0:0:0:0:
64,192,85571,1,0,0:0:0:0:
448,192,85571,1,0,0:0:0:0:
192,192,85571,1,0,0:0:0:0:
320,192,85607,1,0,0:0:0:0:
192,192,85644,1,0,0:0:0:0:
448,192,85679,1,0,0:0:0:0:
320,192,85715,1,0,0:0:0:0:
64,192,85752,1,0,0:0:0:0:
448,192,85788,1,0,0:0:0:0:
192,192,85788,1,0,0:0:0:0:
320,192,85824,1,0,0:0:0:0:
64,192,85860,1,0,0:0:0:0:
192,192,85896,1,0,0:0:0:0:
448,192,85932,1,0,0:0:0:0:
320,192,85968,1,0,0:0:0:0:
192,192,86005,1,0,0:0:0:0:
64,192,86005,1,0,0:0:0:0:
64,192,86221,1,0,0:0:0:0:
448,192,86221,1,0,0:0:0:0:
64,192,86437,1,0,0:0:0:0:
448,192,86437,1,0,0:0:0:0:
192,192,86437,1,0,0:0:0:0:
320,192,86437,1,0,0:0:0:0:
320,192,86545,1,0,0:0:0:0:
192,192,86654,1,0,0:0:0:0:
64,192,86654,1,0,0:0:0:0:
192,192,86762,1,0,0:0:0:0:
64,192,86870,1,0,0:0:0:0:
448,192,86870,1,0,0:0:0:0:
320,192,86870,1,0,0:0:0:0:
192,192,86870,1,0,0:0:0:0:
320,192,86978,1,0,0:0:0:0:
192,192,87086,1,0,0:0:0:0:
448,192,87086,1,0,0:0:0:0:
192,192,87303,1,0,0:0:0:0:
448,192,87303,1,0,0:0:0:0:
64,192,87303,1,0,0:0:0:0:
320,192,87339,1,0,0:0:0:0:
192,192,87375,1,0,0:0:0:0:
448,192,87411,1,0,0:0:0:0:
320,192,87447,1,0,0:0:0:0:
192,192,87484,1,0,0:0:0:0:
64,192,87519,1,0,0:0:0:0:
448,192,87519,1,0,0:0:0:0:
192,192,87735,1,0,0:0:0:0:
448,192,87735,1,0,0:0:0:0:
64,192,87735,1,0,0:0:0:0:
320,192,87735,1,0,0:0:0:0:
448,192,87952,1,0,0:0:0:0:
320,192,87952,1,0,0:0:0:0:
192,192,88169,1,0,0:0:0:0:
448,192,88169,1,0,0:0:0:0:
320,192,88169,1,0,0:0:0:0:
192,192,88277,1,0,0:0:0:0:
64,192,88385,1,0,0:0:0:0:
320,192,88385,1,0,0:0:0:0:
448,192,88385,1,0,0:0:0:0:
320,192,88494,1,0,0:0:0:0:
64,192,88602,1,0,0:0:0:0:
448,192,88602,1,0,0:0:0:0:
192,192,88602,1,0,0:0:0:0:
448,192,88710,1,0,0:0:0:0:
64,192,88818,1,0,0:0:0:0:
192,192,88818,1,0,0:0:0:0:
320,192,88818,1,0,0:0:0:0:
320,192,89035,1,0,0:0:0:0:
64,192,89035,1,0,0:0:0:0:
448,192,89035,1,0,0:0:0:0:
192,192,89071,1,0,0:0:0:0:
320,192,89106,1,0,0:0:0:0:
64,192,89143,1,0,0:0:0:0:
192,192,89179,1,0,0:0:0:0:
448,192,89215,1,0,0:0:0:0:
320,192,89251,1,0,0:0:0:0:
64,192,89251,1,0,0:0:0:0:
192,192,89287,1,0,0:0:0:0:
448,192,89323,1,0,0:0:0:0:
320,192,89359,1,0,0:0:0:0:
64,192,89395,1,0,0:0:0:0:
192,192,89431,1,0,0:0:0:0:
448,192,89467,1,0,0:0:0:0:
320,192,89467,1,0,0:0:0:0:
448,192,89684,1,0,0:0:0:0:
64,192,89684,1,0,0:0:0:0:
64,192,89900,1,0,0:0:0:0:
192,192,89900,1,0,0:0:0:0:
448,192,89900,1,0,0:0:0:0:
320,192,89900,1,0,0:0:0:0:
448,192,90008,1,0,0:0:0:0:
192,192,90116,1,0,0:0:0:0:
320,192,90116,1,0,0:0:0:0:
192,192,90225,1,0,0:0:0:0:
448,192,90334,1,0,0:0:0:0:
320,192,90334,1,0,0:0:0:0:
192,192,90334,1,0,0:0:0:0:
64,192,90334,1,0,0:0:0:0:
320,192,90442,1,0,0:0:0:0:
64,192,90550,1,0,0:0:0:0:
448,192,90550,1,0,0:0:0:0:
64,192,90766,1,0,0:0:0:0:
192,192,90766,1,0,0:0:0:0:
448,192,90766,1,0,0:0:0:0:
320,192,90766,1,0,0:0:0:0:
192,192,90983,1,0,0:0:0:0:
320,192,90983,1,0,0:0:0:0:
64,192,91199,1,0,0:0:0:0:
192,192,91199,1,0,0:0:0:0:
320,192,91199,1,0,0:0:0:0:
448,192,91199,1,0,0:0:0:0:
448,192,91415,1,0,0:0:0:0:
320,192,91415,1,0,0:0:0:0:
448,192,91632,1,0,0:0:0:0:
320,192,91632,1,0,0:0:0:0:
192,192,91632,1,0,0:0:0:0:
64,192,91632,1,0,0:0:0:0:
192,192,91740,1,0,0:0:0:0:
64,192,91848,1,0,0:0:0:0:
320,192,91848,1,0,0:0:0:0:
448,192,91848,1,0,0:0:0:0:
320,192,91956,1,0,0:0:0:0:
64,192,92065,1,0,0:0:0:0:
192,192,92065,1,0,0:0:0:0:
448,192,92065,1,0,0:0:0:0:
448,192,92173,1,0,0:0:0:0:
192,192,92281,1,0,0:0:0:0:
64,192,92281,1,0,0:0:0:0:
320,192,92281,1,0,0:0:0:0:
448,192,92497,1,0,0:0:0:0:
320,192,92497,1,0,0:0:0:0:
64,192,92497,1,0,0:0:0:0:
192,192,92715,1,0,0:0:0:0:
64,192,92715,1,0,0:0:0:0:
448,192,92715,1,0,0:0:0:0:
320,192,92931,1,0,0:0:0:0:
192,192,92931,1,0,0:0:0:0:
448,192,92931,1,0,0:0:0:0:
64,192,93147,1,0,0:0:0:0:
320,192,93147,1,0,0:0:0:0:
64,192,93364,1,0,0:0:0:0:
192,192,93364,1,0,0:0:0:0:
320,192,93364,1,0,0:0:0:0:
448,192,93364,1,0,0:0:0:0:
320,192,93472,1,0,0:0:0:0:
64,192,93580,1,0,0:0:0:0:
192,192,93580,1,0,0:0:0:0:
64,192,93688,1,0,0:0:0:0:
448,192,93796,1,0,0:0:0:0:
320,192,93796,1,0,0:0:0:0:
192,192,93796,1,0,0:0:0:0:
64,192,93796,1,0,0:0:0:0:
320,192,93905,1,0,0:0:0:0:
320,192,94013,1,0,0:0:0:0:
448,192,94013,1,0,0:0:0:0:
448,192,94229,1,0,0:0:0:0:
192,192,94229,1,0,0:0:0:0:
320,192,94229,1,0,0:0:0:0:
64,192,94229,1,0,0:0:0:0:
64,192,94445,1,0,0:0:0:0:
320,192,94445,1,0,0:0:0:0:
448,192,94662,1,0,0:0:0:0:
320,192,94662,1,0,0:0:0:0:
64,192,94662,1,0,0:0:0:0:
192,192,94662,1,0,0:0:0:0:
192,192,94879,1,0,0:0:0:0:
448,192,94879,1,0,0:0:0:0:
64,192,95095,1,0,0:0:0:0:
192,192,95095,1,0,0:0:0:0:
320,192,95131,1,0,0:0:0:0:
448,192,95167,1,0,0:0:0:0:
64,192,95204,1,0,0:0:0:0:
192,192,95239,1,0,0:0:0:0:
320,192,95275,1,0,0:0:0:0:
448,192,95312,1,0,0:0:0:0:
192,192,95347,1,0,0:0:0:0:
64,192,95384,1,0,0:0:0:0:
320,192,95420,1,0,0:0:0:0:
192,192,95455,1,0,0:0:0:0:
448,192,95492,1,0,0:0:0:0:
320,192,95528,1,0,0:0:0:0:
64,192,95528,1,0,0:0:0:0:
192,192,95565,1,0,0:0:0:0:
320,192,95600,1,0,0:0:0:0:
448,192,95636,1,0,0:0:0:0:
64,192,95673,1,0,0:0:0:0:
192,192,95708,1,0,0:0:0:0:
320,192,95745,1,0,0:0:0:0:
448,192,95781,1,0,0:0:0:0:
192,192,95816,1,0,0:0:0:0:
320,192,95853,1,0,0:0:0:0:
448,192,95889,1,0,0:0:0:0:
320,192,95925,1,0,0:0:0:0:
192,192,95961,1,0,0:0:0:0:
64,192,95961,1,0,0:0:0:0:
448,192,95997,1,0,0:0:0:0:
320,192,96033,1,0,0:0:0:0:
192,192,96069,1,0,0:0:0:0:
64,192,96105,1,0,0:0:0:0:
320,192,96141,1,0,0:0:0:0:
192,192,96177,1,0,0:0:0:0:
64,192,96214,1,0,0:0:0:0:
448,192,96249,1,0,0:0:0:0:
320,192,96285,1,0,0:0:0:0:
64,192,96322,1,0,0:0:0:0:
192,192,96358,1,0,0:0:0:0:
448,192,96394,1,0,0:0:0:0:
320,192,96394,1,0,0:0:0:0:
192,192,96430,1,0,0:0:0:0:
64,192,96466,1,0,0:0:0:0:
448,192,96502,1,0,0:0:0:0:
320,192,96538,1,0,0:0:0:0:
64,192,96575,1,0,0:0:0:0:
192,192,96610,1,0,0:0:0:0:
320,192,96646,1,0,0:0:0:0:
64,192,96683,1,0,0:0:0:0:
448,192,96718,1,0,0:0:0:0:
320,192,96755,1,0,0:0:0:0:
192,192,96791,1,0,0:0:0:0:
448,192,96826,1,0,0:0:0:0:
64,192,96826,1,0,0:0:0:0:
192,192,96863,1,0,0:0:0:0:
320,192,96899,1,0,0:0:0:0:
448,192,96935,1,0,0:0:0:0:
64,192,96971,1,0,0:0:0:0:
192,192,97007,1,0,0:0:0:0:
320,192,97043,1,0,0:0:0:0:
448,192,97079,1,0,0:0:0:0:
192,192,97115,1,0,0:0:0:0:
320,192,97152,1,0,0:0:0:0:
448,192,97187,1,0,0:0:0:0:
192,192,97224,1,0,0:0:0:0:
320,192,97260,1,0,0:0:0:0:
64,192,97295,1,0,0:0:0:0:
448,192,97332,1,0,0:0:0:0:
320,192,97368,1,0,0:0:0:0:
64,192,97404,1,0,0:0:0:0:
192,192,97440,1,0,0:0:0:0:
320,192,97476,1,0,0:0:0:0:
448,192,97512,1,0,0:0:0:0:
192,192,97548,1,0,0:0:0:0:
320,192,97585,1,0,0:0:0:0:
64,192,97620,1,0,0:0:0:0:
192,192,97656,1,0,0:0:0:0:
448,192,97693,1,0,0:0:0:0:
320,192,97693,1,0,0:0:0:0:
64,192,97728,1,0,0:0:0:0:
192,192,97765,1,0,0:0:0:0:
448,192,97801,1,0,0:0:0:0:
320,192,97837,1,0,0:0:0:0:
192,192,97873,1,0,0:0:0:0:
64,192,97909,1,0,0:0:0:0:
448,192,97945,1,0,0:0:0:0:
320,192,97981,1,0,0:0:0:0:
192,192,98017,1,0,0:0:0:0:
448,192,98054,1,0,0:0:0:0:
64,192,98089,1,0,0:0:0:0:
320,192,98125,1,0,0:0:0:0:
448,192,98125,1,0,0:0:0:0:
192,192,98162,1,0,0:0:0:0:
64,192,98197,1,0,0:0:0:0:
320,192,98234,1,0,0:0:0:0:
448,192,98270,1,0,0:0:0:0:
192,192,98305,1,0,0:0:0:0:
64,192,98342,1,0,0:0:0:0:
448,192,98378,1,0,0:0:0:0:
320,192,98414,1,0,0:0:0:0:
192,192,98450,1,0,0:0:0:0:
64,192,98486,1,0,0:0:0:0:
448,192,98522,1,0,0:0:0:0:
192,192,98558,1,0,0:0:0:0:
320,192,98558,1,0,0:0:0:0:
64,192,98595,1,0,0:0:0:0:
448,192,98631,1,0,0:0:0:0:
320,192,98666,1,0,0:0:0:0:
192,192,98703,1,0,0:0:0:0:
64,192,98739,1,0,0:0:0:0:
448,192,98775,1,0,0:0:0:0:
192,192,98811,1,0,0:0:0:0:
320,192,98847,1,0,0:0:0:0:
64,192,98883,1,0,0:0:0:0:
448,192,98919,1,0,0:0:0:0:
192,192,98955,1,0,0:0:0:0:
320,192,98991,1,0,0:0:0:0:
448,192,98991,1,0,0:0:0:0:
64,192,99027,1,0,0:0:0:0:
192,192,99064,1,0,0:0:0:0:
448,192,99099,1,0,0:0:0:0:
320,192,99135,1,0,0:0:0:0:
64,192,99172,1,0,0:0:0:0:
192,192,99207,1,0,0:0:0:0:
320,192,99244,1,0,0:0:0:0:
64,192,99280,1,0,0:0:0:0:
448,192,99315,1,0,0:0:0:0:
320,192,99352,1,0,0:0:0:0:
192,192,99388,1,0,0:0:0:0:
64,192,99425,1,0,0:0:0:0:
448,192,99425,1,0,0:0:0:0:
320,192,99460,1,0,0:0:0:0:
192,192,99496,1,0,0:0:0:0:
448,192,99533,1,0,0:0:0:0:
320,192,99568,1,0,0:0:0:0:
64,192,99605,1,0,0:0:0:0:
192,192,99641,1,0,0:0:0:0:
448,192,99676,1,0,0:0:0:0:
320,192,99713,1,0,0:0:0:0:
64,192,99749,1,0,0:0:0:0:
192,192,99785,1,0,0:0:0:0:
320,192,99821,1,0,0:0:0:0:
448,192,99857,1,0,0:0:0:0:
192,192,99857,1,0,0:0:0:0:
64,192,99893,1,0,0:0:0:0:
320,192,99929,1,0,0:0:0:0:
448,192,99965,1,0,0:0:0:0:
64,192,100001,1,0,0:0:0:0:
192,192,100037,1,0,0:0:0:0:
320,192,100074,1,0,0:0:0:0:
64,192,100290,1,0,0:0:0:0:
448,192,100290,1,0,0:0:0:0:
320,192,100326,1,0,0:0:0:0:
192,192,100362,1,0,0:0:0:0:
64,192,100398,1,0,0:0:0:0:
320,192,100435,1,0,0:0:0:0:
448,192,100470,1,0,0:0:0:0:
192,192,100506,1,0,0:0:0:0:
64,192,100543,1,0,0:0:0:0:
448,192,100578,1,0,0:0:0:0:
320,192,100615,1,0,0:0:0:0:
192,192,100651,1,0,0:0:0:0:
448,192,100686,1,0,0:0:0:0:
320,192,100723,1,0,0:0:0:0:
64,192,100723,1,0,0:0:0:0:
192,192,100759,1,0,0:0:0:0:
448,192,100795,1,0,0:0:0:0:
320,192,100831,1,0,0:0:0:0:
64,192,100867,1,0,0:0:0:0:
192,192,100904,1,0,0:0:0:0:
320,192,100939,1,0,0:0:0:0:
448,192,100975,1,0,0:0:0:0:
64,192,101012,1,0,0:0:0:0:
320,192,101047,1,0,0:0:0:0:
192,192,101084,1,0,0:0:0:0:
448,192,101120,1,0,0:0:0:0:
320,192,101155,1,0,0:0:0:0:
64,192,101155,1,0,0:0:0:0:
192,192,101192,1,0,0:0:0:0:
320,192,101228,1,0,0:0:0:0:
448,192,101264,1,0,0:0:0:0:
64,192,101300,1,0,0:0:0:0:
192,192,101336,1,0,0:0:0:0:
320,192,101372,1,0,0:0:0:0:
64,192,101408,1,0,0:0:0:0:
448,192,101445,1,0,0:0:0:0:
192,192,101480,1,0,0:0:0:0:
320,192,101516,1,0,0:0:0:0:
448,192,101553,1,0,0:0:0:0:
192,192,101588,1,0,0:0:0:0:
64,192,101588,1,0,0:0:0:0:
320,192,101625,1,0,0:0:0:0:
448,192,101661,1,0,0:0:0:0:
192,192,101697,1,0,0:0:0:0:
64,192,101733,1,0,0:0:0:0:
320,192,101769,1,0,0:0:0:0:
448,192,101805,1,0,0:0:0:0:
64,192,102022,1,0,0:0:0:0:
448,192,102022,1,0,0:0:0:0:
320,192,102022,1,0,0:0:0:0:
192,192,102057,1,0,0:0:0:0:
64,192,102094,1,0,0:0:0:0:
448,192,102130,1,0,0:0:0:0:
320,192,102165,1,0,0:0:0:0:
192,192,102202,1,0,0:0:0:0:
64,192,102238,1,0,0:0:0:0:
320,192,102274,1,0,0:0:0:0:
448,192,102310,1,0,0:0:0:0:
192,192,102346,1,0,0:0:0:0:
320,192,102383,1,0,0:0:0:0:
64,192,102418,1,0,0:0:0:0:
192,192,102455,1,0,0:0:0:0:
448,192,102455,1,0,0:0:0:0:
320,192,102491,1,0,0:0:0:0:
192,192,102526,1,0,0:0:0:0:
64,192,102563,1,0,0:0:0:0:
448,192,102599,1,0,0:0:0:0:
320,192,102635,1,0,0:0:0:0:
192,192,102671,1,0,0:0:0:0:
64,192,102707,1,0,0:0:0:0:
320,192,102743,1,0,0:0:0:0:
192,192,102779,1,0,0:0:0:0:
64,192,102815,1,0,0:0:0:0:
192,192,102851,1,0,0:0:0:0:
320,192,102887,1,0,0:0:0:0:
448,192,102887,1,0,0:0:0:0:
64,192,102924,1,0,0:0:0:0:
192,192,102959,1,0,0:0:0:0:
320,192,102995,1,0,0:0:0:0:
448,192,103032,1,0,0:0:0:0:
192,192,103067,1,0,0:0:0:0:
320,192,103104,1,0,0:0:0:0:
448,192,103140,1,0,0:0:0:0:
64,192,103176,1,0,0:0:0:0:
192,192,103212,1,0,0:0:0:0:
448,192,103248,1,0,0:0:0:0:
320,192,103285,1,0,0:0:0:0:
64,192,103320,1,0,0:0:0:0:
192,192,103320,1,0,0:0:0:0:
320,192,103356,1,0,0:0:0:0:
448,192,103393,1,0,0:0:0:0:
64,192,103428,1,0,0:0:0:0:
192,192,103465,1,0,0:0:0:0:
448,192,103501,1,0,0:0:0:0:
320,192,103536,1,0,0:0:0:0:
192,192,103573,1,0,0:0:0:0:
448,192,103609,1,0,0:0:0:0:
64,192,103645,1,0,0:0:0:0:
192,192,103681,1,0,0:0:0:0:
320,192,103717,1,0,0:0:0:0:
64,192,103753,1,0,0:0:0:0:
448,192,103753,1,0,0:0:0:0:
320,192,103789,1,0,0:0:0:0:
192,192,103825,1,0,0:0:0:0:
64,192,103861,1,0,0:0:0:0:
448,192,103897,1,0,0:0:0:0:
320,192,103934,1,0,0:0:0:0:
192,192,103970,1,0,0:0:0:0:
64,192,104005,1,0,0:0:0:0:
320,192,104042,1,0,0:0:0:0:
192,192,104078,1,0,0:0:0:0:
64,192,104114,1,0,0:0:0:0:
320,192,104150,1,0,0:0:0:0:
192,192,104186,1,0,0:0:0:0:
448,192,104222,1,0,0:0:0:0:
64,192,104258,1,0,0:0:0:0:
192,192,104295,1,0,0:0:0:0:
448,192,104330,1,0,0:0:0:0:
320,192,104366,1,0,0:0:0:0:
192,192,104403,1,0,0:0:0:0:
64,192,104438,1,0,0:0:0:0:
320,192,104475,1,0,0:0:0:0:
192,192,104511,1,0,0:0:0:0:
448,192,104546,1,0,0:0:0:0:
320,192,104583,1,0,0:0:0:0:
64,192,104619,1,0,0:0:0:0:
192,192,104619,1,0,0:0:0:0:
448,192,104655,1,0,0:0:0:0:
320,192,104691,1,0,0:0:0:0:
64,192,104727,1,0,0:0:0:0:
192,192,104764,1,0,0:0:0:0:
320,192,104799,1,0,0:0:0:0:
448,192,104835,1,0,0:0:0:0:
64,192,104872,1,0,0:0:0:0:
192,192,104907,1,0,0:0:0:0:
320,192,104944,1,0,0:0:0:0:
64,192,104980,1,0,0:0:0:0:
448,192,105015,1,0,0:0:0:0:
192,192,105052,1,0,0:0:0:0:
64,192,105052,1,0,0:0:0:0:
320,192,105088,1,0,0:0:0:0:
448,192,105124,1,0,0:0:0:0:
192,192,105160,1,0,0:0:0:0:
64,192,105196,1,0,0:0:0:0:
320,192,105232,1,0,0:0:0:0:
448,192,105268,1,0,0:0:0:0:
64,192,105305,1,0,0:0:0:0:
192,192,105340,1,0,0:0:0:0:
320,192,105376,1,0,0:0:0:0:
448,192,105413,1,0,0:0:0:0:
64,192,105449,1,0,0:0:0:0:
320,192,105485,1,0,0:0:0:0:
192,192,105485,1,0,0:0:0:0:
448,192,105521,1,0,0:0:0:0:
64,192,105557,1,0,0:0:0:0:
192,192,105593,1,0,0:0:0:0:
320,192,105629,1,0,0:0:0:0:
448,192,105665,1,0,0:0:0:0:
64,192,105701,1,0,0:0:0:0:
320,192,105737,1,0,0:0:0:0:
192,192,105774,1,0,0:0:0:0:
448,192,105809,1,0,0:0:0:0:
64,192,105845,1,0,0:0:0:0:
320,192,105882,1,0,0:0:0:0:
192,192,105917,1,0,0:0:0:0:
64,192,105917,1,0,0:0:0:0:
448,192,105954,1,0,0:0:0:0:
320,192,105990,1,0,0:0:0:0:
64,192,106025,1,0,0:0:0:0:
192,192,106062,1,0,0:0:0:0:
448,192,106098,1,0,0:0:0:0:
320,192,106134,1,0,0:0:0:0:
192,192,106170,1,0,0:0:0:0:
448,192,106206,1,0,0:0:0:0:
64,192,106243,1,0,0:0:0:0:
192,192,106278,1,0,0:0:0:0:
320,192,106315,1,0,0:0:0:0:
448,192,106351,1,0,0:0:0:0:
64,192,106351,1,0,0:0:0:0:
192,192,106386,1,0,0:0:0:0:
320,192,106423,1,0,0:0:0:0:
64,192,106459,1,0,0:0:0:0:
192,192,106495,1,0,0:0:0:0:
448,192,106531,1,0,0:0:0:0:
320,192,106567,1,0,0:0:0:0:
64,192,106603,1,0,0:0:0:0:
192,192,106639,1,0,0:0:0:0:
448,192,106675,1,0,0:0:0:0:
320,192,106711,1,0,0:0:0:0:
192,192,106747,1,0,0:0:0:0:
64,192,106784,1,0,0:0:0:0:
320,192,106784,1,0,0:0:0:0:
448,192,106819,1,0,0:0:0:0:
192,192,106855,1,0,0:0:0:0:
64,192,106892,1,0,0:0:0:0:
448,192,106928,1,0,0:0:0:0:
320,192,106964,1,0,0:0:0:0:
192,192,107000,1,0,0:0:0:0:
448,192,107216,1,0,0:0:0:0:
64,192,107216,1,0,0:0:0:0:
192,192,107253,1,0,0:0:0:0:
320,192,107288,1,0,0:0:0:0:
448,192,107325,1,0,0:0:0:0:
192,192,107361,1,0,0:0:0:0:
64,192,107396,1,0,0:0:0:0:
320,192,107433,1,0,0:0:0:0:
448,192,107469,1,0,0:0:0:0:
64,192,107505,1,0,0:0:0:0:
192,192,107541,1,0,0:0:0:0:
320,192,107577,1,0,0:0:0:0:
64,192,107613,1,0,0:0:0:0:
192,192,107649,1,0,0:0:0:0:
448,192,107649,1,0,0:0:0:0:
320,192,107685,1,0,0:0:0:0:
64,192,107722,1,0,0:0:0:0:
192,192,107757,1,0,0:0:0:0:
448,192,107794,1,0,0:0:0:0:
320,192,107830,1,0,0:0:0:0:
192,192,107865,1,0,0:0:0:0:
64,192,107902,1,0,0:0:0:0:
448,192,107938,1,0,0:0:0:0:
192,192,107974,1,0,0:0:0:0:
320,192,108010,1,0,0:0:0:0:
64,192,108046,1,0,0:0:0:0:
192,192,108082,1,0,0:0:0:0:
448,192,108082,1,0,0:0:0:0:
320,192,108118,1,0,0:0:0:0:
192,192,108155,1,0,0:0:0:0:
64,192,108190,1,0,0:0:0:0:
448,192,108226,1,0,0:0:0:0:
320,192,108263,1,0,0:0:0:0:
192,192,108298,1,0,0:0:0:0:
448,192,108335,1,0,0:0:0:0:
64,192,108371,1,0,0:0:0:0:
320,192,108406,1,0,0:0:0:0:
192,192,108443,1,0,0:0:0:0:
64,192,108479,1,0,0:0:0:0:
320,192,108515,1,0,0:0:0:0:
448,192,108515,1,0,0:0:0:0:
192,192,108551,1,0,0:0:0:0:
64,192,108587,1,0,0:0:0:0:
320,192,108624,1,0,0:0:0:0:
448,192,108659,1,0,0:0:0:0:
192,192,108695,1,0,0:0:0:0:
64,192,108732,1,0,0:0:0:0:
64,192,108948,1,0,0:0:0:0:
192,192,108948,1,0,0:0:0:0:
320,192,108984,1,0,0:0:0:0:
448,192,109020,1,0,0:0:0:0:
192,192,109056,1,0,0:0:0:0:
320,192,109092,1,0,0:0:0:0:
448,192,109128,1,0,0:0:0:0:
64,192,109165,1,0,0:0:0:0:
320,192,109165,1,0,0:0:0:0:
192,192,109201,1,0,0:0:0:0:
448,192,109236,1,0,0:0:0:0:
64,192,109273,1,0,0:0:0:0:
192,192,109309,1,0,0:0:0:0:
320,192,109345,1,0,0:0:0:0:
448,192,109381,1,0,0:0:0:0:
64,192,109381,1,0,0:0:0:0:
192,192,109417,1,0,0:0:0:0:
320,192,109453,1,0,0:0:0:0:
64,192,109489,1,0,0:0:0:0:
448,192,109525,1,0,0:0:0:0:
192,192,109561,1,0,0:0:0:0:
320,192,109597,1,0,0:0:0:0:
448,192,109597,1,0,0:0:0:0:
64,192,109634,1,0,0:0:0:0:
192,192,109669,1,0,0:0:0:0:
448,192,109705,1,0,0:0:0:0:
320,192,109742,1,0,0:0:0:0:
192,192,109777,1,0,0:0:0:0:
64,192,109814,1,0,0:0:0:0:
448,192,109814,1,0,0:0:0:0:
320,192,109850,1,0,0:0:0:0:
192,192,109885,1,0,0:0:0:0:
448,192,109922,1,0,0:0:0:0:
64,192,109958,1,0,0:0:0:0:
192,192,109995,1,0,0:0:0:0:
448,192,110030,1,0,0:0:0:0:
320,192,110030,1,0,0:0:0:0:
64,192,110066,1,0,0:0:0:0:
192,192,110103,1,0,0:0:0:0:
448,192,110138,1,0,0:0:0:0:
320,192,110175,1,0,0:0:0:0:
64,192,110211,1,0,0:0:0:0:
192,192,110246,1,0,0:0:0:0:
448,192,110246,1,0,0:0:0:0:
320,192,110283,1,0,0:0:0:0:
448,192,110319,1,0,0:0:0:0:
192,192,110355,1,0,0:0:0:0:
64,192,110391,1,0,0:0:0:0:
320,192,110427,1,0,0:0:0:0:
448,192,110463,1,0,0:0:0:0:
192,192,110463,1,0,0:0:0:0:
64,192,110499,1,0,0:0:0:0:
320,192,110535,1,0,0:0:0:0:
192,192,110571,1,0,0:0:0:0:
64,192,110607,1,0,0:0:0:0:
448,192,110644,1,0,0:0:0:0:
320,192,110679,1,0,0:0:0:0:
192,192,110679,1,0,0:0:0:0:
64,192,110715,1,0,0:0:0:0:
448,192,110752,1,0,0:0:0:0:
192,192,110788,1,0,0:0:0:0:
320,192,110824,1,0,0:0:0:0:
448,192,110860,1,0,0:0:0:0:
64,192,110896,1,0,0:0:0:0:
192,192,110896,1,0,0:0:0:0:
320,192,110932,1,0,0:0:0:0:
448,192,110968,1,0,0:0:0:0:
64,192,111005,1,0,0:0:0:0:
192,192,111040,1,0,0:0:0:0:
320,192,111076,1,0,0:0:0:0:
64,192,111113,1,0,0:0:0:0:
448,192,111113,1,0,0:0:0:0:
192,192,111148,1,0,0:0:0:0:
320,192,111185,1,0,0:0:0:0:
64,192,111221,1,0,0:0:0:0:
448,192,111256,1,0,0:0:0:0:
320,192,111293,1,0,0:0:0:0:
192,192,111329,1,0,0:0:0:0:
64,192,111329,1,0,0:0:0:0:
448,192,111365,1,0,0:0:0:0:
320,192,111401,1,0,0:0:0:0:
192,192,111437,1,0,0:0:0:0:
64,192,111474,1,0,0:0:0:0:
448,192,111509,1,0,0:0:0:0:
320,192,111545,1,0,0:0:0:0:
192,192,111545,1,0,0:0:0:0:
64,192,111582,1,0,0:0:0:0:
320,192,111617,1,0,0:0:0:0:
448,192,111654,1,0,0:0:0:0:
192,192,111690,1,0,0:0:0:0:
320,192,111725,1,0,0:0:0:0:
64,192,111762,1,0,0:0:0:0:
448,192,111762,1,0,0:0:0:0:
192,192,111798,1,0,0:0:0:0:
320,192,111834,1,0,0:0:0:0:
448,192,111870,1,0,0:0:0:0:
64,192,111906,1,0,0:0:0:0:
192,192,111942,1,0,0:0:0:0:
448,192,111978,1,0,0:0:0:0:
320,192,111978,1,0,0:0:0:0:
192,192,112015,1,0,0:0:0:0:
64,192,112050,1,0,0:0:0:0:
448,192,112086,1,0,0:0:0:0:
320,192,112123,1,0,0:0:0:0:
192,192,112158,1,0,0:0:0:0:
64,192,112195,1,0,0:0:0:0:
448,192,112195,1,0,0:0:0:0:
320,192,112231,1,0,0:0:0:0:
192,192,112267,1,0,0:0:0:0:
448,192,112303,1,0,0:0:0:0:
320,192,112339,1,0,0:0:0:0:
448,192,112375,1,0,0:0:0:0:
64,192,112411,1,0,0:0:0:0:
192,192,112411,1,0,0:0:0:0:
320,192,112447,1,0,0:0:0:0:
448,192,112484,1,0,0:0:0:0:
64,192,112519,1,0,0:0:0:0:
192,192,112555,1,0,0:0:0:0:
320,192,112592,1,0,0:0:0:0:
448,192,112627,1,0,0:0:0:0:
64,192,112627,1,0,0:0:0:0:
192,192,112664,1,0,0:0:0:0:
320,192,112700,1,0,0:0:0:0:
64,192,112735,1,0,0:0:0:0:
192,192,112772,1,0,0:0:0:0:
448,192,112808,1,0,0:0:0:0:
320,192,112844,1,0,0:0:0:0:
64,192,112844,1,0,0:0:0:0:
192,192,112880,1,0,0:0:0:0:
448,192,112916,1,0,0:0:0:0:
320,192,112952,1,0,0:0:0:0:
64,192,112988,1,0,0:0:0:0:
192,192,113025,1,0,0:0:0:0:
448,192,113061,1,0,0:0:0:0:
320,192,113061,1,0,0:0:0:0:
64,192,113096,1,0,0:0:0:0:
192,192,113133,1,0,0:0:0:0:
448,192,113169,1,0,0:0:0:0:
320,192,113205,1,0,0:0:0:0:
192,192,113241,1,0,0:0:0:0:
64,192,113277,1,0,0:0:0:0:
448,192,113277,1,0,0:0:0:0:
320,192,113313,1,0,0:0:0:0:
192,192,113349,1,0,0:0:0:0:
320,192,113385,1,0,0:0:0:0:
448,192,113421,1,0,0:0:0:0:
64,192,113457,1,0,0:0:0:0:
192,192,113494,1,0,0:0:0:0:
320,192,113494,1,0,0:0:0:0:
448,192,113529,1,0,0:0:0:0:
64,192,113565,1,0,0:0:0:0:
320,192,113602,1,0,0:0:0:0:
192,192,113637,1,0,0:0:0:0:
448,192,113674,1,0,0:0:0:0:
320,192,113710,1,0,0:0:0:0:
64,192,113710,1,0,0:0:0:0:
192,192,113746,1,0,0:0:0:0:
320,192,113782,1,0,0:0:0:0:
448,192,113818,1,0,0:0:0:0:
64,192,113855,1,0,0:0:0:0:
192,192,113890,1,0,0:0:0:0:
320,192,113926,1,0,0:0:0:0:
64,192,113963,1,0,0:0:0:0:
192,192,113998,1,0,0:0:0:0:
448,192,114035,1,0,0:0:0:0:
320,192,114071,1,0,0:0:0:0:
64,192,114106,1,0,0:0:0:0:
192,192,114143,1,0,0:0:0:0:
320,192,114179,1,0,0:0:0:0:
448,192,114215,1,0,0:0:0:0:
192,192,114251,1,0,0:0:0:0:
320,192,114287,1,0,0:0:0:0:
64,192,114323,1,0,0:0:0:0:
192,192,114359,1,0,0:0:0:0:
448,192,114359,1,0,0:0:0:0:
320,192,114395,1,0,0:0:0:0:
64,192,114431,1,0,0:0:0:0:
192,192,114467,1,0,0:0:0:0:
320,192,114504,1,0,0:0:0:0:
448,192,114540,1,0,0:0:0:0:
192,192,114575,1,0,0:0:0:0:
64,192,114575,1,0,0:0:0:0:
320,192,114612,1,0,0:0:0:0:
448,192,114648,1,0,0:0:0:0:
192,192,114684,1,0,0:0:0:0:
64,192,114720,1,0,0:0:0:0:
448,192,114756,1,0,0:0:0:0:
320,192,114792,1,0,0:0:0:0:
192,192,114792,1,0,0:0:0:0:
64,192,114828,1,0,0:0:0:0:
448,192,114865,1,0,0:0:0:0:
192,192,114900,1,0,0:0:0:0:
320,192,114936,1,0,0:0:0:0:
64,192,114973,1,0,0:0:0:0:
448,192,115008,1,0,0:0:0:0:
192,192,115008,1,0,0:0:0:0:
320,192,115045,1,0,0:0:0:0:
448,192,115081,1,0,0:0:0:0:
64,192,115116,1,0,0:0:0:0:
192,192,115153,1,0,0:0:0:0:
320,192,115189,1,0,0:0:0:0:
448,192,115225,1,0,0:0:0:0:
64,192,115225,1,0,0:0:0:0:
192,192,115261,1,0,0:0:0:0:
320,192,115297,1,0,0:0:0:0:
448,192,115334,1,0,0:0:0:0:
64,192,115369,1,0,0:0:0:0:
320,192,115405,1,0,0:0:0:0:
448,192,115442,1,0,0:0:0:0:
192,192,115442,1,0,0:0:0:0:
64,192,115477,1,0,0:0:0:0:
320,192,115514,1,0,0:0:0:0:
192,192,115550,1,0,0:0:0:0:
64,192,115585,1,0,0:0:0:0:
448,192,115622,1,0,0:0:0:0:
320,192,115658,1,0,0:0:0:0:
192,192,115658,1,0,0:0:0:0:
64,192,115694,1,0,0:0:0:0:
448,192,115730,1,0,0:0:0:0:
320,192,115766,1,0,0:0:0:0:
192,192,115802,1,0,0:0:0:0:
448,192,115838,1,0,0:0:0:0:
64,192,115875,1,0,0:0:0:0:
320,192,115910,1,0,0:0:0:0:
448,192,115946,1,0,0:0:0:0:
64,192,115983,1,0,0:0:0:0:
192,192,116019,1,0,0:0:0:0:
320,192,116055,1,0,0:0:0:0:
64,192,116091,1,0,0:0:0:0:
448,192,116091,1,0,0:0:0:0:
192,192,116127,1,0,0:0:0:0:
320,192,116163,1,0,0:0:0:0:
64,192,116199,1,0,0:0:0:0:
192,192,116235,1,0,0:0:0:0:
320,192,116271,1,0,0:0:0:0:
448,192,116307,1,0,0:0:0:0:
64,192,116307,1,0,0:0:0:0:
192,192,116344,1,0,0:0:0:0:
320,192,116379,1,0,0:0:0:0:
64,192,116415,1,0,0:0:0:0:
448,192,116452,1,0,0:0:0:0:
192,192,116487,1,0,0:0:0:0:
320,192,116524,1,0,0:0:0:0:
448,192,116524,1,0,0:0:0:0:
64,192,116560,1,0,0:0:0:0:
192,192,116595,1,0,0:0:0:0:
448,192,116632,1,0,0:0:0:0:
320,192,116668,1,0,0:0:0:0:
192,192,116704,1,0,0:0:0:0:
64,192,116740,1,0,0:0:0:0:
448,192,116740,1,0,0:0:0:0:
320,192,116776,1,0,0:0:0:0:
192,192,116813,1,0,0:0:0:0:
320,192,116848,1,0,0:0:0:0:
64,192,116885,1,0,0:0:0:0:
192,192,116921,1,0,0:0:0:0:
448,192,116956,1,0,0:0:0:0:
320,192,116956,1,0,0:0:0:0:
64,192,116993,1,0,0:0:0:0:
192,192,117029,1,0,0:0:0:0:
448,192,117065,1,0,0:0:0:0:
320,192,117101,1,0,0:0:0:0:
64,192,117137,1,0,0:0:0:0:
192,192,117173,1,0,0:0:0:0:
448,192,117173,1,0,0:0:0:0:
320,192,117209,1,0,0:0:0:0:
64,192,117245,1,0,0:0:0:0:
448,192,117281,1,0,0:0:0:0:
192,192,117317,1,0,0:0:0:0:
64,192,117354,1,0,0:0:0:0:
320,192,117389,1,0,0:0:0:0:
192,192,117389,1,0,0:0:0:0:
448,192,117425,1,0,0:0:0:0:
320,192,117462,1,0,0:0:0:0:
192,192,117497,1,0,0:0:0:0:
64,192,117534,1,0,0:0:0:0:
448,192,117570,1,0,0:0:0:0:
320,192,117606,1,0,0:0:0:0:
192,192,117606,1,0,0:0:0:0:
64,192,117642,1,0,0:0:0:0:
448,192,117678,1,0,0:0:0:0:
192,192,117715,1,0,0:0:0:0:
320,192,117750,1,0,0:0:0:0:
448,192,117786,1,0,0:0:0:0:
64,192,117823,1,0,0:0:0:0:
192,192,117823,1,0,0:0:0:0:
320,192,117858,1,0,0:0:0:0:
448,192,117895,1,0,0:0:0:0:
64,192,117931,1,0,0:0:0:0:
192,192,117966,1,0,0:0:0:0:
320,192,118003,1,0,0:0:0:0:
64,192,118039,1,0,0:0:0:0:
448,192,118039,1,0,0:0:0:0:
192,192,118075,1,0,0:0:0:0:
320,192,118111,1,0,0:0:0:0:
64,192,118147,1,0,0:0:0:0:
448,192,118183,1,0,0:0:0:0:
320,192,118219,1,0,0:0:0:0:
192,192,118255,1,0,0:0:0:0:
64,192,118255,1,0,0:0:0:0:
448,192,118292,1,0,0:0:0:0:
320,192,118327,1,0,0:0:0:0:
192,192,118364,1,0,0:0:0:0:
64,192,118400,1,0,0:0:0:0:
448,192,118435,1,0,0:0:0:0:
320,192,118472,1,0,0:0:0:0:
192,192,118472,1,0,0:0:0:0:
64,192,118508,1,0,0:0:0:0:
320,192,118544,1,0,0:0:0:0:
448,192,118580,1,0,0:0:0:0:
192,192,118616,1,0,0:0:0:0:
320,192,118652,1,0,0:0:0:0:
64,192,118688,1,0,0:0:0:0:
448,192,118688,1,0,0:0:0:0:
192,192,118725,1,0,0:0:0:0:
320,192,118760,1,0,0:0:0:0:
448,192,118796,1,0,0:0:0:0:
64,192,118833,1,0,0:0:0:0:
192,192,118868,1,0,0:0:0:0:
448,192,118905,1,0,0:0:0:0:
320,192,118905,1,0,0:0:0:0:
192,192,118941,1,0,0:0:0:0:
64,192,118976,1,0,0:0:0:0:
448,192,119013,1,0,0:0:0:0:
320,192,119049,1,0,0:0:0:0:
192,192,119085,1,0,0:0:0:0:
64,192,119121,1,0,0:0:0:0:
448,192,119121,1,0,0:0:0:0:
320,192,119157,1,0,0:0:0:0:
192,192,119194,1,0,0:0:0:0:
448,192,119229,1,0,0:0:0:0:
320,192,119265,1,0,0:0:0:0:
192,192,119302,1,0,0:0:0:0:
64,192,119337,1,0,0:0:0:0:
320,192,119374,1,0,0:0:0:0:
448,192,119410,1,0,0:0:0:0:
64,192,119445,1,0,0:0:0:0:
192,192,119482,1,0,0:0:0:0:
320,192,119518,1,0,0:0:0:0:
448,192,119554,1,0,0:0:0:0:
64,192,119554,1,0,0:0:0:0:
192,192,119590,1,0,0:0:0:0:
320,192,119626,1,0,0:0:0:0:
64,192,119662,1,0,0:0:0:0:
192,192,119698,1,0,0:0:0:0:
448,192,119735,1,0,0:0:0:0:
320,192,119770,1,0,0:0:0:0:
64,192,119770,1,0,0:0:0:0:
192,192,119806,1,0,0:0:0:0:
448,192,119843,1,0,0:0:0:0:
320,192,119879,1,0,0:0:0:0:
64,192,119915,1,0,0:0:0:0:
192,192,119951,1,0,0:0:0:0:
448,192,119987,1,0,0:0:0:0:
320,192,119987,1,0,0:0:0:0:
64,192,120023,1,0,0:0:0:0:
192,192,120059,1,0,0:0:0:0:
448,192,120095,1,0,0:0:0:0:
320,192,120131,1,0,0:0:0:0:
192,192,120167,1,0,0:0:0:0:
64,192,120204,1,0,0:0:0:0:
448,192,120204,1,0,0:0:0:0:
320,192,120239,1,0,0:0:0:0:
192,192,120275,1,0,0:0:0:0:
320,192,120312,1,0,0:0:0:0:
448,192,120347,1,0,0:0:0:0:
64,192,120384,1,0,0:0:0:0:
192,192,120420,1,0,0:0:0:0:
320,192,120420,1,0,0:0:0:0:
448,192,120455,1,0,0:0:0:0:
64,192,120492,1,0,0:0:0:0:
320,192,120528,1,0,0:0:0:0:
192,192,120565,1,0,0:0:0:0:
448,192,120600,1,0,0:0:0:0:
320,192,120636,1,0,0:0:0:0:
64,192,120636,1,0,0:0:0:0:
192,192,120673,1,0,0:0:0:0:
320,192,120708,1,0,0:0:0:0:
448,192,120745,1,0,0:0:0:0:
64,192,120781,1,0,0:0:0:0:
192,192,120816,1,0,0:0:0:0:
320,192,120853,1,0,0:0:0:0:
64,192,120889,1,0,0:0:0:0:
192,192,120925,1,0,0:0:0:0:
448,192,120961,1,0,0:0:0:0:
320,192,120997,1,0,0:0:0:0:
64,192,121033,1,0,0:0:0:0:
192,192,121069,1,0,0:0:0:0:
448,192,121069,1,0,0:0:0:0:
320,192,121105,1,0,0:0:0:0:
64,192,121141,1,0,0:0:0:0:
192,192,121177,1,0,0:0:0:0:
320,192,121214,1,0,0:0:0:0:
64,192,121249,1,0,0:0:0:0:
192,192,121285,1,0,0:0:0:0:
448,192,121285,1,0,0:0:0:0:
320,192,121322,1,0,0:0:0:0:
64,192,121358,1,0,0:0:0:0:
192,192,121394,1,0,0:0:0:0:
320,192,121430,1,0,0:0:0:0:
448,192,121466,1,0,0:0:0:0:
192,192,121502,1,0,0:0:0:0:
64,192,121502,1,0,0:0:0:0:
320,192,121538,1,0,0:0:0:0:
448,192,121575,1,0,0:0:0:0:
192,192,121610,1,0,0:0:0:0:
64,192,121646,1,0,0:0:0:0:
448,192,121683,1,0,0:0:0:0:
320,192,121718,1,0,0:0:0:0:
192,192,121718,1,0,0:0:0:0:
64,192,121755,1,0,0:0:0:0:
448,192,121791,1,0,0:0:0:0:
192,192,121826,1,0,0:0:0:0:
320,192,121863,1,0,0:0:0:0:
64,192,121899,1,0,0:0:0:0:
192,192,121935,1,0,0:0:0:0:
320,192,121971,1,0,0:0:0:0:
448,192,122007,1,0,0:0:0:0:
64,192,122043,1,0,0:0:0:0:
192,192,122079,1,0,0:0:0:0:
320,192,122115,1,0,0:0:0:0:
448,192,122152,1,0,0:0:0:0:
64,192,122187,1,0,0:0:0:0:
192,192,122224,1,0,0:0:0:0:
320,192,122295,1,0,0:0:0:0:
448,192,122368,1,0,0:0:0:0:
64,192,122440,1,0,0:0:0:0:
192,192,122512,1,0,0:0:0:0:
320,192,122585,1,0,0:0:0:0:
448,192,122656,1,0,0:0:0:0:
192,192,122693,1,0,0:0:0:0:
64,192,122801,1,0,0:0:0:0:
192,192,123017,1,0,0:0:0:0:
320,192,123234,1,0,0:0:0:0:
