osu file format v14

[General]
AudioFilename: audio105.mp3
AudioLeadIn: 0
PreviewTime: 23350
Countdown: 0
SampleSet: None
StackLeniency: 0.7
Mode: 3
LetterboxInBreaks: 0
SpecialStyle: 0
WidescreenStoryboard: 1

[Editor]
Bookmarks: 1661,8917,23430,37942,52454,66967,81026,95991,99620,106876,114132,128645
DistanceSpacing: 1
BeatDivisor: 12
GridSize: 32
TimelineZoom: 1.8

[Metadata]
Title:perfect nothing
TitleUnicode:perfect nothing
Artist:GHOST
ArtistUnicode:GHOST
Creator:Hlimak
Version:noise [1,05x Rate]
Source:
Tags:dump vocaloid stream
BeatmapID:2959427
BeatmapSetID:989656

[Difficulty]
HPDrainRate:7
CircleSize:4
OverallDifficulty:7
ApproachRate:5
SliderMultiplier:1.4
SliderTickRate:1

[Events]
//Background and Video events
0,0,"bg.jpg",0,0
//Break Periods
//Storyboard Layer 0 (Background)
//Storyboard Layer 1 (Fail)
//Storyboard Layer 2 (Pass)
//Storyboard Layer 3 (Foreground)
//Storyboard Layer 4 (Overlay)
//Storyboard Sound Samples

[TimingPoints]
1661,453.514739229025,4,1,0,50,1,0

[HitObjects]
64,192,1661,5,0,0:0:0:0:
320,192,1661,1,0,0:0:0:0:
448,192,1661,1,0,0:0:0:0:
320,192,1888,1,0,0:0:0:0:
448,192,1888,1,0,0:0:0:0:
64,192,1888,1,0,0:0:0:0:
192,192,2114,1,0,0:0:0:0:
320,192,2114,1,0,0:0:0:0:
64,192,2142,1,0,0:0:0:0:
192,192,2341,1,0,0:0:0:0:
320,192,2341,1,0,0:0:0:0:
64,192,2341,1,0,0:0:0:0:
448,192,2568,1,0,0:0:0:0:
192,192,2568,1,0,0:0:0:0:
64,192,2568,1,0,0:0:0:0:
448,192,2794,1,0,0:0:0:0:
320,192,2794,1,0,0:0:0:0:
192,192,2794,1,0,0:0:0:0:
64,192,3021,1,0,0:0:0:0:
448,192,3021,1,0,0:0:0:0:
320,192,3050,1,0,0:0:0:0:
448,192,3248,1,0,0:0:0:0:
320,192,3248,1,0,0:0:0:0:
192,192,3248,1,0,0:0:0:0:
448,192,3474,1,0,0:0:0:0:
192,192,3474,1,0,0:0:0:0:
64,192,3474,1,0,0:0:0:0:
320,192,3701,1,0,0:0:0:0:
192,192,3701,1,0,0:0:0:0:
448,192,3701,1,0,0:0:0:0:
448,192,3928,1,0,0:0:0:0:
64,192,3928,1,0,0:0:0:0:
192,192,3956,1,0,0:0:0:0:
448,192,4155,1,0,0:0:0:0:
320,192,4155,1,0,0:0:0:0:
192,192,4155,1,0,0:0:0:0:
64,192,4382,1,0,0:0:0:0:
448,192,4382,1,0,0:0:0:0:
192,192,4419,1,0,0:0:0:0:
320,192,4457,1,0,0:0:0:0:
448,192,4570,1,0,0:0:0:0:
320,192,4609,1,0,0:0:0:0:
192,192,4609,1,0,0:0:0:0:
64,192,4646,1,0,0:0:0:0:
448,192,4722,1,0,0:0:0:0:
64,192,4797,1,0,0:0:0:0:
192,192,4797,1,0,0:0:0:0:
320,192,4835,1,0,0:0:0:0:
448,192,4873,1,0,0:0:0:0:
64,192,4910,1,0,0:0:0:0:
192,192,4949,1,0,0:0:0:0:
320,192,4987,1,0,0:0:0:0:
448,192,5024,1,0,0:0:0:0:
192,192,5062,1,0,0:0:0:0:
448,192,5137,1,0,0:0:0:0:
64,192,5175,1,0,0:0:0:0:
192,192,5213,1,0,0:0:0:0:
320,192,5250,1,0,0:0:0:0:
64,192,5289,1,0,0:0:0:0:
320,192,5327,1,0,0:0:0:0:
448,192,5364,1,0,0:0:0:0:
192,192,5402,1,0,0:0:0:0:
320,192,5440,1,0,0:0:0:0:
64,192,5515,1,0,0:0:0:0:
192,192,5515,1,0,0:0:0:0:
448,192,5515,1,0,0:0:0:0:
320,192,5742,1,0,0:0:0:0:
64,192,5742,1,0,0:0:0:0:
192,192,5770,1,0,0:0:0:0:
448,192,5969,1,0,0:0:0:0:
192,192,5969,1,0,0:0:0:0:
320,192,5997,1,0,0:0:0:0:
448,192,6195,1,0,0:0:0:0:
192,192,6195,1,0,0:0:0:0:
64,192,6224,1,0,0:0:0:0:
320,192,6422,1,0,0:0:0:0:
64,192,6422,1,0,0:0:0:0:
448,192,6450,1,0,0:0:0:0:
192,192,6650,1,0,0:0:0:0:
64,192,6650,1,0,0:0:0:0:
320,192,6677,1,0,0:0:0:0:
448,192,6876,1,0,0:0:0:0:
320,192,6876,1,0,0:0:0:0:
192,192,6904,1,0,0:0:0:0:
320,192,7103,1,0,0:0:0:0:
192,192,7103,1,0,0:0:0:0:
64,192,7140,1,0,0:0:0:0:
448,192,7178,1,0,0:0:0:0:
320,192,7216,1,0,0:0:0:0:
64,192,7291,1,0,0:0:0:0:
192,192,7330,1,0,0:0:0:0:
320,192,7368,1,0,0:0:0:0:
448,192,7405,1,0,0:0:0:0:
320,192,7481,1,0,0:0:0:0:
64,192,7556,1,0,0:0:0:0:
192,192,7556,1,0,0:0:0:0:
448,192,7631,1,0,0:0:0:0:
192,192,7670,1,0,0:0:0:0:
64,192,7708,1,0,0:0:0:0:
448,192,7783,1,0,0:0:0:0:
320,192,7811,1,0,0:0:0:0:
64,192,8010,1,0,0:0:0:0:
192,192,8010,1,0,0:0:0:0:
448,192,8048,1,0,0:0:0:0:
320,192,8086,1,0,0:0:0:0:
192,192,8123,1,0,0:0:0:0:
64,192,8161,1,0,0:0:0:0:
448,192,8199,1,0,0:0:0:0:
192,192,8236,1,0,0:0:0:0:
320,192,8236,1,0,0:0:0:0:
64,192,8463,1,0,0:0:0:0:
192,192,8463,1,0,0:0:0:0:
320,192,8501,1,0,0:0:0:0:
448,192,8539,1,0,0:0:0:0:
64,192,8576,1,0,0:0:0:0:
192,192,8614,1,0,0:0:0:0:
320,192,8652,1,0,0:0:0:0:
64,192,8690,1,0,0:0:0:0:
192,192,8728,1,0,0:0:0:0:
320,192,8766,1,0,0:0:0:0:
448,192,8803,1,0,0:0:0:0:
192,192,8841,1,0,0:0:0:0:
320,192,8879,1,0,0:0:0:0:
448,192,8917,1,0,0:0:0:0:
64,192,8917,1,0,0:0:0:0:
448,192,9068,1,0,0:0:0:0:
320,192,9106,1,0,0:0:0:0:
192,192,9144,1,0,0:0:0:0:
448,192,9181,1,0,0:0:0:0:
64,192,9219,1,0,0:0:0:0:
192,192,9257,1,0,0:0:0:0:
320,192,9294,1,0,0:0:0:0:
64,192,9370,1,0,0:0:0:0:
192,192,9370,1,0,0:0:0:0:
448,192,9484,1,0,0:0:0:0:
64,192,9597,1,0,0:0:0:0:
320,192,9635,1,0,0:0:0:0:
192,192,9672,1,0,0:0:0:0:
64,192,9710,1,0,0:0:0:0:
448,192,9749,1,0,0:0:0:0:
320,192,9786,1,0,0:0:0:0:
192,192,9824,1,0,0:0:0:0:
64,192,9824,1,0,0:0:0:0:
320,192,9899,1,0,0:0:0:0:
448,192,9937,1,0,0:0:0:0:
192,192,10050,1,0,0:0:0:0:
320,192,10089,1,0,0:0:0:0:
448,192,10126,1,0,0:0:0:0:
192,192,10164,1,0,0:0:0:0:
64,192,10202,1,0,0:0:0:0:
448,192,10239,1,0,0:0:0:0:
320,192,10277,1,0,0:0:0:0:
192,192,10277,1,0,0:0:0:0:
320,192,10390,1,0,0:0:0:0:
64,192,10504,1,0,0:0:0:0:
192,192,10542,1,0,0:0:0:0:
448,192,10580,1,0,0:0:0:0:
320,192,10617,1,0,0:0:0:0:
192,192,10655,1,0,0:0:0:0:
64,192,10693,1,0,0:0:0:0:
448,192,10730,1,0,0:0:0:0:
320,192,10730,1,0,0:0:0:0:
192,192,10844,1,0,0:0:0:0:
320,192,10957,1,0,0:0:0:0:
448,192,10995,1,0,0:0:0:0:
64,192,11033,1,0,0:0:0:0:
192,192,11070,1,0,0:0:0:0:
320,192,11109,1,0,0:0:0:0:
448,192,11147,1,0,0:0:0:0:
192,192,11184,1,0,0:0:0:0:
64,192,11184,1,0,0:0:0:0:
320,192,11298,1,0,0:0:0:0:
64,192,11411,1,0,0:0:0:0:
448,192,11449,1,0,0:0:0:0:
320,192,11487,1,0,0:0:0:0:
192,192,11525,1,0,0:0:0:0:
64,192,11562,1,0,0:0:0:0:
192,192,11600,1,0,0:0:0:0:
320,192,11638,1,0,0:0:0:0:
448,192,11638,1,0,0:0:0:0:
320,192,11751,1,0,0:0:0:0:
192,192,11865,1,0,0:0:0:0:
64,192,11978,1,0,0:0:0:0:
448,192,12091,1,0,0:0:0:0:
320,192,12130,1,0,0:0:0:0:
64,192,12167,1,0,0:0:0:0:
448,192,12205,1,0,0:0:0:0:
320,192,12243,1,0,0:0:0:0:
192,192,12280,1,0,0:0:0:0:
448,192,12318,1,0,0:0:0:0:
320,192,12356,1,0,0:0:0:0:
64,192,12393,1,0,0:0:0:0:
448,192,12431,1,0,0:0:0:0:
320,192,12470,1,0,0:0:0:0:
192,192,12507,1,0,0:0:0:0:
448,192,12545,1,0,0:0:0:0:
64,192,12545,1,0,0:0:0:0:
64,192,12696,1,0,0:0:0:0:
192,192,12733,1,0,0:0:0:0:
320,192,12771,1,0,0:0:0:0:
64,192,12810,1,0,0:0:0:0:
448,192,12848,1,0,0:0:0:0:
320,192,12885,1,0,0:0:0:0:
192,192,12923,1,0,0:0:0:0:
448,192,12998,1,0,0:0:0:0:
320,192,12998,1,0,0:0:0:0:
64,192,13111,1,0,0:0:0:0:
448,192,13225,1,0,0:0:0:0:
192,192,13263,1,0,0:0:0:0:
320,192,13301,1,0,0:0:0:0:
448,192,13338,1,0,0:0:0:0:
64,192,13376,1,0,0:0:0:0:
192,192,13414,1,0,0:0:0:0:
320,192,13451,1,0,0:0:0:0:
448,192,13451,1,0,0:0:0:0:
192,192,13528,1,0,0:0:0:0:
64,192,13565,1,0,0:0:0:0:
320,192,13679,1,0,0:0:0:0:
192,192,13716,1,0,0:0:0:0:
64,192,13754,1,0,0:0:0:0:
320,192,13792,1,0,0:0:0:0:
448,192,13830,1,0,0:0:0:0:
64,192,13868,1,0,0:0:0:0:
192,192,13906,1,0,0:0:0:0:
320,192,13906,1,0,0:0:0:0:
192,192,14019,1,0,0:0:0:0:
448,192,14132,1,0,0:0:0:0:
320,192,14170,1,0,0:0:0:0:
64,192,14208,1,0,0:0:0:0:
192,192,14246,1,0,0:0:0:0:
320,192,14283,1,0,0:0:0:0:
448,192,14321,1,0,0:0:0:0:
64,192,14359,1,0,0:0:0:0:
192,192,14359,1,0,0:0:0:0:
320,192,14472,1,0,0:0:0:0:
192,192,14586,1,0,0:0:0:0:
64,192,14624,1,0,0:0:0:0:
448,192,14661,1,0,0:0:0:0:
320,192,14699,1,0,0:0:0:0:
192,192,14737,1,0,0:0:0:0:
64,192,14774,1,0,0:0:0:0:
320,192,14812,1,0,0:0:0:0:
448,192,14812,1,0,0:0:0:0:
192,192,14926,1,0,0:0:0:0:
448,192,15039,1,0,0:0:0:0:
64,192,15077,1,0,0:0:0:0:
192,192,15114,1,0,0:0:0:0:
320,192,15152,1,0,0:0:0:0:
448,192,15190,1,0,0:0:0:0:
320,192,15229,1,0,0:0:0:0:
192,192,15266,1,0,0:0:0:0:
64,192,15266,1,0,0:0:0:0:
320,192,15379,1,0,0:0:0:0:
192,192,15492,1,0,0:0:0:0:
448,192,15606,1,0,0:0:0:0:
64,192,15719,1,0,0:0:0:0:
192,192,15757,1,0,0:0:0:0:
448,192,15795,1,0,0:0:0:0:
64,192,15832,1,0,0:0:0:0:
192,192,15870,1,0,0:0:0:0:
320,192,15909,1,0,0:0:0:0:
64,192,15946,1,0,0:0:0:0:
192,192,15984,1,0,0:0:0:0:
448,192,16022,1,0,0:0:0:0:
64,192,16060,1,0,0:0:0:0:
192,192,16097,1,0,0:0:0:0:
320,192,16135,1,0,0:0:0:0:
64,192,16173,1,0,0:0:0:0:
448,192,16173,1,0,0:0:0:0:
448,192,16324,1,0,0:0:0:0:
320,192,16362,1,0,0:0:0:0:
192,192,16400,1,0,0:0:0:0:
448,192,16437,1,0,0:0:0:0:
64,192,16475,1,0,0:0:0:0:
192,192,16513,1,0,0:0:0:0:
320,192,16550,1,0,0:0:0:0:
192,192,16627,1,0,0:0:0:0:
64,192,16627,1,0,0:0:0:0:
448,192,16740,1,0,0:0:0:0:
64,192,16853,1,0,0:0:0:0:
320,192,16891,1,0,0:0:0:0:
192,192,16929,1,0,0:0:0:0:
64,192,16967,1,0,0:0:0:0:
448,192,17005,1,0,0:0:0:0:
320,192,17042,1,0,0:0:0:0:
64,192,17080,1,0,0:0:0:0:
192,192,17080,1,0,0:0:0:0:
320,192,17155,1,0,0:0:0:0:
448,192,17193,1,0,0:0:0:0:
320,192,17231,1,0,0:0:0:0:
64,192,17269,1,0,0:0:0:0:
192,192,17307,1,0,0:0:0:0:
320,192,17345,1,0,0:0:0:0:
448,192,17382,1,0,0:0:0:0:
192,192,17420,1,0,0:0:0:0:
64,192,17458,1,0,0:0:0:0:
448,192,17495,1,0,0:0:0:0:
192,192,17533,1,0,0:0:0:0:
320,192,17533,1,0,0:0:0:0:
448,192,17610,1,0,0:0:0:0:
320,192,17647,1,0,0:0:0:0:
64,192,17685,1,0,0:0:0:0:
192,192,17723,1,0,0:0:0:0:
320,192,17760,1,0,0:0:0:0:
192,192,17798,1,0,0:0:0:0:
448,192,17836,1,0,0:0:0:0:
320,192,17873,1,0,0:0:0:0:
192,192,17911,1,0,0:0:0:0:
64,192,17950,1,0,0:0:0:0:
320,192,17987,1,0,0:0:0:0:
448,192,17987,1,0,0:0:0:0:
192,192,18100,1,0,0:0:0:0:
320,192,18213,1,0,0:0:0:0:
448,192,18251,1,0,0:0:0:0:
64,192,18290,1,0,0:0:0:0:
192,192,18327,1,0,0:0:0:0:
320,192,18365,1,0,0:0:0:0:
448,192,18403,1,0,0:0:0:0:
64,192,18441,1,0,0:0:0:0:
192,192,18441,1,0,0:0:0:0:
320,192,18554,1,0,0:0:0:0:
64,192,18668,1,0,0:0:0:0:
448,192,18705,1,0,0:0:0:0:
320,192,18743,1,0,0:0:0:0:
192,192,18781,1,0,0:0:0:0:
64,192,18818,1,0,0:0:0:0:
192,192,18856,1,0,0:0:0:0:
448,192,18894,1,0,0:0:0:0:
320,192,18894,1,0,0:0:0:0:
64,192,19008,1,0,0:0:0:0:
192,192,19121,1,0,0:0:0:0:
320,192,19234,1,0,0:0:0:0:
448,192,19348,1,0,0:0:0:0:
320,192,19386,1,0,0:0:0:0:
64,192,19423,1,0,0:0:0:0:
448,192,19461,1,0,0:0:0:0:
320,192,19499,1,0,0:0:0:0:
192,192,19536,1,0,0:0:0:0:
448,192,19574,1,0,0:0:0:0:
320,192,19612,1,0,0:0:0:0:
64,192,19650,1,0,0:0:0:0:
448,192,19688,1,0,0:0:0:0:
320,192,19726,1,0,0:0:0:0:
192,192,19763,1,0,0:0:0:0:
64,192,19801,1,0,0:0:0:0:
448,192,19801,1,0,0:0:0:0:
64,192,19952,1,0,0:0:0:0:
192,192,19990,1,0,0:0:0:0:
320,192,20028,1,0,0:0:0:0:
64,192,20066,1,0,0:0:0:0:
448,192,20104,1,0,0:0:0:0:
320,192,20141,1,0,0:0:0:0:
192,192,20179,1,0,0:0:0:0:
448,192,20254,1,0,0:0:0:0:
320,192,20254,1,0,0:0:0:0:
64,192,20368,1,0,0:0:0:0:
448,192,20481,1,0,0:0:0:0:
192,192,20519,1,0,0:0:0:0:
320,192,20557,1,0,0:0:0:0:
448,192,20594,1,0,0:0:0:0:
64,192,20632,1,0,0:0:0:0:
192,192,20670,1,0,0:0:0:0:
320,192,20708,1,0,0:0:0:0:
448,192,20708,1,0,0:0:0:0:
192,192,20784,1,0,0:0:0:0:
64,192,20822,1,0,0:0:0:0:
448,192,20859,1,0,0:0:0:0:
192,192,20897,1,0,0:0:0:0:
320,192,20935,1,0,0:0:0:0:
192,192,20972,1,0,0:0:0:0:
64,192,21010,1,0,0:0:0:0:
320,192,21049,1,0,0:0:0:0:
448,192,21086,1,0,0:0:0:0:
64,192,21124,1,0,0:0:0:0:
192,192,21162,1,0,0:0:0:0:
320,192,21162,1,0,0:0:0:0:
448,192,21237,1,0,0:0:0:0:
192,192,21275,1,0,0:0:0:0:
64,192,21312,1,0,0:0:0:0:
320,192,21350,1,0,0:0:0:0:
448,192,21389,1,0,0:0:0:0:
320,192,21426,1,0,0:0:0:0:
64,192,21464,1,0,0:0:0:0:
192,192,21502,1,0,0:0:0:0:
320,192,21540,1,0,0:0:0:0:
448,192,21577,1,0,0:0:0:0:
64,192,21615,1,0,0:0:0:0:
192,192,21615,1,0,0:0:0:0:
320,192,21729,1,0,0:0:0:0:
192,192,21842,1,0,0:0:0:0:
64,192,21880,1,0,0:0:0:0:
448,192,21917,1,0,0:0:0:0:
320,192,21955,1,0,0:0:0:0:
192,192,21993,1,0,0:0:0:0:
64,192,22030,1,0,0:0:0:0:
320,192,22069,1,0,0:0:0:0:
448,192,22069,1,0,0:0:0:0:
192,192,22182,1,0,0:0:0:0:
448,192,22295,1,0,0:0:0:0:
64,192,22333,1,0,0:0:0:0:
192,192,22371,1,0,0:0:0:0:
320,192,22409,1,0,0:0:0:0:
448,192,22447,1,0,0:0:0:0:
320,192,22485,1,0,0:0:0:0:
192,192,22522,1,0,0:0:0:0:
64,192,22522,1,0,0:0:0:0:
320,192,22635,1,0,0:0:0:0:
192,192,22749,1,0,0:0:0:0:
448,192,22862,1,0,0:0:0:0:
64,192,22975,1,0,0:0:0:0:
192,192,23013,1,0,0:0:0:0:
448,192,23051,1,0,0:0:0:0:
64,192,23089,1,0,0:0:0:0:
192,192,23127,1,0,0:0:0:0:
320,192,23165,1,0,0:0:0:0:
64,192,23203,1,0,0:0:0:0:
192,192,23240,1,0,0:0:0:0:
448,192,23278,1,0,0:0:0:0:
64,192,23316,1,0,0:0:0:0:
192,192,23353,1,0,0:0:0:0:
320,192,23391,1,0,0:0:0:0:
448,192,23430,1,0,0:0:0:0:
64,192,23430,1,0,0:0:0:0:
448,192,23580,1,0,0:0:0:0:
64,192,23618,1,0,0:0:0:0:
192,192,23656,1,0,0:0:0:0:
320,192,23693,1,0,0:0:0:0:
448,192,23731,1,0,0:0:0:0:
192,192,23770,1,0,0:0:0:0:
64,192,23807,1,0,0:0:0:0:
192,192,23883,1,0,0:0:0:0:
320,192,23883,1,0,0:0:0:0:
448,192,23996,1,0,0:0:0:0:
64,192,24110,1,0,0:0:0:0:
192,192,24148,1,0,0:0:0:0:
320,192,24185,1,0,0:0:0:0:
64,192,24223,1,0,0:0:0:0:
192,192,24261,1,0,0:0:0:0:
320,192,24298,1,0,0:0:0:0:
64,192,24336,1,0,0:0:0:0:
448,192,24336,1,0,0:0:0:0:
192,192,24411,1,0,0:0:0:0:
320,192,24450,1,0,0:0:0:0:
448,192,24488,1,0,0:0:0:0:
64,192,24525,1,0,0:0:0:0:
192,192,24563,1,0,0:0:0:0:
320,192,24601,1,0,0:0:0:0:
448,192,24638,1,0,0:0:0:0:
192,192,24676,1,0,0:0:0:0:
64,192,24714,1,0,0:0:0:0:
448,192,24752,1,0,0:0:0:0:
192,192,24790,1,0,0:0:0:0:
320,192,24790,1,0,0:0:0:0:
64,192,24866,1,0,0:0:0:0:
448,192,24903,1,0,0:0:0:0:
320,192,24941,1,0,0:0:0:0:
192,192,24979,1,0,0:0:0:0:
64,192,25016,1,0,0:0:0:0:
448,192,25054,1,0,0:0:0:0:
320,192,25092,1,0,0:0:0:0:
192,192,25130,1,0,0:0:0:0:
64,192,25168,1,0,0:0:0:0:
192,192,25206,1,0,0:0:0:0:
320,192,25243,1,0,0:0:0:0:
448,192,25243,1,0,0:0:0:0:
192,192,25356,1,0,0:0:0:0:
448,192,25470,1,0,0:0:0:0:
320,192,25508,1,0,0:0:0:0:
192,192,25546,1,0,0:0:0:0:
448,192,25584,1,0,0:0:0:0:
64,192,25621,1,0,0:0:0:0:
192,192,25659,1,0,0:0:0:0:
320,192,25697,1,0,0:0:0:0:
448,192,25697,1,0,0:0:0:0:
320,192,25810,1,0,0:0:0:0:
192,192,25924,1,0,0:0:0:0:
320,192,25961,1,0,0:0:0:0:
448,192,25999,1,0,0:0:0:0:
64,192,26037,1,0,0:0:0:0:
192,192,26074,1,0,0:0:0:0:
320,192,26112,1,0,0:0:0:0:
64,192,26150,1,0,0:0:0:0:
448,192,26150,1,0,0:0:0:0:
320,192,26264,1,0,0:0:0:0:
192,192,26377,1,0,0:0:0:0:
64,192,26490,1,0,0:0:0:0:
320,192,26604,1,0,0:0:0:0:
192,192,26642,1,0,0:0:0:0:
64,192,26679,1,0,0:0:0:0:
192,192,26717,1,0,0:0:0:0:
320,192,26755,1,0,0:0:0:0:
448,192,26792,1,0,0:0:0:0:
192,192,26830,1,0,0:0:0:0:
320,192,26869,1,0,0:0:0:0:
64,192,26906,1,0,0:0:0:0:
192,192,26944,1,0,0:0:0:0:
448,192,26982,1,0,0:0:0:0:
320,192,27019,1,0,0:0:0:0:
448,192,27057,1,0,0:0:0:0:
64,192,27057,1,0,0:0:0:0:
64,192,27209,1,0,0:0:0:0:
448,192,27247,1,0,0:0:0:0:
320,192,27284,1,0,0:0:0:0:
192,192,27322,1,0,0:0:0:0:
64,192,27360,1,0,0:0:0:0:
320,192,27397,1,0,0:0:0:0:
448,192,27435,1,0,0:0:0:0:
320,192,27510,1,0,0:0:0:0:
192,192,27510,1,0,0:0:0:0:
64,192,27624,1,0,0:0:0:0:
448,192,27737,1,0,0:0:0:0:
320,192,27775,1,0,0:0:0:0:
192,192,27813,1,0,0:0:0:0:
448,192,27850,1,0,0:0:0:0:
320,192,27889,1,0,0:0:0:0:
192,192,27927,1,0,0:0:0:0:
448,192,27965,1,0,0:0:0:0:
64,192,27965,1,0,0:0:0:0:
320,192,28040,1,0,0:0:0:0:
192,192,28078,1,0,0:0:0:0:
64,192,28115,1,0,0:0:0:0:
448,192,28153,1,0,0:0:0:0:
320,192,28191,1,0,0:0:0:0:
192,192,28229,1,0,0:0:0:0:
64,192,28267,1,0,0:0:0:0:
320,192,28305,1,0,0:0:0:0:
448,192,28342,1,0,0:0:0:0:
64,192,28380,1,0,0:0:0:0:
320,192,28418,1,0,0:0:0:0:
192,192,28418,1,0,0:0:0:0:
448,192,28493,1,0,0:0:0:0:
64,192,28531,1,0,0:0:0:0:
192,192,28569,1,0,0:0:0:0:
320,192,28607,1,0,0:0:0:0:
448,192,28645,1,0,0:0:0:0:
64,192,28683,1,0,0:0:0:0:
192,192,28720,1,0,0:0:0:0:
320,192,28758,1,0,0:0:0:0:
448,192,28796,1,0,0:0:0:0:
320,192,28833,1,0,0:0:0:0:
192,192,28871,1,0,0:0:0:0:
64,192,28871,1,0,0:0:0:0:
320,192,28985,1,0,0:0:0:0:
64,192,29098,1,0,0:0:0:0:
192,192,29136,1,0,0:0:0:0:
320,192,29173,1,0,0:0:0:0:
64,192,29211,1,0,0:0:0:0:
448,192,29250,1,0,0:0:0:0:
320,192,29287,1,0,0:0:0:0:
192,192,29325,1,0,0:0:0:0:
64,192,29325,1,0,0:0:0:0:
192,192,29438,1,0,0:0:0:0:
320,192,29551,1,0,0:0:0:0:
192,192,29590,1,0,0:0:0:0:
64,192,29628,1,0,0:0:0:0:
448,192,29665,1,0,0:0:0:0:
320,192,29703,1,0,0:0:0:0:
192,192,29741,1,0,0:0:0:0:
448,192,29778,1,0,0:0:0:0:
64,192,29778,1,0,0:0:0:0:
192,192,29891,1,0,0:0:0:0:
320,192,30005,1,0,0:0:0:0:
448,192,30118,1,0,0:0:0:0:
192,192,30231,1,0,0:0:0:0:
320,192,30270,1,0,0:0:0:0:
448,192,30308,1,0,0:0:0:0:
320,192,30346,1,0,0:0:0:0:
192,192,30383,1,0,0:0:0:0:
64,192,30421,1,0,0:0:0:0:
320,192,30459,1,0,0:0:0:0:
192,192,30496,1,0,0:0:0:0:
448,192,30534,1,0,0:0:0:0:
320,192,30572,1,0,0:0:0:0:
64,192,30610,1,0,0:0:0:0:
192,192,30648,1,0,0:0:0:0:
64,192,30686,1,0,0:0:0:0:
448,192,30686,1,0,0:0:0:0:
448,192,30836,1,0,0:0:0:0:
64,192,30874,1,0,0:0:0:0:
192,192,30912,1,0,0:0:0:0:
320,192,30950,1,0,0:0:0:0:
448,192,30988,1,0,0:0:0:0:
192,192,31026,1,0,0:0:0:0:
64,192,31064,1,0,0:0:0:0:
320,192,31139,1,0,0:0:0:0:
192,192,31139,1,0,0:0:0:0:
448,192,31252,1,0,0:0:0:0:
64,192,31366,1,0,0:0:0:0:
192,192,31404,1,0,0:0:0:0:
320,192,31441,1,0,0:0:0:0:
64,192,31479,1,0,0:0:0:0:
192,192,31517,1,0,0:0:0:0:
320,192,31554,1,0,0:0:0:0:
448,192,31592,1,0,0:0:0:0:
64,192,31592,1,0,0:0:0:0:
192,192,31668,1,0,0:0:0:0:
320,192,31706,1,0,0:0:0:0:
448,192,31744,1,0,0:0:0:0:
64,192,31781,1,0,0:0:0:0:
192,192,31819,1,0,0:0:0:0:
320,192,31857,1,0,0:0:0:0:
448,192,31895,1,0,0:0:0:0:
192,192,31932,1,0,0:0:0:0:
64,192,31970,1,0,0:0:0:0:
448,192,32009,1,0,0:0:0:0:
320,192,32046,1,0,0:0:0:0:
192,192,32046,1,0,0:0:0:0:
64,192,32122,1,0,0:0:0:0:
448,192,32159,1,0,0:0:0:0:
320,192,32197,1,0,0:0:0:0:
192,192,32235,1,0,0:0:0:0:
64,192,32272,1,0,0:0:0:0:
448,192,32310,1,0,0:0:0:0:
320,192,32349,1,0,0:0:0:0:
192,192,32386,1,0,0:0:0:0:
64,192,32424,1,0,0:0:0:0:
192,192,32462,1,0,0:0:0:0:
448,192,32499,1,0,0:0:0:0:
320,192,32499,1,0,0:0:0:0:
192,192,32612,1,0,0:0:0:0:
448,192,32727,1,0,0:0:0:0:
320,192,32764,1,0,0:0:0:0:
192,192,32802,1,0,0:0:0:0:
448,192,32840,1,0,0:0:0:0:
64,192,32877,1,0,0:0:0:0:
192,192,32915,1,0,0:0:0:0:
448,192,32953,1,0,0:0:0:0:
320,192,32953,1,0,0:0:0:0:
320,192,33067,1,0,0:0:0:0:
192,192,33180,1,0,0:0:0:0:
320,192,33217,1,0,0:0:0:0:
448,192,33255,1,0,0:0:0:0:
64,192,33293,1,0,0:0:0:0:
192,192,33330,1,0,0:0:0:0:
320,192,33369,1,0,0:0:0:0:
448,192,33407,1,0,0:0:0:0:
64,192,33407,1,0,0:0:0:0:
320,192,33520,1,0,0:0:0:0:
192,192,33633,1,0,0:0:0:0:
64,192,33747,1,0,0:0:0:0:
320,192,33860,1,0,0:0:0:0:
448,192,33898,1,0,0:0:0:0:
64,192,33935,1,0,0:0:0:0:
192,192,33973,1,0,0:0:0:0:
320,192,34011,1,0,0:0:0:0:
448,192,34049,1,0,0:0:0:0:
192,192,34087,1,0,0:0:0:0:
320,192,34125,1,0,0:0:0:0:
64,192,34162,1,0,0:0:0:0:
192,192,34200,1,0,0:0:0:0:
320,192,34238,1,0,0:0:0:0:
192,192,34276,1,0,0:0:0:0:
448,192,34313,1,0,0:0:0:0:
64,192,34313,1,0,0:0:0:0:
64,192,34465,1,0,0:0:0:0:
448,192,34503,1,0,0:0:0:0:
320,192,34540,1,0,0:0:0:0:
192,192,34578,1,0,0:0:0:0:
64,192,34616,1,0,0:0:0:0:
320,192,34653,1,0,0:0:0:0:
448,192,34691,1,0,0:0:0:0:
320,192,34767,1,0,0:0:0:0:
192,192,34767,1,0,0:0:0:0:
64,192,34880,1,0,0:0:0:0:
448,192,34993,1,0,0:0:0:0:
320,192,35031,1,0,0:0:0:0:
192,192,35070,1,0,0:0:0:0:
448,192,35108,1,0,0:0:0:0:
320,192,35145,1,0,0:0:0:0:
192,192,35183,1,0,0:0:0:0:
448,192,35221,1,0,0:0:0:0:
64,192,35221,1,0,0:0:0:0:
320,192,35296,1,0,0:0:0:0:
192,192,35334,1,0,0:0:0:0:
64,192,35371,1,0,0:0:0:0:
448,192,35410,1,0,0:0:0:0:
320,192,35448,1,0,0:0:0:0:
192,192,35485,1,0,0:0:0:0:
64,192,35523,1,0,0:0:0:0:
320,192,35561,1,0,0:0:0:0:
448,192,35598,1,0,0:0:0:0:
64,192,35636,1,0,0:0:0:0:
320,192,35674,1,0,0:0:0:0:
192,192,35674,1,0,0:0:0:0:
448,192,35750,1,0,0:0:0:0:
64,192,35788,1,0,0:0:0:0:
192,192,35826,1,0,0:0:0:0:
320,192,35863,1,0,0:0:0:0:
448,192,35901,1,0,0:0:0:0:
64,192,35939,1,0,0:0:0:0:
192,192,35976,1,0,0:0:0:0:
320,192,36014,1,0,0:0:0:0:
448,192,36052,1,0,0:0:0:0:
320,192,36090,1,0,0:0:0:0:
192,192,36128,1,0,0:0:0:0:
64,192,36128,1,0,0:0:0:0:
320,192,36241,1,0,0:0:0:0:
64,192,36354,1,0,0:0:0:0:
192,192,36392,1,0,0:0:0:0:
320,192,36430,1,0,0:0:0:0:
64,192,36468,1,0,0:0:0:0:
448,192,36506,1,0,0:0:0:0:
320,192,36543,1,0,0:0:0:0:
192,192,36581,1,0,0:0:0:0:
64,192,36581,1,0,0:0:0:0:
192,192,36694,1,0,0:0:0:0:
320,192,36808,1,0,0:0:0:0:
192,192,36846,1,0,0:0:0:0:
64,192,36884,1,0,0:0:0:0:
448,192,36921,1,0,0:0:0:0:
320,192,36959,1,0,0:0:0:0:
192,192,36997,1,0,0:0:0:0:
448,192,37034,1,0,0:0:0:0:
64,192,37034,1,0,0:0:0:0:
192,192,37148,1,0,0:0:0:0:
320,192,37261,1,0,0:0:0:0:
448,192,37374,1,0,0:0:0:0:
192,192,37489,1,0,0:0:0:0:
64,192,37526,1,0,0:0:0:0:
448,192,37564,1,0,0:0:0:0:
320,192,37602,1,0,0:0:0:0:
192,192,37639,1,0,0:0:0:0:
64,192,37677,1,0,0:0:0:0:
448,192,37715,1,0,0:0:0:0:
192,192,37752,1,0,0:0:0:0:
320,192,37790,1,0,0:0:0:0:
64,192,37829,1,0,0:0:0:0:
448,192,37866,1,0,0:0:0:0:
320,192,37904,1,0,0:0:0:0:
64,192,37942,1,0,0:0:0:0:
192,192,37979,1,0,0:0:0:0:
320,192,38017,1,0,0:0:0:0:
448,192,38055,1,0,0:0:0:0:
64,192,38092,1,0,0:0:0:0:
192,192,38130,1,0,0:0:0:0:
320,192,38169,1,0,0:0:0:0:
448,192,38207,1,0,0:0:0:0:
64,192,38244,1,0,0:0:0:0:
192,192,38282,1,0,0:0:0:0:
320,192,38320,1,0,0:0:0:0:
448,192,38357,1,0,0:0:0:0:
320,192,38395,1,0,0:0:0:0:
192,192,38433,1,0,0:0:0:0:
64,192,38470,1,0,0:0:0:0:
448,192,38509,1,0,0:0:0:0:
320,192,38547,1,0,0:0:0:0:
192,192,38584,1,0,0:0:0:0:
64,192,38622,1,0,0:0:0:0:
448,192,38660,1,0,0:0:0:0:
320,192,38697,1,0,0:0:0:0:
192,192,38735,1,0,0:0:0:0:
64,192,38773,1,0,0:0:0:0:
448,192,38810,1,0,0:0:0:0:
320,192,38849,1,0,0:0:0:0:
192,192,38887,1,0,0:0:0:0:
64,192,38924,1,0,0:0:0:0:
448,192,38962,1,0,0:0:0:0:
320,192,39000,1,0,0:0:0:0:
192,192,39038,1,0,0:0:0:0:
64,192,39075,1,0,0:0:0:0:
448,192,39075,1,0,0:0:0:0:
320,192,39151,1,0,0:0:0:0:
192,192,39227,1,0,0:0:0:0:
448,192,39302,1,0,0:0:0:0:
320,192,39302,1,0,0:0:0:0:
64,192,39378,1,0,0:0:0:0:
448,192,39453,1,0,0:0:0:0:
320,192,39529,1,0,0:0:0:0:
192,192,39529,1,0,0:0:0:0:
64,192,39605,1,0,0:0:0:0:
448,192,39680,1,0,0:0:0:0:
64,192,39755,1,0,0:0:0:0:
192,192,39793,1,0,0:0:0:0:
320,192,39831,1,0,0:0:0:0:
448,192,39870,1,0,0:0:0:0:
64,192,39907,1,0,0:0:0:0:
192,192,39945,1,0,0:0:0:0:
320,192,39983,1,0,0:0:0:0:
448,192,40020,1,0,0:0:0:0:
64,192,40058,1,0,0:0:0:0:
192,192,40096,1,0,0:0:0:0:
320,192,40133,1,0,0:0:0:0:
448,192,40171,1,0,0:0:0:0:
320,192,40210,1,0,0:0:0:0:
192,192,40247,1,0,0:0:0:0:
64,192,40285,1,0,0:0:0:0:
448,192,40323,1,0,0:0:0:0:
320,192,40360,1,0,0:0:0:0:
192,192,40398,1,0,0:0:0:0:
64,192,40436,1,0,0:0:0:0:
448,192,40473,1,0,0:0:0:0:
320,192,40511,1,0,0:0:0:0:
192,192,40550,1,0,0:0:0:0:
64,192,40588,1,0,0:0:0:0:
448,192,40625,1,0,0:0:0:0:
320,192,40663,1,0,0:0:0:0:
192,192,40701,1,0,0:0:0:0:
64,192,40738,1,0,0:0:0:0:
448,192,40776,1,0,0:0:0:0:
320,192,40814,1,0,0:0:0:0:
192,192,40851,1,0,0:0:0:0:
64,192,40890,1,0,0:0:0:0:
448,192,40890,1,0,0:0:0:0:
192,192,40965,1,0,0:0:0:0:
320,192,41041,1,0,0:0:0:0:
192,192,41116,1,0,0:0:0:0:
448,192,41116,1,0,0:0:0:0:
320,192,41191,1,0,0:0:0:0:
64,192,41268,1,0,0:0:0:0:
320,192,41343,1,0,0:0:0:0:
192,192,41343,1,0,0:0:0:0:
448,192,41419,1,0,0:0:0:0:
320,192,41494,1,0,0:0:0:0:
64,192,41570,1,0,0:0:0:0:
192,192,41608,1,0,0:0:0:0:
320,192,41646,1,0,0:0:0:0:
448,192,41683,1,0,0:0:0:0:
64,192,41721,1,0,0:0:0:0:
192,192,41759,1,0,0:0:0:0:
320,192,41796,1,0,0:0:0:0:
448,192,41834,1,0,0:0:0:0:
64,192,41872,1,0,0:0:0:0:
192,192,41910,1,0,0:0:0:0:
320,192,41948,1,0,0:0:0:0:
448,192,41986,1,0,0:0:0:0:
320,192,42023,1,0,0:0:0:0:
192,192,42061,1,0,0:0:0:0:
64,192,42099,1,0,0:0:0:0:
448,192,42136,1,0,0:0:0:0:
320,192,42174,1,0,0:0:0:0:
192,192,42212,1,0,0:0:0:0:
64,192,42250,1,0,0:0:0:0:
448,192,42288,1,0,0:0:0:0:
320,192,42326,1,0,0:0:0:0:
192,192,42364,1,0,0:0:0:0:
64,192,42401,1,0,0:0:0:0:
448,192,42439,1,0,0:0:0:0:
320,192,42477,1,0,0:0:0:0:
192,192,42514,1,0,0:0:0:0:
64,192,42552,1,0,0:0:0:0:
448,192,42590,1,0,0:0:0:0:
320,192,42628,1,0,0:0:0:0:
192,192,42666,1,0,0:0:0:0:
448,192,42704,1,0,0:0:0:0:
64,192,42704,1,0,0:0:0:0:
320,192,42779,1,0,0:0:0:0:
448,192,42854,1,0,0:0:0:0:
192,192,42930,1,0,0:0:0:0:
64,192,42930,1,0,0:0:0:0:
320,192,43006,1,0,0:0:0:0:
192,192,43082,1,0,0:0:0:0:
320,192,43157,1,0,0:0:0:0:
448,192,43157,1,0,0:0:0:0:
64,192,43232,1,0,0:0:0:0:
192,192,43309,1,0,0:0:0:0:
448,192,43384,1,0,0:0:0:0:
64,192,43384,1,0,0:0:0:0:
320,192,43422,1,0,0:0:0:0:
192,192,43497,1,0,0:0:0:0:
320,192,43610,1,0,0:0:0:0:
64,192,43724,1,0,0:0:0:0:
448,192,43724,1,0,0:0:0:0:
320,192,43762,1,0,0:0:0:0:
192,192,43837,1,0,0:0:0:0:
448,192,43950,1,0,0:0:0:0:
64,192,44064,1,0,0:0:0:0:
320,192,44064,1,0,0:0:0:0:
192,192,44102,1,0,0:0:0:0:
448,192,44121,1,0,0:0:0:0:
448,192,44290,1,0,0:0:0:0:
64,192,44290,1,0,0:0:0:0:
320,192,44329,1,0,0:0:0:0:
192,192,44367,1,0,0:0:0:0:
64,192,44404,1,0,0:0:0:0:
448,192,44442,1,0,0:0:0:0:
320,192,44480,1,0,0:0:0:0:
192,192,44517,1,0,0:0:0:0:
448,192,44555,1,0,0:0:0:0:
320,192,44593,1,0,0:0:0:0:
64,192,44631,1,0,0:0:0:0:
192,192,44669,1,0,0:0:0:0:
320,192,44707,1,0,0:0:0:0:
448,192,44745,1,0,0:0:0:0:
64,192,44782,1,0,0:0:0:0:
192,192,44820,1,0,0:0:0:0:
320,192,44858,1,0,0:0:0:0:
64,192,44895,1,0,0:0:0:0:
192,192,44933,1,0,0:0:0:0:
320,192,44971,1,0,0:0:0:0:
448,192,45009,1,0,0:0:0:0:
192,192,45047,1,0,0:0:0:0:
320,192,45085,1,0,0:0:0:0:
448,192,45122,1,0,0:0:0:0:
64,192,45198,1,0,0:0:0:0:
192,192,45235,1,0,0:0:0:0:
320,192,45273,1,0,0:0:0:0:
448,192,45311,1,0,0:0:0:0:
64,192,45350,1,0,0:0:0:0:
192,192,45387,1,0,0:0:0:0:
320,192,45425,1,0,0:0:0:0:
448,192,45463,1,0,0:0:0:0:
64,192,45500,1,0,0:0:0:0:
192,192,45538,1,0,0:0:0:0:
320,192,45576,1,0,0:0:0:0:
448,192,45613,1,0,0:0:0:0:
320,192,45651,1,0,0:0:0:0:
192,192,45690,1,0,0:0:0:0:
64,192,45727,1,0,0:0:0:0:
448,192,45765,1,0,0:0:0:0:
320,192,45803,1,0,0:0:0:0:
192,192,45840,1,0,0:0:0:0:
64,192,45878,1,0,0:0:0:0:
448,192,45916,1,0,0:0:0:0:
320,192,45953,1,0,0:0:0:0:
192,192,45991,1,0,0:0:0:0:
64,192,46030,1,0,0:0:0:0:
448,192,46067,1,0,0:0:0:0:
320,192,46105,1,0,0:0:0:0:
192,192,46143,1,0,0:0:0:0:
64,192,46181,1,0,0:0:0:0:
448,192,46218,1,0,0:0:0:0:
320,192,46256,1,0,0:0:0:0:
192,192,46294,1,0,0:0:0:0:
64,192,46331,1,0,0:0:0:0:
448,192,46331,1,0,0:0:0:0:
320,192,46408,1,0,0:0:0:0:
192,192,46483,1,0,0:0:0:0:
448,192,46558,1,0,0:0:0:0:
320,192,46558,1,0,0:0:0:0:
64,192,46634,1,0,0:0:0:0:
448,192,46710,1,0,0:0:0:0:
320,192,46785,1,0,0:0:0:0:
192,192,46785,1,0,0:0:0:0:
64,192,46861,1,0,0:0:0:0:
448,192,46936,1,0,0:0:0:0:
64,192,47012,1,0,0:0:0:0:
192,192,47050,1,0,0:0:0:0:
320,192,47088,1,0,0:0:0:0:
448,192,47126,1,0,0:0:0:0:
64,192,47163,1,0,0:0:0:0:
192,192,47201,1,0,0:0:0:0:
320,192,47239,1,0,0:0:0:0:
448,192,47276,1,0,0:0:0:0:
64,192,47314,1,0,0:0:0:0:
192,192,47352,1,0,0:0:0:0:
320,192,47390,1,0,0:0:0:0:
448,192,47428,1,0,0:0:0:0:
320,192,47466,1,0,0:0:0:0:
192,192,47503,1,0,0:0:0:0:
64,192,47541,1,0,0:0:0:0:
448,192,47579,1,0,0:0:0:0:
320,192,47616,1,0,0:0:0:0:
192,192,47654,1,0,0:0:0:0:
64,192,47692,1,0,0:0:0:0:
448,192,47730,1,0,0:0:0:0:
320,192,47768,1,0,0:0:0:0:
192,192,47806,1,0,0:0:0:0:
64,192,47844,1,0,0:0:0:0:
448,192,47881,1,0,0:0:0:0:
320,192,47919,1,0,0:0:0:0:
192,192,47957,1,0,0:0:0:0:
64,192,47994,1,0,0:0:0:0:
448,192,48032,1,0,0:0:0:0:
320,192,48070,1,0,0:0:0:0:
192,192,48108,1,0,0:0:0:0:
64,192,48146,1,0,0:0:0:0:
448,192,48146,1,0,0:0:0:0:
192,192,48221,1,0,0:0:0:0:
320,192,48297,1,0,0:0:0:0:
192,192,48372,1,0,0:0:0:0:
448,192,48372,1,0,0:0:0:0:
320,192,48448,1,0,0:0:0:0:
64,192,48524,1,0,0:0:0:0:
320,192,48599,1,0,0:0:0:0:
192,192,48599,1,0,0:0:0:0:
448,192,48675,1,0,0:0:0:0:
320,192,48750,1,0,0:0:0:0:
64,192,48826,1,0,0:0:0:0:
192,192,48864,1,0,0:0:0:0:
320,192,48902,1,0,0:0:0:0:
448,192,48939,1,0,0:0:0:0:
64,192,48977,1,0,0:0:0:0:
192,192,49015,1,0,0:0:0:0:
320,192,49052,1,0,0:0:0:0:
448,192,49090,1,0,0:0:0:0:
64,192,49129,1,0,0:0:0:0:
192,192,49166,1,0,0:0:0:0:
320,192,49204,1,0,0:0:0:0:
448,192,49242,1,0,0:0:0:0:
320,192,49279,1,0,0:0:0:0:
192,192,49317,1,0,0:0:0:0:
64,192,49355,1,0,0:0:0:0:
448,192,49393,1,0,0:0:0:0:
320,192,49430,1,0,0:0:0:0:
192,192,49469,1,0,0:0:0:0:
64,192,49507,1,0,0:0:0:0:
448,192,49544,1,0,0:0:0:0:
320,192,49582,1,0,0:0:0:0:
192,192,49620,1,0,0:0:0:0:
64,192,49657,1,0,0:0:0:0:
448,192,49695,1,0,0:0:0:0:
320,192,49733,1,0,0:0:0:0:
192,192,49770,1,0,0:0:0:0:
64,192,49809,1,0,0:0:0:0:
448,192,49847,1,0,0:0:0:0:
320,192,49884,1,0,0:0:0:0:
192,192,49922,1,0,0:0:0:0:
448,192,49960,1,0,0:0:0:0:
64,192,49960,1,0,0:0:0:0:
320,192,50035,1,0,0:0:0:0:
448,192,50111,1,0,0:0:0:0:
192,192,50187,1,0,0:0:0:0:
64,192,50187,1,0,0:0:0:0:
320,192,50262,1,0,0:0:0:0:
192,192,50338,1,0,0:0:0:0:
320,192,50413,1,0,0:0:0:0:
448,192,50413,1,0,0:0:0:0:
64,192,50489,1,0,0:0:0:0:
192,192,50565,1,0,0:0:0:0:
448,192,50640,1,0,0:0:0:0:
64,192,50640,1,0,0:0:0:0:
320,192,50678,1,0,0:0:0:0:
192,192,50753,1,0,0:0:0:0:
320,192,50867,1,0,0:0:0:0:
64,192,50980,1,0,0:0:0:0:
448,192,50980,1,0,0:0:0:0:
320,192,51018,1,0,0:0:0:0:
192,192,51093,1,0,0:0:0:0:
448,192,51207,1,0,0:0:0:0:
64,192,51320,1,0,0:0:0:0:
320,192,51320,1,0,0:0:0:0:
192,192,51358,1,0,0:0:0:0:
448,192,51377,1,0,0:0:0:0:
448,192,51547,1,0,0:0:0:0:
64,192,51547,1,0,0:0:0:0:
320,192,51585,1,0,0:0:0:0:
192,192,51623,1,0,0:0:0:0:
64,192,51660,1,0,0:0:0:0:
448,192,51698,1,0,0:0:0:0:
320,192,51736,1,0,0:0:0:0:
192,192,51774,1,0,0:0:0:0:
448,192,51811,1,0,0:0:0:0:
320,192,51850,1,0,0:0:0:0:
64,192,51888,1,0,0:0:0:0:
192,192,51925,1,0,0:0:0:0:
320,192,51963,1,0,0:0:0:0:
448,192,52001,1,0,0:0:0:0:
64,192,52038,1,0,0:0:0:0:
192,192,52076,1,0,0:0:0:0:
320,192,52114,1,0,0:0:0:0:
64,192,52151,1,0,0:0:0:0:
192,192,52190,1,0,0:0:0:0:
320,192,52228,1,0,0:0:0:0:
448,192,52265,1,0,0:0:0:0:
192,192,52303,1,0,0:0:0:0:
320,192,52341,1,0,0:0:0:0:
448,192,52378,1,0,0:0:0:0:
64,192,52454,1,0,0:0:0:0:
192,192,52454,1,0,0:0:0:0:
320,192,52492,1,0,0:0:0:0:
448,192,52530,1,0,0:0:0:0:
192,192,52568,1,0,0:0:0:0:
320,192,52606,1,0,0:0:0:0:
448,192,52643,1,0,0:0:0:0:
192,192,52681,1,0,0:0:0:0:
320,192,52719,1,0,0:0:0:0:
448,192,52756,1,0,0:0:0:0:
192,192,52794,1,0,0:0:0:0:
320,192,52832,1,0,0:0:0:0:
448,192,52870,1,0,0:0:0:0:
320,192,52908,1,0,0:0:0:0:
192,192,52946,1,0,0:0:0:0:
64,192,52983,1,0,0:0:0:0:
320,192,53021,1,0,0:0:0:0:
192,192,53059,1,0,0:0:0:0:
64,192,53096,1,0,0:0:0:0:
320,192,53134,1,0,0:0:0:0:
192,192,53172,1,0,0:0:0:0:
64,192,53210,1,0,0:0:0:0:
320,192,53248,1,0,0:0:0:0:
192,192,53286,1,0,0:0:0:0:
64,192,53324,1,0,0:0:0:0:
320,192,53361,1,0,0:0:0:0:
192,192,53399,1,0,0:0:0:0:
64,192,53437,1,0,0:0:0:0:
320,192,53474,1,0,0:0:0:0:
192,192,53512,1,0,0:0:0:0:
64,192,53550,1,0,0:0:0:0:
192,192,53588,1,0,0:0:0:0:
448,192,53588,1,0,0:0:0:0:
320,192,53664,1,0,0:0:0:0:
192,192,53739,1,0,0:0:0:0:
448,192,53814,1,0,0:0:0:0:
320,192,53814,1,0,0:0:0:0:
64,192,53890,1,0,0:0:0:0:
448,192,53966,1,0,0:0:0:0:
320,192,54041,1,0,0:0:0:0:
192,192,54041,1,0,0:0:0:0:
64,192,54117,1,0,0:0:0:0:
448,192,54192,1,0,0:0:0:0:
192,192,54269,1,0,0:0:0:0:
320,192,54306,1,0,0:0:0:0:
448,192,54344,1,0,0:0:0:0:
192,192,54382,1,0,0:0:0:0:
320,192,54419,1,0,0:0:0:0:
448,192,54457,1,0,0:0:0:0:
192,192,54495,1,0,0:0:0:0:
320,192,54532,1,0,0:0:0:0:
448,192,54570,1,0,0:0:0:0:
192,192,54609,1,0,0:0:0:0:
320,192,54646,1,0,0:0:0:0:
448,192,54684,1,0,0:0:0:0:
320,192,54722,1,0,0:0:0:0:
192,192,54759,1,0,0:0:0:0:
64,192,54797,1,0,0:0:0:0:
320,192,54835,1,0,0:0:0:0:
192,192,54873,1,0,0:0:0:0:
64,192,54910,1,0,0:0:0:0:
320,192,54949,1,0,0:0:0:0:
192,192,54987,1,0,0:0:0:0:
64,192,55024,1,0,0:0:0:0:
320,192,55062,1,0,0:0:0:0:
192,192,55100,1,0,0:0:0:0:
64,192,55137,1,0,0:0:0:0:
320,192,55175,1,0,0:0:0:0:
192,192,55213,1,0,0:0:0:0:
64,192,55250,1,0,0:0:0:0:
320,192,55289,1,0,0:0:0:0:
192,192,55327,1,0,0:0:0:0:
64,192,55364,1,0,0:0:0:0:
320,192,55402,1,0,0:0:0:0:
448,192,55402,1,0,0:0:0:0:
192,192,55477,1,0,0:0:0:0:
320,192,55553,1,0,0:0:0:0:
192,192,55629,1,0,0:0:0:0:
448,192,55629,1,0,0:0:0:0:
320,192,55705,1,0,0:0:0:0:
64,192,55780,1,0,0:0:0:0:
320,192,55855,1,0,0:0:0:0:
192,192,55855,1,0,0:0:0:0:
448,192,55931,1,0,0:0:0:0:
320,192,56007,1,0,0:0:0:0:
192,192,56082,1,0,0:0:0:0:
64,192,56082,1,0,0:0:0:0:
320,192,56120,1,0,0:0:0:0:
448,192,56158,1,0,0:0:0:0:
192,192,56195,1,0,0:0:0:0:
320,192,56233,1,0,0:0:0:0:
448,192,56271,1,0,0:0:0:0:
192,192,56309,1,0,0:0:0:0:
320,192,56347,1,0,0:0:0:0:
448,192,56385,1,0,0:0:0:0:
192,192,56422,1,0,0:0:0:0:
320,192,56460,1,0,0:0:0:0:
448,192,56498,1,0,0:0:0:0:
320,192,56536,1,0,0:0:0:0:
192,192,56573,1,0,0:0:0:0:
64,192,56611,1,0,0:0:0:0:
320,192,56650,1,0,0:0:0:0:
192,192,56687,1,0,0:0:0:0:
64,192,56725,1,0,0:0:0:0:
320,192,56763,1,0,0:0:0:0:
192,192,56800,1,0,0:0:0:0:
64,192,56838,1,0,0:0:0:0:
320,192,56876,1,0,0:0:0:0:
192,192,56913,1,0,0:0:0:0:
64,192,56951,1,0,0:0:0:0:
320,192,56990,1,0,0:0:0:0:
192,192,57027,1,0,0:0:0:0:
64,192,57065,1,0,0:0:0:0:
320,192,57103,1,0,0:0:0:0:
192,192,57140,1,0,0:0:0:0:
64,192,57178,1,0,0:0:0:0:
448,192,57216,1,0,0:0:0:0:
320,192,57216,1,0,0:0:0:0:
192,192,57291,1,0,0:0:0:0:
448,192,57368,1,0,0:0:0:0:
192,192,57443,1,0,0:0:0:0:
64,192,57443,1,0,0:0:0:0:
320,192,57518,1,0,0:0:0:0:
192,192,57594,1,0,0:0:0:0:
320,192,57670,1,0,0:0:0:0:
448,192,57670,1,0,0:0:0:0:
64,192,57745,1,0,0:0:0:0:
192,192,57821,1,0,0:0:0:0:
448,192,57896,1,0,0:0:0:0:
64,192,57896,1,0,0:0:0:0:
320,192,57934,1,0,0:0:0:0:
192,192,58010,1,0,0:0:0:0:
320,192,58123,1,0,0:0:0:0:
64,192,58236,1,0,0:0:0:0:
448,192,58236,1,0,0:0:0:0:
320,192,58274,1,0,0:0:0:0:
192,192,58350,1,0,0:0:0:0:
448,192,58463,1,0,0:0:0:0:
64,192,58576,1,0,0:0:0:0:
320,192,58576,1,0,0:0:0:0:
192,192,58614,1,0,0:0:0:0:
448,192,58633,1,0,0:0:0:0:
448,192,58803,1,0,0:0:0:0:
64,192,58803,1,0,0:0:0:0:
320,192,58841,1,0,0:0:0:0:
192,192,58879,1,0,0:0:0:0:
64,192,58917,1,0,0:0:0:0:
448,192,58954,1,0,0:0:0:0:
320,192,58992,1,0,0:0:0:0:
192,192,59030,1,0,0:0:0:0:
448,192,59068,1,0,0:0:0:0:
320,192,59106,1,0,0:0:0:0:
64,192,59144,1,0,0:0:0:0:
192,192,59181,1,0,0:0:0:0:
320,192,59219,1,0,0:0:0:0:
448,192,59257,1,0,0:0:0:0:
64,192,59294,1,0,0:0:0:0:
192,192,59332,1,0,0:0:0:0:
320,192,59370,1,0,0:0:0:0:
64,192,59408,1,0,0:0:0:0:
192,192,59446,1,0,0:0:0:0:
320,192,59484,1,0,0:0:0:0:
448,192,59521,1,0,0:0:0:0:
192,192,59559,1,0,0:0:0:0:
320,192,59597,1,0,0:0:0:0:
448,192,59635,1,0,0:0:0:0:
64,192,59710,1,0,0:0:0:0:
192,192,59710,1,0,0:0:0:0:
320,192,59749,1,0,0:0:0:0:
448,192,59786,1,0,0:0:0:0:
192,192,59824,1,0,0:0:0:0:
320,192,59862,1,0,0:0:0:0:
448,192,59899,1,0,0:0:0:0:
192,192,59937,1,0,0:0:0:0:
320,192,59975,1,0,0:0:0:0:
448,192,60012,1,0,0:0:0:0:
192,192,60050,1,0,0:0:0:0:
320,192,60089,1,0,0:0:0:0:
448,192,60126,1,0,0:0:0:0:
320,192,60164,1,0,0:0:0:0:
192,192,60202,1,0,0:0:0:0:
64,192,60239,1,0,0:0:0:0:
320,192,60277,1,0,0:0:0:0:
192,192,60315,1,0,0:0:0:0:
64,192,60352,1,0,0:0:0:0:
320,192,60390,1,0,0:0:0:0:
192,192,60429,1,0,0:0:0:0:
64,192,60467,1,0,0:0:0:0:
320,192,60504,1,0,0:0:0:0:
192,192,60542,1,0,0:0:0:0:
64,192,60580,1,0,0:0:0:0:
320,192,60617,1,0,0:0:0:0:
192,192,60655,1,0,0:0:0:0:
64,192,60693,1,0,0:0:0:0:
320,192,60730,1,0,0:0:0:0:
192,192,60769,1,0,0:0:0:0:
64,192,60807,1,0,0:0:0:0:
320,192,60844,1,0,0:0:0:0:
448,192,60844,1,0,0:0:0:0:
192,192,60920,1,0,0:0:0:0:
320,192,60995,1,0,0:0:0:0:
448,192,61070,1,0,0:0:0:0:
192,192,61070,1,0,0:0:0:0:
64,192,61147,1,0,0:0:0:0:
448,192,61222,1,0,0:0:0:0:
320,192,61298,1,0,0:0:0:0:
192,192,61298,1,0,0:0:0:0:
64,192,61373,1,0,0:0:0:0:
448,192,61449,1,0,0:0:0:0:
192,192,61525,1,0,0:0:0:0:
320,192,61562,1,0,0:0:0:0:
448,192,61600,1,0,0:0:0:0:
192,192,61638,1,0,0:0:0:0:
320,192,61675,1,0,0:0:0:0:
448,192,61713,1,0,0:0:0:0:
192,192,61751,1,0,0:0:0:0:
320,192,61789,1,0,0:0:0:0:
448,192,61827,1,0,0:0:0:0:
192,192,61865,1,0,0:0:0:0:
320,192,61902,1,0,0:0:0:0:
448,192,61940,1,0,0:0:0:0:
320,192,61978,1,0,0:0:0:0:
192,192,62016,1,0,0:0:0:0:
64,192,62053,1,0,0:0:0:0:
320,192,62091,1,0,0:0:0:0:
192,192,62130,1,0,0:0:0:0:
64,192,62167,1,0,0:0:0:0:
320,192,62205,1,0,0:0:0:0:
192,192,62243,1,0,0:0:0:0:
64,192,62280,1,0,0:0:0:0:
320,192,62318,1,0,0:0:0:0:
192,192,62356,1,0,0:0:0:0:
64,192,62393,1,0,0:0:0:0:
320,192,62431,1,0,0:0:0:0:
192,192,62470,1,0,0:0:0:0:
64,192,62507,1,0,0:0:0:0:
320,192,62545,1,0,0:0:0:0:
192,192,62583,1,0,0:0:0:0:
64,192,62620,1,0,0:0:0:0:
320,192,62658,1,0,0:0:0:0:
448,192,62658,1,0,0:0:0:0:
192,192,62733,1,0,0:0:0:0:
320,192,62810,1,0,0:0:0:0:
192,192,62885,1,0,0:0:0:0:
448,192,62885,1,0,0:0:0:0:
320,192,62961,1,0,0:0:0:0:
64,192,63036,1,0,0:0:0:0:
320,192,63111,1,0,0:0:0:0:
192,192,63111,1,0,0:0:0:0:
448,192,63188,1,0,0:0:0:0:
320,192,63263,1,0,0:0:0:0:
192,192,63338,1,0,0:0:0:0:
64,192,63338,1,0,0:0:0:0:
320,192,63376,1,0,0:0:0:0:
448,192,63414,1,0,0:0:0:0:
192,192,63451,1,0,0:0:0:0:
320,192,63490,1,0,0:0:0:0:
448,192,63528,1,0,0:0:0:0:
192,192,63565,1,0,0:0:0:0:
320,192,63603,1,0,0:0:0:0:
448,192,63641,1,0,0:0:0:0:
192,192,63679,1,0,0:0:0:0:
320,192,63716,1,0,0:0:0:0:
448,192,63754,1,0,0:0:0:0:
320,192,63792,1,0,0:0:0:0:
192,192,63830,1,0,0:0:0:0:
64,192,63868,1,0,0:0:0:0:
320,192,63906,1,0,0:0:0:0:
192,192,63943,1,0,0:0:0:0:
64,192,63981,1,0,0:0:0:0:
320,192,64019,1,0,0:0:0:0:
192,192,64056,1,0,0:0:0:0:
64,192,64094,1,0,0:0:0:0:
320,192,64132,1,0,0:0:0:0:
192,192,64170,1,0,0:0:0:0:
64,192,64208,1,0,0:0:0:0:
320,192,64246,1,0,0:0:0:0:
192,192,64283,1,0,0:0:0:0:
64,192,64321,1,0,0:0:0:0:
320,192,64359,1,0,0:0:0:0:
192,192,64397,1,0,0:0:0:0:
64,192,64434,1,0,0:0:0:0:
448,192,64472,1,0,0:0:0:0:
192,192,64472,1,0,0:0:0:0:
320,192,64548,1,0,0:0:0:0:
448,192,64624,1,0,0:0:0:0:
192,192,64699,1,0,0:0:0:0:
64,192,64699,1,0,0:0:0:0:
320,192,64774,1,0,0:0:0:0:
192,192,64850,1,0,0:0:0:0:
320,192,64926,1,0,0:0:0:0:
448,192,64926,1,0,0:0:0:0:
64,192,65001,1,0,0:0:0:0:
192,192,65077,1,0,0:0:0:0:
448,192,65152,1,0,0:0:0:0:
64,192,65152,1,0,0:0:0:0:
320,192,65190,1,0,0:0:0:0:
192,192,65266,1,0,0:0:0:0:
320,192,65379,1,0,0:0:0:0:
64,192,65492,1,0,0:0:0:0:
448,192,65492,1,0,0:0:0:0:
320,192,65530,1,0,0:0:0:0:
192,192,65606,1,0,0:0:0:0:
448,192,65719,1,0,0:0:0:0:
64,192,65832,5,0,0:0:0:0:
320,192,65832,1,0,0:0:0:0:
192,192,65870,1,0,0:0:0:0:
448,192,65890,1,0,0:0:0:0:
448,192,66060,1,0,0:0:0:0:
64,192,66060,1,0,0:0:0:0:
192,192,66097,1,0,0:0:0:0:
320,192,66135,1,0,0:0:0:0:
64,192,66173,1,0,0:0:0:0:
448,192,66210,1,0,0:0:0:0:
320,192,66249,1,0,0:0:0:0:
192,192,66287,1,0,0:0:0:0:
448,192,66324,1,0,0:0:0:0:
320,192,66362,1,0,0:0:0:0:
64,192,66400,1,0,0:0:0:0:
192,192,66437,1,0,0:0:0:0:
320,192,66475,1,0,0:0:0:0:
448,192,66513,1,0,0:0:0:0:
64,192,66550,1,0,0:0:0:0:
192,192,66589,1,0,0:0:0:0:
320,192,66627,1,0,0:0:0:0:
64,192,66664,1,0,0:0:0:0:
192,192,66702,1,0,0:0:0:0:
320,192,66740,1,0,0:0:0:0:
448,192,66778,1,0,0:0:0:0:
192,192,66815,1,0,0:0:0:0:
320,192,66853,1,0,0:0:0:0:
64,192,66891,1,0,0:0:0:0:
192,192,66967,5,0,0:0:0:0:
448,192,66967,1,0,0:0:0:0:
320,192,66967,1,0,0:0:0:0:
64,192,67193,1,0,0:0:0:0:
320,192,67193,1,0,0:0:0:0:
448,192,67193,1,0,0:0:0:0:
192,192,67420,1,0,0:0:0:0:
320,192,67420,1,0,0:0:0:0:
64,192,67420,1,0,0:0:0:0:
448,192,67647,1,0,0:0:0:0:
64,192,67647,1,0,0:0:0:0:
192,192,67647,1,0,0:0:0:0:
320,192,67873,1,0,0:0:0:0:
448,192,67873,1,0,0:0:0:0:
64,192,67873,1,0,0:0:0:0:
448,192,68100,1,0,0:0:0:0:
192,192,68100,1,0,0:0:0:0:
320,192,68100,1,0,0:0:0:0:
320,192,68327,1,0,0:0:0:0:
64,192,68327,1,0,0:0:0:0:
192,192,68327,1,0,0:0:0:0:
64,192,68554,1,0,0:0:0:0:
448,192,68554,1,0,0:0:0:0:
64,192,68781,1,0,0:0:0:0:
448,192,68781,1,0,0:0:0:0:
192,192,68781,1,0,0:0:0:0:
320,192,68781,1,0,0:0:0:0:
192,192,69008,1,0,0:0:0:0:
64,192,69008,1,0,0:0:0:0:
64,192,69234,1,0,0:0:0:0:
448,192,69234,1,0,0:0:0:0:
320,192,69234,1,0,0:0:0:0:
192,192,69234,1,0,0:0:0:0:
192,192,69461,1,0,0:0:0:0:
448,192,69461,1,0,0:0:0:0:
192,192,69688,1,0,0:0:0:0:
448,192,69688,1,0,0:0:0:0:
320,192,69688,1,0,0:0:0:0:
64,192,69688,1,0,0:0:0:0:
64,192,69914,1,0,0:0:0:0:
320,192,69914,1,0,0:0:0:0:
192,192,70141,1,0,0:0:0:0:
448,192,70141,1,0,0:0:0:0:
64,192,70141,1,0,0:0:0:0:
320,192,70141,1,0,0:0:0:0:
448,192,70368,1,0,0:0:0:0:
320,192,70368,1,0,0:0:0:0:
192,192,70594,1,0,0:0:0:0:
320,192,70594,1,0,0:0:0:0:
64,192,70594,1,0,0:0:0:0:
64,192,70822,1,0,0:0:0:0:
320,192,70822,1,0,0:0:0:0:
448,192,70822,1,0,0:0:0:0:
64,192,71049,1,0,0:0:0:0:
448,192,71049,1,0,0:0:0:0:
192,192,71049,1,0,0:0:0:0:
64,192,71275,1,0,0:0:0:0:
192,192,71275,1,0,0:0:0:0:
320,192,71275,1,0,0:0:0:0:
448,192,71502,1,0,0:0:0:0:
320,192,71502,1,0,0:0:0:0:
64,192,71502,1,0,0:0:0:0:
192,192,71729,1,0,0:0:0:0:
320,192,71729,1,0,0:0:0:0:
448,192,71729,1,0,0:0:0:0:
320,192,71955,1,0,0:0:0:0:
64,192,71955,1,0,0:0:0:0:
192,192,71955,1,0,0:0:0:0:
448,192,72182,1,0,0:0:0:0:
64,192,72182,1,0,0:0:0:0:
64,192,72409,1,0,0:0:0:0:
192,192,72409,1,0,0:0:0:0:
448,192,72409,1,0,0:0:0:0:
320,192,72409,1,0,0:0:0:0:
192,192,72635,1,0,0:0:0:0:
448,192,72635,1,0,0:0:0:0:
448,192,72862,1,0,0:0:0:0:
320,192,72862,1,0,0:0:0:0:
192,192,72862,1,0,0:0:0:0:
64,192,72862,1,0,0:0:0:0:
320,192,73089,1,0,0:0:0:0:
448,192,73089,1,0,0:0:0:0:
64,192,73316,1,0,0:0:0:0:
192,192,73316,1,0,0:0:0:0:
448,192,73316,1,0,0:0:0:0:
320,192,73316,1,0,0:0:0:0:
320,192,73543,1,0,0:0:0:0:
64,192,73543,1,0,0:0:0:0:
64,192,73770,1,0,0:0:0:0:
192,192,73770,1,0,0:0:0:0:
320,192,73770,1,0,0:0:0:0:
448,192,73770,1,0,0:0:0:0:
64,192,73996,1,0,0:0:0:0:
192,192,73996,1,0,0:0:0:0:
64,192,74223,1,0,0:0:0:0:
192,192,74223,1,0,0:0:0:0:
320,192,74223,1,0,0:0:0:0:
64,192,74450,1,0,0:0:0:0:
448,192,74450,1,0,0:0:0:0:
320,192,74450,1,0,0:0:0:0:
64,192,74676,1,0,0:0:0:0:
192,192,74676,1,0,0:0:0:0:
320,192,74676,1,0,0:0:0:0:
448,192,74903,1,0,0:0:0:0:
64,192,74903,1,0,0:0:0:0:
192,192,74903,1,0,0:0:0:0:
320,192,75130,1,0,0:0:0:0:
64,192,75130,1,0,0:0:0:0:
448,192,75130,1,0,0:0:0:0:
192,192,75168,1,0,0:0:0:0:
64,192,75206,1,0,0:0:0:0:
448,192,75243,1,0,0:0:0:0:
320,192,75281,1,0,0:0:0:0:
64,192,75319,1,0,0:0:0:0:
192,192,75356,1,0,0:0:0:0:
448,192,75356,1,0,0:0:0:0:
320,192,75394,1,0,0:0:0:0:
64,192,75432,1,0,0:0:0:0:
192,192,75470,1,0,0:0:0:0:
448,192,75508,1,0,0:0:0:0:
320,192,75546,1,0,0:0:0:0:
64,192,75584,1,0,0:0:0:0:
192,192,75584,1,0,0:0:0:0:
64,192,75810,1,0,0:0:0:0:
448,192,75810,1,0,0:0:0:0:
64,192,76037,1,0,0:0:0:0:
448,192,76037,1,0,0:0:0:0:
192,192,76037,1,0,0:0:0:0:
320,192,76037,1,0,0:0:0:0:
320,192,76264,1,0,0:0:0:0:
192,192,76264,1,0,0:0:0:0:
64,192,76490,1,0,0:0:0:0:
448,192,76490,1,0,0:0:0:0:
320,192,76490,1,0,0:0:0:0:
192,192,76490,1,0,0:0:0:0:
192,192,76717,1,0,0:0:0:0:
448,192,76717,1,0,0:0:0:0:
192,192,76944,1,0,0:0:0:0:
448,192,76944,1,0,0:0:0:0:
320,192,76944,1,0,0:0:0:0:
64,192,76944,1,0,0:0:0:0:
64,192,77170,1,0,0:0:0:0:
320,192,77170,1,0,0:0:0:0:
192,192,77397,1,0,0:0:0:0:
448,192,77397,1,0,0:0:0:0:
64,192,77397,1,0,0:0:0:0:
320,192,77397,1,0,0:0:0:0:
192,192,77624,1,0,0:0:0:0:
320,192,77624,1,0,0:0:0:0:
192,192,77850,1,0,0:0:0:0:
448,192,77850,1,0,0:0:0:0:
320,192,77850,1,0,0:0:0:0:
64,192,78078,1,0,0:0:0:0:
320,192,78078,1,0,0:0:0:0:
448,192,78078,1,0,0:0:0:0:
64,192,78305,1,0,0:0:0:0:
448,192,78305,1,0,0:0:0:0:
192,192,78305,1,0,0:0:0:0:
64,192,78531,1,0,0:0:0:0:
192,192,78531,1,0,0:0:0:0:
320,192,78531,1,0,0:0:0:0:
192,192,78758,1,0,0:0:0:0:
64,192,78758,1,0,0:0:0:0:
448,192,78758,1,0,0:0:0:0:
320,192,78796,1,0,0:0:0:0:
448,192,78833,1,0,0:0:0:0:
64,192,78871,1,0,0:0:0:0:
192,192,78910,1,0,0:0:0:0:
448,192,78947,1,0,0:0:0:0:
320,192,78985,1,0,0:0:0:0:
64,192,78985,1,0,0:0:0:0:
192,192,79023,1,0,0:0:0:0:
448,192,79060,1,0,0:0:0:0:
320,192,79098,1,0,0:0:0:0:
64,192,79136,1,0,0:0:0:0:
192,192,79173,1,0,0:0:0:0:
448,192,79211,1,0,0:0:0:0:
320,192,79211,1,0,0:0:0:0:
448,192,79438,1,0,0:0:0:0:
64,192,79438,1,0,0:0:0:0:
64,192,79665,1,0,0:0:0:0:
192,192,79665,1,0,0:0:0:0:
448,192,79665,1,0,0:0:0:0:
320,192,79665,1,0,0:0:0:0:
64,192,79891,1,0,0:0:0:0:
192,192,79891,1,0,0:0:0:0:
448,192,80118,1,0,0:0:0:0:
320,192,80118,1,0,0:0:0:0:
192,192,80118,1,0,0:0:0:0:
64,192,80118,1,0,0:0:0:0:
64,192,80346,1,0,0:0:0:0:
320,192,80346,1,0,0:0:0:0:
64,192,80572,1,0,0:0:0:0:
192,192,80572,1,0,0:0:0:0:
448,192,80572,1,0,0:0:0:0:
320,192,80572,1,0,0:0:0:0:
448,192,80799,1,0,0:0:0:0:
192,192,80799,1,0,0:0:0:0:
64,192,81026,1,0,0:0:0:0:
192,192,81026,1,0,0:0:0:0:
320,192,81026,1,0,0:0:0:0:
448,192,81026,1,0,0:0:0:0:
192,192,81139,1,0,0:0:0:0:
448,192,81252,1,0,0:0:0:0:
320,192,81252,1,0,0:0:0:0:
320,192,81366,1,0,0:0:0:0:
64,192,81479,1,0,0:0:0:0:
448,192,81479,1,0,0:0:0:0:
192,192,81479,1,0,0:0:0:0:
192,192,81592,1,0,0:0:0:0:
320,192,81706,1,0,0:0:0:0:
448,192,81706,1,0,0:0:0:0:
64,192,81706,1,0,0:0:0:0:
448,192,81819,1,0,0:0:0:0:
320,192,81932,1,0,0:0:0:0:
192,192,81932,1,0,0:0:0:0:
64,192,81932,1,0,0:0:0:0:
320,192,82046,1,0,0:0:0:0:
192,192,82159,1,0,0:0:0:0:
64,192,82159,1,0,0:0:0:0:
448,192,82159,1,0,0:0:0:0:
192,192,82272,1,0,0:0:0:0:
448,192,82386,1,0,0:0:0:0:
64,192,82386,1,0,0:0:0:0:
320,192,82386,1,0,0:0:0:0:
64,192,82499,1,0,0:0:0:0:
448,192,82612,1,0,0:0:0:0:
320,192,82612,1,0,0:0:0:0:
192,192,82612,1,0,0:0:0:0:
448,192,82727,1,0,0:0:0:0:
320,192,82840,1,0,0:0:0:0:
192,192,82840,1,0,0:0:0:0:
64,192,82840,1,0,0:0:0:0:
192,192,82953,1,0,0:0:0:0:
448,192,83067,1,0,0:0:0:0:
64,192,83067,1,0,0:0:0:0:
192,192,83293,1,0,0:0:0:0:
320,192,83293,1,0,0:0:0:0:
64,192,83293,1,0,0:0:0:0:
448,192,83293,1,0,0:0:0:0:
192,192,83520,1,0,0:0:0:0:
64,192,83520,1,0,0:0:0:0:
320,192,83747,1,0,0:0:0:0:
192,192,83747,1,0,0:0:0:0:
64,192,83747,1,0,0:0:0:0:
448,192,83747,1,0,0:0:0:0:
320,192,83860,1,0,0:0:0:0:
448,192,83973,1,0,0:0:0:0:
192,192,83973,1,0,0:0:0:0:
192,192,84087,1,0,0:0:0:0:
320,192,84200,1,0,0:0:0:0:
64,192,84200,1,0,0:0:0:0:
192,192,84200,1,0,0:0:0:0:
448,192,84200,1,0,0:0:0:0:
448,192,84313,1,0,0:0:0:0:
320,192,84427,1,0,0:0:0:0:
64,192,84427,1,0,0:0:0:0:
320,192,84540,1,0,0:0:0:0:
64,192,84653,1,0,0:0:0:0:
320,192,84653,1,0,0:0:0:0:
192,192,84653,1,0,0:0:0:0:
448,192,84653,1,0,0:0:0:0:
192,192,84767,1,0,0:0:0:0:
320,192,84880,1,0,0:0:0:0:
448,192,84880,1,0,0:0:0:0:
320,192,85108,1,0,0:0:0:0:
448,192,85108,1,0,0:0:0:0:
192,192,85108,1,0,0:0:0:0:
192,192,85221,1,0,0:0:0:0:
448,192,85334,1,0,0:0:0:0:
320,192,85334,1,0,0:0:0:0:
64,192,85334,1,0,0:0:0:0:
192,192,85561,1,0,0:0:0:0:
448,192,85561,1,0,0:0:0:0:
64,192,85561,1,0,0:0:0:0:
448,192,85674,1,0,0:0:0:0:
320,192,85788,1,0,0:0:0:0:
192,192,85788,1,0,0:0:0:0:
64,192,85788,1,0,0:0:0:0:
192,192,85901,1,0,0:0:0:0:
64,192,86014,1,0,0:0:0:0:
320,192,86014,1,0,0:0:0:0:
448,192,86014,1,0,0:0:0:0:
64,192,86128,1,0,0:0:0:0:
448,192,86241,1,0,0:0:0:0:
320,192,86241,1,0,0:0:0:0:
192,192,86241,1,0,0:0:0:0:
448,192,86354,1,0,0:0:0:0:
192,192,86468,1,0,0:0:0:0:
64,192,86468,1,0,0:0:0:0:
320,192,86468,1,0,0:0:0:0:
320,192,86581,1,0,0:0:0:0:
64,192,86694,1,0,0:0:0:0:
448,192,86694,1,0,0:0:0:0:
448,192,86921,1,0,0:0:0:0:
320,192,86921,1,0,0:0:0:0:
64,192,86921,1,0,0:0:0:0:
192,192,86921,1,0,0:0:0:0:
448,192,87148,1,0,0:0:0:0:
320,192,87148,1,0,0:0:0:0:
192,192,87374,1,0,0:0:0:0:
64,192,87374,1,0,0:0:0:0:
448,192,87374,1,0,0:0:0:0:
320,192,87374,1,0,0:0:0:0:
192,192,87489,1,0,0:0:0:0:
320,192,87602,1,0,0:0:0:0:
64,192,87602,1,0,0:0:0:0:
320,192,87715,1,0,0:0:0:0:
448,192,87829,1,0,0:0:0:0:
320,192,87829,1,0,0:0:0:0:
64,192,87829,1,0,0:0:0:0:
192,192,87829,1,0,0:0:0:0:
64,192,87942,1,0,0:0:0:0:
192,192,88055,1,0,0:0:0:0:
448,192,88055,1,0,0:0:0:0:
192,192,88169,1,0,0:0:0:0:
320,192,88282,1,0,0:0:0:0:
448,192,88282,1,0,0:0:0:0:
64,192,88282,1,0,0:0:0:0:
192,192,88282,1,0,0:0:0:0:
320,192,88395,1,0,0:0:0:0:
192,192,88509,1,0,0:0:0:0:
64,192,88509,1,0,0:0:0:0:
64,192,88735,1,0,0:0:0:0:
192,192,88735,1,0,0:0:0:0:
320,192,88735,1,0,0:0:0:0:
448,192,88735,1,0,0:0:0:0:
192,192,88849,1,0,0:0:0:0:
64,192,88962,1,0,0:0:0:0:
448,192,88962,1,0,0:0:0:0:
320,192,88962,1,0,0:0:0:0:
448,192,89075,1,0,0:0:0:0:
64,192,89189,1,0,0:0:0:0:
192,192,89189,1,0,0:0:0:0:
320,192,89189,1,0,0:0:0:0:
320,192,89302,1,0,0:0:0:0:
448,192,89415,1,0,0:0:0:0:
64,192,89415,1,0,0:0:0:0:
192,192,89415,1,0,0:0:0:0:
64,192,89642,1,0,0:0:0:0:
448,192,89642,1,0,0:0:0:0:
192,192,89642,1,0,0:0:0:0:
320,192,89680,1,0,0:0:0:0:
192,192,89718,1,0,0:0:0:0:
448,192,89755,1,0,0:0:0:0:
320,192,89793,1,0,0:0:0:0:
64,192,89831,1,0,0:0:0:0:
448,192,89870,1,0,0:0:0:0:
192,192,89870,1,0,0:0:0:0:
320,192,89907,1,0,0:0:0:0:
64,192,89945,1,0,0:0:0:0:
192,192,89983,1,0,0:0:0:0:
448,192,90020,1,0,0:0:0:0:
320,192,90058,1,0,0:0:0:0:
192,192,90096,1,0,0:0:0:0:
64,192,90096,1,0,0:0:0:0:
64,192,90323,1,0,0:0:0:0:
448,192,90323,1,0,0:0:0:0:
64,192,90550,1,0,0:0:0:0:
448,192,90550,1,0,0:0:0:0:
192,192,90550,1,0,0:0:0:0:
320,192,90550,1,0,0:0:0:0:
320,192,90663,1,0,0:0:0:0:
192,192,90776,1,0,0:0:0:0:
64,192,90776,1,0,0:0:0:0:
192,192,90890,1,0,0:0:0:0:
64,192,91003,1,0,0:0:0:0:
448,192,91003,1,0,0:0:0:0:
320,192,91003,1,0,0:0:0:0:
192,192,91003,1,0,0:0:0:0:
320,192,91116,1,0,0:0:0:0:
192,192,91230,1,0,0:0:0:0:
448,192,91230,1,0,0:0:0:0:
192,192,91456,1,0,0:0:0:0:
448,192,91456,1,0,0:0:0:0:
64,192,91456,1,0,0:0:0:0:
320,192,91494,1,0,0:0:0:0:
192,192,91532,1,0,0:0:0:0:
448,192,91570,1,0,0:0:0:0:
320,192,91608,1,0,0:0:0:0:
192,192,91646,1,0,0:0:0:0:
64,192,91683,1,0,0:0:0:0:
448,192,91683,1,0,0:0:0:0:
192,192,91910,1,0,0:0:0:0:
448,192,91910,1,0,0:0:0:0:
64,192,91910,1,0,0:0:0:0:
320,192,91910,1,0,0:0:0:0:
448,192,92136,1,0,0:0:0:0:
320,192,92136,1,0,0:0:0:0:
192,192,92364,1,0,0:0:0:0:
448,192,92364,1,0,0:0:0:0:
320,192,92364,1,0,0:0:0:0:
192,192,92477,1,0,0:0:0:0:
64,192,92590,1,0,0:0:0:0:
320,192,92590,1,0,0:0:0:0:
448,192,92590,1,0,0:0:0:0:
320,192,92704,1,0,0:0:0:0:
64,192,92817,1,0,0:0:0:0:
448,192,92817,1,0,0:0:0:0:
192,192,92817,1,0,0:0:0:0:
448,192,92930,1,0,0:0:0:0:
64,192,93044,1,0,0:0:0:0:
192,192,93044,1,0,0:0:0:0:
320,192,93044,1,0,0:0:0:0:
320,192,93270,1,0,0:0:0:0:
64,192,93270,1,0,0:0:0:0:
448,192,93270,1,0,0:0:0:0:
192,192,93309,1,0,0:0:0:0:
320,192,93346,1,0,0:0:0:0:
64,192,93384,1,0,0:0:0:0:
192,192,93422,1,0,0:0:0:0:
448,192,93459,1,0,0:0:0:0:
320,192,93497,1,0,0:0:0:0:
64,192,93497,1,0,0:0:0:0:
192,192,93535,1,0,0:0:0:0:
448,192,93572,1,0,0:0:0:0:
320,192,93610,1,0,0:0:0:0:
64,192,93649,1,0,0:0:0:0:
192,192,93686,1,0,0:0:0:0:
448,192,93724,1,0,0:0:0:0:
320,192,93724,1,0,0:0:0:0:
448,192,93950,1,0,0:0:0:0:
64,192,93950,1,0,0:0:0:0:
64,192,94177,1,0,0:0:0:0:
192,192,94177,1,0,0:0:0:0:
448,192,94177,1,0,0:0:0:0:
320,192,94177,1,0,0:0:0:0:
448,192,94290,1,0,0:0:0:0:
192,192,94404,1,0,0:0:0:0:
320,192,94404,1,0,0:0:0:0:
192,192,94517,1,0,0:0:0:0:
448,192,94631,1,0,0:0:0:0:
320,192,94631,1,0,0:0:0:0:
192,192,94631,1,0,0:0:0:0:
64,192,94631,1,0,0:0:0:0:
320,192,94745,1,0,0:0:0:0:
64,192,94858,1,0,0:0:0:0:
448,192,94858,1,0,0:0:0:0:
64,192,95085,1,0,0:0:0:0:
192,192,95085,1,0,0:0:0:0:
448,192,95085,1,0,0:0:0:0:
320,192,95085,1,0,0:0:0:0:
192,192,95311,1,0,0:0:0:0:
320,192,95311,1,0,0:0:0:0:
64,192,95538,1,0,0:0:0:0:
192,192,95538,1,0,0:0:0:0:
320,192,95538,1,0,0:0:0:0:
448,192,95538,1,0,0:0:0:0:
448,192,95765,1,0,0:0:0:0:
320,192,95765,1,0,0:0:0:0:
448,192,95991,1,0,0:0:0:0:
320,192,95991,1,0,0:0:0:0:
192,192,95991,1,0,0:0:0:0:
64,192,95991,1,0,0:0:0:0:
192,192,96105,1,0,0:0:0:0:
64,192,96218,1,0,0:0:0:0:
320,192,96218,1,0,0:0:0:0:
448,192,96218,1,0,0:0:0:0:
320,192,96331,1,0,0:0:0:0:
64,192,96445,1,0,0:0:0:0:
192,192,96445,1,0,0:0:0:0:
448,192,96445,1,0,0:0:0:0:
448,192,96558,1,0,0:0:0:0:
192,192,96671,1,0,0:0:0:0:
64,192,96671,1,0,0:0:0:0:
320,192,96671,1,0,0:0:0:0:
448,192,96898,1,0,0:0:0:0:
320,192,96898,1,0,0:0:0:0:
64,192,96898,1,0,0:0:0:0:
192,192,97126,1,0,0:0:0:0:
64,192,97126,1,0,0:0:0:0:
448,192,97126,1,0,0:0:0:0:
320,192,97352,1,0,0:0:0:0:
192,192,97352,1,0,0:0:0:0:
448,192,97352,1,0,0:0:0:0:
64,192,97579,1,0,0:0:0:0:
320,192,97579,1,0,0:0:0:0:
64,192,97806,1,0,0:0:0:0:
192,192,97806,1,0,0:0:0:0:
320,192,97806,1,0,0:0:0:0:
448,192,97806,1,0,0:0:0:0:
320,192,97919,1,0,0:0:0:0:
64,192,98032,1,0,0:0:0:0:
192,192,98032,1,0,0:0:0:0:
64,192,98146,1,0,0:0:0:0:
448,192,98259,1,0,0:0:0:0:
320,192,98259,1,0,0:0:0:0:
192,192,98259,1,0,0:0:0:0:
64,192,98259,1,0,0:0:0:0:
320,192,98372,1,0,0:0:0:0:
320,192,98486,1,0,0:0:0:0:
448,192,98486,1,0,0:0:0:0:
448,192,98712,1,0,0:0:0:0:
192,192,98712,1,0,0:0:0:0:
320,192,98712,1,0,0:0:0:0:
64,192,98712,1,0,0:0:0:0:
64,192,98939,1,0,0:0:0:0:
320,192,98939,1,0,0:0:0:0:
448,192,99166,1,0,0:0:0:0:
320,192,99166,1,0,0:0:0:0:
64,192,99166,1,0,0:0:0:0:
192,192,99166,1,0,0:0:0:0:
192,192,99393,1,0,0:0:0:0:
448,192,99393,1,0,0:0:0:0:
64,192,99620,1,0,0:0:0:0:
192,192,99620,1,0,0:0:0:0:
320,192,99657,1,0,0:0:0:0:
448,192,99695,1,0,0:0:0:0:
64,192,99733,1,0,0:0:0:0:
192,192,99770,1,0,0:0:0:0:
320,192,99809,1,0,0:0:0:0:
448,192,99847,1,0,0:0:0:0:
192,192,99884,1,0,0:0:0:0:
64,192,99922,1,0,0:0:0:0:
320,192,99960,1,0,0:0:0:0:
192,192,99997,1,0,0:0:0:0:
448,192,100035,1,0,0:0:0:0:
320,192,100073,1,0,0:0:0:0:
64,192,100073,1,0,0:0:0:0:
192,192,100111,1,0,0:0:0:0:
320,192,100149,1,0,0:0:0:0:
448,192,100187,1,0,0:0:0:0:
64,192,100225,1,0,0:0:0:0:
192,192,100262,1,0,0:0:0:0:
320,192,100300,1,0,0:0:0:0:
448,192,100338,1,0,0:0:0:0:
192,192,100375,1,0,0:0:0:0:
320,192,100413,1,0,0:0:0:0:
448,192,100451,1,0,0:0:0:0:
320,192,100489,1,0,0:0:0:0:
192,192,100527,1,0,0:0:0:0:
64,192,100527,1,0,0:0:0:0:
448,192,100565,1,0,0:0:0:0:
320,192,100602,1,0,0:0:0:0:
192,192,100640,1,0,0:0:0:0:
64,192,100678,1,0,0:0:0:0:
320,192,100715,1,0,0:0:0:0:
192,192,100753,1,0,0:0:0:0:
64,192,100791,1,0,0:0:0:0:
448,192,100829,1,0,0:0:0:0:
320,192,100867,1,0,0:0:0:0:
64,192,100905,1,0,0:0:0:0:
192,192,100943,1,0,0:0:0:0:
448,192,100980,1,0,0:0:0:0:
320,192,100980,1,0,0:0:0:0:
192,192,101018,1,0,0:0:0:0:
64,192,101056,1,0,0:0:0:0:
448,192,101093,1,0,0:0:0:0:
320,192,101131,1,0,0:0:0:0:
64,192,101170,1,0,0:0:0:0:
192,192,101207,1,0,0:0:0:0:
320,192,101245,1,0,0:0:0:0:
64,192,101283,1,0,0:0:0:0:
448,192,101320,1,0,0:0:0:0:
320,192,101358,1,0,0:0:0:0:
192,192,101396,1,0,0:0:0:0:
448,192,101433,1,0,0:0:0:0:
64,192,101433,1,0,0:0:0:0:
192,192,101471,1,0,0:0:0:0:
320,192,101510,1,0,0:0:0:0:
448,192,101547,1,0,0:0:0:0:
64,192,101585,1,0,0:0:0:0:
192,192,101623,1,0,0:0:0:0:
320,192,101660,1,0,0:0:0:0:
448,192,101698,1,0,0:0:0:0:
192,192,101736,1,0,0:0:0:0:
320,192,101774,1,0,0:0:0:0:
448,192,101811,1,0,0:0:0:0:
192,192,101850,1,0,0:0:0:0:
320,192,101888,1,0,0:0:0:0:
64,192,101925,1,0,0:0:0:0:
448,192,101963,1,0,0:0:0:0:
320,192,102001,1,0,0:0:0:0:
64,192,102038,1,0,0:0:0:0:
192,192,102076,1,0,0:0:0:0:
320,192,102114,1,0,0:0:0:0:
448,192,102151,1,0,0:0:0:0:
192,192,102190,1,0,0:0:0:0:
320,192,102228,1,0,0:0:0:0:
64,192,102265,1,0,0:0:0:0:
192,192,102303,1,0,0:0:0:0:
448,192,102341,1,0,0:0:0:0:
320,192,102341,1,0,0:0:0:0:
64,192,102378,1,0,0:0:0:0:
192,192,102416,1,0,0:0:0:0:
448,192,102454,1,0,0:0:0:0:
320,192,102492,1,0,0:0:0:0:
192,192,102530,1,0,0:0:0:0:
64,192,102568,1,0,0:0:0:0:
448,192,102606,1,0,0:0:0:0:
320,192,102643,1,0,0:0:0:0:
192,192,102681,1,0,0:0:0:0:
448,192,102719,1,0,0:0:0:0:
64,192,102756,1,0,0:0:0:0:
320,192,102794,1,0,0:0:0:0:
448,192,102794,1,0,0:0:0:0:
192,192,102832,1,0,0:0:0:0:
64,192,102870,1,0,0:0:0:0:
320,192,102908,1,0,0:0:0:0:
448,192,102946,1,0,0:0:0:0:
192,192,102983,1,0,0:0:0:0:
64,192,103021,1,0,0:0:0:0:
448,192,103059,1,0,0:0:0:0:
320,192,103096,1,0,0:0:0:0:
192,192,103134,1,0,0:0:0:0:
64,192,103172,1,0,0:0:0:0:
448,192,103210,1,0,0:0:0:0:
192,192,103248,1,0,0:0:0:0:
320,192,103248,1,0,0:0:0:0:
64,192,103286,1,0,0:0:0:0:
448,192,103324,1,0,0:0:0:0:
320,192,103361,1,0,0:0:0:0:
192,192,103399,1,0,0:0:0:0:
64,192,103437,1,0,0:0:0:0:
448,192,103474,1,0,0:0:0:0:
192,192,103512,1,0,0:0:0:0:
320,192,103550,1,0,0:0:0:0:
64,192,103588,1,0,0:0:0:0:
448,192,103626,1,0,0:0:0:0:
192,192,103664,1,0,0:0:0:0:
320,192,103701,1,0,0:0:0:0:
448,192,103701,1,0,0:0:0:0:
64,192,103739,1,0,0:0:0:0:
192,192,103777,1,0,0:0:0:0:
448,192,103814,1,0,0:0:0:0:
320,192,103852,1,0,0:0:0:0:
64,192,103890,1,0,0:0:0:0:
192,192,103928,1,0,0:0:0:0:
320,192,103966,1,0,0:0:0:0:
64,192,104004,1,0,0:0:0:0:
448,192,104041,1,0,0:0:0:0:
320,192,104079,1,0,0:0:0:0:
192,192,104117,1,0,0:0:0:0:
64,192,104155,1,0,0:0:0:0:
448,192,104155,1,0,0:0:0:0:
320,192,104192,1,0,0:0:0:0:
192,192,104230,1,0,0:0:0:0:
448,192,104269,1,0,0:0:0:0:
320,192,104306,1,0,0:0:0:0:
64,192,104344,1,0,0:0:0:0:
192,192,104382,1,0,0:0:0:0:
448,192,104419,1,0,0:0:0:0:
320,192,104457,1,0,0:0:0:0:
64,192,104495,1,0,0:0:0:0:
192,192,104532,1,0,0:0:0:0:
320,192,104570,1,0,0:0:0:0:
448,192,104609,1,0,0:0:0:0:
192,192,104609,1,0,0:0:0:0:
64,192,104646,1,0,0:0:0:0:
320,192,104684,1,0,0:0:0:0:
448,192,104722,1,0,0:0:0:0:
64,192,104759,1,0,0:0:0:0:
192,192,104797,1,0,0:0:0:0:
320,192,104835,1,0,0:0:0:0:
64,192,105062,1,0,0:0:0:0:
448,192,105062,1,0,0:0:0:0:
320,192,105100,1,0,0:0:0:0:
192,192,105137,1,0,0:0:0:0:
64,192,105175,1,0,0:0:0:0:
320,192,105213,1,0,0:0:0:0:
448,192,105250,1,0,0:0:0:0:
192,192,105289,1,0,0:0:0:0:
64,192,105327,1,0,0:0:0:0:
448,192,105364,1,0,0:0:0:0:
320,192,105402,1,0,0:0:0:0:
192,192,105440,1,0,0:0:0:0:
448,192,105477,1,0,0:0:0:0:
320,192,105515,1,0,0:0:0:0:
64,192,105515,1,0,0:0:0:0:
192,192,105553,1,0,0:0:0:0:
448,192,105590,1,0,0:0:0:0:
320,192,105629,1,0,0:0:0:0:
64,192,105667,1,0,0:0:0:0:
192,192,105705,1,0,0:0:0:0:
320,192,105742,1,0,0:0:0:0:
448,192,105780,1,0,0:0:0:0:
64,192,105818,1,0,0:0:0:0:
320,192,105855,1,0,0:0:0:0:
192,192,105893,1,0,0:0:0:0:
448,192,105931,1,0,0:0:0:0:
320,192,105969,1,0,0:0:0:0:
64,192,105969,1,0,0:0:0:0:
192,192,106007,1,0,0:0:0:0:
320,192,106045,1,0,0:0:0:0:
448,192,106082,1,0,0:0:0:0:
64,192,106120,1,0,0:0:0:0:
192,192,106158,1,0,0:0:0:0:
320,192,106195,1,0,0:0:0:0:
64,192,106233,1,0,0:0:0:0:
448,192,106271,1,0,0:0:0:0:
192,192,106309,1,0,0:0:0:0:
320,192,106347,1,0,0:0:0:0:
448,192,106385,1,0,0:0:0:0:
192,192,106422,1,0,0:0:0:0:
64,192,106422,1,0,0:0:0:0:
320,192,106460,1,0,0:0:0:0:
448,192,106498,1,0,0:0:0:0:
192,192,106536,1,0,0:0:0:0:
64,192,106573,1,0,0:0:0:0:
320,192,106611,1,0,0:0:0:0:
448,192,106650,1,0,0:0:0:0:
64,192,106876,1,0,0:0:0:0:
448,192,106876,1,0,0:0:0:0:
320,192,106876,1,0,0:0:0:0:
192,192,106913,1,0,0:0:0:0:
64,192,106951,1,0,0:0:0:0:
448,192,106990,1,0,0:0:0:0:
320,192,107027,1,0,0:0:0:0:
192,192,107065,1,0,0:0:0:0:
64,192,107103,1,0,0:0:0:0:
320,192,107140,1,0,0:0:0:0:
448,192,107178,1,0,0:0:0:0:
192,192,107216,1,0,0:0:0:0:
320,192,107254,1,0,0:0:0:0:
64,192,107291,1,0,0:0:0:0:
192,192,107330,1,0,0:0:0:0:
448,192,107330,1,0,0:0:0:0:
320,192,107368,1,0,0:0:0:0:
192,192,107405,1,0,0:0:0:0:
64,192,107443,1,0,0:0:0:0:
448,192,107481,1,0,0:0:0:0:
320,192,107518,1,0,0:0:0:0:
192,192,107556,1,0,0:0:0:0:
64,192,107594,1,0,0:0:0:0:
320,192,107631,1,0,0:0:0:0:
192,192,107670,1,0,0:0:0:0:
64,192,107708,1,0,0:0:0:0:
192,192,107745,1,0,0:0:0:0:
320,192,107783,1,0,0:0:0:0:
448,192,107783,1,0,0:0:0:0:
64,192,107821,1,0,0:0:0:0:
192,192,107858,1,0,0:0:0:0:
320,192,107896,1,0,0:0:0:0:
448,192,107934,1,0,0:0:0:0:
192,192,107971,1,0,0:0:0:0:
320,192,108010,1,0,0:0:0:0:
448,192,108048,1,0,0:0:0:0:
64,192,108086,1,0,0:0:0:0:
192,192,108123,1,0,0:0:0:0:
448,192,108161,1,0,0:0:0:0:
320,192,108199,1,0,0:0:0:0:
64,192,108236,1,0,0:0:0:0:
192,192,108236,1,0,0:0:0:0:
320,192,108274,1,0,0:0:0:0:
448,192,108312,1,0,0:0:0:0:
64,192,108350,1,0,0:0:0:0:
192,192,108388,1,0,0:0:0:0:
448,192,108426,1,0,0:0:0:0:
320,192,108463,1,0,0:0:0:0:
192,192,108501,1,0,0:0:0:0:
448,192,108539,1,0,0:0:0:0:
64,192,108576,1,0,0:0:0:0:
192,192,108614,1,0,0:0:0:0:
320,192,108652,1,0,0:0:0:0:
64,192,108690,1,0,0:0:0:0:
448,192,108690,1,0,0:0:0:0:
320,192,108728,1,0,0:0:0:0:
192,192,108766,1,0,0:0:0:0:
64,192,108803,1,0,0:0:0:0:
448,192,108841,1,0,0:0:0:0:
320,192,108879,1,0,0:0:0:0:
192,192,108917,1,0,0:0:0:0:
64,192,108954,1,0,0:0:0:0:
320,192,108992,1,0,0:0:0:0:
192,192,109030,1,0,0:0:0:0:
64,192,109068,1,0,0:0:0:0:
320,192,109106,1,0,0:0:0:0:
192,192,109144,1,0,0:0:0:0:
448,192,109181,1,0,0:0:0:0:
64,192,109219,1,0,0:0:0:0:
192,192,109257,1,0,0:0:0:0:
448,192,109294,1,0,0:0:0:0:
320,192,109332,1,0,0:0:0:0:
192,192,109370,1,0,0:0:0:0:
64,192,109408,1,0,0:0:0:0:
320,192,109446,1,0,0:0:0:0:
192,192,109484,1,0,0:0:0:0:
448,192,109521,1,0,0:0:0:0:
320,192,109559,1,0,0:0:0:0:
64,192,109597,1,0,0:0:0:0:
192,192,109597,1,0,0:0:0:0:
448,192,109635,1,0,0:0:0:0:
320,192,109672,1,0,0:0:0:0:
64,192,109710,1,0,0:0:0:0:
192,192,109749,1,0,0:0:0:0:
320,192,109786,1,0,0:0:0:0:
448,192,109824,1,0,0:0:0:0:
64,192,109862,1,0,0:0:0:0:
192,192,109899,1,0,0:0:0:0:
320,192,109937,1,0,0:0:0:0:
64,192,109975,1,0,0:0:0:0:
448,192,110012,1,0,0:0:0:0:
192,192,110050,1,0,0:0:0:0:
64,192,110050,1,0,0:0:0:0:
320,192,110089,1,0,0:0:0:0:
448,192,110126,1,0,0:0:0:0:
192,192,110164,1,0,0:0:0:0:
64,192,110202,1,0,0:0:0:0:
320,192,110239,1,0,0:0:0:0:
448,192,110277,1,0,0:0:0:0:
64,192,110315,1,0,0:0:0:0:
192,192,110352,1,0,0:0:0:0:
320,192,110390,1,0,0:0:0:0:
448,192,110429,1,0,0:0:0:0:
64,192,110467,1,0,0:0:0:0:
320,192,110504,1,0,0:0:0:0:
192,192,110504,1,0,0:0:0:0:
448,192,110542,1,0,0:0:0:0:
64,192,110580,1,0,0:0:0:0:
192,192,110617,1,0,0:0:0:0:
320,192,110655,1,0,0:0:0:0:
448,192,110693,1,0,0:0:0:0:
64,192,110730,1,0,0:0:0:0:
320,192,110769,1,0,0:0:0:0:
192,192,110807,1,0,0:0:0:0:
448,192,110844,1,0,0:0:0:0:
64,192,110882,1,0,0:0:0:0:
320,192,110920,1,0,0:0:0:0:
192,192,110957,1,0,0:0:0:0:
64,192,110957,1,0,0:0:0:0:
448,192,110995,1,0,0:0:0:0:
320,192,111033,1,0,0:0:0:0:
64,192,111070,1,0,0:0:0:0:
192,192,111109,1,0,0:0:0:0:
448,192,111147,1,0,0:0:0:0:
320,192,111184,1,0,0:0:0:0:
192,192,111222,1,0,0:0:0:0:
448,192,111260,1,0,0:0:0:0:
64,192,111298,1,0,0:0:0:0:
192,192,111335,1,0,0:0:0:0:
320,192,111373,1,0,0:0:0:0:
448,192,111411,1,0,0:0:0:0:
64,192,111411,1,0,0:0:0:0:
192,192,111449,1,0,0:0:0:0:
320,192,111487,1,0,0:0:0:0:
64,192,111525,1,0,0:0:0:0:
192,192,111562,1,0,0:0:0:0:
448,192,111600,1,0,0:0:0:0:
320,192,111638,1,0,0:0:0:0:
64,192,111675,1,0,0:0:0:0:
192,192,111713,1,0,0:0:0:0:
448,192,111751,1,0,0:0:0:0:
320,192,111789,1,0,0:0:0:0:
192,192,111827,1,0,0:0:0:0:
64,192,111865,1,0,0:0:0:0:
320,192,111865,1,0,0:0:0:0:
448,192,111902,1,0,0:0:0:0:
192,192,111940,1,0,0:0:0:0:
64,192,111978,1,0,0:0:0:0:
448,192,112016,1,0,0:0:0:0:
320,192,112053,1,0,0:0:0:0:
192,192,112091,1,0,0:0:0:0:
448,192,112318,1,0,0:0:0:0:
64,192,112318,1,0,0:0:0:0:
192,192,112356,1,0,0:0:0:0:
320,192,112393,1,0,0:0:0:0:
448,192,112431,1,0,0:0:0:0:
192,192,112470,1,0,0:0:0:0:
64,192,112507,1,0,0:0:0:0:
320,192,112545,1,0,0:0:0:0:
448,192,112583,1,0,0:0:0:0:
64,192,112620,1,0,0:0:0:0:
192,192,112658,1,0,0:0:0:0:
320,192,112696,1,0,0:0:0:0:
64,192,112733,1,0,0:0:0:0:
192,192,112771,1,0,0:0:0:0:
448,192,112771,1,0,0:0:0:0:
320,192,112810,1,0,0:0:0:0:
64,192,112848,1,0,0:0:0:0:
192,192,112885,1,0,0:0:0:0:
448,192,112923,1,0,0:0:0:0:
320,192,112961,1,0,0:0:0:0:
192,192,112998,1,0,0:0:0:0:
64,192,113036,1,0,0:0:0:0:
448,192,113074,1,0,0:0:0:0:
192,192,113111,1,0,0:0:0:0:
320,192,113150,1,0,0:0:0:0:
64,192,113188,1,0,0:0:0:0:
192,192,113225,1,0,0:0:0:0:
448,192,113225,1,0,0:0:0:0:
320,192,113263,1,0,0:0:0:0:
192,192,113301,1,0,0:0:0:0:
64,192,113338,1,0,0:0:0:0:
448,192,113376,1,0,0:0:0:0:
320,192,113414,1,0,0:0:0:0:
192,192,113451,1,0,0:0:0:0:
448,192,113490,1,0,0:0:0:0:
64,192,113528,1,0,0:0:0:0:
320,192,113565,1,0,0:0:0:0:
192,192,113603,1,0,0:0:0:0:
64,192,113641,1,0,0:0:0:0:
320,192,113679,1,0,0:0:0:0:
448,192,113679,1,0,0:0:0:0:
192,192,113716,1,0,0:0:0:0:
64,192,113754,1,0,0:0:0:0:
320,192,113792,1,0,0:0:0:0:
448,192,113830,1,0,0:0:0:0:
192,192,113868,1,0,0:0:0:0:
64,192,113906,1,0,0:0:0:0:
64,192,114132,1,0,0:0:0:0:
192,192,114132,1,0,0:0:0:0:
320,192,114170,1,0,0:0:0:0:
448,192,114208,1,0,0:0:0:0:
192,192,114246,1,0,0:0:0:0:
320,192,114283,1,0,0:0:0:0:
448,192,114321,1,0,0:0:0:0:
64,192,114359,1,0,0:0:0:0:
320,192,114359,1,0,0:0:0:0:
192,192,114397,1,0,0:0:0:0:
448,192,114434,1,0,0:0:0:0:
64,192,114472,1,0,0:0:0:0:
192,192,114510,1,0,0:0:0:0:
320,192,114548,1,0,0:0:0:0:
448,192,114586,1,0,0:0:0:0:
64,192,114586,1,0,0:0:0:0:
192,192,114624,1,0,0:0:0:0:
320,192,114661,1,0,0:0:0:0:
64,192,114699,1,0,0:0:0:0:
448,192,114737,1,0,0:0:0:0:
192,192,114774,1,0,0:0:0:0:
320,192,114812,1,0,0:0:0:0:
448,192,114812,1,0,0:0:0:0:
64,192,114850,1,0,0:0:0:0:
192,192,114888,1,0,0:0:0:0:
448,192,114926,1,0,0:0:0:0:
320,192,114964,1,0,0:0:0:0:
192,192,115001,1,0,0:0:0:0:
64,192,115039,1,0,0:0:0:0:
448,192,115039,1,0,0:0:0:0:
320,192,115077,1,0,0:0:0:0:
192,192,115114,1,0,0:0:0:0:
448,192,115152,1,0,0:0:0:0:
64,192,115190,1,0,0:0:0:0:
192,192,115229,1,0,0:0:0:0:
448,192,115266,1,0,0:0:0:0:
320,192,115266,1,0,0:0:0:0:
64,192,115304,1,0,0:0:0:0:
192,192,115342,1,0,0:0:0:0:
448,192,115379,1,0,0:0:0:0:
320,192,115417,1,0,0:0:0:0:
64,192,115455,1,0,0:0:0:0:
192,192,115492,1,0,0:0:0:0:
448,192,115492,1,0,0:0:0:0:
320,192,115530,1,0,0:0:0:0:
448,192,115569,1,0,0:0:0:0:
192,192,115606,1,0,0:0:0:0:
64,192,115644,1,0,0:0:0:0:
320,192,115682,1,0,0:0:0:0:
448,192,115719,1,0,0:0:0:0:
192,192,115719,1,0,0:0:0:0:
64,192,115757,1,0,0:0:0:0:
320,192,115795,1,0,0:0:0:0:
192,192,115832,1,0,0:0:0:0:
64,192,115870,1,0,0:0:0:0:
448,192,115909,1,0,0:0:0:0:
320,192,115946,1,0,0:0:0:0:
192,192,115946,1,0,0:0:0:0:
64,192,115984,1,0,0:0:0:0:
448,192,116022,1,0,0:0:0:0:
192,192,116060,1,0,0:0:0:0:
320,192,116097,1,0,0:0:0:0:
448,192,116135,1,0,0:0:0:0:
64,192,116173,1,0,0:0:0:0:
192,192,116173,1,0,0:0:0:0:
320,192,116210,1,0,0:0:0:0:
448,192,116249,1,0,0:0:0:0:
64,192,116287,1,0,0:0:0:0:
192,192,116324,1,0,0:0:0:0:
320,192,116362,1,0,0:0:0:0:
64,192,116400,1,0,0:0:0:0:
448,192,116400,1,0,0:0:0:0:
192,192,116437,1,0,0:0:0:0:
320,192,116475,1,0,0:0:0:0:
64,192,116513,1,0,0:0:0:0:
448,192,116550,1,0,0:0:0:0:
320,192,116589,1,0,0:0:0:0:
192,192,116627,1,0,0:0:0:0:
64,192,116627,1,0,0:0:0:0:
448,192,116664,1,0,0:0:0:0:
320,192,116702,1,0,0:0:0:0:
192,192,116740,1,0,0:0:0:0:
64,192,116778,1,0,0:0:0:0:
448,192,116815,1,0,0:0:0:0:
320,192,116853,1,0,0:0:0:0:
192,192,116853,1,0,0:0:0:0:
64,192,116891,1,0,0:0:0:0:
320,192,116929,1,0,0:0:0:0:
448,192,116967,1,0,0:0:0:0:
192,192,117005,1,0,0:0:0:0:
320,192,117042,1,0,0:0:0:0:
64,192,117080,1,0,0:0:0:0:
448,192,117080,1,0,0:0:0:0:
192,192,117118,1,0,0:0:0:0:
320,192,117155,1,0,0:0:0:0:
448,192,117193,1,0,0:0:0:0:
64,192,117231,1,0,0:0:0:0:
192,192,117269,1,0,0:0:0:0:
448,192,117307,1,0,0:0:0:0:
320,192,117307,1,0,0:0:0:0:
192,192,117345,1,0,0:0:0:0:
64,192,117382,1,0,0:0:0:0:
448,192,117420,1,0,0:0:0:0:
320,192,117458,1,0,0:0:0:0:
192,192,117495,1,0,0:0:0:0:
64,192,117533,1,0,0:0:0:0:
448,192,117533,1,0,0:0:0:0:
320,192,117571,1,0,0:0:0:0:
192,192,117610,1,0,0:0:0:0:
448,192,117647,1,0,0:0:0:0:
320,192,117685,1,0,0:0:0:0:
448,192,117723,1,0,0:0:0:0:
64,192,117760,1,0,0:0:0:0:
192,192,117760,1,0,0:0:0:0:
320,192,117798,1,0,0:0:0:0:
448,192,117836,1,0,0:0:0:0:
64,192,117873,1,0,0:0:0:0:
192,192,117911,1,0,0:0:0:0:
320,192,117950,1,0,0:0:0:0:
448,192,117987,1,0,0:0:0:0:
64,192,117987,1,0,0:0:0:0:
192,192,118025,1,0,0:0:0:0:
320,192,118063,1,0,0:0:0:0:
64,192,118100,1,0,0:0:0:0:
192,192,118138,1,0,0:0:0:0:
448,192,118176,1,0,0:0:0:0:
320,192,118213,1,0,0:0:0:0:
64,192,118213,1,0,0:0:0:0:
192,192,118251,1,0,0:0:0:0:
448,192,118290,1,0,0:0:0:0:
320,192,118327,1,0,0:0:0:0:
64,192,118365,1,0,0:0:0:0:
192,192,118403,1,0,0:0:0:0:
448,192,118441,1,0,0:0:0:0:
320,192,118441,1,0,0:0:0:0:
64,192,118478,1,0,0:0:0:0:
192,192,118516,1,0,0:0:0:0:
448,192,118554,1,0,0:0:0:0:
320,192,118591,1,0,0:0:0:0:
192,192,118630,1,0,0:0:0:0:
64,192,118668,1,0,0:0:0:0:
448,192,118668,1,0,0:0:0:0:
320,192,118705,1,0,0:0:0:0:
192,192,118743,1,0,0:0:0:0:
320,192,118781,1,0,0:0:0:0:
448,192,118818,1,0,0:0:0:0:
64,192,118856,1,0,0:0:0:0:
192,192,118894,1,0,0:0:0:0:
320,192,118894,1,0,0:0:0:0:
448,192,118931,1,0,0:0:0:0:
64,192,118970,1,0,0:0:0:0:
320,192,119008,1,0,0:0:0:0:
192,192,119045,1,0,0:0:0:0:
448,192,119083,1,0,0:0:0:0:
320,192,119121,1,0,0:0:0:0:
64,192,119121,1,0,0:0:0:0:
192,192,119159,1,0,0:0:0:0:
320,192,119196,1,0,0:0:0:0:
448,192,119234,1,0,0:0:0:0:
64,192,119272,1,0,0:0:0:0:
192,192,119310,1,0,0:0:0:0:
320,192,119348,1,0,0:0:0:0:
64,192,119386,1,0,0:0:0:0:
192,192,119423,1,0,0:0:0:0:
448,192,119461,1,0,0:0:0:0:
320,192,119499,1,0,0:0:0:0:
64,192,119536,1,0,0:0:0:0:
192,192,119574,1,0,0:0:0:0:
320,192,119612,1,0,0:0:0:0:
448,192,119650,1,0,0:0:0:0:
192,192,119688,1,0,0:0:0:0:
320,192,119726,1,0,0:0:0:0:
64,192,119763,1,0,0:0:0:0:
192,192,119801,1,0,0:0:0:0:
448,192,119801,1,0,0:0:0:0:
320,192,119839,1,0,0:0:0:0:
64,192,119876,1,0,0:0:0:0:
192,192,119914,1,0,0:0:0:0:
320,192,119952,1,0,0:0:0:0:
448,192,119990,1,0,0:0:0:0:
192,192,120028,1,0,0:0:0:0:
64,192,120028,1,0,0:0:0:0:
320,192,120066,1,0,0:0:0:0:
448,192,120104,1,0,0:0:0:0:
192,192,120141,1,0,0:0:0:0:
64,192,120179,1,0,0:0:0:0:
448,192,120217,1,0,0:0:0:0:
320,192,120254,1,0,0:0:0:0:
192,192,120254,1,0,0:0:0:0:
64,192,120292,1,0,0:0:0:0:
448,192,120330,1,0,0:0:0:0:
192,192,120368,1,0,0:0:0:0:
320,192,120406,1,0,0:0:0:0:
64,192,120444,1,0,0:0:0:0:
448,192,120481,1,0,0:0:0:0:
192,192,120481,1,0,0:0:0:0:
320,192,120519,1,0,0:0:0:0:
448,192,120557,1,0,0:0:0:0:
64,192,120594,1,0,0:0:0:0:
192,192,120632,1,0,0:0:0:0:
320,192,120670,1,0,0:0:0:0:
448,192,120708,1,0,0:0:0:0:
64,192,120708,1,0,0:0:0:0:
192,192,120746,1,0,0:0:0:0:
320,192,120784,1,0,0:0:0:0:
448,192,120822,1,0,0:0:0:0:
64,192,120859,1,0,0:0:0:0:
320,192,120897,1,0,0:0:0:0:
448,192,120935,1,0,0:0:0:0:
192,192,120935,1,0,0:0:0:0:
64,192,120972,1,0,0:0:0:0:
320,192,121010,1,0,0:0:0:0:
192,192,121049,1,0,0:0:0:0:
64,192,121086,1,0,0:0:0:0:
448,192,121124,1,0,0:0:0:0:
320,192,121162,1,0,0:0:0:0:
192,192,121162,1,0,0:0:0:0:
64,192,121199,1,0,0:0:0:0:
448,192,121237,1,0,0:0:0:0:
320,192,121275,1,0,0:0:0:0:
192,192,121312,1,0,0:0:0:0:
448,192,121350,1,0,0:0:0:0:
64,192,121389,1,0,0:0:0:0:
320,192,121426,1,0,0:0:0:0:
448,192,121464,1,0,0:0:0:0:
64,192,121502,1,0,0:0:0:0:
192,192,121540,1,0,0:0:0:0:
320,192,121577,1,0,0:0:0:0:
64,192,121615,1,0,0:0:0:0:
448,192,121615,1,0,0:0:0:0:
192,192,121653,1,0,0:0:0:0:
320,192,121690,1,0,0:0:0:0:
64,192,121729,1,0,0:0:0:0:
192,192,121767,1,0,0:0:0:0:
320,192,121804,1,0,0:0:0:0:
448,192,121842,1,0,0:0:0:0:
64,192,121842,1,0,0:0:0:0:
192,192,121880,1,0,0:0:0:0:
320,192,121917,1,0,0:0:0:0:
64,192,121955,1,0,0:0:0:0:
448,192,121993,1,0,0:0:0:0:
192,192,122030,1,0,0:0:0:0:
320,192,122069,1,0,0:0:0:0:
448,192,122069,1,0,0:0:0:0:
64,192,122107,1,0,0:0:0:0:
192,192,122144,1,0,0:0:0:0:
448,192,122182,1,0,0:0:0:0:
320,192,122220,1,0,0:0:0:0:
192,192,122257,1,0,0:0:0:0:
64,192,122295,1,0,0:0:0:0:
448,192,122295,1,0,0:0:0:0:
320,192,122333,1,0,0:0:0:0:
192,192,122371,1,0,0:0:0:0:
320,192,122409,1,0,0:0:0:0:
64,192,122447,1,0,0:0:0:0:
192,192,122485,1,0,0:0:0:0:
448,192,122522,1,0,0:0:0:0:
320,192,122522,1,0,0:0:0:0:
64,192,122560,1,0,0:0:0:0:
192,192,122598,1,0,0:0:0:0:
448,192,122635,1,0,0:0:0:0:
320,192,122673,1,0,0:0:0:0:
64,192,122711,1,0,0:0:0:0:
192,192,122749,1,0,0:0:0:0:
448,192,122749,1,0,0:0:0:0:
320,192,122787,1,0,0:0:0:0:
64,192,122825,1,0,0:0:0:0:
448,192,122862,1,0,0:0:0:0:
192,192,122900,1,0,0:0:0:0:
64,192,122938,1,0,0:0:0:0:
320,192,122975,1,0,0:0:0:0:
192,192,122975,1,0,0:0:0:0:
448,192,123013,1,0,0:0:0:0:
320,192,123051,1,0,0:0:0:0:
192,192,123089,1,0,0:0:0:0:
64,192,123127,1,0,0:0:0:0:
448,192,123165,1,0,0:0:0:0:
320,192,123203,1,0,0:0:0:0:
192,192,123203,1,0,0:0:0:0:
64,192,123240,1,0,0:0:0:0:
448,192,123278,1,0,0:0:0:0:
192,192,123316,1,0,0:0:0:0:
320,192,123353,1,0,0:0:0:0:
448,192,123391,1,0,0:0:0:0:
64,192,123430,1,0,0:0:0:0:
192,192,123430,1,0,0:0:0:0:
320,192,123467,1,0,0:0:0:0:
448,192,123505,1,0,0:0:0:0:
64,192,123543,1,0,0:0:0:0:
192,192,123580,1,0,0:0:0:0:
320,192,123618,1,0,0:0:0:0:
64,192,123656,1,0,0:0:0:0:
448,192,123656,1,0,0:0:0:0:
192,192,123693,1,0,0:0:0:0:
320,192,123731,1,0,0:0:0:0:
64,192,123770,1,0,0:0:0:0:
448,192,123807,1,0,0:0:0:0:
320,192,123845,1,0,0:0:0:0:
192,192,123883,1,0,0:0:0:0:
64,192,123883,1,0,0:0:0:0:
448,192,123921,1,0,0:0:0:0:
320,192,123958,1,0,0:0:0:0:
192,192,123996,1,0,0:0:0:0:
64,192,124034,1,0,0:0:0:0:
448,192,124071,1,0,0:0:0:0:
320,192,124110,1,0,0:0:0:0:
192,192,124110,1,0,0:0:0:0:
64,192,124148,1,0,0:0:0:0:
320,192,124185,1,0,0:0:0:0:
448,192,124223,1,0,0:0:0:0:
192,192,124261,1,0,0:0:0:0:
320,192,124298,1,0,0:0:0:0:
64,192,124336,1,0,0:0:0:0:
448,192,124336,1,0,0:0:0:0:
192,192,124374,1,0,0:0:0:0:
320,192,124411,1,0,0:0:0:0:
448,192,124450,1,0,0:0:0:0:
64,192,124488,1,0,0:0:0:0:
192,192,124525,1,0,0:0:0:0:
448,192,124563,1,0,0:0:0:0:
320,192,124563,1,0,0:0:0:0:
192,192,124601,1,0,0:0:0:0:
64,192,124638,1,0,0:0:0:0:
448,192,124676,1,0,0:0:0:0:
320,192,124714,1,0,0:0:0:0:
192,192,124752,1,0,0:0:0:0:
64,192,124790,1,0,0:0:0:0:
448,192,124790,1,0,0:0:0:0:
320,192,124828,1,0,0:0:0:0:
192,192,124866,1,0,0:0:0:0:
448,192,124903,1,0,0:0:0:0:
320,192,124941,1,0,0:0:0:0:
192,192,124979,1,0,0:0:0:0:
64,192,125016,1,0,0:0:0:0:
320,192,125054,1,0,0:0:0:0:
448,192,125092,1,0,0:0:0:0:
64,192,125130,1,0,0:0:0:0:
192,192,125168,1,0,0:0:0:0:
320,192,125206,1,0,0:0:0:0:
448,192,125243,1,0,0:0:0:0:
64,192,125243,1,0,0:0:0:0:
192,192,125281,1,0,0:0:0:0:
320,192,125319,1,0,0:0:0:0:
64,192,125356,1,0,0:0:0:0:
192,192,125394,1,0,0:0:0:0:
448,192,125432,1,0,0:0:0:0:
320,192,125470,1,0,0:0:0:0:
64,192,125470,1,0,0:0:0:0:
192,192,125508,1,0,0:0:0:0:
448,192,125546,1,0,0:0:0:0:
320,192,125584,1,0,0:0:0:0:
64,192,125621,1,0,0:0:0:0:
192,192,125659,1,0,0:0:0:0:
448,192,125697,1,0,0:0:0:0:
320,192,125697,1,0,0:0:0:0:
64,192,125734,1,0,0:0:0:0:
192,192,125772,1,0,0:0:0:0:
448,192,125810,1,0,0:0:0:0:
320,192,125848,1,0,0:0:0:0:
192,192,125886,1,0,0:0:0:0:
64,192,125924,1,0,0:0:0:0:
448,192,125924,1,0,0:0:0:0:
320,192,125961,1,0,0:0:0:0:
192,192,125999,1,0,0:0:0:0:
320,192,126037,1,0,0:0:0:0:
448,192,126074,1,0,0:0:0:0:
64,192,126112,1,0,0:0:0:0:
192,192,126150,1,0,0:0:0:0:
320,192,126150,1,0,0:0:0:0:
448,192,126188,1,0,0:0:0:0:
64,192,126226,1,0,0:0:0:0:
320,192,126264,1,0,0:0:0:0:
192,192,126302,1,0,0:0:0:0:
448,192,126339,1,0,0:0:0:0:
320,192,126377,1,0,0:0:0:0:
64,192,126377,1,0,0:0:0:0:
192,192,126415,1,0,0:0:0:0:
320,192,126452,1,0,0:0:0:0:
448,192,126490,1,0,0:0:0:0:
64,192,126529,1,0,0:0:0:0:
192,192,126566,1,0,0:0:0:0:
320,192,126604,1,0,0:0:0:0:
64,192,126642,1,0,0:0:0:0:
192,192,126679,1,0,0:0:0:0:
448,192,126717,1,0,0:0:0:0:
320,192,126755,1,0,0:0:0:0:
64,192,126792,1,0,0:0:0:0:
192,192,126830,1,0,0:0:0:0:
448,192,126830,1,0,0:0:0:0:
320,192,126869,1,0,0:0:0:0:
64,192,126906,1,0,0:0:0:0:
192,192,126944,1,0,0:0:0:0:
320,192,126982,1,0,0:0:0:0:
64,192,127019,1,0,0:0:0:0:
192,192,127057,1,0,0:0:0:0:
448,192,127057,1,0,0:0:0:0:
320,192,127095,1,0,0:0:0:0:
64,192,127133,1,0,0:0:0:0:
192,192,127170,1,0,0:0:0:0:
320,192,127209,1,0,0:0:0:0:
448,192,127247,1,0,0:0:0:0:
192,192,127284,1,0,0:0:0:0:
64,192,127284,1,0,0:0:0:0:
320,192,127322,1,0,0:0:0:0:
448,192,127360,1,0,0:0:0:0:
192,192,127397,1,0,0:0:0:0:
64,192,127435,1,0,0:0:0:0:
448,192,127473,1,0,0:0:0:0:
320,192,127510,1,0,0:0:0:0:
192,192,127510,1,0,0:0:0:0:
64,192,127549,1,0,0:0:0:0:
448,192,127587,1,0,0:0:0:0:
192,192,127624,1,0,0:0:0:0:
320,192,127662,1,0,0:0:0:0:
64,192,127700,1,0,0:0:0:0:
192,192,127737,1,0,0:0:0:0:
320,192,127775,1,0,0:0:0:0:
448,192,127813,1,0,0:0:0:0:
64,192,127850,1,0,0:0:0:0:
192,192,127889,1,0,0:0:0:0:
320,192,127927,1,0,0:0:0:0:
448,192,127965,1,0,0:0:0:0:
64,192,128002,1,0,0:0:0:0:
192,192,128040,1,0,0:0:0:0:
320,192,128115,1,0,0:0:0:0:
448,192,128191,1,0,0:0:0:0:
64,192,128267,1,0,0:0:0:0:
192,192,128342,1,0,0:0:0:0:
320,192,128418,1,0,0:0:0:0:
448,192,128493,1,0,0:0:0:0:
192,192,128531,1,0,0:0:0:0:
64,192,128645,1,0,0:0:0:0:
192,192,128871,1,0,0:0:0:0:
320,192,129098,1,0,0:0:0:0:
