osu file format v14

[General]
AudioFilename: audio90.mp3
AudioLeadIn: 0
PreviewTime: 27241
Countdown: 0
SampleSet: None
StackLeniency: 0.7
Mode: 3
LetterboxInBreaks: 0
SpecialStyle: 0
WidescreenStoryboard: 1

[Editor]
Bookmarks: 1924,10390,27321,44252,61183,78114,94517,111977,116210,124676,133141,150072
DistanceSpacing: 1
BeatDivisor: 12
GridSize: 32
TimelineZoom: 1.8

[Metadata]
Title:perfect nothing
TitleUnicode:perfect nothing
Artist:GHOST
ArtistUnicode:GHOST
Creator:Hlimak
Version:noise [0,9x Rate]
Source:
Tags:dump vocaloid stream
BeatmapID:2959426
BeatmapSetID:989656

[Difficulty]
HPDrainRate:7
CircleSize:4
OverallDifficulty:7
ApproachRate:5
SliderMultiplier:1.4
SliderTickRate:1

[Events]
//Background and Video events
0,0,"bg.jpg",0,0
//Break Periods
//Storyboard Layer 0 (Background)
//Storyboard Layer 1 (Fail)
//Storyboard Layer 2 (Pass)
//Storyboard Layer 3 (Foreground)
//Storyboard Layer 4 (Overlay)
//Storyboard Sound Samples

[TimingPoints]
1924,529.100529100529,4,1,0,50,1,0

[HitObjects]
64,192,1924,5,0,0:0:0:0:
320,192,1924,1,0,0:0:0:0:
448,192,1924,1,0,0:0:0:0:
320,192,2189,1,0,0:0:0:0:
448,192,2189,1,0,0:0:0:0:
64,192,2189,1,0,0:0:0:0:
192,192,2453,1,0,0:0:0:0:
320,192,2453,1,0,0:0:0:0:
64,192,2486,1,0,0:0:0:0:
192,192,2718,1,0,0:0:0:0:
320,192,2718,1,0,0:0:0:0:
64,192,2718,1,0,0:0:0:0:
448,192,2982,1,0,0:0:0:0:
192,192,2982,1,0,0:0:0:0:
64,192,2982,1,0,0:0:0:0:
448,192,3247,1,0,0:0:0:0:
320,192,3247,1,0,0:0:0:0:
192,192,3247,1,0,0:0:0:0:
64,192,3511,1,0,0:0:0:0:
448,192,3511,1,0,0:0:0:0:
320,192,3544,1,0,0:0:0:0:
448,192,3776,1,0,0:0:0:0:
320,192,3776,1,0,0:0:0:0:
192,192,3776,1,0,0:0:0:0:
448,192,4040,1,0,0:0:0:0:
192,192,4040,1,0,0:0:0:0:
64,192,4040,1,0,0:0:0:0:
320,192,4304,1,0,0:0:0:0:
192,192,4304,1,0,0:0:0:0:
448,192,4304,1,0,0:0:0:0:
448,192,4569,1,0,0:0:0:0:
64,192,4569,1,0,0:0:0:0:
192,192,4602,1,0,0:0:0:0:
448,192,4834,1,0,0:0:0:0:
320,192,4834,1,0,0:0:0:0:
192,192,4834,1,0,0:0:0:0:
64,192,5099,1,0,0:0:0:0:
448,192,5099,1,0,0:0:0:0:
192,192,5142,1,0,0:0:0:0:
320,192,5187,1,0,0:0:0:0:
448,192,5319,1,0,0:0:0:0:
320,192,5363,1,0,0:0:0:0:
192,192,5363,1,0,0:0:0:0:
64,192,5407,1,0,0:0:0:0:
448,192,5496,1,0,0:0:0:0:
64,192,5583,1,0,0:0:0:0:
192,192,5583,1,0,0:0:0:0:
320,192,5628,1,0,0:0:0:0:
448,192,5672,1,0,0:0:0:0:
64,192,5716,1,0,0:0:0:0:
192,192,5760,1,0,0:0:0:0:
320,192,5804,1,0,0:0:0:0:
448,192,5848,1,0,0:0:0:0:
192,192,5892,1,0,0:0:0:0:
448,192,5980,1,0,0:0:0:0:
64,192,6024,1,0,0:0:0:0:
192,192,6069,1,0,0:0:0:0:
320,192,6112,1,0,0:0:0:0:
64,192,6157,1,0,0:0:0:0:
320,192,6201,1,0,0:0:0:0:
448,192,6244,1,0,0:0:0:0:
192,192,6289,1,0,0:0:0:0:
320,192,6333,1,0,0:0:0:0:
64,192,6421,1,0,0:0:0:0:
192,192,6421,1,0,0:0:0:0:
448,192,6421,1,0,0:0:0:0:
320,192,6686,1,0,0:0:0:0:
64,192,6686,1,0,0:0:0:0:
192,192,6719,1,0,0:0:0:0:
448,192,6950,1,0,0:0:0:0:
192,192,6950,1,0,0:0:0:0:
320,192,6983,1,0,0:0:0:0:
448,192,7214,1,0,0:0:0:0:
192,192,7214,1,0,0:0:0:0:
64,192,7248,1,0,0:0:0:0:
320,192,7479,1,0,0:0:0:0:
64,192,7479,1,0,0:0:0:0:
448,192,7512,1,0,0:0:0:0:
192,192,7744,1,0,0:0:0:0:
64,192,7744,1,0,0:0:0:0:
320,192,7777,1,0,0:0:0:0:
448,192,8009,1,0,0:0:0:0:
320,192,8009,1,0,0:0:0:0:
192,192,8041,1,0,0:0:0:0:
320,192,8273,1,0,0:0:0:0:
192,192,8273,1,0,0:0:0:0:
64,192,8317,1,0,0:0:0:0:
448,192,8361,1,0,0:0:0:0:
320,192,8406,1,0,0:0:0:0:
64,192,8493,1,0,0:0:0:0:
192,192,8538,1,0,0:0:0:0:
320,192,8582,1,0,0:0:0:0:
448,192,8626,1,0,0:0:0:0:
320,192,8714,1,0,0:0:0:0:
64,192,8802,1,0,0:0:0:0:
192,192,8802,1,0,0:0:0:0:
448,192,8890,1,0,0:0:0:0:
192,192,8934,1,0,0:0:0:0:
64,192,8979,1,0,0:0:0:0:
448,192,9067,1,0,0:0:0:0:
320,192,9100,1,0,0:0:0:0:
64,192,9331,1,0,0:0:0:0:
192,192,9331,1,0,0:0:0:0:
448,192,9376,1,0,0:0:0:0:
320,192,9420,1,0,0:0:0:0:
192,192,9463,1,0,0:0:0:0:
64,192,9508,1,0,0:0:0:0:
448,192,9552,1,0,0:0:0:0:
192,192,9596,1,0,0:0:0:0:
320,192,9596,1,0,0:0:0:0:
64,192,9860,1,0,0:0:0:0:
192,192,9860,1,0,0:0:0:0:
320,192,9904,1,0,0:0:0:0:
448,192,9949,1,0,0:0:0:0:
64,192,9992,1,0,0:0:0:0:
192,192,10037,1,0,0:0:0:0:
320,192,10081,1,0,0:0:0:0:
64,192,10124,1,0,0:0:0:0:
192,192,10169,1,0,0:0:0:0:
320,192,10213,1,0,0:0:0:0:
448,192,10257,1,0,0:0:0:0:
192,192,10301,1,0,0:0:0:0:
320,192,10346,1,0,0:0:0:0:
448,192,10390,1,0,0:0:0:0:
64,192,10390,1,0,0:0:0:0:
448,192,10566,1,0,0:0:0:0:
320,192,10610,1,0,0:0:0:0:
192,192,10654,1,0,0:0:0:0:
448,192,10698,1,0,0:0:0:0:
64,192,10742,1,0,0:0:0:0:
192,192,10787,1,0,0:0:0:0:
320,192,10830,1,0,0:0:0:0:
64,192,10919,1,0,0:0:0:0:
192,192,10919,1,0,0:0:0:0:
448,192,11051,1,0,0:0:0:0:
64,192,11183,1,0,0:0:0:0:
320,192,11228,1,0,0:0:0:0:
192,192,11271,1,0,0:0:0:0:
64,192,11316,1,0,0:0:0:0:
448,192,11360,1,0,0:0:0:0:
320,192,11403,1,0,0:0:0:0:
192,192,11448,1,0,0:0:0:0:
64,192,11448,1,0,0:0:0:0:
320,192,11536,1,0,0:0:0:0:
448,192,11580,1,0,0:0:0:0:
192,192,11712,1,0,0:0:0:0:
320,192,11757,1,0,0:0:0:0:
448,192,11800,1,0,0:0:0:0:
192,192,11844,1,0,0:0:0:0:
64,192,11889,1,0,0:0:0:0:
448,192,11932,1,0,0:0:0:0:
320,192,11977,1,0,0:0:0:0:
192,192,11977,1,0,0:0:0:0:
320,192,12109,1,0,0:0:0:0:
64,192,12241,1,0,0:0:0:0:
192,192,12286,1,0,0:0:0:0:
448,192,12330,1,0,0:0:0:0:
320,192,12373,1,0,0:0:0:0:
192,192,12418,1,0,0:0:0:0:
64,192,12462,1,0,0:0:0:0:
448,192,12506,1,0,0:0:0:0:
320,192,12506,1,0,0:0:0:0:
192,192,12638,1,0,0:0:0:0:
320,192,12770,1,0,0:0:0:0:
448,192,12814,1,0,0:0:0:0:
64,192,12859,1,0,0:0:0:0:
192,192,12902,1,0,0:0:0:0:
320,192,12947,1,0,0:0:0:0:
448,192,12991,1,0,0:0:0:0:
192,192,13034,1,0,0:0:0:0:
64,192,13034,1,0,0:0:0:0:
320,192,13168,1,0,0:0:0:0:
64,192,13300,1,0,0:0:0:0:
448,192,13343,1,0,0:0:0:0:
320,192,13388,1,0,0:0:0:0:
192,192,13432,1,0,0:0:0:0:
64,192,13476,1,0,0:0:0:0:
192,192,13520,1,0,0:0:0:0:
320,192,13564,1,0,0:0:0:0:
448,192,13564,1,0,0:0:0:0:
320,192,13697,1,0,0:0:0:0:
192,192,13829,1,0,0:0:0:0:
64,192,13961,1,0,0:0:0:0:
448,192,14093,1,0,0:0:0:0:
320,192,14138,1,0,0:0:0:0:
64,192,14181,1,0,0:0:0:0:
448,192,14226,1,0,0:0:0:0:
320,192,14270,1,0,0:0:0:0:
192,192,14313,1,0,0:0:0:0:
448,192,14358,1,0,0:0:0:0:
320,192,14402,1,0,0:0:0:0:
64,192,14446,1,0,0:0:0:0:
448,192,14490,1,0,0:0:0:0:
320,192,14534,1,0,0:0:0:0:
192,192,14578,1,0,0:0:0:0:
448,192,14622,1,0,0:0:0:0:
64,192,14622,1,0,0:0:0:0:
64,192,14799,1,0,0:0:0:0:
192,192,14842,1,0,0:0:0:0:
320,192,14887,1,0,0:0:0:0:
64,192,14931,1,0,0:0:0:0:
448,192,14976,1,0,0:0:0:0:
320,192,15019,1,0,0:0:0:0:
192,192,15063,1,0,0:0:0:0:
448,192,15151,1,0,0:0:0:0:
320,192,15151,1,0,0:0:0:0:
64,192,15283,1,0,0:0:0:0:
448,192,15416,1,0,0:0:0:0:
192,192,15460,1,0,0:0:0:0:
320,192,15504,1,0,0:0:0:0:
448,192,15548,1,0,0:0:0:0:
64,192,15592,1,0,0:0:0:0:
192,192,15637,1,0,0:0:0:0:
320,192,15680,1,0,0:0:0:0:
448,192,15680,1,0,0:0:0:0:
192,192,15769,1,0,0:0:0:0:
64,192,15812,1,0,0:0:0:0:
320,192,15946,1,0,0:0:0:0:
192,192,15989,1,0,0:0:0:0:
64,192,16033,1,0,0:0:0:0:
320,192,16078,1,0,0:0:0:0:
448,192,16121,1,0,0:0:0:0:
64,192,16166,1,0,0:0:0:0:
192,192,16210,1,0,0:0:0:0:
320,192,16210,1,0,0:0:0:0:
192,192,16342,1,0,0:0:0:0:
448,192,16474,1,0,0:0:0:0:
320,192,16518,1,0,0:0:0:0:
64,192,16562,1,0,0:0:0:0:
192,192,16607,1,0,0:0:0:0:
320,192,16650,1,0,0:0:0:0:
448,192,16694,1,0,0:0:0:0:
64,192,16739,1,0,0:0:0:0:
192,192,16739,1,0,0:0:0:0:
320,192,16871,1,0,0:0:0:0:
192,192,17003,1,0,0:0:0:0:
64,192,17048,1,0,0:0:0:0:
448,192,17091,1,0,0:0:0:0:
320,192,17136,1,0,0:0:0:0:
192,192,17180,1,0,0:0:0:0:
64,192,17223,1,0,0:0:0:0:
320,192,17268,1,0,0:0:0:0:
448,192,17268,1,0,0:0:0:0:
192,192,17400,1,0,0:0:0:0:
448,192,17532,1,0,0:0:0:0:
64,192,17577,1,0,0:0:0:0:
192,192,17620,1,0,0:0:0:0:
320,192,17664,1,0,0:0:0:0:
448,192,17709,1,0,0:0:0:0:
320,192,17753,1,0,0:0:0:0:
192,192,17797,1,0,0:0:0:0:
64,192,17797,1,0,0:0:0:0:
320,192,17929,1,0,0:0:0:0:
192,192,18061,1,0,0:0:0:0:
448,192,18193,1,0,0:0:0:0:
64,192,18326,1,0,0:0:0:0:
192,192,18370,1,0,0:0:0:0:
448,192,18414,1,0,0:0:0:0:
64,192,18458,1,0,0:0:0:0:
192,192,18502,1,0,0:0:0:0:
320,192,18547,1,0,0:0:0:0:
64,192,18590,1,0,0:0:0:0:
192,192,18634,1,0,0:0:0:0:
448,192,18679,1,0,0:0:0:0:
64,192,18723,1,0,0:0:0:0:
192,192,18767,1,0,0:0:0:0:
320,192,18811,1,0,0:0:0:0:
64,192,18856,1,0,0:0:0:0:
448,192,18856,1,0,0:0:0:0:
448,192,19031,1,0,0:0:0:0:
320,192,19076,1,0,0:0:0:0:
192,192,19120,1,0,0:0:0:0:
448,192,19163,1,0,0:0:0:0:
64,192,19208,1,0,0:0:0:0:
192,192,19252,1,0,0:0:0:0:
320,192,19296,1,0,0:0:0:0:
192,192,19384,1,0,0:0:0:0:
64,192,19384,1,0,0:0:0:0:
448,192,19517,1,0,0:0:0:0:
64,192,19649,1,0,0:0:0:0:
320,192,19693,1,0,0:0:0:0:
192,192,19737,1,0,0:0:0:0:
64,192,19781,1,0,0:0:0:0:
448,192,19826,1,0,0:0:0:0:
320,192,19869,1,0,0:0:0:0:
64,192,19913,1,0,0:0:0:0:
192,192,19913,1,0,0:0:0:0:
320,192,20001,1,0,0:0:0:0:
448,192,20046,1,0,0:0:0:0:
320,192,20090,1,0,0:0:0:0:
64,192,20133,1,0,0:0:0:0:
192,192,20178,1,0,0:0:0:0:
320,192,20222,1,0,0:0:0:0:
448,192,20266,1,0,0:0:0:0:
192,192,20310,1,0,0:0:0:0:
64,192,20354,1,0,0:0:0:0:
448,192,20398,1,0,0:0:0:0:
192,192,20442,1,0,0:0:0:0:
320,192,20442,1,0,0:0:0:0:
448,192,20531,1,0,0:0:0:0:
320,192,20574,1,0,0:0:0:0:
64,192,20619,1,0,0:0:0:0:
192,192,20663,1,0,0:0:0:0:
320,192,20707,1,0,0:0:0:0:
192,192,20751,1,0,0:0:0:0:
448,192,20796,1,0,0:0:0:0:
320,192,20839,1,0,0:0:0:0:
192,192,20883,1,0,0:0:0:0:
64,192,20928,1,0,0:0:0:0:
320,192,20971,1,0,0:0:0:0:
448,192,20971,1,0,0:0:0:0:
192,192,21103,1,0,0:0:0:0:
320,192,21236,1,0,0:0:0:0:
448,192,21280,1,0,0:0:0:0:
64,192,21324,1,0,0:0:0:0:
192,192,21368,1,0,0:0:0:0:
320,192,21412,1,0,0:0:0:0:
448,192,21457,1,0,0:0:0:0:
64,192,21501,1,0,0:0:0:0:
192,192,21501,1,0,0:0:0:0:
320,192,21633,1,0,0:0:0:0:
64,192,21766,1,0,0:0:0:0:
448,192,21809,1,0,0:0:0:0:
320,192,21853,1,0,0:0:0:0:
192,192,21898,1,0,0:0:0:0:
64,192,21941,1,0,0:0:0:0:
192,192,21986,1,0,0:0:0:0:
448,192,22030,1,0,0:0:0:0:
320,192,22030,1,0,0:0:0:0:
64,192,22162,1,0,0:0:0:0:
192,192,22294,1,0,0:0:0:0:
320,192,22427,1,0,0:0:0:0:
448,192,22559,1,0,0:0:0:0:
320,192,22603,1,0,0:0:0:0:
64,192,22647,1,0,0:0:0:0:
448,192,22691,1,0,0:0:0:0:
320,192,22736,1,0,0:0:0:0:
192,192,22779,1,0,0:0:0:0:
448,192,22823,1,0,0:0:0:0:
320,192,22868,1,0,0:0:0:0:
64,192,22911,1,0,0:0:0:0:
448,192,22956,1,0,0:0:0:0:
320,192,23000,1,0,0:0:0:0:
192,192,23043,1,0,0:0:0:0:
64,192,23088,1,0,0:0:0:0:
448,192,23088,1,0,0:0:0:0:
64,192,23264,1,0,0:0:0:0:
192,192,23309,1,0,0:0:0:0:
320,192,23352,1,0,0:0:0:0:
64,192,23397,1,0,0:0:0:0:
448,192,23441,1,0,0:0:0:0:
320,192,23484,1,0,0:0:0:0:
192,192,23529,1,0,0:0:0:0:
448,192,23617,1,0,0:0:0:0:
320,192,23617,1,0,0:0:0:0:
64,192,23749,1,0,0:0:0:0:
448,192,23881,1,0,0:0:0:0:
192,192,23926,1,0,0:0:0:0:
320,192,23970,1,0,0:0:0:0:
448,192,24013,1,0,0:0:0:0:
64,192,24058,1,0,0:0:0:0:
192,192,24102,1,0,0:0:0:0:
320,192,24146,1,0,0:0:0:0:
448,192,24146,1,0,0:0:0:0:
192,192,24234,1,0,0:0:0:0:
64,192,24279,1,0,0:0:0:0:
448,192,24322,1,0,0:0:0:0:
192,192,24367,1,0,0:0:0:0:
320,192,24411,1,0,0:0:0:0:
192,192,24454,1,0,0:0:0:0:
64,192,24499,1,0,0:0:0:0:
320,192,24543,1,0,0:0:0:0:
448,192,24587,1,0,0:0:0:0:
64,192,24631,1,0,0:0:0:0:
192,192,24676,1,0,0:0:0:0:
320,192,24676,1,0,0:0:0:0:
448,192,24763,1,0,0:0:0:0:
192,192,24808,1,0,0:0:0:0:
64,192,24851,1,0,0:0:0:0:
320,192,24896,1,0,0:0:0:0:
448,192,24940,1,0,0:0:0:0:
320,192,24983,1,0,0:0:0:0:
64,192,25028,1,0,0:0:0:0:
192,192,25072,1,0,0:0:0:0:
320,192,25117,1,0,0:0:0:0:
448,192,25160,1,0,0:0:0:0:
64,192,25204,1,0,0:0:0:0:
192,192,25204,1,0,0:0:0:0:
320,192,25337,1,0,0:0:0:0:
192,192,25469,1,0,0:0:0:0:
64,192,25513,1,0,0:0:0:0:
448,192,25557,1,0,0:0:0:0:
320,192,25601,1,0,0:0:0:0:
192,192,25646,1,0,0:0:0:0:
64,192,25689,1,0,0:0:0:0:
320,192,25733,1,0,0:0:0:0:
448,192,25733,1,0,0:0:0:0:
192,192,25866,1,0,0:0:0:0:
448,192,25998,1,0,0:0:0:0:
64,192,26042,1,0,0:0:0:0:
192,192,26087,1,0,0:0:0:0:
320,192,26130,1,0,0:0:0:0:
448,192,26174,1,0,0:0:0:0:
320,192,26219,1,0,0:0:0:0:
192,192,26262,1,0,0:0:0:0:
64,192,26262,1,0,0:0:0:0:
320,192,26394,1,0,0:0:0:0:
192,192,26527,1,0,0:0:0:0:
448,192,26659,1,0,0:0:0:0:
64,192,26791,1,0,0:0:0:0:
192,192,26836,1,0,0:0:0:0:
448,192,26880,1,0,0:0:0:0:
64,192,26923,1,0,0:0:0:0:
192,192,26968,1,0,0:0:0:0:
320,192,27012,1,0,0:0:0:0:
64,192,27057,1,0,0:0:0:0:
192,192,27100,1,0,0:0:0:0:
448,192,27144,1,0,0:0:0:0:
64,192,27189,1,0,0:0:0:0:
192,192,27232,1,0,0:0:0:0:
320,192,27277,1,0,0:0:0:0:
448,192,27321,1,0,0:0:0:0:
64,192,27321,1,0,0:0:0:0:
448,192,27497,1,0,0:0:0:0:
64,192,27541,1,0,0:0:0:0:
192,192,27586,1,0,0:0:0:0:
320,192,27629,1,0,0:0:0:0:
448,192,27673,1,0,0:0:0:0:
192,192,27718,1,0,0:0:0:0:
64,192,27761,1,0,0:0:0:0:
192,192,27850,1,0,0:0:0:0:
320,192,27850,1,0,0:0:0:0:
448,192,27982,1,0,0:0:0:0:
64,192,28114,1,0,0:0:0:0:
192,192,28159,1,0,0:0:0:0:
320,192,28202,1,0,0:0:0:0:
64,192,28247,1,0,0:0:0:0:
192,192,28291,1,0,0:0:0:0:
320,192,28334,1,0,0:0:0:0:
64,192,28379,1,0,0:0:0:0:
448,192,28379,1,0,0:0:0:0:
192,192,28467,1,0,0:0:0:0:
320,192,28511,1,0,0:0:0:0:
448,192,28556,1,0,0:0:0:0:
64,192,28599,1,0,0:0:0:0:
192,192,28643,1,0,0:0:0:0:
320,192,28688,1,0,0:0:0:0:
448,192,28731,1,0,0:0:0:0:
192,192,28776,1,0,0:0:0:0:
64,192,28820,1,0,0:0:0:0:
448,192,28864,1,0,0:0:0:0:
192,192,28908,1,0,0:0:0:0:
320,192,28908,1,0,0:0:0:0:
64,192,28997,1,0,0:0:0:0:
448,192,29040,1,0,0:0:0:0:
320,192,29084,1,0,0:0:0:0:
192,192,29129,1,0,0:0:0:0:
64,192,29172,1,0,0:0:0:0:
448,192,29217,1,0,0:0:0:0:
320,192,29261,1,0,0:0:0:0:
192,192,29304,1,0,0:0:0:0:
64,192,29349,1,0,0:0:0:0:
192,192,29393,1,0,0:0:0:0:
320,192,29437,1,0,0:0:0:0:
448,192,29437,1,0,0:0:0:0:
192,192,29569,1,0,0:0:0:0:
448,192,29701,1,0,0:0:0:0:
320,192,29746,1,0,0:0:0:0:
192,192,29790,1,0,0:0:0:0:
448,192,29834,1,0,0:0:0:0:
64,192,29878,1,0,0:0:0:0:
192,192,29922,1,0,0:0:0:0:
320,192,29967,1,0,0:0:0:0:
448,192,29967,1,0,0:0:0:0:
320,192,30099,1,0,0:0:0:0:
192,192,30231,1,0,0:0:0:0:
320,192,30274,1,0,0:0:0:0:
448,192,30319,1,0,0:0:0:0:
64,192,30363,1,0,0:0:0:0:
192,192,30407,1,0,0:0:0:0:
320,192,30451,1,0,0:0:0:0:
64,192,30496,1,0,0:0:0:0:
448,192,30496,1,0,0:0:0:0:
320,192,30628,1,0,0:0:0:0:
192,192,30760,1,0,0:0:0:0:
64,192,30892,1,0,0:0:0:0:
320,192,31024,1,0,0:0:0:0:
192,192,31069,1,0,0:0:0:0:
64,192,31112,1,0,0:0:0:0:
192,192,31157,1,0,0:0:0:0:
320,192,31201,1,0,0:0:0:0:
448,192,31244,1,0,0:0:0:0:
192,192,31289,1,0,0:0:0:0:
320,192,31333,1,0,0:0:0:0:
64,192,31377,1,0,0:0:0:0:
192,192,31421,1,0,0:0:0:0:
448,192,31466,1,0,0:0:0:0:
320,192,31509,1,0,0:0:0:0:
448,192,31553,1,0,0:0:0:0:
64,192,31553,1,0,0:0:0:0:
64,192,31730,1,0,0:0:0:0:
448,192,31774,1,0,0:0:0:0:
320,192,31818,1,0,0:0:0:0:
192,192,31862,1,0,0:0:0:0:
64,192,31907,1,0,0:0:0:0:
320,192,31950,1,0,0:0:0:0:
448,192,31994,1,0,0:0:0:0:
320,192,32082,1,0,0:0:0:0:
192,192,32082,1,0,0:0:0:0:
64,192,32214,1,0,0:0:0:0:
448,192,32347,1,0,0:0:0:0:
320,192,32391,1,0,0:0:0:0:
192,192,32436,1,0,0:0:0:0:
448,192,32479,1,0,0:0:0:0:
320,192,32523,1,0,0:0:0:0:
192,192,32568,1,0,0:0:0:0:
448,192,32612,1,0,0:0:0:0:
64,192,32612,1,0,0:0:0:0:
320,192,32700,1,0,0:0:0:0:
192,192,32744,1,0,0:0:0:0:
64,192,32788,1,0,0:0:0:0:
448,192,32832,1,0,0:0:0:0:
320,192,32877,1,0,0:0:0:0:
192,192,32920,1,0,0:0:0:0:
64,192,32964,1,0,0:0:0:0:
320,192,33009,1,0,0:0:0:0:
448,192,33052,1,0,0:0:0:0:
64,192,33097,1,0,0:0:0:0:
320,192,33141,1,0,0:0:0:0:
192,192,33141,1,0,0:0:0:0:
448,192,33229,1,0,0:0:0:0:
64,192,33273,1,0,0:0:0:0:
192,192,33317,1,0,0:0:0:0:
320,192,33361,1,0,0:0:0:0:
448,192,33406,1,0,0:0:0:0:
64,192,33450,1,0,0:0:0:0:
192,192,33493,1,0,0:0:0:0:
320,192,33538,1,0,0:0:0:0:
448,192,33582,1,0,0:0:0:0:
320,192,33626,1,0,0:0:0:0:
192,192,33670,1,0,0:0:0:0:
64,192,33670,1,0,0:0:0:0:
320,192,33802,1,0,0:0:0:0:
64,192,33934,1,0,0:0:0:0:
192,192,33979,1,0,0:0:0:0:
320,192,34022,1,0,0:0:0:0:
64,192,34067,1,0,0:0:0:0:
448,192,34111,1,0,0:0:0:0:
320,192,34154,1,0,0:0:0:0:
192,192,34199,1,0,0:0:0:0:
64,192,34199,1,0,0:0:0:0:
192,192,34331,1,0,0:0:0:0:
320,192,34463,1,0,0:0:0:0:
192,192,34508,1,0,0:0:0:0:
64,192,34552,1,0,0:0:0:0:
448,192,34596,1,0,0:0:0:0:
320,192,34640,1,0,0:0:0:0:
192,192,34684,1,0,0:0:0:0:
448,192,34728,1,0,0:0:0:0:
64,192,34728,1,0,0:0:0:0:
192,192,34860,1,0,0:0:0:0:
320,192,34992,1,0,0:0:0:0:
448,192,35124,1,0,0:0:0:0:
192,192,35257,1,0,0:0:0:0:
320,192,35301,1,0,0:0:0:0:
448,192,35346,1,0,0:0:0:0:
320,192,35390,1,0,0:0:0:0:
192,192,35433,1,0,0:0:0:0:
64,192,35478,1,0,0:0:0:0:
320,192,35522,1,0,0:0:0:0:
192,192,35566,1,0,0:0:0:0:
448,192,35610,1,0,0:0:0:0:
320,192,35654,1,0,0:0:0:0:
64,192,35698,1,0,0:0:0:0:
192,192,35742,1,0,0:0:0:0:
64,192,35787,1,0,0:0:0:0:
448,192,35787,1,0,0:0:0:0:
448,192,35962,1,0,0:0:0:0:
64,192,36007,1,0,0:0:0:0:
192,192,36051,1,0,0:0:0:0:
320,192,36094,1,0,0:0:0:0:
448,192,36139,1,0,0:0:0:0:
192,192,36183,1,0,0:0:0:0:
64,192,36228,1,0,0:0:0:0:
320,192,36316,1,0,0:0:0:0:
192,192,36316,1,0,0:0:0:0:
448,192,36448,1,0,0:0:0:0:
64,192,36580,1,0,0:0:0:0:
192,192,36624,1,0,0:0:0:0:
320,192,36668,1,0,0:0:0:0:
64,192,36712,1,0,0:0:0:0:
192,192,36757,1,0,0:0:0:0:
320,192,36800,1,0,0:0:0:0:
448,192,36844,1,0,0:0:0:0:
64,192,36844,1,0,0:0:0:0:
192,192,36932,1,0,0:0:0:0:
320,192,36977,1,0,0:0:0:0:
448,192,37021,1,0,0:0:0:0:
64,192,37064,1,0,0:0:0:0:
192,192,37109,1,0,0:0:0:0:
320,192,37153,1,0,0:0:0:0:
448,192,37198,1,0,0:0:0:0:
192,192,37241,1,0,0:0:0:0:
64,192,37286,1,0,0:0:0:0:
448,192,37330,1,0,0:0:0:0:
320,192,37373,1,0,0:0:0:0:
192,192,37373,1,0,0:0:0:0:
64,192,37462,1,0,0:0:0:0:
448,192,37506,1,0,0:0:0:0:
320,192,37550,1,0,0:0:0:0:
192,192,37594,1,0,0:0:0:0:
64,192,37638,1,0,0:0:0:0:
448,192,37682,1,0,0:0:0:0:
320,192,37727,1,0,0:0:0:0:
192,192,37770,1,0,0:0:0:0:
64,192,37814,1,0,0:0:0:0:
192,192,37859,1,0,0:0:0:0:
448,192,37902,1,0,0:0:0:0:
320,192,37902,1,0,0:0:0:0:
192,192,38034,1,0,0:0:0:0:
448,192,38168,1,0,0:0:0:0:
320,192,38211,1,0,0:0:0:0:
192,192,38256,1,0,0:0:0:0:
448,192,38300,1,0,0:0:0:0:
64,192,38343,1,0,0:0:0:0:
192,192,38388,1,0,0:0:0:0:
448,192,38432,1,0,0:0:0:0:
320,192,38432,1,0,0:0:0:0:
320,192,38564,1,0,0:0:0:0:
192,192,38697,1,0,0:0:0:0:
320,192,38740,1,0,0:0:0:0:
448,192,38784,1,0,0:0:0:0:
64,192,38829,1,0,0:0:0:0:
192,192,38872,1,0,0:0:0:0:
320,192,38917,1,0,0:0:0:0:
448,192,38961,1,0,0:0:0:0:
64,192,38961,1,0,0:0:0:0:
320,192,39093,1,0,0:0:0:0:
192,192,39226,1,0,0:0:0:0:
64,192,39358,1,0,0:0:0:0:
320,192,39490,1,0,0:0:0:0:
448,192,39534,1,0,0:0:0:0:
64,192,39578,1,0,0:0:0:0:
192,192,39622,1,0,0:0:0:0:
320,192,39667,1,0,0:0:0:0:
448,192,39710,1,0,0:0:0:0:
192,192,39754,1,0,0:0:0:0:
320,192,39799,1,0,0:0:0:0:
64,192,39842,1,0,0:0:0:0:
192,192,39887,1,0,0:0:0:0:
320,192,39931,1,0,0:0:0:0:
192,192,39976,1,0,0:0:0:0:
448,192,40019,1,0,0:0:0:0:
64,192,40019,1,0,0:0:0:0:
64,192,40196,1,0,0:0:0:0:
448,192,40240,1,0,0:0:0:0:
320,192,40283,1,0,0:0:0:0:
192,192,40328,1,0,0:0:0:0:
64,192,40372,1,0,0:0:0:0:
320,192,40416,1,0,0:0:0:0:
448,192,40460,1,0,0:0:0:0:
320,192,40548,1,0,0:0:0:0:
192,192,40548,1,0,0:0:0:0:
64,192,40680,1,0,0:0:0:0:
448,192,40812,1,0,0:0:0:0:
320,192,40857,1,0,0:0:0:0:
192,192,40901,1,0,0:0:0:0:
448,192,40946,1,0,0:0:0:0:
320,192,40989,1,0,0:0:0:0:
192,192,41033,1,0,0:0:0:0:
448,192,41078,1,0,0:0:0:0:
64,192,41078,1,0,0:0:0:0:
320,192,41166,1,0,0:0:0:0:
192,192,41210,1,0,0:0:0:0:
64,192,41253,1,0,0:0:0:0:
448,192,41298,1,0,0:0:0:0:
320,192,41342,1,0,0:0:0:0:
192,192,41386,1,0,0:0:0:0:
64,192,41430,1,0,0:0:0:0:
320,192,41474,1,0,0:0:0:0:
448,192,41518,1,0,0:0:0:0:
64,192,41562,1,0,0:0:0:0:
320,192,41607,1,0,0:0:0:0:
192,192,41607,1,0,0:0:0:0:
448,192,41694,1,0,0:0:0:0:
64,192,41739,1,0,0:0:0:0:
192,192,41783,1,0,0:0:0:0:
320,192,41827,1,0,0:0:0:0:
448,192,41871,1,0,0:0:0:0:
64,192,41916,1,0,0:0:0:0:
192,192,41959,1,0,0:0:0:0:
320,192,42003,1,0,0:0:0:0:
448,192,42048,1,0,0:0:0:0:
320,192,42091,1,0,0:0:0:0:
192,192,42136,1,0,0:0:0:0:
64,192,42136,1,0,0:0:0:0:
320,192,42268,1,0,0:0:0:0:
64,192,42400,1,0,0:0:0:0:
192,192,42444,1,0,0:0:0:0:
320,192,42488,1,0,0:0:0:0:
64,192,42532,1,0,0:0:0:0:
448,192,42577,1,0,0:0:0:0:
320,192,42620,1,0,0:0:0:0:
192,192,42664,1,0,0:0:0:0:
64,192,42664,1,0,0:0:0:0:
192,192,42797,1,0,0:0:0:0:
320,192,42929,1,0,0:0:0:0:
192,192,42973,1,0,0:0:0:0:
64,192,43018,1,0,0:0:0:0:
448,192,43061,1,0,0:0:0:0:
320,192,43106,1,0,0:0:0:0:
192,192,43150,1,0,0:0:0:0:
448,192,43193,1,0,0:0:0:0:
64,192,43193,1,0,0:0:0:0:
192,192,43326,1,0,0:0:0:0:
320,192,43458,1,0,0:0:0:0:
448,192,43590,1,0,0:0:0:0:
192,192,43723,1,0,0:0:0:0:
64,192,43767,1,0,0:0:0:0:
448,192,43811,1,0,0:0:0:0:
320,192,43856,1,0,0:0:0:0:
192,192,43899,1,0,0:0:0:0:
64,192,43943,1,0,0:0:0:0:
448,192,43988,1,0,0:0:0:0:
192,192,44031,1,0,0:0:0:0:
320,192,44076,1,0,0:0:0:0:
64,192,44120,1,0,0:0:0:0:
448,192,44163,1,0,0:0:0:0:
320,192,44208,1,0,0:0:0:0:
64,192,44252,1,0,0:0:0:0:
192,192,44296,1,0,0:0:0:0:
320,192,44340,1,0,0:0:0:0:
448,192,44384,1,0,0:0:0:0:
64,192,44428,1,0,0:0:0:0:
192,192,44472,1,0,0:0:0:0:
320,192,44517,1,0,0:0:0:0:
448,192,44561,1,0,0:0:0:0:
64,192,44604,1,0,0:0:0:0:
192,192,44649,1,0,0:0:0:0:
320,192,44693,1,0,0:0:0:0:
448,192,44737,1,0,0:0:0:0:
320,192,44781,1,0,0:0:0:0:
192,192,44826,1,0,0:0:0:0:
64,192,44869,1,0,0:0:0:0:
448,192,44913,1,0,0:0:0:0:
320,192,44958,1,0,0:0:0:0:
192,192,45001,1,0,0:0:0:0:
64,192,45046,1,0,0:0:0:0:
448,192,45090,1,0,0:0:0:0:
320,192,45133,1,0,0:0:0:0:
192,192,45178,1,0,0:0:0:0:
64,192,45222,1,0,0:0:0:0:
448,192,45266,1,0,0:0:0:0:
320,192,45310,1,0,0:0:0:0:
192,192,45354,1,0,0:0:0:0:
64,192,45398,1,0,0:0:0:0:
448,192,45442,1,0,0:0:0:0:
320,192,45487,1,0,0:0:0:0:
192,192,45531,1,0,0:0:0:0:
64,192,45574,1,0,0:0:0:0:
448,192,45574,1,0,0:0:0:0:
320,192,45663,1,0,0:0:0:0:
192,192,45751,1,0,0:0:0:0:
448,192,45839,1,0,0:0:0:0:
320,192,45839,1,0,0:0:0:0:
64,192,45928,1,0,0:0:0:0:
448,192,46016,1,0,0:0:0:0:
320,192,46103,1,0,0:0:0:0:
192,192,46103,1,0,0:0:0:0:
64,192,46192,1,0,0:0:0:0:
448,192,46280,1,0,0:0:0:0:
64,192,46368,1,0,0:0:0:0:
192,192,46412,1,0,0:0:0:0:
320,192,46457,1,0,0:0:0:0:
448,192,46501,1,0,0:0:0:0:
64,192,46544,1,0,0:0:0:0:
192,192,46589,1,0,0:0:0:0:
320,192,46633,1,0,0:0:0:0:
448,192,46677,1,0,0:0:0:0:
64,192,46721,1,0,0:0:0:0:
192,192,46766,1,0,0:0:0:0:
320,192,46809,1,0,0:0:0:0:
448,192,46853,1,0,0:0:0:0:
320,192,46898,1,0,0:0:0:0:
192,192,46941,1,0,0:0:0:0:
64,192,46986,1,0,0:0:0:0:
448,192,47030,1,0,0:0:0:0:
320,192,47073,1,0,0:0:0:0:
192,192,47118,1,0,0:0:0:0:
64,192,47162,1,0,0:0:0:0:
448,192,47206,1,0,0:0:0:0:
320,192,47250,1,0,0:0:0:0:
192,192,47294,1,0,0:0:0:0:
64,192,47339,1,0,0:0:0:0:
448,192,47382,1,0,0:0:0:0:
320,192,47427,1,0,0:0:0:0:
192,192,47471,1,0,0:0:0:0:
64,192,47514,1,0,0:0:0:0:
448,192,47559,1,0,0:0:0:0:
320,192,47603,1,0,0:0:0:0:
192,192,47647,1,0,0:0:0:0:
64,192,47691,1,0,0:0:0:0:
448,192,47691,1,0,0:0:0:0:
192,192,47779,1,0,0:0:0:0:
320,192,47868,1,0,0:0:0:0:
192,192,47956,1,0,0:0:0:0:
448,192,47956,1,0,0:0:0:0:
320,192,48043,1,0,0:0:0:0:
64,192,48132,1,0,0:0:0:0:
320,192,48220,1,0,0:0:0:0:
192,192,48220,1,0,0:0:0:0:
448,192,48309,1,0,0:0:0:0:
320,192,48397,1,0,0:0:0:0:
64,192,48484,1,0,0:0:0:0:
192,192,48529,1,0,0:0:0:0:
320,192,48573,1,0,0:0:0:0:
448,192,48617,1,0,0:0:0:0:
64,192,48661,1,0,0:0:0:0:
192,192,48706,1,0,0:0:0:0:
320,192,48749,1,0,0:0:0:0:
448,192,48793,1,0,0:0:0:0:
64,192,48838,1,0,0:0:0:0:
192,192,48881,1,0,0:0:0:0:
320,192,48926,1,0,0:0:0:0:
448,192,48970,1,0,0:0:0:0:
320,192,49013,1,0,0:0:0:0:
192,192,49058,1,0,0:0:0:0:
64,192,49102,1,0,0:0:0:0:
448,192,49146,1,0,0:0:0:0:
320,192,49190,1,0,0:0:0:0:
192,192,49234,1,0,0:0:0:0:
64,192,49279,1,0,0:0:0:0:
448,192,49322,1,0,0:0:0:0:
320,192,49367,1,0,0:0:0:0:
192,192,49411,1,0,0:0:0:0:
64,192,49454,1,0,0:0:0:0:
448,192,49499,1,0,0:0:0:0:
320,192,49543,1,0,0:0:0:0:
192,192,49587,1,0,0:0:0:0:
64,192,49631,1,0,0:0:0:0:
448,192,49676,1,0,0:0:0:0:
320,192,49719,1,0,0:0:0:0:
192,192,49763,1,0,0:0:0:0:
448,192,49808,1,0,0:0:0:0:
64,192,49808,1,0,0:0:0:0:
320,192,49896,1,0,0:0:0:0:
448,192,49983,1,0,0:0:0:0:
192,192,50072,1,0,0:0:0:0:
64,192,50072,1,0,0:0:0:0:
320,192,50160,1,0,0:0:0:0:
192,192,50249,1,0,0:0:0:0:
320,192,50337,1,0,0:0:0:0:
448,192,50337,1,0,0:0:0:0:
64,192,50424,1,0,0:0:0:0:
192,192,50513,1,0,0:0:0:0:
448,192,50601,1,0,0:0:0:0:
64,192,50601,1,0,0:0:0:0:
320,192,50646,1,0,0:0:0:0:
192,192,50733,1,0,0:0:0:0:
320,192,50866,1,0,0:0:0:0:
64,192,50998,1,0,0:0:0:0:
448,192,50998,1,0,0:0:0:0:
320,192,51042,1,0,0:0:0:0:
192,192,51130,1,0,0:0:0:0:
448,192,51262,1,0,0:0:0:0:
64,192,51394,1,0,0:0:0:0:
320,192,51394,1,0,0:0:0:0:
192,192,51439,1,0,0:0:0:0:
448,192,51461,1,0,0:0:0:0:
448,192,51659,1,0,0:0:0:0:
64,192,51659,1,0,0:0:0:0:
320,192,51703,1,0,0:0:0:0:
192,192,51748,1,0,0:0:0:0:
64,192,51791,1,0,0:0:0:0:
448,192,51836,1,0,0:0:0:0:
320,192,51880,1,0,0:0:0:0:
192,192,51923,1,0,0:0:0:0:
448,192,51968,1,0,0:0:0:0:
320,192,52012,1,0,0:0:0:0:
64,192,52057,1,0,0:0:0:0:
192,192,52100,1,0,0:0:0:0:
320,192,52144,1,0,0:0:0:0:
448,192,52189,1,0,0:0:0:0:
64,192,52232,1,0,0:0:0:0:
192,192,52277,1,0,0:0:0:0:
320,192,52321,1,0,0:0:0:0:
64,192,52364,1,0,0:0:0:0:
192,192,52409,1,0,0:0:0:0:
320,192,52453,1,0,0:0:0:0:
448,192,52497,1,0,0:0:0:0:
192,192,52541,1,0,0:0:0:0:
320,192,52586,1,0,0:0:0:0:
448,192,52629,1,0,0:0:0:0:
64,192,52718,1,0,0:0:0:0:
192,192,52761,1,0,0:0:0:0:
320,192,52806,1,0,0:0:0:0:
448,192,52850,1,0,0:0:0:0:
64,192,52894,1,0,0:0:0:0:
192,192,52938,1,0,0:0:0:0:
320,192,52982,1,0,0:0:0:0:
448,192,53027,1,0,0:0:0:0:
64,192,53070,1,0,0:0:0:0:
192,192,53114,1,0,0:0:0:0:
320,192,53159,1,0,0:0:0:0:
448,192,53202,1,0,0:0:0:0:
320,192,53247,1,0,0:0:0:0:
192,192,53291,1,0,0:0:0:0:
64,192,53334,1,0,0:0:0:0:
448,192,53379,1,0,0:0:0:0:
320,192,53423,1,0,0:0:0:0:
192,192,53467,1,0,0:0:0:0:
64,192,53511,1,0,0:0:0:0:
448,192,53556,1,0,0:0:0:0:
320,192,53599,1,0,0:0:0:0:
192,192,53643,1,0,0:0:0:0:
64,192,53688,1,0,0:0:0:0:
448,192,53731,1,0,0:0:0:0:
320,192,53776,1,0,0:0:0:0:
192,192,53820,1,0,0:0:0:0:
64,192,53864,1,0,0:0:0:0:
448,192,53908,1,0,0:0:0:0:
320,192,53952,1,0,0:0:0:0:
192,192,53997,1,0,0:0:0:0:
64,192,54040,1,0,0:0:0:0:
448,192,54040,1,0,0:0:0:0:
320,192,54129,1,0,0:0:0:0:
192,192,54217,1,0,0:0:0:0:
448,192,54304,1,0,0:0:0:0:
320,192,54304,1,0,0:0:0:0:
64,192,54393,1,0,0:0:0:0:
448,192,54481,1,0,0:0:0:0:
320,192,54569,1,0,0:0:0:0:
192,192,54569,1,0,0:0:0:0:
64,192,54658,1,0,0:0:0:0:
448,192,54746,1,0,0:0:0:0:
64,192,54834,1,0,0:0:0:0:
192,192,54878,1,0,0:0:0:0:
320,192,54922,1,0,0:0:0:0:
448,192,54967,1,0,0:0:0:0:
64,192,55010,1,0,0:0:0:0:
192,192,55054,1,0,0:0:0:0:
320,192,55099,1,0,0:0:0:0:
448,192,55142,1,0,0:0:0:0:
64,192,55187,1,0,0:0:0:0:
192,192,55231,1,0,0:0:0:0:
320,192,55274,1,0,0:0:0:0:
448,192,55319,1,0,0:0:0:0:
320,192,55363,1,0,0:0:0:0:
192,192,55407,1,0,0:0:0:0:
64,192,55451,1,0,0:0:0:0:
448,192,55496,1,0,0:0:0:0:
320,192,55539,1,0,0:0:0:0:
192,192,55583,1,0,0:0:0:0:
64,192,55628,1,0,0:0:0:0:
448,192,55672,1,0,0:0:0:0:
320,192,55716,1,0,0:0:0:0:
192,192,55760,1,0,0:0:0:0:
64,192,55804,1,0,0:0:0:0:
448,192,55848,1,0,0:0:0:0:
320,192,55892,1,0,0:0:0:0:
192,192,55937,1,0,0:0:0:0:
64,192,55980,1,0,0:0:0:0:
448,192,56024,1,0,0:0:0:0:
320,192,56069,1,0,0:0:0:0:
192,192,56112,1,0,0:0:0:0:
64,192,56157,1,0,0:0:0:0:
448,192,56157,1,0,0:0:0:0:
192,192,56244,1,0,0:0:0:0:
320,192,56333,1,0,0:0:0:0:
192,192,56421,1,0,0:0:0:0:
448,192,56421,1,0,0:0:0:0:
320,192,56509,1,0,0:0:0:0:
64,192,56598,1,0,0:0:0:0:
320,192,56686,1,0,0:0:0:0:
192,192,56686,1,0,0:0:0:0:
448,192,56774,1,0,0:0:0:0:
320,192,56862,1,0,0:0:0:0:
64,192,56950,1,0,0:0:0:0:
192,192,56994,1,0,0:0:0:0:
320,192,57039,1,0,0:0:0:0:
448,192,57082,1,0,0:0:0:0:
64,192,57127,1,0,0:0:0:0:
192,192,57171,1,0,0:0:0:0:
320,192,57214,1,0,0:0:0:0:
448,192,57259,1,0,0:0:0:0:
64,192,57303,1,0,0:0:0:0:
192,192,57347,1,0,0:0:0:0:
320,192,57391,1,0,0:0:0:0:
448,192,57436,1,0,0:0:0:0:
320,192,57479,1,0,0:0:0:0:
192,192,57523,1,0,0:0:0:0:
64,192,57568,1,0,0:0:0:0:
448,192,57612,1,0,0:0:0:0:
320,192,57656,1,0,0:0:0:0:
192,192,57700,1,0,0:0:0:0:
64,192,57744,1,0,0:0:0:0:
448,192,57788,1,0,0:0:0:0:
320,192,57832,1,0,0:0:0:0:
192,192,57877,1,0,0:0:0:0:
64,192,57920,1,0,0:0:0:0:
448,192,57964,1,0,0:0:0:0:
320,192,58009,1,0,0:0:0:0:
192,192,58052,1,0,0:0:0:0:
64,192,58097,1,0,0:0:0:0:
448,192,58141,1,0,0:0:0:0:
320,192,58184,1,0,0:0:0:0:
192,192,58229,1,0,0:0:0:0:
448,192,58273,1,0,0:0:0:0:
64,192,58273,1,0,0:0:0:0:
320,192,58361,1,0,0:0:0:0:
448,192,58450,1,0,0:0:0:0:
192,192,58538,1,0,0:0:0:0:
64,192,58538,1,0,0:0:0:0:
320,192,58626,1,0,0:0:0:0:
192,192,58714,1,0,0:0:0:0:
320,192,58802,1,0,0:0:0:0:
448,192,58802,1,0,0:0:0:0:
64,192,58890,1,0,0:0:0:0:
192,192,58979,1,0,0:0:0:0:
448,192,59067,1,0,0:0:0:0:
64,192,59067,1,0,0:0:0:0:
320,192,59111,1,0,0:0:0:0:
192,192,59199,1,0,0:0:0:0:
320,192,59331,1,0,0:0:0:0:
64,192,59463,1,0,0:0:0:0:
448,192,59463,1,0,0:0:0:0:
320,192,59508,1,0,0:0:0:0:
192,192,59596,1,0,0:0:0:0:
448,192,59728,1,0,0:0:0:0:
64,192,59860,1,0,0:0:0:0:
320,192,59860,1,0,0:0:0:0:
192,192,59904,1,0,0:0:0:0:
448,192,59927,1,0,0:0:0:0:
448,192,60124,1,0,0:0:0:0:
64,192,60124,1,0,0:0:0:0:
320,192,60169,1,0,0:0:0:0:
192,192,60213,1,0,0:0:0:0:
64,192,60257,1,0,0:0:0:0:
448,192,60301,1,0,0:0:0:0:
320,192,60346,1,0,0:0:0:0:
192,192,60390,1,0,0:0:0:0:
448,192,60433,1,0,0:0:0:0:
320,192,60478,1,0,0:0:0:0:
64,192,60522,1,0,0:0:0:0:
192,192,60566,1,0,0:0:0:0:
320,192,60610,1,0,0:0:0:0:
448,192,60654,1,0,0:0:0:0:
64,192,60698,1,0,0:0:0:0:
192,192,60742,1,0,0:0:0:0:
320,192,60787,1,0,0:0:0:0:
64,192,60830,1,0,0:0:0:0:
192,192,60874,1,0,0:0:0:0:
320,192,60919,1,0,0:0:0:0:
448,192,60962,1,0,0:0:0:0:
192,192,61007,1,0,0:0:0:0:
320,192,61051,1,0,0:0:0:0:
448,192,61094,1,0,0:0:0:0:
64,192,61183,1,0,0:0:0:0:
192,192,61183,1,0,0:0:0:0:
320,192,61228,1,0,0:0:0:0:
448,192,61271,1,0,0:0:0:0:
192,192,61316,1,0,0:0:0:0:
320,192,61360,1,0,0:0:0:0:
448,192,61403,1,0,0:0:0:0:
192,192,61448,1,0,0:0:0:0:
320,192,61492,1,0,0:0:0:0:
448,192,61536,1,0,0:0:0:0:
192,192,61580,1,0,0:0:0:0:
320,192,61624,1,0,0:0:0:0:
448,192,61668,1,0,0:0:0:0:
320,192,61712,1,0,0:0:0:0:
192,192,61757,1,0,0:0:0:0:
64,192,61800,1,0,0:0:0:0:
320,192,61844,1,0,0:0:0:0:
192,192,61889,1,0,0:0:0:0:
64,192,61932,1,0,0:0:0:0:
320,192,61977,1,0,0:0:0:0:
192,192,62021,1,0,0:0:0:0:
64,192,62064,1,0,0:0:0:0:
320,192,62109,1,0,0:0:0:0:
192,192,62153,1,0,0:0:0:0:
64,192,62198,1,0,0:0:0:0:
320,192,62241,1,0,0:0:0:0:
192,192,62286,1,0,0:0:0:0:
64,192,62330,1,0,0:0:0:0:
320,192,62373,1,0,0:0:0:0:
192,192,62418,1,0,0:0:0:0:
64,192,62462,1,0,0:0:0:0:
192,192,62506,1,0,0:0:0:0:
448,192,62506,1,0,0:0:0:0:
320,192,62594,1,0,0:0:0:0:
192,192,62682,1,0,0:0:0:0:
448,192,62770,1,0,0:0:0:0:
320,192,62770,1,0,0:0:0:0:
64,192,62859,1,0,0:0:0:0:
448,192,62947,1,0,0:0:0:0:
320,192,63034,1,0,0:0:0:0:
192,192,63034,1,0,0:0:0:0:
64,192,63123,1,0,0:0:0:0:
448,192,63211,1,0,0:0:0:0:
192,192,63300,1,0,0:0:0:0:
320,192,63343,1,0,0:0:0:0:
448,192,63388,1,0,0:0:0:0:
192,192,63432,1,0,0:0:0:0:
320,192,63476,1,0,0:0:0:0:
448,192,63520,1,0,0:0:0:0:
192,192,63564,1,0,0:0:0:0:
320,192,63608,1,0,0:0:0:0:
448,192,63652,1,0,0:0:0:0:
192,192,63697,1,0,0:0:0:0:
320,192,63740,1,0,0:0:0:0:
448,192,63784,1,0,0:0:0:0:
320,192,63829,1,0,0:0:0:0:
192,192,63872,1,0,0:0:0:0:
64,192,63917,1,0,0:0:0:0:
320,192,63961,1,0,0:0:0:0:
192,192,64006,1,0,0:0:0:0:
64,192,64049,1,0,0:0:0:0:
320,192,64093,1,0,0:0:0:0:
192,192,64138,1,0,0:0:0:0:
64,192,64181,1,0,0:0:0:0:
320,192,64226,1,0,0:0:0:0:
192,192,64270,1,0,0:0:0:0:
64,192,64313,1,0,0:0:0:0:
320,192,64358,1,0,0:0:0:0:
192,192,64402,1,0,0:0:0:0:
64,192,64446,1,0,0:0:0:0:
320,192,64490,1,0,0:0:0:0:
192,192,64534,1,0,0:0:0:0:
64,192,64578,1,0,0:0:0:0:
320,192,64622,1,0,0:0:0:0:
448,192,64622,1,0,0:0:0:0:
192,192,64710,1,0,0:0:0:0:
320,192,64799,1,0,0:0:0:0:
192,192,64887,1,0,0:0:0:0:
448,192,64887,1,0,0:0:0:0:
320,192,64976,1,0,0:0:0:0:
64,192,65063,1,0,0:0:0:0:
320,192,65151,1,0,0:0:0:0:
192,192,65151,1,0,0:0:0:0:
448,192,65240,1,0,0:0:0:0:
320,192,65328,1,0,0:0:0:0:
192,192,65416,1,0,0:0:0:0:
64,192,65416,1,0,0:0:0:0:
320,192,65460,1,0,0:0:0:0:
448,192,65504,1,0,0:0:0:0:
192,192,65548,1,0,0:0:0:0:
320,192,65592,1,0,0:0:0:0:
448,192,65637,1,0,0:0:0:0:
192,192,65680,1,0,0:0:0:0:
320,192,65724,1,0,0:0:0:0:
448,192,65769,1,0,0:0:0:0:
192,192,65812,1,0,0:0:0:0:
320,192,65857,1,0,0:0:0:0:
448,192,65901,1,0,0:0:0:0:
320,192,65946,1,0,0:0:0:0:
192,192,65989,1,0,0:0:0:0:
64,192,66033,1,0,0:0:0:0:
320,192,66078,1,0,0:0:0:0:
192,192,66121,1,0,0:0:0:0:
64,192,66166,1,0,0:0:0:0:
320,192,66210,1,0,0:0:0:0:
192,192,66253,1,0,0:0:0:0:
64,192,66298,1,0,0:0:0:0:
320,192,66342,1,0,0:0:0:0:
192,192,66386,1,0,0:0:0:0:
64,192,66430,1,0,0:0:0:0:
320,192,66474,1,0,0:0:0:0:
192,192,66518,1,0,0:0:0:0:
64,192,66562,1,0,0:0:0:0:
320,192,66607,1,0,0:0:0:0:
192,192,66650,1,0,0:0:0:0:
64,192,66694,1,0,0:0:0:0:
448,192,66739,1,0,0:0:0:0:
320,192,66739,1,0,0:0:0:0:
192,192,66827,1,0,0:0:0:0:
448,192,66916,1,0,0:0:0:0:
192,192,67003,1,0,0:0:0:0:
64,192,67003,1,0,0:0:0:0:
320,192,67091,1,0,0:0:0:0:
192,192,67180,1,0,0:0:0:0:
320,192,67268,1,0,0:0:0:0:
448,192,67268,1,0,0:0:0:0:
64,192,67356,1,0,0:0:0:0:
192,192,67444,1,0,0:0:0:0:
448,192,67532,1,0,0:0:0:0:
64,192,67532,1,0,0:0:0:0:
320,192,67577,1,0,0:0:0:0:
192,192,67664,1,0,0:0:0:0:
320,192,67797,1,0,0:0:0:0:
64,192,67929,1,0,0:0:0:0:
448,192,67929,1,0,0:0:0:0:
320,192,67973,1,0,0:0:0:0:
192,192,68061,1,0,0:0:0:0:
448,192,68193,1,0,0:0:0:0:
64,192,68326,1,0,0:0:0:0:
320,192,68326,1,0,0:0:0:0:
192,192,68370,1,0,0:0:0:0:
448,192,68392,1,0,0:0:0:0:
448,192,68590,1,0,0:0:0:0:
64,192,68590,1,0,0:0:0:0:
320,192,68634,1,0,0:0:0:0:
192,192,68679,1,0,0:0:0:0:
64,192,68723,1,0,0:0:0:0:
448,192,68767,1,0,0:0:0:0:
320,192,68811,1,0,0:0:0:0:
192,192,68856,1,0,0:0:0:0:
448,192,68899,1,0,0:0:0:0:
320,192,68943,1,0,0:0:0:0:
64,192,68988,1,0,0:0:0:0:
192,192,69031,1,0,0:0:0:0:
320,192,69076,1,0,0:0:0:0:
448,192,69120,1,0,0:0:0:0:
64,192,69163,1,0,0:0:0:0:
192,192,69208,1,0,0:0:0:0:
320,192,69252,1,0,0:0:0:0:
64,192,69296,1,0,0:0:0:0:
192,192,69340,1,0,0:0:0:0:
320,192,69384,1,0,0:0:0:0:
448,192,69428,1,0,0:0:0:0:
192,192,69472,1,0,0:0:0:0:
320,192,69517,1,0,0:0:0:0:
448,192,69561,1,0,0:0:0:0:
64,192,69649,1,0,0:0:0:0:
192,192,69649,1,0,0:0:0:0:
320,192,69693,1,0,0:0:0:0:
448,192,69737,1,0,0:0:0:0:
192,192,69781,1,0,0:0:0:0:
320,192,69826,1,0,0:0:0:0:
448,192,69869,1,0,0:0:0:0:
192,192,69913,1,0,0:0:0:0:
320,192,69958,1,0,0:0:0:0:
448,192,70001,1,0,0:0:0:0:
192,192,70046,1,0,0:0:0:0:
320,192,70090,1,0,0:0:0:0:
448,192,70133,1,0,0:0:0:0:
320,192,70178,1,0,0:0:0:0:
192,192,70222,1,0,0:0:0:0:
64,192,70266,1,0,0:0:0:0:
320,192,70310,1,0,0:0:0:0:
192,192,70354,1,0,0:0:0:0:
64,192,70398,1,0,0:0:0:0:
320,192,70442,1,0,0:0:0:0:
192,192,70487,1,0,0:0:0:0:
64,192,70531,1,0,0:0:0:0:
320,192,70574,1,0,0:0:0:0:
192,192,70619,1,0,0:0:0:0:
64,192,70663,1,0,0:0:0:0:
320,192,70707,1,0,0:0:0:0:
192,192,70751,1,0,0:0:0:0:
64,192,70796,1,0,0:0:0:0:
320,192,70839,1,0,0:0:0:0:
192,192,70883,1,0,0:0:0:0:
64,192,70928,1,0,0:0:0:0:
320,192,70971,1,0,0:0:0:0:
448,192,70971,1,0,0:0:0:0:
192,192,71060,1,0,0:0:0:0:
320,192,71148,1,0,0:0:0:0:
448,192,71236,1,0,0:0:0:0:
192,192,71236,1,0,0:0:0:0:
64,192,71324,1,0,0:0:0:0:
448,192,71412,1,0,0:0:0:0:
320,192,71501,1,0,0:0:0:0:
192,192,71501,1,0,0:0:0:0:
64,192,71589,1,0,0:0:0:0:
448,192,71677,1,0,0:0:0:0:
192,192,71766,1,0,0:0:0:0:
320,192,71809,1,0,0:0:0:0:
448,192,71853,1,0,0:0:0:0:
192,192,71898,1,0,0:0:0:0:
320,192,71941,1,0,0:0:0:0:
448,192,71986,1,0,0:0:0:0:
192,192,72030,1,0,0:0:0:0:
320,192,72073,1,0,0:0:0:0:
448,192,72118,1,0,0:0:0:0:
192,192,72162,1,0,0:0:0:0:
320,192,72206,1,0,0:0:0:0:
448,192,72250,1,0,0:0:0:0:
320,192,72294,1,0,0:0:0:0:
192,192,72339,1,0,0:0:0:0:
64,192,72382,1,0,0:0:0:0:
320,192,72427,1,0,0:0:0:0:
192,192,72471,1,0,0:0:0:0:
64,192,72514,1,0,0:0:0:0:
320,192,72559,1,0,0:0:0:0:
192,192,72603,1,0,0:0:0:0:
64,192,72647,1,0,0:0:0:0:
320,192,72691,1,0,0:0:0:0:
192,192,72736,1,0,0:0:0:0:
64,192,72779,1,0,0:0:0:0:
320,192,72823,1,0,0:0:0:0:
192,192,72868,1,0,0:0:0:0:
64,192,72911,1,0,0:0:0:0:
320,192,72956,1,0,0:0:0:0:
192,192,73000,1,0,0:0:0:0:
64,192,73043,1,0,0:0:0:0:
320,192,73088,1,0,0:0:0:0:
448,192,73088,1,0,0:0:0:0:
192,192,73176,1,0,0:0:0:0:
320,192,73264,1,0,0:0:0:0:
192,192,73352,1,0,0:0:0:0:
448,192,73352,1,0,0:0:0:0:
320,192,73441,1,0,0:0:0:0:
64,192,73529,1,0,0:0:0:0:
320,192,73617,1,0,0:0:0:0:
192,192,73617,1,0,0:0:0:0:
448,192,73706,1,0,0:0:0:0:
320,192,73793,1,0,0:0:0:0:
192,192,73881,1,0,0:0:0:0:
64,192,73881,1,0,0:0:0:0:
320,192,73926,1,0,0:0:0:0:
448,192,73970,1,0,0:0:0:0:
192,192,74013,1,0,0:0:0:0:
320,192,74058,1,0,0:0:0:0:
448,192,74102,1,0,0:0:0:0:
192,192,74146,1,0,0:0:0:0:
320,192,74190,1,0,0:0:0:0:
448,192,74234,1,0,0:0:0:0:
192,192,74279,1,0,0:0:0:0:
320,192,74322,1,0,0:0:0:0:
448,192,74367,1,0,0:0:0:0:
320,192,74411,1,0,0:0:0:0:
192,192,74454,1,0,0:0:0:0:
64,192,74499,1,0,0:0:0:0:
320,192,74543,1,0,0:0:0:0:
192,192,74587,1,0,0:0:0:0:
64,192,74631,1,0,0:0:0:0:
320,192,74676,1,0,0:0:0:0:
192,192,74719,1,0,0:0:0:0:
64,192,74763,1,0,0:0:0:0:
320,192,74808,1,0,0:0:0:0:
192,192,74851,1,0,0:0:0:0:
64,192,74896,1,0,0:0:0:0:
320,192,74940,1,0,0:0:0:0:
192,192,74983,1,0,0:0:0:0:
64,192,75028,1,0,0:0:0:0:
320,192,75072,1,0,0:0:0:0:
192,192,75117,1,0,0:0:0:0:
64,192,75160,1,0,0:0:0:0:
448,192,75204,1,0,0:0:0:0:
192,192,75204,1,0,0:0:0:0:
320,192,75292,1,0,0:0:0:0:
448,192,75381,1,0,0:0:0:0:
192,192,75469,1,0,0:0:0:0:
64,192,75469,1,0,0:0:0:0:
320,192,75557,1,0,0:0:0:0:
192,192,75646,1,0,0:0:0:0:
320,192,75733,1,0,0:0:0:0:
448,192,75733,1,0,0:0:0:0:
64,192,75821,1,0,0:0:0:0:
192,192,75910,1,0,0:0:0:0:
448,192,75998,1,0,0:0:0:0:
64,192,75998,1,0,0:0:0:0:
320,192,76042,1,0,0:0:0:0:
192,192,76130,1,0,0:0:0:0:
320,192,76262,1,0,0:0:0:0:
64,192,76394,1,0,0:0:0:0:
448,192,76394,1,0,0:0:0:0:
320,192,76439,1,0,0:0:0:0:
192,192,76527,1,0,0:0:0:0:
448,192,76659,1,0,0:0:0:0:
64,192,76791,5,0,0:0:0:0:
320,192,76791,1,0,0:0:0:0:
192,192,76836,1,0,0:0:0:0:
448,192,76858,1,0,0:0:0:0:
448,192,77057,1,0,0:0:0:0:
64,192,77057,1,0,0:0:0:0:
192,192,77100,1,0,0:0:0:0:
320,192,77144,1,0,0:0:0:0:
64,192,77189,1,0,0:0:0:0:
448,192,77232,1,0,0:0:0:0:
320,192,77277,1,0,0:0:0:0:
192,192,77321,1,0,0:0:0:0:
448,192,77364,1,0,0:0:0:0:
320,192,77409,1,0,0:0:0:0:
64,192,77453,1,0,0:0:0:0:
192,192,77497,1,0,0:0:0:0:
320,192,77541,1,0,0:0:0:0:
448,192,77586,1,0,0:0:0:0:
64,192,77629,1,0,0:0:0:0:
192,192,77673,1,0,0:0:0:0:
320,192,77718,1,0,0:0:0:0:
64,192,77761,1,0,0:0:0:0:
192,192,77806,1,0,0:0:0:0:
320,192,77850,1,0,0:0:0:0:
448,192,77894,1,0,0:0:0:0:
192,192,77938,1,0,0:0:0:0:
320,192,77982,1,0,0:0:0:0:
64,192,78027,1,0,0:0:0:0:
192,192,78114,5,0,0:0:0:0:
448,192,78114,1,0,0:0:0:0:
320,192,78114,1,0,0:0:0:0:
64,192,78379,1,0,0:0:0:0:
320,192,78379,1,0,0:0:0:0:
448,192,78379,1,0,0:0:0:0:
192,192,78643,1,0,0:0:0:0:
320,192,78643,1,0,0:0:0:0:
64,192,78643,1,0,0:0:0:0:
448,192,78908,1,0,0:0:0:0:
64,192,78908,1,0,0:0:0:0:
192,192,78908,1,0,0:0:0:0:
320,192,79172,1,0,0:0:0:0:
448,192,79172,1,0,0:0:0:0:
64,192,79172,1,0,0:0:0:0:
448,192,79437,1,0,0:0:0:0:
192,192,79437,1,0,0:0:0:0:
320,192,79437,1,0,0:0:0:0:
320,192,79701,1,0,0:0:0:0:
64,192,79701,1,0,0:0:0:0:
192,192,79701,1,0,0:0:0:0:
64,192,79967,1,0,0:0:0:0:
448,192,79967,1,0,0:0:0:0:
64,192,80231,1,0,0:0:0:0:
448,192,80231,1,0,0:0:0:0:
192,192,80231,1,0,0:0:0:0:
320,192,80231,1,0,0:0:0:0:
192,192,80496,1,0,0:0:0:0:
64,192,80496,1,0,0:0:0:0:
64,192,80760,1,0,0:0:0:0:
448,192,80760,1,0,0:0:0:0:
320,192,80760,1,0,0:0:0:0:
192,192,80760,1,0,0:0:0:0:
192,192,81024,1,0,0:0:0:0:
448,192,81024,1,0,0:0:0:0:
192,192,81289,1,0,0:0:0:0:
448,192,81289,1,0,0:0:0:0:
320,192,81289,1,0,0:0:0:0:
64,192,81289,1,0,0:0:0:0:
64,192,81553,1,0,0:0:0:0:
320,192,81553,1,0,0:0:0:0:
192,192,81818,1,0,0:0:0:0:
448,192,81818,1,0,0:0:0:0:
64,192,81818,1,0,0:0:0:0:
320,192,81818,1,0,0:0:0:0:
448,192,82082,1,0,0:0:0:0:
320,192,82082,1,0,0:0:0:0:
192,192,82347,1,0,0:0:0:0:
320,192,82347,1,0,0:0:0:0:
64,192,82347,1,0,0:0:0:0:
64,192,82612,1,0,0:0:0:0:
320,192,82612,1,0,0:0:0:0:
448,192,82612,1,0,0:0:0:0:
64,192,82877,1,0,0:0:0:0:
448,192,82877,1,0,0:0:0:0:
192,192,82877,1,0,0:0:0:0:
64,192,83141,1,0,0:0:0:0:
192,192,83141,1,0,0:0:0:0:
320,192,83141,1,0,0:0:0:0:
448,192,83406,1,0,0:0:0:0:
320,192,83406,1,0,0:0:0:0:
64,192,83406,1,0,0:0:0:0:
192,192,83670,1,0,0:0:0:0:
320,192,83670,1,0,0:0:0:0:
448,192,83670,1,0,0:0:0:0:
320,192,83934,1,0,0:0:0:0:
64,192,83934,1,0,0:0:0:0:
192,192,83934,1,0,0:0:0:0:
448,192,84199,1,0,0:0:0:0:
64,192,84199,1,0,0:0:0:0:
64,192,84463,1,0,0:0:0:0:
192,192,84463,1,0,0:0:0:0:
448,192,84463,1,0,0:0:0:0:
320,192,84463,1,0,0:0:0:0:
192,192,84728,1,0,0:0:0:0:
448,192,84728,1,0,0:0:0:0:
448,192,84992,1,0,0:0:0:0:
320,192,84992,1,0,0:0:0:0:
192,192,84992,1,0,0:0:0:0:
64,192,84992,1,0,0:0:0:0:
320,192,85257,1,0,0:0:0:0:
448,192,85257,1,0,0:0:0:0:
64,192,85522,1,0,0:0:0:0:
192,192,85522,1,0,0:0:0:0:
448,192,85522,1,0,0:0:0:0:
320,192,85522,1,0,0:0:0:0:
320,192,85787,1,0,0:0:0:0:
64,192,85787,1,0,0:0:0:0:
64,192,86051,1,0,0:0:0:0:
192,192,86051,1,0,0:0:0:0:
320,192,86051,1,0,0:0:0:0:
448,192,86051,1,0,0:0:0:0:
64,192,86316,1,0,0:0:0:0:
192,192,86316,1,0,0:0:0:0:
64,192,86580,1,0,0:0:0:0:
192,192,86580,1,0,0:0:0:0:
320,192,86580,1,0,0:0:0:0:
64,192,86844,1,0,0:0:0:0:
448,192,86844,1,0,0:0:0:0:
320,192,86844,1,0,0:0:0:0:
64,192,87109,1,0,0:0:0:0:
192,192,87109,1,0,0:0:0:0:
320,192,87109,1,0,0:0:0:0:
448,192,87373,1,0,0:0:0:0:
64,192,87373,1,0,0:0:0:0:
192,192,87373,1,0,0:0:0:0:
320,192,87638,1,0,0:0:0:0:
64,192,87638,1,0,0:0:0:0:
448,192,87638,1,0,0:0:0:0:
192,192,87682,1,0,0:0:0:0:
64,192,87727,1,0,0:0:0:0:
448,192,87770,1,0,0:0:0:0:
320,192,87814,1,0,0:0:0:0:
64,192,87859,1,0,0:0:0:0:
192,192,87902,1,0,0:0:0:0:
448,192,87902,1,0,0:0:0:0:
320,192,87947,1,0,0:0:0:0:
64,192,87991,1,0,0:0:0:0:
192,192,88034,1,0,0:0:0:0:
448,192,88079,1,0,0:0:0:0:
320,192,88123,1,0,0:0:0:0:
64,192,88168,1,0,0:0:0:0:
192,192,88168,1,0,0:0:0:0:
64,192,88432,1,0,0:0:0:0:
448,192,88432,1,0,0:0:0:0:
64,192,88697,1,0,0:0:0:0:
448,192,88697,1,0,0:0:0:0:
192,192,88697,1,0,0:0:0:0:
320,192,88697,1,0,0:0:0:0:
320,192,88961,1,0,0:0:0:0:
192,192,88961,1,0,0:0:0:0:
64,192,89226,1,0,0:0:0:0:
448,192,89226,1,0,0:0:0:0:
320,192,89226,1,0,0:0:0:0:
192,192,89226,1,0,0:0:0:0:
192,192,89490,1,0,0:0:0:0:
448,192,89490,1,0,0:0:0:0:
192,192,89754,1,0,0:0:0:0:
448,192,89754,1,0,0:0:0:0:
320,192,89754,1,0,0:0:0:0:
64,192,89754,1,0,0:0:0:0:
64,192,90019,1,0,0:0:0:0:
320,192,90019,1,0,0:0:0:0:
192,192,90283,1,0,0:0:0:0:
448,192,90283,1,0,0:0:0:0:
64,192,90283,1,0,0:0:0:0:
320,192,90283,1,0,0:0:0:0:
192,192,90548,1,0,0:0:0:0:
320,192,90548,1,0,0:0:0:0:
192,192,90812,1,0,0:0:0:0:
448,192,90812,1,0,0:0:0:0:
320,192,90812,1,0,0:0:0:0:
64,192,91078,1,0,0:0:0:0:
320,192,91078,1,0,0:0:0:0:
448,192,91078,1,0,0:0:0:0:
64,192,91342,1,0,0:0:0:0:
448,192,91342,1,0,0:0:0:0:
192,192,91342,1,0,0:0:0:0:
64,192,91607,1,0,0:0:0:0:
192,192,91607,1,0,0:0:0:0:
320,192,91607,1,0,0:0:0:0:
192,192,91871,1,0,0:0:0:0:
64,192,91871,1,0,0:0:0:0:
448,192,91871,1,0,0:0:0:0:
320,192,91916,1,0,0:0:0:0:
448,192,91959,1,0,0:0:0:0:
64,192,92003,1,0,0:0:0:0:
192,192,92048,1,0,0:0:0:0:
448,192,92091,1,0,0:0:0:0:
320,192,92136,1,0,0:0:0:0:
64,192,92136,1,0,0:0:0:0:
192,192,92180,1,0,0:0:0:0:
448,192,92223,1,0,0:0:0:0:
320,192,92268,1,0,0:0:0:0:
64,192,92312,1,0,0:0:0:0:
192,192,92356,1,0,0:0:0:0:
448,192,92400,1,0,0:0:0:0:
320,192,92400,1,0,0:0:0:0:
448,192,92664,1,0,0:0:0:0:
64,192,92664,1,0,0:0:0:0:
64,192,92929,1,0,0:0:0:0:
192,192,92929,1,0,0:0:0:0:
448,192,92929,1,0,0:0:0:0:
320,192,92929,1,0,0:0:0:0:
64,192,93193,1,0,0:0:0:0:
192,192,93193,1,0,0:0:0:0:
448,192,93458,1,0,0:0:0:0:
320,192,93458,1,0,0:0:0:0:
192,192,93458,1,0,0:0:0:0:
64,192,93458,1,0,0:0:0:0:
64,192,93723,1,0,0:0:0:0:
320,192,93723,1,0,0:0:0:0:
64,192,93988,1,0,0:0:0:0:
192,192,93988,1,0,0:0:0:0:
448,192,93988,1,0,0:0:0:0:
320,192,93988,1,0,0:0:0:0:
448,192,94252,1,0,0:0:0:0:
192,192,94252,1,0,0:0:0:0:
64,192,94517,1,0,0:0:0:0:
192,192,94517,1,0,0:0:0:0:
320,192,94517,1,0,0:0:0:0:
448,192,94517,1,0,0:0:0:0:
192,192,94649,1,0,0:0:0:0:
448,192,94781,1,0,0:0:0:0:
320,192,94781,1,0,0:0:0:0:
320,192,94913,1,0,0:0:0:0:
64,192,95046,1,0,0:0:0:0:
448,192,95046,1,0,0:0:0:0:
192,192,95046,1,0,0:0:0:0:
192,192,95178,1,0,0:0:0:0:
320,192,95310,1,0,0:0:0:0:
448,192,95310,1,0,0:0:0:0:
64,192,95310,1,0,0:0:0:0:
448,192,95442,1,0,0:0:0:0:
320,192,95574,1,0,0:0:0:0:
192,192,95574,1,0,0:0:0:0:
64,192,95574,1,0,0:0:0:0:
320,192,95707,1,0,0:0:0:0:
192,192,95839,1,0,0:0:0:0:
64,192,95839,1,0,0:0:0:0:
448,192,95839,1,0,0:0:0:0:
192,192,95971,1,0,0:0:0:0:
448,192,96103,1,0,0:0:0:0:
64,192,96103,1,0,0:0:0:0:
320,192,96103,1,0,0:0:0:0:
64,192,96236,1,0,0:0:0:0:
448,192,96368,1,0,0:0:0:0:
320,192,96368,1,0,0:0:0:0:
192,192,96368,1,0,0:0:0:0:
448,192,96501,1,0,0:0:0:0:
320,192,96633,1,0,0:0:0:0:
192,192,96633,1,0,0:0:0:0:
64,192,96633,1,0,0:0:0:0:
192,192,96766,1,0,0:0:0:0:
448,192,96898,1,0,0:0:0:0:
64,192,96898,1,0,0:0:0:0:
192,192,97162,1,0,0:0:0:0:
320,192,97162,1,0,0:0:0:0:
64,192,97162,1,0,0:0:0:0:
448,192,97162,1,0,0:0:0:0:
192,192,97427,1,0,0:0:0:0:
64,192,97427,1,0,0:0:0:0:
320,192,97691,1,0,0:0:0:0:
192,192,97691,1,0,0:0:0:0:
64,192,97691,1,0,0:0:0:0:
448,192,97691,1,0,0:0:0:0:
320,192,97823,1,0,0:0:0:0:
448,192,97956,1,0,0:0:0:0:
192,192,97956,1,0,0:0:0:0:
192,192,98088,1,0,0:0:0:0:
320,192,98220,1,0,0:0:0:0:
64,192,98220,1,0,0:0:0:0:
192,192,98220,1,0,0:0:0:0:
448,192,98220,1,0,0:0:0:0:
448,192,98352,1,0,0:0:0:0:
320,192,98484,1,0,0:0:0:0:
64,192,98484,1,0,0:0:0:0:
320,192,98617,1,0,0:0:0:0:
64,192,98749,1,0,0:0:0:0:
320,192,98749,1,0,0:0:0:0:
192,192,98749,1,0,0:0:0:0:
448,192,98749,1,0,0:0:0:0:
192,192,98881,1,0,0:0:0:0:
320,192,99013,1,0,0:0:0:0:
448,192,99013,1,0,0:0:0:0:
320,192,99279,1,0,0:0:0:0:
448,192,99279,1,0,0:0:0:0:
192,192,99279,1,0,0:0:0:0:
192,192,99411,1,0,0:0:0:0:
448,192,99543,1,0,0:0:0:0:
320,192,99543,1,0,0:0:0:0:
64,192,99543,1,0,0:0:0:0:
192,192,99808,1,0,0:0:0:0:
448,192,99808,1,0,0:0:0:0:
64,192,99808,1,0,0:0:0:0:
448,192,99940,1,0,0:0:0:0:
320,192,100072,1,0,0:0:0:0:
192,192,100072,1,0,0:0:0:0:
64,192,100072,1,0,0:0:0:0:
192,192,100204,1,0,0:0:0:0:
64,192,100337,1,0,0:0:0:0:
320,192,100337,1,0,0:0:0:0:
448,192,100337,1,0,0:0:0:0:
64,192,100469,1,0,0:0:0:0:
448,192,100601,1,0,0:0:0:0:
320,192,100601,1,0,0:0:0:0:
192,192,100601,1,0,0:0:0:0:
448,192,100733,1,0,0:0:0:0:
192,192,100866,1,0,0:0:0:0:
64,192,100866,1,0,0:0:0:0:
320,192,100866,1,0,0:0:0:0:
320,192,100998,1,0,0:0:0:0:
64,192,101130,1,0,0:0:0:0:
448,192,101130,1,0,0:0:0:0:
448,192,101394,1,0,0:0:0:0:
320,192,101394,1,0,0:0:0:0:
64,192,101394,1,0,0:0:0:0:
192,192,101394,1,0,0:0:0:0:
448,192,101659,1,0,0:0:0:0:
320,192,101659,1,0,0:0:0:0:
192,192,101923,1,0,0:0:0:0:
64,192,101923,1,0,0:0:0:0:
448,192,101923,1,0,0:0:0:0:
320,192,101923,1,0,0:0:0:0:
192,192,102057,1,0,0:0:0:0:
320,192,102189,1,0,0:0:0:0:
64,192,102189,1,0,0:0:0:0:
320,192,102321,1,0,0:0:0:0:
448,192,102453,1,0,0:0:0:0:
320,192,102453,1,0,0:0:0:0:
64,192,102453,1,0,0:0:0:0:
192,192,102453,1,0,0:0:0:0:
64,192,102586,1,0,0:0:0:0:
192,192,102718,1,0,0:0:0:0:
448,192,102718,1,0,0:0:0:0:
192,192,102850,1,0,0:0:0:0:
320,192,102982,1,0,0:0:0:0:
448,192,102982,1,0,0:0:0:0:
64,192,102982,1,0,0:0:0:0:
192,192,102982,1,0,0:0:0:0:
320,192,103114,1,0,0:0:0:0:
192,192,103247,1,0,0:0:0:0:
64,192,103247,1,0,0:0:0:0:
64,192,103511,1,0,0:0:0:0:
192,192,103511,1,0,0:0:0:0:
320,192,103511,1,0,0:0:0:0:
448,192,103511,1,0,0:0:0:0:
192,192,103643,1,0,0:0:0:0:
64,192,103776,1,0,0:0:0:0:
448,192,103776,1,0,0:0:0:0:
320,192,103776,1,0,0:0:0:0:
448,192,103908,1,0,0:0:0:0:
64,192,104040,1,0,0:0:0:0:
192,192,104040,1,0,0:0:0:0:
320,192,104040,1,0,0:0:0:0:
320,192,104172,1,0,0:0:0:0:
448,192,104304,1,0,0:0:0:0:
64,192,104304,1,0,0:0:0:0:
192,192,104304,1,0,0:0:0:0:
64,192,104569,1,0,0:0:0:0:
448,192,104569,1,0,0:0:0:0:
192,192,104569,1,0,0:0:0:0:
320,192,104613,1,0,0:0:0:0:
192,192,104658,1,0,0:0:0:0:
448,192,104701,1,0,0:0:0:0:
320,192,104746,1,0,0:0:0:0:
64,192,104790,1,0,0:0:0:0:
448,192,104834,1,0,0:0:0:0:
192,192,104834,1,0,0:0:0:0:
320,192,104878,1,0,0:0:0:0:
64,192,104922,1,0,0:0:0:0:
192,192,104967,1,0,0:0:0:0:
448,192,105010,1,0,0:0:0:0:
320,192,105054,1,0,0:0:0:0:
192,192,105099,1,0,0:0:0:0:
64,192,105099,1,0,0:0:0:0:
64,192,105363,1,0,0:0:0:0:
448,192,105363,1,0,0:0:0:0:
64,192,105628,1,0,0:0:0:0:
448,192,105628,1,0,0:0:0:0:
192,192,105628,1,0,0:0:0:0:
320,192,105628,1,0,0:0:0:0:
320,192,105760,1,0,0:0:0:0:
192,192,105892,1,0,0:0:0:0:
64,192,105892,1,0,0:0:0:0:
192,192,106024,1,0,0:0:0:0:
64,192,106157,1,0,0:0:0:0:
448,192,106157,1,0,0:0:0:0:
320,192,106157,1,0,0:0:0:0:
192,192,106157,1,0,0:0:0:0:
320,192,106289,1,0,0:0:0:0:
192,192,106421,1,0,0:0:0:0:
448,192,106421,1,0,0:0:0:0:
192,192,106686,1,0,0:0:0:0:
448,192,106686,1,0,0:0:0:0:
64,192,106686,1,0,0:0:0:0:
320,192,106730,1,0,0:0:0:0:
192,192,106774,1,0,0:0:0:0:
448,192,106818,1,0,0:0:0:0:
320,192,106862,1,0,0:0:0:0:
192,192,106907,1,0,0:0:0:0:
64,192,106950,1,0,0:0:0:0:
448,192,106950,1,0,0:0:0:0:
192,192,107214,1,0,0:0:0:0:
448,192,107214,1,0,0:0:0:0:
64,192,107214,1,0,0:0:0:0:
320,192,107214,1,0,0:0:0:0:
448,192,107479,1,0,0:0:0:0:
320,192,107479,1,0,0:0:0:0:
192,192,107744,1,0,0:0:0:0:
448,192,107744,1,0,0:0:0:0:
320,192,107744,1,0,0:0:0:0:
192,192,107877,1,0,0:0:0:0:
64,192,108009,1,0,0:0:0:0:
320,192,108009,1,0,0:0:0:0:
448,192,108009,1,0,0:0:0:0:
320,192,108141,1,0,0:0:0:0:
64,192,108273,1,0,0:0:0:0:
448,192,108273,1,0,0:0:0:0:
192,192,108273,1,0,0:0:0:0:
448,192,108406,1,0,0:0:0:0:
64,192,108538,1,0,0:0:0:0:
192,192,108538,1,0,0:0:0:0:
320,192,108538,1,0,0:0:0:0:
320,192,108802,1,0,0:0:0:0:
64,192,108802,1,0,0:0:0:0:
448,192,108802,1,0,0:0:0:0:
192,192,108847,1,0,0:0:0:0:
320,192,108890,1,0,0:0:0:0:
64,192,108934,1,0,0:0:0:0:
192,192,108979,1,0,0:0:0:0:
448,192,109022,1,0,0:0:0:0:
320,192,109067,1,0,0:0:0:0:
64,192,109067,1,0,0:0:0:0:
192,192,109111,1,0,0:0:0:0:
448,192,109154,1,0,0:0:0:0:
320,192,109199,1,0,0:0:0:0:
64,192,109243,1,0,0:0:0:0:
192,192,109287,1,0,0:0:0:0:
448,192,109331,1,0,0:0:0:0:
320,192,109331,1,0,0:0:0:0:
448,192,109596,1,0,0:0:0:0:
64,192,109596,1,0,0:0:0:0:
64,192,109860,1,0,0:0:0:0:
192,192,109860,1,0,0:0:0:0:
448,192,109860,1,0,0:0:0:0:
320,192,109860,1,0,0:0:0:0:
448,192,109992,1,0,0:0:0:0:
192,192,110124,1,0,0:0:0:0:
320,192,110124,1,0,0:0:0:0:
192,192,110257,1,0,0:0:0:0:
448,192,110390,1,0,0:0:0:0:
320,192,110390,1,0,0:0:0:0:
192,192,110390,1,0,0:0:0:0:
64,192,110390,1,0,0:0:0:0:
320,192,110522,1,0,0:0:0:0:
64,192,110654,1,0,0:0:0:0:
448,192,110654,1,0,0:0:0:0:
64,192,110919,1,0,0:0:0:0:
192,192,110919,1,0,0:0:0:0:
448,192,110919,1,0,0:0:0:0:
320,192,110919,1,0,0:0:0:0:
192,192,111183,1,0,0:0:0:0:
320,192,111183,1,0,0:0:0:0:
64,192,111448,1,0,0:0:0:0:
192,192,111448,1,0,0:0:0:0:
320,192,111448,1,0,0:0:0:0:
448,192,111448,1,0,0:0:0:0:
448,192,111712,1,0,0:0:0:0:
320,192,111712,1,0,0:0:0:0:
448,192,111977,1,0,0:0:0:0:
320,192,111977,1,0,0:0:0:0:
192,192,111977,1,0,0:0:0:0:
64,192,111977,1,0,0:0:0:0:
192,192,112109,1,0,0:0:0:0:
64,192,112241,1,0,0:0:0:0:
320,192,112241,1,0,0:0:0:0:
448,192,112241,1,0,0:0:0:0:
320,192,112373,1,0,0:0:0:0:
64,192,112506,1,0,0:0:0:0:
192,192,112506,1,0,0:0:0:0:
448,192,112506,1,0,0:0:0:0:
448,192,112638,1,0,0:0:0:0:
192,192,112770,1,0,0:0:0:0:
64,192,112770,1,0,0:0:0:0:
320,192,112770,1,0,0:0:0:0:
448,192,113034,1,0,0:0:0:0:
320,192,113034,1,0,0:0:0:0:
64,192,113034,1,0,0:0:0:0:
192,192,113300,1,0,0:0:0:0:
64,192,113300,1,0,0:0:0:0:
448,192,113300,1,0,0:0:0:0:
320,192,113564,1,0,0:0:0:0:
192,192,113564,1,0,0:0:0:0:
448,192,113564,1,0,0:0:0:0:
64,192,113829,1,0,0:0:0:0:
320,192,113829,1,0,0:0:0:0:
64,192,114093,1,0,0:0:0:0:
192,192,114093,1,0,0:0:0:0:
320,192,114093,1,0,0:0:0:0:
448,192,114093,1,0,0:0:0:0:
320,192,114226,1,0,0:0:0:0:
64,192,114358,1,0,0:0:0:0:
192,192,114358,1,0,0:0:0:0:
64,192,114490,1,0,0:0:0:0:
448,192,114622,1,0,0:0:0:0:
320,192,114622,1,0,0:0:0:0:
192,192,114622,1,0,0:0:0:0:
64,192,114622,1,0,0:0:0:0:
320,192,114754,1,0,0:0:0:0:
320,192,114887,1,0,0:0:0:0:
448,192,114887,1,0,0:0:0:0:
448,192,115151,1,0,0:0:0:0:
192,192,115151,1,0,0:0:0:0:
320,192,115151,1,0,0:0:0:0:
64,192,115151,1,0,0:0:0:0:
64,192,115416,1,0,0:0:0:0:
320,192,115416,1,0,0:0:0:0:
448,192,115680,1,0,0:0:0:0:
320,192,115680,1,0,0:0:0:0:
64,192,115680,1,0,0:0:0:0:
192,192,115680,1,0,0:0:0:0:
192,192,115946,1,0,0:0:0:0:
448,192,115946,1,0,0:0:0:0:
64,192,116210,1,0,0:0:0:0:
192,192,116210,1,0,0:0:0:0:
320,192,116253,1,0,0:0:0:0:
448,192,116298,1,0,0:0:0:0:
64,192,116342,1,0,0:0:0:0:
192,192,116386,1,0,0:0:0:0:
320,192,116430,1,0,0:0:0:0:
448,192,116474,1,0,0:0:0:0:
192,192,116518,1,0,0:0:0:0:
64,192,116562,1,0,0:0:0:0:
320,192,116607,1,0,0:0:0:0:
192,192,116650,1,0,0:0:0:0:
448,192,116694,1,0,0:0:0:0:
320,192,116739,1,0,0:0:0:0:
64,192,116739,1,0,0:0:0:0:
192,192,116783,1,0,0:0:0:0:
320,192,116827,1,0,0:0:0:0:
448,192,116871,1,0,0:0:0:0:
64,192,116916,1,0,0:0:0:0:
192,192,116959,1,0,0:0:0:0:
320,192,117003,1,0,0:0:0:0:
448,192,117048,1,0,0:0:0:0:
192,192,117091,1,0,0:0:0:0:
320,192,117136,1,0,0:0:0:0:
448,192,117180,1,0,0:0:0:0:
320,192,117223,1,0,0:0:0:0:
192,192,117268,1,0,0:0:0:0:
64,192,117268,1,0,0:0:0:0:
448,192,117312,1,0,0:0:0:0:
320,192,117356,1,0,0:0:0:0:
192,192,117400,1,0,0:0:0:0:
64,192,117444,1,0,0:0:0:0:
320,192,117488,1,0,0:0:0:0:
192,192,117532,1,0,0:0:0:0:
64,192,117577,1,0,0:0:0:0:
448,192,117620,1,0,0:0:0:0:
320,192,117664,1,0,0:0:0:0:
64,192,117709,1,0,0:0:0:0:
192,192,117753,1,0,0:0:0:0:
448,192,117797,1,0,0:0:0:0:
320,192,117797,1,0,0:0:0:0:
192,192,117841,1,0,0:0:0:0:
64,192,117886,1,0,0:0:0:0:
448,192,117929,1,0,0:0:0:0:
320,192,117973,1,0,0:0:0:0:
64,192,118018,1,0,0:0:0:0:
192,192,118061,1,0,0:0:0:0:
320,192,118106,1,0,0:0:0:0:
64,192,118150,1,0,0:0:0:0:
448,192,118193,1,0,0:0:0:0:
320,192,118238,1,0,0:0:0:0:
192,192,118282,1,0,0:0:0:0:
448,192,118326,1,0,0:0:0:0:
64,192,118326,1,0,0:0:0:0:
192,192,118370,1,0,0:0:0:0:
320,192,118414,1,0,0:0:0:0:
448,192,118458,1,0,0:0:0:0:
64,192,118502,1,0,0:0:0:0:
192,192,118547,1,0,0:0:0:0:
320,192,118590,1,0,0:0:0:0:
448,192,118634,1,0,0:0:0:0:
192,192,118679,1,0,0:0:0:0:
320,192,118723,1,0,0:0:0:0:
448,192,118767,1,0,0:0:0:0:
192,192,118811,1,0,0:0:0:0:
320,192,118856,1,0,0:0:0:0:
64,192,118899,1,0,0:0:0:0:
448,192,118943,1,0,0:0:0:0:
320,192,118988,1,0,0:0:0:0:
64,192,119031,1,0,0:0:0:0:
192,192,119076,1,0,0:0:0:0:
320,192,119120,1,0,0:0:0:0:
448,192,119163,1,0,0:0:0:0:
192,192,119208,1,0,0:0:0:0:
320,192,119252,1,0,0:0:0:0:
64,192,119296,1,0,0:0:0:0:
192,192,119340,1,0,0:0:0:0:
448,192,119384,1,0,0:0:0:0:
320,192,119384,1,0,0:0:0:0:
64,192,119428,1,0,0:0:0:0:
192,192,119472,1,0,0:0:0:0:
448,192,119517,1,0,0:0:0:0:
320,192,119561,1,0,0:0:0:0:
192,192,119604,1,0,0:0:0:0:
64,192,119649,1,0,0:0:0:0:
448,192,119693,1,0,0:0:0:0:
320,192,119737,1,0,0:0:0:0:
192,192,119781,1,0,0:0:0:0:
448,192,119826,1,0,0:0:0:0:
64,192,119869,1,0,0:0:0:0:
320,192,119913,1,0,0:0:0:0:
448,192,119913,1,0,0:0:0:0:
192,192,119958,1,0,0:0:0:0:
64,192,120001,1,0,0:0:0:0:
320,192,120046,1,0,0:0:0:0:
448,192,120090,1,0,0:0:0:0:
192,192,120133,1,0,0:0:0:0:
64,192,120178,1,0,0:0:0:0:
448,192,120222,1,0,0:0:0:0:
320,192,120266,1,0,0:0:0:0:
192,192,120310,1,0,0:0:0:0:
64,192,120354,1,0,0:0:0:0:
448,192,120398,1,0,0:0:0:0:
192,192,120442,1,0,0:0:0:0:
320,192,120442,1,0,0:0:0:0:
64,192,120487,1,0,0:0:0:0:
448,192,120531,1,0,0:0:0:0:
320,192,120574,1,0,0:0:0:0:
192,192,120619,1,0,0:0:0:0:
64,192,120663,1,0,0:0:0:0:
448,192,120707,1,0,0:0:0:0:
192,192,120751,1,0,0:0:0:0:
320,192,120796,1,0,0:0:0:0:
64,192,120839,1,0,0:0:0:0:
448,192,120883,1,0,0:0:0:0:
192,192,120928,1,0,0:0:0:0:
320,192,120971,1,0,0:0:0:0:
448,192,120971,1,0,0:0:0:0:
64,192,121016,1,0,0:0:0:0:
192,192,121060,1,0,0:0:0:0:
448,192,121103,1,0,0:0:0:0:
320,192,121148,1,0,0:0:0:0:
64,192,121192,1,0,0:0:0:0:
192,192,121236,1,0,0:0:0:0:
320,192,121280,1,0,0:0:0:0:
64,192,121324,1,0,0:0:0:0:
448,192,121368,1,0,0:0:0:0:
320,192,121412,1,0,0:0:0:0:
192,192,121457,1,0,0:0:0:0:
64,192,121501,1,0,0:0:0:0:
448,192,121501,1,0,0:0:0:0:
320,192,121544,1,0,0:0:0:0:
192,192,121589,1,0,0:0:0:0:
448,192,121633,1,0,0:0:0:0:
320,192,121677,1,0,0:0:0:0:
64,192,121721,1,0,0:0:0:0:
192,192,121766,1,0,0:0:0:0:
448,192,121809,1,0,0:0:0:0:
320,192,121853,1,0,0:0:0:0:
64,192,121898,1,0,0:0:0:0:
192,192,121941,1,0,0:0:0:0:
320,192,121986,1,0,0:0:0:0:
448,192,122030,1,0,0:0:0:0:
192,192,122030,1,0,0:0:0:0:
64,192,122073,1,0,0:0:0:0:
320,192,122118,1,0,0:0:0:0:
448,192,122162,1,0,0:0:0:0:
64,192,122206,1,0,0:0:0:0:
192,192,122250,1,0,0:0:0:0:
320,192,122294,1,0,0:0:0:0:
64,192,122559,1,0,0:0:0:0:
448,192,122559,1,0,0:0:0:0:
320,192,122603,1,0,0:0:0:0:
192,192,122647,1,0,0:0:0:0:
64,192,122691,1,0,0:0:0:0:
320,192,122736,1,0,0:0:0:0:
448,192,122779,1,0,0:0:0:0:
192,192,122823,1,0,0:0:0:0:
64,192,122868,1,0,0:0:0:0:
448,192,122911,1,0,0:0:0:0:
320,192,122956,1,0,0:0:0:0:
192,192,123000,1,0,0:0:0:0:
448,192,123043,1,0,0:0:0:0:
320,192,123088,1,0,0:0:0:0:
64,192,123088,1,0,0:0:0:0:
192,192,123132,1,0,0:0:0:0:
448,192,123176,1,0,0:0:0:0:
320,192,123220,1,0,0:0:0:0:
64,192,123264,1,0,0:0:0:0:
192,192,123309,1,0,0:0:0:0:
320,192,123352,1,0,0:0:0:0:
448,192,123397,1,0,0:0:0:0:
64,192,123441,1,0,0:0:0:0:
320,192,123484,1,0,0:0:0:0:
192,192,123529,1,0,0:0:0:0:
448,192,123573,1,0,0:0:0:0:
320,192,123617,1,0,0:0:0:0:
64,192,123617,1,0,0:0:0:0:
192,192,123661,1,0,0:0:0:0:
320,192,123706,1,0,0:0:0:0:
448,192,123749,1,0,0:0:0:0:
64,192,123793,1,0,0:0:0:0:
192,192,123838,1,0,0:0:0:0:
320,192,123881,1,0,0:0:0:0:
64,192,123926,1,0,0:0:0:0:
448,192,123970,1,0,0:0:0:0:
192,192,124013,1,0,0:0:0:0:
320,192,124058,1,0,0:0:0:0:
448,192,124102,1,0,0:0:0:0:
192,192,124146,1,0,0:0:0:0:
64,192,124146,1,0,0:0:0:0:
320,192,124190,1,0,0:0:0:0:
448,192,124234,1,0,0:0:0:0:
192,192,124279,1,0,0:0:0:0:
64,192,124322,1,0,0:0:0:0:
320,192,124367,1,0,0:0:0:0:
448,192,124411,1,0,0:0:0:0:
64,192,124676,1,0,0:0:0:0:
448,192,124676,1,0,0:0:0:0:
320,192,124676,1,0,0:0:0:0:
192,192,124719,1,0,0:0:0:0:
64,192,124763,1,0,0:0:0:0:
448,192,124808,1,0,0:0:0:0:
320,192,124851,1,0,0:0:0:0:
192,192,124896,1,0,0:0:0:0:
64,192,124940,1,0,0:0:0:0:
320,192,124983,1,0,0:0:0:0:
448,192,125028,1,0,0:0:0:0:
192,192,125072,1,0,0:0:0:0:
320,192,125117,1,0,0:0:0:0:
64,192,125160,1,0,0:0:0:0:
192,192,125204,1,0,0:0:0:0:
448,192,125204,1,0,0:0:0:0:
320,192,125249,1,0,0:0:0:0:
192,192,125292,1,0,0:0:0:0:
64,192,125337,1,0,0:0:0:0:
448,192,125381,1,0,0:0:0:0:
320,192,125424,1,0,0:0:0:0:
192,192,125469,1,0,0:0:0:0:
64,192,125513,1,0,0:0:0:0:
320,192,125557,1,0,0:0:0:0:
192,192,125601,1,0,0:0:0:0:
64,192,125646,1,0,0:0:0:0:
192,192,125689,1,0,0:0:0:0:
320,192,125733,1,0,0:0:0:0:
448,192,125733,1,0,0:0:0:0:
64,192,125778,1,0,0:0:0:0:
192,192,125821,1,0,0:0:0:0:
320,192,125866,1,0,0:0:0:0:
448,192,125910,1,0,0:0:0:0:
192,192,125953,1,0,0:0:0:0:
320,192,125998,1,0,0:0:0:0:
448,192,126042,1,0,0:0:0:0:
64,192,126087,1,0,0:0:0:0:
192,192,126130,1,0,0:0:0:0:
448,192,126174,1,0,0:0:0:0:
320,192,126219,1,0,0:0:0:0:
64,192,126262,1,0,0:0:0:0:
192,192,126262,1,0,0:0:0:0:
320,192,126307,1,0,0:0:0:0:
448,192,126351,1,0,0:0:0:0:
64,192,126394,1,0,0:0:0:0:
192,192,126439,1,0,0:0:0:0:
448,192,126483,1,0,0:0:0:0:
320,192,126527,1,0,0:0:0:0:
192,192,126571,1,0,0:0:0:0:
448,192,126616,1,0,0:0:0:0:
64,192,126659,1,0,0:0:0:0:
192,192,126703,1,0,0:0:0:0:
320,192,126748,1,0,0:0:0:0:
64,192,126791,1,0,0:0:0:0:
448,192,126791,1,0,0:0:0:0:
320,192,126836,1,0,0:0:0:0:
192,192,126880,1,0,0:0:0:0:
64,192,126923,1,0,0:0:0:0:
448,192,126968,1,0,0:0:0:0:
320,192,127012,1,0,0:0:0:0:
192,192,127057,1,0,0:0:0:0:
64,192,127100,1,0,0:0:0:0:
320,192,127144,1,0,0:0:0:0:
192,192,127189,1,0,0:0:0:0:
64,192,127232,1,0,0:0:0:0:
320,192,127277,1,0,0:0:0:0:
192,192,127321,1,0,0:0:0:0:
448,192,127364,1,0,0:0:0:0:
64,192,127409,1,0,0:0:0:0:
192,192,127453,1,0,0:0:0:0:
448,192,127497,1,0,0:0:0:0:
320,192,127541,1,0,0:0:0:0:
192,192,127586,1,0,0:0:0:0:
64,192,127629,1,0,0:0:0:0:
320,192,127673,1,0,0:0:0:0:
192,192,127718,1,0,0:0:0:0:
448,192,127761,1,0,0:0:0:0:
320,192,127806,1,0,0:0:0:0:
64,192,127850,1,0,0:0:0:0:
192,192,127850,1,0,0:0:0:0:
448,192,127894,1,0,0:0:0:0:
320,192,127938,1,0,0:0:0:0:
64,192,127982,1,0,0:0:0:0:
192,192,128027,1,0,0:0:0:0:
320,192,128070,1,0,0:0:0:0:
448,192,128114,1,0,0:0:0:0:
64,192,128159,1,0,0:0:0:0:
192,192,128202,1,0,0:0:0:0:
320,192,128247,1,0,0:0:0:0:
64,192,128291,1,0,0:0:0:0:
448,192,128334,1,0,0:0:0:0:
192,192,128379,1,0,0:0:0:0:
64,192,128379,1,0,0:0:0:0:
320,192,128423,1,0,0:0:0:0:
448,192,128467,1,0,0:0:0:0:
192,192,128511,1,0,0:0:0:0:
64,192,128556,1,0,0:0:0:0:
320,192,128599,1,0,0:0:0:0:
448,192,128643,1,0,0:0:0:0:
64,192,128688,1,0,0:0:0:0:
192,192,128731,1,0,0:0:0:0:
320,192,128776,1,0,0:0:0:0:
448,192,128820,1,0,0:0:0:0:
64,192,128864,1,0,0:0:0:0:
320,192,128908,1,0,0:0:0:0:
192,192,128908,1,0,0:0:0:0:
448,192,128952,1,0,0:0:0:0:
64,192,128997,1,0,0:0:0:0:
192,192,129040,1,0,0:0:0:0:
320,192,129084,1,0,0:0:0:0:
448,192,129129,1,0,0:0:0:0:
64,192,129172,1,0,0:0:0:0:
320,192,129217,1,0,0:0:0:0:
192,192,129261,1,0,0:0:0:0:
448,192,129304,1,0,0:0:0:0:
64,192,129349,1,0,0:0:0:0:
320,192,129393,1,0,0:0:0:0:
192,192,129437,1,0,0:0:0:0:
64,192,129437,1,0,0:0:0:0:
448,192,129481,1,0,0:0:0:0:
320,192,129526,1,0,0:0:0:0:
64,192,129569,1,0,0:0:0:0:
192,192,129613,1,0,0:0:0:0:
448,192,129658,1,0,0:0:0:0:
320,192,129701,1,0,0:0:0:0:
192,192,129746,1,0,0:0:0:0:
448,192,129790,1,0,0:0:0:0:
64,192,129834,1,0,0:0:0:0:
192,192,129878,1,0,0:0:0:0:
320,192,129922,1,0,0:0:0:0:
448,192,129967,1,0,0:0:0:0:
64,192,129967,1,0,0:0:0:0:
192,192,130010,1,0,0:0:0:0:
320,192,130054,1,0,0:0:0:0:
64,192,130099,1,0,0:0:0:0:
192,192,130142,1,0,0:0:0:0:
448,192,130187,1,0,0:0:0:0:
320,192,130231,1,0,0:0:0:0:
64,192,130274,1,0,0:0:0:0:
192,192,130319,1,0,0:0:0:0:
448,192,130363,1,0,0:0:0:0:
320,192,130407,1,0,0:0:0:0:
192,192,130451,1,0,0:0:0:0:
64,192,130496,1,0,0:0:0:0:
320,192,130496,1,0,0:0:0:0:
448,192,130539,1,0,0:0:0:0:
192,192,130583,1,0,0:0:0:0:
64,192,130628,1,0,0:0:0:0:
448,192,130672,1,0,0:0:0:0:
320,192,130716,1,0,0:0:0:0:
192,192,130760,1,0,0:0:0:0:
448,192,131024,1,0,0:0:0:0:
64,192,131024,1,0,0:0:0:0:
192,192,131069,1,0,0:0:0:0:
320,192,131112,1,0,0:0:0:0:
448,192,131157,1,0,0:0:0:0:
192,192,131201,1,0,0:0:0:0:
64,192,131244,1,0,0:0:0:0:
320,192,131289,1,0,0:0:0:0:
448,192,131333,1,0,0:0:0:0:
64,192,131377,1,0,0:0:0:0:
192,192,131421,1,0,0:0:0:0:
320,192,131466,1,0,0:0:0:0:
64,192,131509,1,0,0:0:0:0:
192,192,131553,1,0,0:0:0:0:
448,192,131553,1,0,0:0:0:0:
320,192,131598,1,0,0:0:0:0:
64,192,131642,1,0,0:0:0:0:
192,192,131686,1,0,0:0:0:0:
448,192,131730,1,0,0:0:0:0:
320,192,131774,1,0,0:0:0:0:
192,192,131818,1,0,0:0:0:0:
64,192,131862,1,0,0:0:0:0:
448,192,131907,1,0,0:0:0:0:
192,192,131950,1,0,0:0:0:0:
320,192,131994,1,0,0:0:0:0:
64,192,132039,1,0,0:0:0:0:
192,192,132082,1,0,0:0:0:0:
448,192,132082,1,0,0:0:0:0:
320,192,132127,1,0,0:0:0:0:
192,192,132171,1,0,0:0:0:0:
64,192,132214,1,0,0:0:0:0:
448,192,132259,1,0,0:0:0:0:
320,192,132303,1,0,0:0:0:0:
192,192,132347,1,0,0:0:0:0:
448,192,132391,1,0,0:0:0:0:
64,192,132436,1,0,0:0:0:0:
320,192,132479,1,0,0:0:0:0:
192,192,132523,1,0,0:0:0:0:
64,192,132568,1,0,0:0:0:0:
320,192,132612,1,0,0:0:0:0:
448,192,132612,1,0,0:0:0:0:
192,192,132656,1,0,0:0:0:0:
64,192,132700,1,0,0:0:0:0:
320,192,132744,1,0,0:0:0:0:
448,192,132788,1,0,0:0:0:0:
192,192,132832,1,0,0:0:0:0:
64,192,132877,1,0,0:0:0:0:
64,192,133141,1,0,0:0:0:0:
192,192,133141,1,0,0:0:0:0:
320,192,133184,1,0,0:0:0:0:
448,192,133229,1,0,0:0:0:0:
192,192,133273,1,0,0:0:0:0:
320,192,133317,1,0,0:0:0:0:
448,192,133361,1,0,0:0:0:0:
64,192,133406,1,0,0:0:0:0:
320,192,133406,1,0,0:0:0:0:
192,192,133450,1,0,0:0:0:0:
448,192,133493,1,0,0:0:0:0:
64,192,133538,1,0,0:0:0:0:
192,192,133582,1,0,0:0:0:0:
320,192,133626,1,0,0:0:0:0:
448,192,133670,1,0,0:0:0:0:
64,192,133670,1,0,0:0:0:0:
192,192,133714,1,0,0:0:0:0:
320,192,133758,1,0,0:0:0:0:
64,192,133802,1,0,0:0:0:0:
448,192,133847,1,0,0:0:0:0:
192,192,133890,1,0,0:0:0:0:
320,192,133934,1,0,0:0:0:0:
448,192,133934,1,0,0:0:0:0:
64,192,133979,1,0,0:0:0:0:
192,192,134022,1,0,0:0:0:0:
448,192,134067,1,0,0:0:0:0:
320,192,134111,1,0,0:0:0:0:
192,192,134154,1,0,0:0:0:0:
64,192,134199,1,0,0:0:0:0:
448,192,134199,1,0,0:0:0:0:
320,192,134243,1,0,0:0:0:0:
192,192,134287,1,0,0:0:0:0:
448,192,134331,1,0,0:0:0:0:
64,192,134376,1,0,0:0:0:0:
192,192,134420,1,0,0:0:0:0:
448,192,134463,1,0,0:0:0:0:
320,192,134463,1,0,0:0:0:0:
64,192,134508,1,0,0:0:0:0:
192,192,134552,1,0,0:0:0:0:
448,192,134596,1,0,0:0:0:0:
320,192,134640,1,0,0:0:0:0:
64,192,134684,1,0,0:0:0:0:
192,192,134728,1,0,0:0:0:0:
448,192,134728,1,0,0:0:0:0:
320,192,134772,1,0,0:0:0:0:
448,192,134817,1,0,0:0:0:0:
192,192,134860,1,0,0:0:0:0:
64,192,134904,1,0,0:0:0:0:
320,192,134949,1,0,0:0:0:0:
448,192,134992,1,0,0:0:0:0:
192,192,134992,1,0,0:0:0:0:
64,192,135037,1,0,0:0:0:0:
320,192,135081,1,0,0:0:0:0:
192,192,135124,1,0,0:0:0:0:
64,192,135169,1,0,0:0:0:0:
448,192,135213,1,0,0:0:0:0:
320,192,135257,1,0,0:0:0:0:
192,192,135257,1,0,0:0:0:0:
64,192,135301,1,0,0:0:0:0:
448,192,135346,1,0,0:0:0:0:
192,192,135390,1,0,0:0:0:0:
320,192,135433,1,0,0:0:0:0:
448,192,135478,1,0,0:0:0:0:
64,192,135522,1,0,0:0:0:0:
192,192,135522,1,0,0:0:0:0:
320,192,135566,1,0,0:0:0:0:
448,192,135610,1,0,0:0:0:0:
64,192,135654,1,0,0:0:0:0:
192,192,135698,1,0,0:0:0:0:
320,192,135742,1,0,0:0:0:0:
64,192,135787,1,0,0:0:0:0:
448,192,135787,1,0,0:0:0:0:
192,192,135830,1,0,0:0:0:0:
320,192,135874,1,0,0:0:0:0:
64,192,135919,1,0,0:0:0:0:
448,192,135962,1,0,0:0:0:0:
320,192,136007,1,0,0:0:0:0:
192,192,136051,1,0,0:0:0:0:
64,192,136051,1,0,0:0:0:0:
448,192,136094,1,0,0:0:0:0:
320,192,136139,1,0,0:0:0:0:
192,192,136183,1,0,0:0:0:0:
64,192,136228,1,0,0:0:0:0:
448,192,136271,1,0,0:0:0:0:
320,192,136316,1,0,0:0:0:0:
192,192,136316,1,0,0:0:0:0:
64,192,136360,1,0,0:0:0:0:
320,192,136403,1,0,0:0:0:0:
448,192,136448,1,0,0:0:0:0:
192,192,136492,1,0,0:0:0:0:
320,192,136536,1,0,0:0:0:0:
64,192,136580,1,0,0:0:0:0:
448,192,136580,1,0,0:0:0:0:
192,192,136624,1,0,0:0:0:0:
320,192,136668,1,0,0:0:0:0:
448,192,136712,1,0,0:0:0:0:
64,192,136757,1,0,0:0:0:0:
192,192,136800,1,0,0:0:0:0:
448,192,136844,1,0,0:0:0:0:
320,192,136844,1,0,0:0:0:0:
192,192,136889,1,0,0:0:0:0:
64,192,136932,1,0,0:0:0:0:
448,192,136977,1,0,0:0:0:0:
320,192,137021,1,0,0:0:0:0:
192,192,137064,1,0,0:0:0:0:
64,192,137109,1,0,0:0:0:0:
448,192,137109,1,0,0:0:0:0:
320,192,137153,1,0,0:0:0:0:
192,192,137198,1,0,0:0:0:0:
448,192,137241,1,0,0:0:0:0:
320,192,137286,1,0,0:0:0:0:
448,192,137330,1,0,0:0:0:0:
64,192,137373,1,0,0:0:0:0:
192,192,137373,1,0,0:0:0:0:
320,192,137418,1,0,0:0:0:0:
448,192,137462,1,0,0:0:0:0:
64,192,137506,1,0,0:0:0:0:
192,192,137550,1,0,0:0:0:0:
320,192,137594,1,0,0:0:0:0:
448,192,137638,1,0,0:0:0:0:
64,192,137638,1,0,0:0:0:0:
192,192,137682,1,0,0:0:0:0:
320,192,137727,1,0,0:0:0:0:
64,192,137770,1,0,0:0:0:0:
192,192,137814,1,0,0:0:0:0:
448,192,137859,1,0,0:0:0:0:
320,192,137902,1,0,0:0:0:0:
64,192,137902,1,0,0:0:0:0:
192,192,137947,1,0,0:0:0:0:
448,192,137991,1,0,0:0:0:0:
320,192,138034,1,0,0:0:0:0:
64,192,138079,1,0,0:0:0:0:
192,192,138123,1,0,0:0:0:0:
448,192,138168,1,0,0:0:0:0:
320,192,138168,1,0,0:0:0:0:
64,192,138211,1,0,0:0:0:0:
192,192,138256,1,0,0:0:0:0:
448,192,138300,1,0,0:0:0:0:
320,192,138343,1,0,0:0:0:0:
192,192,138388,1,0,0:0:0:0:
64,192,138432,1,0,0:0:0:0:
448,192,138432,1,0,0:0:0:0:
320,192,138476,1,0,0:0:0:0:
192,192,138520,1,0,0:0:0:0:
320,192,138564,1,0,0:0:0:0:
448,192,138608,1,0,0:0:0:0:
64,192,138652,1,0,0:0:0:0:
192,192,138697,1,0,0:0:0:0:
320,192,138697,1,0,0:0:0:0:
448,192,138740,1,0,0:0:0:0:
64,192,138784,1,0,0:0:0:0:
320,192,138829,1,0,0:0:0:0:
192,192,138872,1,0,0:0:0:0:
448,192,138917,1,0,0:0:0:0:
320,192,138961,1,0,0:0:0:0:
64,192,138961,1,0,0:0:0:0:
192,192,139006,1,0,0:0:0:0:
320,192,139049,1,0,0:0:0:0:
448,192,139093,1,0,0:0:0:0:
64,192,139138,1,0,0:0:0:0:
192,192,139181,1,0,0:0:0:0:
320,192,139226,1,0,0:0:0:0:
64,192,139270,1,0,0:0:0:0:
192,192,139313,1,0,0:0:0:0:
448,192,139358,1,0,0:0:0:0:
320,192,139402,1,0,0:0:0:0:
64,192,139446,1,0,0:0:0:0:
192,192,139490,1,0,0:0:0:0:
320,192,139534,1,0,0:0:0:0:
448,192,139578,1,0,0:0:0:0:
192,192,139622,1,0,0:0:0:0:
320,192,139667,1,0,0:0:0:0:
64,192,139710,1,0,0:0:0:0:
192,192,139754,1,0,0:0:0:0:
448,192,139754,1,0,0:0:0:0:
320,192,139799,1,0,0:0:0:0:
64,192,139842,1,0,0:0:0:0:
192,192,139887,1,0,0:0:0:0:
320,192,139931,1,0,0:0:0:0:
448,192,139976,1,0,0:0:0:0:
192,192,140019,1,0,0:0:0:0:
64,192,140019,1,0,0:0:0:0:
320,192,140063,1,0,0:0:0:0:
448,192,140108,1,0,0:0:0:0:
192,192,140151,1,0,0:0:0:0:
64,192,140196,1,0,0:0:0:0:
448,192,140240,1,0,0:0:0:0:
320,192,140283,1,0,0:0:0:0:
192,192,140283,1,0,0:0:0:0:
64,192,140328,1,0,0:0:0:0:
448,192,140372,1,0,0:0:0:0:
192,192,140416,1,0,0:0:0:0:
320,192,140460,1,0,0:0:0:0:
64,192,140504,1,0,0:0:0:0:
448,192,140548,1,0,0:0:0:0:
192,192,140548,1,0,0:0:0:0:
320,192,140592,1,0,0:0:0:0:
448,192,140637,1,0,0:0:0:0:
64,192,140680,1,0,0:0:0:0:
192,192,140724,1,0,0:0:0:0:
320,192,140769,1,0,0:0:0:0:
448,192,140812,1,0,0:0:0:0:
64,192,140812,1,0,0:0:0:0:
192,192,140857,1,0,0:0:0:0:
320,192,140901,1,0,0:0:0:0:
448,192,140946,1,0,0:0:0:0:
64,192,140989,1,0,0:0:0:0:
320,192,141033,1,0,0:0:0:0:
448,192,141078,1,0,0:0:0:0:
192,192,141078,1,0,0:0:0:0:
64,192,141121,1,0,0:0:0:0:
320,192,141166,1,0,0:0:0:0:
192,192,141210,1,0,0:0:0:0:
64,192,141253,1,0,0:0:0:0:
448,192,141298,1,0,0:0:0:0:
320,192,141342,1,0,0:0:0:0:
192,192,141342,1,0,0:0:0:0:
64,192,141386,1,0,0:0:0:0:
448,192,141430,1,0,0:0:0:0:
320,192,141474,1,0,0:0:0:0:
192,192,141518,1,0,0:0:0:0:
448,192,141562,1,0,0:0:0:0:
64,192,141607,1,0,0:0:0:0:
320,192,141650,1,0,0:0:0:0:
448,192,141694,1,0,0:0:0:0:
64,192,141739,1,0,0:0:0:0:
192,192,141783,1,0,0:0:0:0:
320,192,141827,1,0,0:0:0:0:
64,192,141871,1,0,0:0:0:0:
448,192,141871,1,0,0:0:0:0:
192,192,141916,1,0,0:0:0:0:
320,192,141959,1,0,0:0:0:0:
64,192,142003,1,0,0:0:0:0:
192,192,142048,1,0,0:0:0:0:
320,192,142091,1,0,0:0:0:0:
448,192,142136,1,0,0:0:0:0:
64,192,142136,1,0,0:0:0:0:
192,192,142180,1,0,0:0:0:0:
320,192,142223,1,0,0:0:0:0:
64,192,142268,1,0,0:0:0:0:
448,192,142312,1,0,0:0:0:0:
192,192,142356,1,0,0:0:0:0:
320,192,142400,1,0,0:0:0:0:
448,192,142400,1,0,0:0:0:0:
64,192,142444,1,0,0:0:0:0:
192,192,142488,1,0,0:0:0:0:
448,192,142532,1,0,0:0:0:0:
320,192,142577,1,0,0:0:0:0:
192,192,142620,1,0,0:0:0:0:
64,192,142664,1,0,0:0:0:0:
448,192,142664,1,0,0:0:0:0:
320,192,142709,1,0,0:0:0:0:
192,192,142753,1,0,0:0:0:0:
320,192,142797,1,0,0:0:0:0:
64,192,142841,1,0,0:0:0:0:
192,192,142886,1,0,0:0:0:0:
448,192,142929,1,0,0:0:0:0:
320,192,142929,1,0,0:0:0:0:
64,192,142973,1,0,0:0:0:0:
192,192,143018,1,0,0:0:0:0:
448,192,143061,1,0,0:0:0:0:
320,192,143106,1,0,0:0:0:0:
64,192,143150,1,0,0:0:0:0:
192,192,143193,1,0,0:0:0:0:
448,192,143193,1,0,0:0:0:0:
320,192,143238,1,0,0:0:0:0:
64,192,143282,1,0,0:0:0:0:
448,192,143326,1,0,0:0:0:0:
192,192,143370,1,0,0:0:0:0:
64,192,143414,1,0,0:0:0:0:
320,192,143458,1,0,0:0:0:0:
192,192,143458,1,0,0:0:0:0:
448,192,143502,1,0,0:0:0:0:
320,192,143547,1,0,0:0:0:0:
192,192,143590,1,0,0:0:0:0:
64,192,143634,1,0,0:0:0:0:
448,192,143679,1,0,0:0:0:0:
320,192,143723,1,0,0:0:0:0:
192,192,143723,1,0,0:0:0:0:
64,192,143767,1,0,0:0:0:0:
448,192,143811,1,0,0:0:0:0:
192,192,143856,1,0,0:0:0:0:
320,192,143899,1,0,0:0:0:0:
448,192,143943,1,0,0:0:0:0:
64,192,143988,1,0,0:0:0:0:
192,192,143988,1,0,0:0:0:0:
320,192,144031,1,0,0:0:0:0:
448,192,144076,1,0,0:0:0:0:
64,192,144120,1,0,0:0:0:0:
192,192,144163,1,0,0:0:0:0:
320,192,144208,1,0,0:0:0:0:
64,192,144252,1,0,0:0:0:0:
448,192,144252,1,0,0:0:0:0:
192,192,144296,1,0,0:0:0:0:
320,192,144340,1,0,0:0:0:0:
64,192,144384,1,0,0:0:0:0:
448,192,144428,1,0,0:0:0:0:
320,192,144472,1,0,0:0:0:0:
192,192,144517,1,0,0:0:0:0:
64,192,144517,1,0,0:0:0:0:
448,192,144561,1,0,0:0:0:0:
320,192,144604,1,0,0:0:0:0:
192,192,144649,1,0,0:0:0:0:
64,192,144693,1,0,0:0:0:0:
448,192,144737,1,0,0:0:0:0:
320,192,144781,1,0,0:0:0:0:
192,192,144781,1,0,0:0:0:0:
64,192,144826,1,0,0:0:0:0:
320,192,144869,1,0,0:0:0:0:
448,192,144913,1,0,0:0:0:0:
192,192,144958,1,0,0:0:0:0:
320,192,145001,1,0,0:0:0:0:
64,192,145046,1,0,0:0:0:0:
448,192,145046,1,0,0:0:0:0:
192,192,145090,1,0,0:0:0:0:
320,192,145133,1,0,0:0:0:0:
448,192,145178,1,0,0:0:0:0:
64,192,145222,1,0,0:0:0:0:
192,192,145266,1,0,0:0:0:0:
448,192,145310,1,0,0:0:0:0:
320,192,145310,1,0,0:0:0:0:
192,192,145354,1,0,0:0:0:0:
64,192,145398,1,0,0:0:0:0:
448,192,145442,1,0,0:0:0:0:
320,192,145487,1,0,0:0:0:0:
192,192,145531,1,0,0:0:0:0:
64,192,145574,1,0,0:0:0:0:
448,192,145574,1,0,0:0:0:0:
320,192,145619,1,0,0:0:0:0:
192,192,145663,1,0,0:0:0:0:
448,192,145707,1,0,0:0:0:0:
320,192,145751,1,0,0:0:0:0:
192,192,145796,1,0,0:0:0:0:
64,192,145839,1,0,0:0:0:0:
320,192,145883,1,0,0:0:0:0:
448,192,145928,1,0,0:0:0:0:
64,192,145971,1,0,0:0:0:0:
192,192,146016,1,0,0:0:0:0:
320,192,146060,1,0,0:0:0:0:
448,192,146103,1,0,0:0:0:0:
64,192,146103,1,0,0:0:0:0:
192,192,146148,1,0,0:0:0:0:
320,192,146192,1,0,0:0:0:0:
64,192,146236,1,0,0:0:0:0:
192,192,146280,1,0,0:0:0:0:
448,192,146324,1,0,0:0:0:0:
320,192,146368,1,0,0:0:0:0:
64,192,146368,1,0,0:0:0:0:
192,192,146412,1,0,0:0:0:0:
448,192,146457,1,0,0:0:0:0:
320,192,146501,1,0,0:0:0:0:
64,192,146544,1,0,0:0:0:0:
192,192,146589,1,0,0:0:0:0:
448,192,146633,1,0,0:0:0:0:
320,192,146633,1,0,0:0:0:0:
64,192,146677,1,0,0:0:0:0:
192,192,146721,1,0,0:0:0:0:
448,192,146766,1,0,0:0:0:0:
320,192,146809,1,0,0:0:0:0:
192,192,146853,1,0,0:0:0:0:
64,192,146898,1,0,0:0:0:0:
448,192,146898,1,0,0:0:0:0:
320,192,146941,1,0,0:0:0:0:
192,192,146986,1,0,0:0:0:0:
320,192,147030,1,0,0:0:0:0:
448,192,147073,1,0,0:0:0:0:
64,192,147118,1,0,0:0:0:0:
192,192,147162,1,0,0:0:0:0:
320,192,147162,1,0,0:0:0:0:
448,192,147206,1,0,0:0:0:0:
64,192,147250,1,0,0:0:0:0:
320,192,147294,1,0,0:0:0:0:
192,192,147339,1,0,0:0:0:0:
448,192,147382,1,0,0:0:0:0:
320,192,147427,1,0,0:0:0:0:
64,192,147427,1,0,0:0:0:0:
192,192,147471,1,0,0:0:0:0:
320,192,147514,1,0,0:0:0:0:
448,192,147559,1,0,0:0:0:0:
64,192,147603,1,0,0:0:0:0:
192,192,147647,1,0,0:0:0:0:
320,192,147691,1,0,0:0:0:0:
64,192,147736,1,0,0:0:0:0:
192,192,147779,1,0,0:0:0:0:
448,192,147823,1,0,0:0:0:0:
320,192,147868,1,0,0:0:0:0:
64,192,147911,1,0,0:0:0:0:
192,192,147956,1,0,0:0:0:0:
448,192,147956,1,0,0:0:0:0:
320,192,148000,1,0,0:0:0:0:
64,192,148043,1,0,0:0:0:0:
192,192,148088,1,0,0:0:0:0:
320,192,148132,1,0,0:0:0:0:
64,192,148176,1,0,0:0:0:0:
192,192,148220,1,0,0:0:0:0:
448,192,148220,1,0,0:0:0:0:
320,192,148264,1,0,0:0:0:0:
64,192,148309,1,0,0:0:0:0:
192,192,148352,1,0,0:0:0:0:
320,192,148397,1,0,0:0:0:0:
448,192,148441,1,0,0:0:0:0:
192,192,148484,1,0,0:0:0:0:
64,192,148484,1,0,0:0:0:0:
320,192,148529,1,0,0:0:0:0:
448,192,148573,1,0,0:0:0:0:
192,192,148617,1,0,0:0:0:0:
64,192,148661,1,0,0:0:0:0:
448,192,148706,1,0,0:0:0:0:
320,192,148749,1,0,0:0:0:0:
192,192,148749,1,0,0:0:0:0:
64,192,148793,1,0,0:0:0:0:
448,192,148838,1,0,0:0:0:0:
192,192,148881,1,0,0:0:0:0:
320,192,148926,1,0,0:0:0:0:
64,192,148970,1,0,0:0:0:0:
192,192,149013,1,0,0:0:0:0:
320,192,149058,1,0,0:0:0:0:
448,192,149102,1,0,0:0:0:0:
64,192,149146,1,0,0:0:0:0:
192,192,149190,1,0,0:0:0:0:
320,192,149234,1,0,0:0:0:0:
448,192,149279,1,0,0:0:0:0:
64,192,149322,1,0,0:0:0:0:
192,192,149367,1,0,0:0:0:0:
320,192,149454,1,0,0:0:0:0:
448,192,149543,1,0,0:0:0:0:
64,192,149631,1,0,0:0:0:0:
192,192,149719,1,0,0:0:0:0:
320,192,149808,1,0,0:0:0:0:
448,192,149896,1,0,0:0:0:0:
192,192,149940,1,0,0:0:0:0:
64,192,150072,1,0,0:0:0:0:
192,192,150337,1,0,0:0:0:0:
320,192,150601,1,0,0:0:0:0:
