osu file format v14

[General]
AudioFilename: audio95.mp3
AudioLeadIn: 0
PreviewTime: 25807
Countdown: 0
SampleSet: None
StackLeniency: 0.7
Mode: 3
LetterboxInBreaks: 0
SpecialStyle: 0
WidescreenStoryboard: 1

[Editor]
Bookmarks: 1827,9847,25887,41927,57967,74007,89546,106087,110098,118118,126138,142178
DistanceSpacing: 1
BeatDivisor: 12
GridSize: 32
TimelineZoom: 1.8

[Metadata]
Title:perfect nothing
TitleUnicode:perfect nothing
Artist:GHOST
ArtistUnicode:GHOST
Creator:Hlimak
Version:noise [0,95x Rate]
Source:
Tags:dump vocaloid stream
BeatmapID:2959425
BeatmapSetID:989656

[Difficulty]
HPDrainRate:7
CircleSize:4
OverallDifficulty:7
ApproachRate:5
SliderMultiplier:1.4
SliderTickRate:1

[Events]
//Background and Video events
0,0,"bg.jpg",0,0
//Break Periods
//Storyboard Layer 0 (Background)
//Storyboard Layer 1 (Fail)
//Storyboard Layer 2 (Pass)
//Storyboard Layer 3 (Foreground)
//Storyboard Layer 4 (Overlay)
//Storyboard Sound Samples

[TimingPoints]
1827,501.25313283208,4,1,0,50,1,0

[HitObjects]
64,192,1827,5,0,0:0:0:0:
320,192,1827,1,0,0:0:0:0:
448,192,1827,1,0,0:0:0:0:
320,192,2078,1,0,0:0:0:0:
448,192,2078,1,0,0:0:0:0:
64,192,2078,1,0,0:0:0:0:
192,192,2328,1,0,0:0:0:0:
320,192,2328,1,0,0:0:0:0:
64,192,2359,1,0,0:0:0:0:
192,192,2579,1,0,0:0:0:0:
320,192,2579,1,0,0:0:0:0:
64,192,2579,1,0,0:0:0:0:
448,192,2829,1,0,0:0:0:0:
192,192,2829,1,0,0:0:0:0:
64,192,2829,1,0,0:0:0:0:
448,192,3080,1,0,0:0:0:0:
320,192,3080,1,0,0:0:0:0:
192,192,3080,1,0,0:0:0:0:
64,192,3331,1,0,0:0:0:0:
448,192,3331,1,0,0:0:0:0:
320,192,3362,1,0,0:0:0:0:
448,192,3581,1,0,0:0:0:0:
320,192,3581,1,0,0:0:0:0:
192,192,3581,1,0,0:0:0:0:
448,192,3832,1,0,0:0:0:0:
192,192,3832,1,0,0:0:0:0:
64,192,3832,1,0,0:0:0:0:
320,192,4082,1,0,0:0:0:0:
192,192,4082,1,0,0:0:0:0:
448,192,4082,1,0,0:0:0:0:
448,192,4333,1,0,0:0:0:0:
64,192,4333,1,0,0:0:0:0:
192,192,4364,1,0,0:0:0:0:
448,192,4584,1,0,0:0:0:0:
320,192,4584,1,0,0:0:0:0:
192,192,4584,1,0,0:0:0:0:
64,192,4835,1,0,0:0:0:0:
448,192,4835,1,0,0:0:0:0:
192,192,4876,1,0,0:0:0:0:
320,192,4918,1,0,0:0:0:0:
448,192,5043,1,0,0:0:0:0:
320,192,5085,1,0,0:0:0:0:
192,192,5085,1,0,0:0:0:0:
64,192,5126,1,0,0:0:0:0:
448,192,5211,1,0,0:0:0:0:
64,192,5294,1,0,0:0:0:0:
192,192,5294,1,0,0:0:0:0:
320,192,5336,1,0,0:0:0:0:
448,192,5378,1,0,0:0:0:0:
64,192,5419,1,0,0:0:0:0:
192,192,5461,1,0,0:0:0:0:
320,192,5503,1,0,0:0:0:0:
448,192,5544,1,0,0:0:0:0:
192,192,5586,1,0,0:0:0:0:
448,192,5669,1,0,0:0:0:0:
64,192,5712,1,0,0:0:0:0:
192,192,5754,1,0,0:0:0:0:
320,192,5795,1,0,0:0:0:0:
64,192,5837,1,0,0:0:0:0:
320,192,5879,1,0,0:0:0:0:
448,192,5920,1,0,0:0:0:0:
192,192,5962,1,0,0:0:0:0:
320,192,6004,1,0,0:0:0:0:
64,192,6087,1,0,0:0:0:0:
192,192,6087,1,0,0:0:0:0:
448,192,6087,1,0,0:0:0:0:
320,192,6338,1,0,0:0:0:0:
64,192,6338,1,0,0:0:0:0:
192,192,6369,1,0,0:0:0:0:
448,192,6588,1,0,0:0:0:0:
192,192,6588,1,0,0:0:0:0:
320,192,6620,1,0,0:0:0:0:
448,192,6839,1,0,0:0:0:0:
192,192,6839,1,0,0:0:0:0:
64,192,6871,1,0,0:0:0:0:
320,192,7089,1,0,0:0:0:0:
64,192,7089,1,0,0:0:0:0:
448,192,7121,1,0,0:0:0:0:
192,192,7341,1,0,0:0:0:0:
64,192,7341,1,0,0:0:0:0:
320,192,7372,1,0,0:0:0:0:
448,192,7592,1,0,0:0:0:0:
320,192,7592,1,0,0:0:0:0:
192,192,7622,1,0,0:0:0:0:
320,192,7842,1,0,0:0:0:0:
192,192,7842,1,0,0:0:0:0:
64,192,7883,1,0,0:0:0:0:
448,192,7925,1,0,0:0:0:0:
320,192,7967,1,0,0:0:0:0:
64,192,8051,1,0,0:0:0:0:
192,192,8093,1,0,0:0:0:0:
320,192,8135,1,0,0:0:0:0:
448,192,8176,1,0,0:0:0:0:
320,192,8260,1,0,0:0:0:0:
64,192,8343,1,0,0:0:0:0:
192,192,8343,1,0,0:0:0:0:
448,192,8426,1,0,0:0:0:0:
192,192,8468,1,0,0:0:0:0:
64,192,8511,1,0,0:0:0:0:
448,192,8594,1,0,0:0:0:0:
320,192,8625,1,0,0:0:0:0:
64,192,8844,1,0,0:0:0:0:
192,192,8844,1,0,0:0:0:0:
448,192,8886,1,0,0:0:0:0:
320,192,8928,1,0,0:0:0:0:
192,192,8969,1,0,0:0:0:0:
64,192,9012,1,0,0:0:0:0:
448,192,9054,1,0,0:0:0:0:
192,192,9095,1,0,0:0:0:0:
320,192,9095,1,0,0:0:0:0:
64,192,9345,1,0,0:0:0:0:
192,192,9345,1,0,0:0:0:0:
320,192,9387,1,0,0:0:0:0:
448,192,9429,1,0,0:0:0:0:
64,192,9471,1,0,0:0:0:0:
192,192,9513,1,0,0:0:0:0:
320,192,9555,1,0,0:0:0:0:
64,192,9596,1,0,0:0:0:0:
192,192,9638,1,0,0:0:0:0:
320,192,9680,1,0,0:0:0:0:
448,192,9721,1,0,0:0:0:0:
192,192,9763,1,0,0:0:0:0:
320,192,9805,1,0,0:0:0:0:
448,192,9847,1,0,0:0:0:0:
64,192,9847,1,0,0:0:0:0:
448,192,10014,1,0,0:0:0:0:
320,192,10056,1,0,0:0:0:0:
192,192,10098,1,0,0:0:0:0:
448,192,10139,1,0,0:0:0:0:
64,192,10181,1,0,0:0:0:0:
192,192,10223,1,0,0:0:0:0:
320,192,10264,1,0,0:0:0:0:
64,192,10348,1,0,0:0:0:0:
192,192,10348,1,0,0:0:0:0:
448,192,10474,1,0,0:0:0:0:
64,192,10599,1,0,0:0:0:0:
320,192,10641,1,0,0:0:0:0:
192,192,10682,1,0,0:0:0:0:
64,192,10724,1,0,0:0:0:0:
448,192,10766,1,0,0:0:0:0:
320,192,10807,1,0,0:0:0:0:
192,192,10849,1,0,0:0:0:0:
64,192,10849,1,0,0:0:0:0:
320,192,10933,1,0,0:0:0:0:
448,192,10975,1,0,0:0:0:0:
192,192,11100,1,0,0:0:0:0:
320,192,11142,1,0,0:0:0:0:
448,192,11183,1,0,0:0:0:0:
192,192,11225,1,0,0:0:0:0:
64,192,11267,1,0,0:0:0:0:
448,192,11308,1,0,0:0:0:0:
320,192,11351,1,0,0:0:0:0:
192,192,11351,1,0,0:0:0:0:
320,192,11476,1,0,0:0:0:0:
64,192,11601,1,0,0:0:0:0:
192,192,11643,1,0,0:0:0:0:
448,192,11685,1,0,0:0:0:0:
320,192,11726,1,0,0:0:0:0:
192,192,11768,1,0,0:0:0:0:
64,192,11811,1,0,0:0:0:0:
448,192,11852,1,0,0:0:0:0:
320,192,11852,1,0,0:0:0:0:
192,192,11977,1,0,0:0:0:0:
320,192,12102,1,0,0:0:0:0:
448,192,12144,1,0,0:0:0:0:
64,192,12186,1,0,0:0:0:0:
192,192,12227,1,0,0:0:0:0:
320,192,12269,1,0,0:0:0:0:
448,192,12312,1,0,0:0:0:0:
192,192,12353,1,0,0:0:0:0:
64,192,12353,1,0,0:0:0:0:
320,192,12479,1,0,0:0:0:0:
64,192,12604,1,0,0:0:0:0:
448,192,12645,1,0,0:0:0:0:
320,192,12687,1,0,0:0:0:0:
192,192,12729,1,0,0:0:0:0:
64,192,12771,1,0,0:0:0:0:
192,192,12813,1,0,0:0:0:0:
320,192,12855,1,0,0:0:0:0:
448,192,12855,1,0,0:0:0:0:
320,192,12980,1,0,0:0:0:0:
192,192,13105,1,0,0:0:0:0:
64,192,13231,1,0,0:0:0:0:
448,192,13356,1,0,0:0:0:0:
320,192,13398,1,0,0:0:0:0:
64,192,13439,1,0,0:0:0:0:
448,192,13481,1,0,0:0:0:0:
320,192,13523,1,0,0:0:0:0:
192,192,13564,1,0,0:0:0:0:
448,192,13606,1,0,0:0:0:0:
320,192,13648,1,0,0:0:0:0:
64,192,13689,1,0,0:0:0:0:
448,192,13732,1,0,0:0:0:0:
320,192,13774,1,0,0:0:0:0:
192,192,13815,1,0,0:0:0:0:
448,192,13857,1,0,0:0:0:0:
64,192,13857,1,0,0:0:0:0:
64,192,14024,1,0,0:0:0:0:
192,192,14065,1,0,0:0:0:0:
320,192,14107,1,0,0:0:0:0:
64,192,14149,1,0,0:0:0:0:
448,192,14192,1,0,0:0:0:0:
320,192,14233,1,0,0:0:0:0:
192,192,14275,1,0,0:0:0:0:
448,192,14358,1,0,0:0:0:0:
320,192,14358,1,0,0:0:0:0:
64,192,14483,1,0,0:0:0:0:
448,192,14608,1,0,0:0:0:0:
192,192,14651,1,0,0:0:0:0:
320,192,14693,1,0,0:0:0:0:
448,192,14734,1,0,0:0:0:0:
64,192,14776,1,0,0:0:0:0:
192,192,14818,1,0,0:0:0:0:
320,192,14859,1,0,0:0:0:0:
448,192,14859,1,0,0:0:0:0:
192,192,14943,1,0,0:0:0:0:
64,192,14984,1,0,0:0:0:0:
320,192,15111,1,0,0:0:0:0:
192,192,15152,1,0,0:0:0:0:
64,192,15194,1,0,0:0:0:0:
320,192,15236,1,0,0:0:0:0:
448,192,15277,1,0,0:0:0:0:
64,192,15319,1,0,0:0:0:0:
192,192,15361,1,0,0:0:0:0:
320,192,15361,1,0,0:0:0:0:
192,192,15486,1,0,0:0:0:0:
448,192,15612,1,0,0:0:0:0:
320,192,15653,1,0,0:0:0:0:
64,192,15695,1,0,0:0:0:0:
192,192,15737,1,0,0:0:0:0:
320,192,15778,1,0,0:0:0:0:
448,192,15820,1,0,0:0:0:0:
64,192,15862,1,0,0:0:0:0:
192,192,15862,1,0,0:0:0:0:
320,192,15987,1,0,0:0:0:0:
192,192,16113,1,0,0:0:0:0:
64,192,16155,1,0,0:0:0:0:
448,192,16196,1,0,0:0:0:0:
320,192,16238,1,0,0:0:0:0:
192,192,16280,1,0,0:0:0:0:
64,192,16321,1,0,0:0:0:0:
320,192,16363,1,0,0:0:0:0:
448,192,16363,1,0,0:0:0:0:
192,192,16488,1,0,0:0:0:0:
448,192,16614,1,0,0:0:0:0:
64,192,16656,1,0,0:0:0:0:
192,192,16697,1,0,0:0:0:0:
320,192,16739,1,0,0:0:0:0:
448,192,16781,1,0,0:0:0:0:
320,192,16823,1,0,0:0:0:0:
192,192,16864,1,0,0:0:0:0:
64,192,16864,1,0,0:0:0:0:
320,192,16989,1,0,0:0:0:0:
192,192,17115,1,0,0:0:0:0:
448,192,17240,1,0,0:0:0:0:
64,192,17365,1,0,0:0:0:0:
192,192,17407,1,0,0:0:0:0:
448,192,17449,1,0,0:0:0:0:
64,192,17491,1,0,0:0:0:0:
192,192,17533,1,0,0:0:0:0:
320,192,17575,1,0,0:0:0:0:
64,192,17616,1,0,0:0:0:0:
192,192,17658,1,0,0:0:0:0:
448,192,17700,1,0,0:0:0:0:
64,192,17742,1,0,0:0:0:0:
192,192,17783,1,0,0:0:0:0:
320,192,17825,1,0,0:0:0:0:
64,192,17867,1,0,0:0:0:0:
448,192,17867,1,0,0:0:0:0:
448,192,18034,1,0,0:0:0:0:
320,192,18076,1,0,0:0:0:0:
192,192,18118,1,0,0:0:0:0:
448,192,18159,1,0,0:0:0:0:
64,192,18201,1,0,0:0:0:0:
192,192,18243,1,0,0:0:0:0:
320,192,18284,1,0,0:0:0:0:
192,192,18368,1,0,0:0:0:0:
64,192,18368,1,0,0:0:0:0:
448,192,18494,1,0,0:0:0:0:
64,192,18619,1,0,0:0:0:0:
320,192,18661,1,0,0:0:0:0:
192,192,18702,1,0,0:0:0:0:
64,192,18744,1,0,0:0:0:0:
448,192,18786,1,0,0:0:0:0:
320,192,18827,1,0,0:0:0:0:
64,192,18869,1,0,0:0:0:0:
192,192,18869,1,0,0:0:0:0:
320,192,18953,1,0,0:0:0:0:
448,192,18995,1,0,0:0:0:0:
320,192,19037,1,0,0:0:0:0:
64,192,19078,1,0,0:0:0:0:
192,192,19120,1,0,0:0:0:0:
320,192,19162,1,0,0:0:0:0:
448,192,19203,1,0,0:0:0:0:
192,192,19245,1,0,0:0:0:0:
64,192,19287,1,0,0:0:0:0:
448,192,19328,1,0,0:0:0:0:
192,192,19371,1,0,0:0:0:0:
320,192,19371,1,0,0:0:0:0:
448,192,19455,1,0,0:0:0:0:
320,192,19496,1,0,0:0:0:0:
64,192,19538,1,0,0:0:0:0:
192,192,19580,1,0,0:0:0:0:
320,192,19621,1,0,0:0:0:0:
192,192,19663,1,0,0:0:0:0:
448,192,19705,1,0,0:0:0:0:
320,192,19746,1,0,0:0:0:0:
192,192,19788,1,0,0:0:0:0:
64,192,19831,1,0,0:0:0:0:
320,192,19872,1,0,0:0:0:0:
448,192,19872,1,0,0:0:0:0:
192,192,19997,1,0,0:0:0:0:
320,192,20122,1,0,0:0:0:0:
448,192,20164,1,0,0:0:0:0:
64,192,20206,1,0,0:0:0:0:
192,192,20247,1,0,0:0:0:0:
320,192,20289,1,0,0:0:0:0:
448,192,20332,1,0,0:0:0:0:
64,192,20374,1,0,0:0:0:0:
192,192,20374,1,0,0:0:0:0:
320,192,20499,1,0,0:0:0:0:
64,192,20624,1,0,0:0:0:0:
448,192,20665,1,0,0:0:0:0:
320,192,20707,1,0,0:0:0:0:
192,192,20749,1,0,0:0:0:0:
64,192,20791,1,0,0:0:0:0:
192,192,20833,1,0,0:0:0:0:
448,192,20875,1,0,0:0:0:0:
320,192,20875,1,0,0:0:0:0:
64,192,21000,1,0,0:0:0:0:
192,192,21125,1,0,0:0:0:0:
320,192,21251,1,0,0:0:0:0:
448,192,21376,1,0,0:0:0:0:
320,192,21418,1,0,0:0:0:0:
64,192,21459,1,0,0:0:0:0:
448,192,21501,1,0,0:0:0:0:
320,192,21543,1,0,0:0:0:0:
192,192,21584,1,0,0:0:0:0:
448,192,21626,1,0,0:0:0:0:
320,192,21668,1,0,0:0:0:0:
64,192,21709,1,0,0:0:0:0:
448,192,21752,1,0,0:0:0:0:
320,192,21794,1,0,0:0:0:0:
192,192,21835,1,0,0:0:0:0:
64,192,21877,1,0,0:0:0:0:
448,192,21877,1,0,0:0:0:0:
64,192,22044,1,0,0:0:0:0:
192,192,22086,1,0,0:0:0:0:
320,192,22127,1,0,0:0:0:0:
64,192,22169,1,0,0:0:0:0:
448,192,22212,1,0,0:0:0:0:
320,192,22253,1,0,0:0:0:0:
192,192,22295,1,0,0:0:0:0:
448,192,22378,1,0,0:0:0:0:
320,192,22378,1,0,0:0:0:0:
64,192,22503,1,0,0:0:0:0:
448,192,22628,1,0,0:0:0:0:
192,192,22671,1,0,0:0:0:0:
320,192,22713,1,0,0:0:0:0:
448,192,22754,1,0,0:0:0:0:
64,192,22796,1,0,0:0:0:0:
192,192,22838,1,0,0:0:0:0:
320,192,22879,1,0,0:0:0:0:
448,192,22879,1,0,0:0:0:0:
192,192,22963,1,0,0:0:0:0:
64,192,23005,1,0,0:0:0:0:
448,192,23046,1,0,0:0:0:0:
192,192,23088,1,0,0:0:0:0:
320,192,23131,1,0,0:0:0:0:
192,192,23172,1,0,0:0:0:0:
64,192,23214,1,0,0:0:0:0:
320,192,23256,1,0,0:0:0:0:
448,192,23297,1,0,0:0:0:0:
64,192,23339,1,0,0:0:0:0:
192,192,23381,1,0,0:0:0:0:
320,192,23381,1,0,0:0:0:0:
448,192,23464,1,0,0:0:0:0:
192,192,23506,1,0,0:0:0:0:
64,192,23547,1,0,0:0:0:0:
320,192,23589,1,0,0:0:0:0:
448,192,23632,1,0,0:0:0:0:
320,192,23673,1,0,0:0:0:0:
64,192,23715,1,0,0:0:0:0:
192,192,23757,1,0,0:0:0:0:
320,192,23799,1,0,0:0:0:0:
448,192,23840,1,0,0:0:0:0:
64,192,23882,1,0,0:0:0:0:
192,192,23882,1,0,0:0:0:0:
320,192,24007,1,0,0:0:0:0:
192,192,24133,1,0,0:0:0:0:
64,192,24175,1,0,0:0:0:0:
448,192,24216,1,0,0:0:0:0:
320,192,24258,1,0,0:0:0:0:
192,192,24300,1,0,0:0:0:0:
64,192,24341,1,0,0:0:0:0:
320,192,24383,1,0,0:0:0:0:
448,192,24383,1,0,0:0:0:0:
192,192,24508,1,0,0:0:0:0:
448,192,24634,1,0,0:0:0:0:
64,192,24676,1,0,0:0:0:0:
192,192,24718,1,0,0:0:0:0:
320,192,24759,1,0,0:0:0:0:
448,192,24801,1,0,0:0:0:0:
320,192,24843,1,0,0:0:0:0:
192,192,24884,1,0,0:0:0:0:
64,192,24884,1,0,0:0:0:0:
320,192,25009,1,0,0:0:0:0:
192,192,25135,1,0,0:0:0:0:
448,192,25260,1,0,0:0:0:0:
64,192,25385,1,0,0:0:0:0:
192,192,25427,1,0,0:0:0:0:
448,192,25469,1,0,0:0:0:0:
64,192,25511,1,0,0:0:0:0:
192,192,25553,1,0,0:0:0:0:
320,192,25595,1,0,0:0:0:0:
64,192,25637,1,0,0:0:0:0:
192,192,25678,1,0,0:0:0:0:
448,192,25720,1,0,0:0:0:0:
64,192,25762,1,0,0:0:0:0:
192,192,25803,1,0,0:0:0:0:
320,192,25845,1,0,0:0:0:0:
448,192,25887,1,0,0:0:0:0:
64,192,25887,1,0,0:0:0:0:
448,192,26054,1,0,0:0:0:0:
64,192,26096,1,0,0:0:0:0:
192,192,26138,1,0,0:0:0:0:
320,192,26179,1,0,0:0:0:0:
448,192,26221,1,0,0:0:0:0:
192,192,26263,1,0,0:0:0:0:
64,192,26304,1,0,0:0:0:0:
192,192,26388,1,0,0:0:0:0:
320,192,26388,1,0,0:0:0:0:
448,192,26514,1,0,0:0:0:0:
64,192,26639,1,0,0:0:0:0:
192,192,26681,1,0,0:0:0:0:
320,192,26722,1,0,0:0:0:0:
64,192,26764,1,0,0:0:0:0:
192,192,26806,1,0,0:0:0:0:
320,192,26847,1,0,0:0:0:0:
64,192,26889,1,0,0:0:0:0:
448,192,26889,1,0,0:0:0:0:
192,192,26973,1,0,0:0:0:0:
320,192,27015,1,0,0:0:0:0:
448,192,27057,1,0,0:0:0:0:
64,192,27098,1,0,0:0:0:0:
192,192,27140,1,0,0:0:0:0:
320,192,27182,1,0,0:0:0:0:
448,192,27223,1,0,0:0:0:0:
192,192,27265,1,0,0:0:0:0:
64,192,27307,1,0,0:0:0:0:
448,192,27349,1,0,0:0:0:0:
192,192,27391,1,0,0:0:0:0:
320,192,27391,1,0,0:0:0:0:
64,192,27475,1,0,0:0:0:0:
448,192,27516,1,0,0:0:0:0:
320,192,27558,1,0,0:0:0:0:
192,192,27600,1,0,0:0:0:0:
64,192,27641,1,0,0:0:0:0:
448,192,27683,1,0,0:0:0:0:
320,192,27725,1,0,0:0:0:0:
192,192,27766,1,0,0:0:0:0:
64,192,27808,1,0,0:0:0:0:
192,192,27851,1,0,0:0:0:0:
320,192,27892,1,0,0:0:0:0:
448,192,27892,1,0,0:0:0:0:
192,192,28017,1,0,0:0:0:0:
448,192,28142,1,0,0:0:0:0:
320,192,28184,1,0,0:0:0:0:
192,192,28226,1,0,0:0:0:0:
448,192,28268,1,0,0:0:0:0:
64,192,28309,1,0,0:0:0:0:
192,192,28352,1,0,0:0:0:0:
320,192,28394,1,0,0:0:0:0:
448,192,28394,1,0,0:0:0:0:
320,192,28519,1,0,0:0:0:0:
192,192,28644,1,0,0:0:0:0:
320,192,28685,1,0,0:0:0:0:
448,192,28727,1,0,0:0:0:0:
64,192,28769,1,0,0:0:0:0:
192,192,28811,1,0,0:0:0:0:
320,192,28853,1,0,0:0:0:0:
64,192,28895,1,0,0:0:0:0:
448,192,28895,1,0,0:0:0:0:
320,192,29020,1,0,0:0:0:0:
192,192,29145,1,0,0:0:0:0:
64,192,29271,1,0,0:0:0:0:
320,192,29396,1,0,0:0:0:0:
192,192,29438,1,0,0:0:0:0:
64,192,29479,1,0,0:0:0:0:
192,192,29521,1,0,0:0:0:0:
320,192,29563,1,0,0:0:0:0:
448,192,29604,1,0,0:0:0:0:
192,192,29646,1,0,0:0:0:0:
320,192,29688,1,0,0:0:0:0:
64,192,29729,1,0,0:0:0:0:
192,192,29772,1,0,0:0:0:0:
448,192,29814,1,0,0:0:0:0:
320,192,29855,1,0,0:0:0:0:
448,192,29897,1,0,0:0:0:0:
64,192,29897,1,0,0:0:0:0:
64,192,30064,1,0,0:0:0:0:
448,192,30106,1,0,0:0:0:0:
320,192,30147,1,0,0:0:0:0:
192,192,30189,1,0,0:0:0:0:
64,192,30232,1,0,0:0:0:0:
320,192,30273,1,0,0:0:0:0:
448,192,30315,1,0,0:0:0:0:
320,192,30398,1,0,0:0:0:0:
192,192,30398,1,0,0:0:0:0:
64,192,30523,1,0,0:0:0:0:
448,192,30648,1,0,0:0:0:0:
320,192,30691,1,0,0:0:0:0:
192,192,30733,1,0,0:0:0:0:
448,192,30774,1,0,0:0:0:0:
320,192,30816,1,0,0:0:0:0:
192,192,30858,1,0,0:0:0:0:
448,192,30900,1,0,0:0:0:0:
64,192,30900,1,0,0:0:0:0:
320,192,30983,1,0,0:0:0:0:
192,192,31025,1,0,0:0:0:0:
64,192,31066,1,0,0:0:0:0:
448,192,31108,1,0,0:0:0:0:
320,192,31151,1,0,0:0:0:0:
192,192,31192,1,0,0:0:0:0:
64,192,31234,1,0,0:0:0:0:
320,192,31276,1,0,0:0:0:0:
448,192,31317,1,0,0:0:0:0:
64,192,31359,1,0,0:0:0:0:
320,192,31401,1,0,0:0:0:0:
192,192,31401,1,0,0:0:0:0:
448,192,31484,1,0,0:0:0:0:
64,192,31526,1,0,0:0:0:0:
192,192,31567,1,0,0:0:0:0:
320,192,31609,1,0,0:0:0:0:
448,192,31652,1,0,0:0:0:0:
64,192,31694,1,0,0:0:0:0:
192,192,31735,1,0,0:0:0:0:
320,192,31777,1,0,0:0:0:0:
448,192,31819,1,0,0:0:0:0:
320,192,31860,1,0,0:0:0:0:
192,192,31902,1,0,0:0:0:0:
64,192,31902,1,0,0:0:0:0:
320,192,32027,1,0,0:0:0:0:
64,192,32153,1,0,0:0:0:0:
192,192,32195,1,0,0:0:0:0:
320,192,32236,1,0,0:0:0:0:
64,192,32278,1,0,0:0:0:0:
448,192,32320,1,0,0:0:0:0:
320,192,32361,1,0,0:0:0:0:
192,192,32403,1,0,0:0:0:0:
64,192,32403,1,0,0:0:0:0:
192,192,32528,1,0,0:0:0:0:
320,192,32654,1,0,0:0:0:0:
192,192,32696,1,0,0:0:0:0:
64,192,32738,1,0,0:0:0:0:
448,192,32779,1,0,0:0:0:0:
320,192,32821,1,0,0:0:0:0:
192,192,32863,1,0,0:0:0:0:
448,192,32904,1,0,0:0:0:0:
64,192,32904,1,0,0:0:0:0:
192,192,33029,1,0,0:0:0:0:
320,192,33155,1,0,0:0:0:0:
448,192,33280,1,0,0:0:0:0:
192,192,33405,1,0,0:0:0:0:
320,192,33447,1,0,0:0:0:0:
448,192,33489,1,0,0:0:0:0:
320,192,33532,1,0,0:0:0:0:
192,192,33573,1,0,0:0:0:0:
64,192,33615,1,0,0:0:0:0:
320,192,33657,1,0,0:0:0:0:
192,192,33698,1,0,0:0:0:0:
448,192,33740,1,0,0:0:0:0:
320,192,33782,1,0,0:0:0:0:
64,192,33823,1,0,0:0:0:0:
192,192,33865,1,0,0:0:0:0:
64,192,33907,1,0,0:0:0:0:
448,192,33907,1,0,0:0:0:0:
448,192,34074,1,0,0:0:0:0:
64,192,34116,1,0,0:0:0:0:
192,192,34158,1,0,0:0:0:0:
320,192,34199,1,0,0:0:0:0:
448,192,34241,1,0,0:0:0:0:
192,192,34283,1,0,0:0:0:0:
64,192,34325,1,0,0:0:0:0:
320,192,34408,1,0,0:0:0:0:
192,192,34408,1,0,0:0:0:0:
448,192,34534,1,0,0:0:0:0:
64,192,34659,1,0,0:0:0:0:
192,192,34701,1,0,0:0:0:0:
320,192,34742,1,0,0:0:0:0:
64,192,34784,1,0,0:0:0:0:
192,192,34826,1,0,0:0:0:0:
320,192,34867,1,0,0:0:0:0:
448,192,34909,1,0,0:0:0:0:
64,192,34909,1,0,0:0:0:0:
192,192,34993,1,0,0:0:0:0:
320,192,35035,1,0,0:0:0:0:
448,192,35077,1,0,0:0:0:0:
64,192,35118,1,0,0:0:0:0:
192,192,35160,1,0,0:0:0:0:
320,192,35202,1,0,0:0:0:0:
448,192,35244,1,0,0:0:0:0:
192,192,35285,1,0,0:0:0:0:
64,192,35327,1,0,0:0:0:0:
448,192,35369,1,0,0:0:0:0:
320,192,35411,1,0,0:0:0:0:
192,192,35411,1,0,0:0:0:0:
64,192,35495,1,0,0:0:0:0:
448,192,35536,1,0,0:0:0:0:
320,192,35578,1,0,0:0:0:0:
192,192,35620,1,0,0:0:0:0:
64,192,35661,1,0,0:0:0:0:
448,192,35703,1,0,0:0:0:0:
320,192,35745,1,0,0:0:0:0:
192,192,35786,1,0,0:0:0:0:
64,192,35828,1,0,0:0:0:0:
192,192,35871,1,0,0:0:0:0:
448,192,35912,1,0,0:0:0:0:
320,192,35912,1,0,0:0:0:0:
192,192,36037,1,0,0:0:0:0:
448,192,36163,1,0,0:0:0:0:
320,192,36204,1,0,0:0:0:0:
192,192,36246,1,0,0:0:0:0:
448,192,36288,1,0,0:0:0:0:
64,192,36329,1,0,0:0:0:0:
192,192,36372,1,0,0:0:0:0:
448,192,36414,1,0,0:0:0:0:
320,192,36414,1,0,0:0:0:0:
320,192,36539,1,0,0:0:0:0:
192,192,36664,1,0,0:0:0:0:
320,192,36705,1,0,0:0:0:0:
448,192,36747,1,0,0:0:0:0:
64,192,36789,1,0,0:0:0:0:
192,192,36831,1,0,0:0:0:0:
320,192,36873,1,0,0:0:0:0:
448,192,36915,1,0,0:0:0:0:
64,192,36915,1,0,0:0:0:0:
320,192,37040,1,0,0:0:0:0:
192,192,37165,1,0,0:0:0:0:
64,192,37291,1,0,0:0:0:0:
320,192,37416,1,0,0:0:0:0:
448,192,37458,1,0,0:0:0:0:
64,192,37499,1,0,0:0:0:0:
192,192,37541,1,0,0:0:0:0:
320,192,37583,1,0,0:0:0:0:
448,192,37624,1,0,0:0:0:0:
192,192,37666,1,0,0:0:0:0:
320,192,37708,1,0,0:0:0:0:
64,192,37749,1,0,0:0:0:0:
192,192,37792,1,0,0:0:0:0:
320,192,37834,1,0,0:0:0:0:
192,192,37876,1,0,0:0:0:0:
448,192,37917,1,0,0:0:0:0:
64,192,37917,1,0,0:0:0:0:
64,192,38084,1,0,0:0:0:0:
448,192,38126,1,0,0:0:0:0:
320,192,38167,1,0,0:0:0:0:
192,192,38209,1,0,0:0:0:0:
64,192,38252,1,0,0:0:0:0:
320,192,38293,1,0,0:0:0:0:
448,192,38335,1,0,0:0:0:0:
320,192,38418,1,0,0:0:0:0:
192,192,38418,1,0,0:0:0:0:
64,192,38543,1,0,0:0:0:0:
448,192,38668,1,0,0:0:0:0:
320,192,38711,1,0,0:0:0:0:
192,192,38753,1,0,0:0:0:0:
448,192,38795,1,0,0:0:0:0:
320,192,38836,1,0,0:0:0:0:
192,192,38878,1,0,0:0:0:0:
448,192,38920,1,0,0:0:0:0:
64,192,38920,1,0,0:0:0:0:
320,192,39003,1,0,0:0:0:0:
192,192,39045,1,0,0:0:0:0:
64,192,39086,1,0,0:0:0:0:
448,192,39128,1,0,0:0:0:0:
320,192,39171,1,0,0:0:0:0:
192,192,39212,1,0,0:0:0:0:
64,192,39254,1,0,0:0:0:0:
320,192,39296,1,0,0:0:0:0:
448,192,39337,1,0,0:0:0:0:
64,192,39379,1,0,0:0:0:0:
320,192,39421,1,0,0:0:0:0:
192,192,39421,1,0,0:0:0:0:
448,192,39504,1,0,0:0:0:0:
64,192,39546,1,0,0:0:0:0:
192,192,39588,1,0,0:0:0:0:
320,192,39629,1,0,0:0:0:0:
448,192,39672,1,0,0:0:0:0:
64,192,39714,1,0,0:0:0:0:
192,192,39755,1,0,0:0:0:0:
320,192,39797,1,0,0:0:0:0:
448,192,39839,1,0,0:0:0:0:
320,192,39880,1,0,0:0:0:0:
192,192,39922,1,0,0:0:0:0:
64,192,39922,1,0,0:0:0:0:
320,192,40047,1,0,0:0:0:0:
64,192,40173,1,0,0:0:0:0:
192,192,40215,1,0,0:0:0:0:
320,192,40256,1,0,0:0:0:0:
64,192,40298,1,0,0:0:0:0:
448,192,40340,1,0,0:0:0:0:
320,192,40381,1,0,0:0:0:0:
192,192,40423,1,0,0:0:0:0:
64,192,40423,1,0,0:0:0:0:
192,192,40548,1,0,0:0:0:0:
320,192,40674,1,0,0:0:0:0:
192,192,40716,1,0,0:0:0:0:
64,192,40758,1,0,0:0:0:0:
448,192,40799,1,0,0:0:0:0:
320,192,40841,1,0,0:0:0:0:
192,192,40883,1,0,0:0:0:0:
448,192,40924,1,0,0:0:0:0:
64,192,40924,1,0,0:0:0:0:
192,192,41049,1,0,0:0:0:0:
320,192,41175,1,0,0:0:0:0:
448,192,41300,1,0,0:0:0:0:
192,192,41426,1,0,0:0:0:0:
64,192,41467,1,0,0:0:0:0:
448,192,41509,1,0,0:0:0:0:
320,192,41552,1,0,0:0:0:0:
192,192,41593,1,0,0:0:0:0:
64,192,41635,1,0,0:0:0:0:
448,192,41677,1,0,0:0:0:0:
192,192,41718,1,0,0:0:0:0:
320,192,41760,1,0,0:0:0:0:
64,192,41802,1,0,0:0:0:0:
448,192,41843,1,0,0:0:0:0:
320,192,41885,1,0,0:0:0:0:
64,192,41927,1,0,0:0:0:0:
192,192,41968,1,0,0:0:0:0:
320,192,42011,1,0,0:0:0:0:
448,192,42053,1,0,0:0:0:0:
64,192,42094,1,0,0:0:0:0:
192,192,42136,1,0,0:0:0:0:
320,192,42178,1,0,0:0:0:0:
448,192,42220,1,0,0:0:0:0:
64,192,42261,1,0,0:0:0:0:
192,192,42303,1,0,0:0:0:0:
320,192,42345,1,0,0:0:0:0:
448,192,42386,1,0,0:0:0:0:
320,192,42428,1,0,0:0:0:0:
192,192,42471,1,0,0:0:0:0:
64,192,42512,1,0,0:0:0:0:
448,192,42554,1,0,0:0:0:0:
320,192,42596,1,0,0:0:0:0:
192,192,42637,1,0,0:0:0:0:
64,192,42679,1,0,0:0:0:0:
448,192,42721,1,0,0:0:0:0:
320,192,42762,1,0,0:0:0:0:
192,192,42804,1,0,0:0:0:0:
64,192,42846,1,0,0:0:0:0:
448,192,42887,1,0,0:0:0:0:
320,192,42929,1,0,0:0:0:0:
192,192,42972,1,0,0:0:0:0:
64,192,43013,1,0,0:0:0:0:
448,192,43055,1,0,0:0:0:0:
320,192,43097,1,0,0:0:0:0:
192,192,43139,1,0,0:0:0:0:
64,192,43180,1,0,0:0:0:0:
448,192,43180,1,0,0:0:0:0:
320,192,43264,1,0,0:0:0:0:
192,192,43347,1,0,0:0:0:0:
448,192,43431,1,0,0:0:0:0:
320,192,43431,1,0,0:0:0:0:
64,192,43515,1,0,0:0:0:0:
448,192,43598,1,0,0:0:0:0:
320,192,43681,1,0,0:0:0:0:
192,192,43681,1,0,0:0:0:0:
64,192,43765,1,0,0:0:0:0:
448,192,43848,1,0,0:0:0:0:
64,192,43932,1,0,0:0:0:0:
192,192,43974,1,0,0:0:0:0:
320,192,44016,1,0,0:0:0:0:
448,192,44058,1,0,0:0:0:0:
64,192,44099,1,0,0:0:0:0:
192,192,44141,1,0,0:0:0:0:
320,192,44183,1,0,0:0:0:0:
448,192,44224,1,0,0:0:0:0:
64,192,44266,1,0,0:0:0:0:
192,192,44308,1,0,0:0:0:0:
320,192,44349,1,0,0:0:0:0:
448,192,44392,1,0,0:0:0:0:
320,192,44434,1,0,0:0:0:0:
192,192,44475,1,0,0:0:0:0:
64,192,44517,1,0,0:0:0:0:
448,192,44559,1,0,0:0:0:0:
320,192,44600,1,0,0:0:0:0:
192,192,44642,1,0,0:0:0:0:
64,192,44684,1,0,0:0:0:0:
448,192,44725,1,0,0:0:0:0:
320,192,44767,1,0,0:0:0:0:
192,192,44809,1,0,0:0:0:0:
64,192,44852,1,0,0:0:0:0:
448,192,44893,1,0,0:0:0:0:
320,192,44935,1,0,0:0:0:0:
192,192,44977,1,0,0:0:0:0:
64,192,45018,1,0,0:0:0:0:
448,192,45060,1,0,0:0:0:0:
320,192,45102,1,0,0:0:0:0:
192,192,45143,1,0,0:0:0:0:
64,192,45185,1,0,0:0:0:0:
448,192,45185,1,0,0:0:0:0:
192,192,45268,1,0,0:0:0:0:
320,192,45353,1,0,0:0:0:0:
192,192,45436,1,0,0:0:0:0:
448,192,45436,1,0,0:0:0:0:
320,192,45519,1,0,0:0:0:0:
64,192,45603,1,0,0:0:0:0:
320,192,45686,1,0,0:0:0:0:
192,192,45686,1,0,0:0:0:0:
448,192,45771,1,0,0:0:0:0:
320,192,45854,1,0,0:0:0:0:
64,192,45937,1,0,0:0:0:0:
192,192,45979,1,0,0:0:0:0:
320,192,46021,1,0,0:0:0:0:
448,192,46062,1,0,0:0:0:0:
64,192,46104,1,0,0:0:0:0:
192,192,46146,1,0,0:0:0:0:
320,192,46187,1,0,0:0:0:0:
448,192,46229,1,0,0:0:0:0:
64,192,46272,1,0,0:0:0:0:
192,192,46313,1,0,0:0:0:0:
320,192,46355,1,0,0:0:0:0:
448,192,46397,1,0,0:0:0:0:
320,192,46438,1,0,0:0:0:0:
192,192,46480,1,0,0:0:0:0:
64,192,46522,1,0,0:0:0:0:
448,192,46563,1,0,0:0:0:0:
320,192,46605,1,0,0:0:0:0:
192,192,46647,1,0,0:0:0:0:
64,192,46689,1,0,0:0:0:0:
448,192,46731,1,0,0:0:0:0:
320,192,46773,1,0,0:0:0:0:
192,192,46815,1,0,0:0:0:0:
64,192,46856,1,0,0:0:0:0:
448,192,46898,1,0,0:0:0:0:
320,192,46940,1,0,0:0:0:0:
192,192,46981,1,0,0:0:0:0:
64,192,47023,1,0,0:0:0:0:
448,192,47065,1,0,0:0:0:0:
320,192,47106,1,0,0:0:0:0:
192,192,47148,1,0,0:0:0:0:
448,192,47191,1,0,0:0:0:0:
64,192,47191,1,0,0:0:0:0:
320,192,47274,1,0,0:0:0:0:
448,192,47357,1,0,0:0:0:0:
192,192,47441,1,0,0:0:0:0:
64,192,47441,1,0,0:0:0:0:
320,192,47524,1,0,0:0:0:0:
192,192,47608,1,0,0:0:0:0:
320,192,47692,1,0,0:0:0:0:
448,192,47692,1,0,0:0:0:0:
64,192,47775,1,0,0:0:0:0:
192,192,47859,1,0,0:0:0:0:
448,192,47942,1,0,0:0:0:0:
64,192,47942,1,0,0:0:0:0:
320,192,47984,1,0,0:0:0:0:
192,192,48067,1,0,0:0:0:0:
320,192,48193,1,0,0:0:0:0:
64,192,48318,1,0,0:0:0:0:
448,192,48318,1,0,0:0:0:0:
320,192,48360,1,0,0:0:0:0:
192,192,48443,1,0,0:0:0:0:
448,192,48568,1,0,0:0:0:0:
64,192,48694,1,0,0:0:0:0:
320,192,48694,1,0,0:0:0:0:
192,192,48736,1,0,0:0:0:0:
448,192,48757,1,0,0:0:0:0:
448,192,48944,1,0,0:0:0:0:
64,192,48944,1,0,0:0:0:0:
320,192,48986,1,0,0:0:0:0:
192,192,49028,1,0,0:0:0:0:
64,192,49069,1,0,0:0:0:0:
448,192,49112,1,0,0:0:0:0:
320,192,49154,1,0,0:0:0:0:
192,192,49195,1,0,0:0:0:0:
448,192,49237,1,0,0:0:0:0:
320,192,49279,1,0,0:0:0:0:
64,192,49321,1,0,0:0:0:0:
192,192,49362,1,0,0:0:0:0:
320,192,49404,1,0,0:0:0:0:
448,192,49446,1,0,0:0:0:0:
64,192,49487,1,0,0:0:0:0:
192,192,49529,1,0,0:0:0:0:
320,192,49572,1,0,0:0:0:0:
64,192,49613,1,0,0:0:0:0:
192,192,49655,1,0,0:0:0:0:
320,192,49697,1,0,0:0:0:0:
448,192,49738,1,0,0:0:0:0:
192,192,49780,1,0,0:0:0:0:
320,192,49822,1,0,0:0:0:0:
448,192,49863,1,0,0:0:0:0:
64,192,49947,1,0,0:0:0:0:
192,192,49988,1,0,0:0:0:0:
320,192,50031,1,0,0:0:0:0:
448,192,50073,1,0,0:0:0:0:
64,192,50115,1,0,0:0:0:0:
192,192,50156,1,0,0:0:0:0:
320,192,50198,1,0,0:0:0:0:
448,192,50240,1,0,0:0:0:0:
64,192,50281,1,0,0:0:0:0:
192,192,50323,1,0,0:0:0:0:
320,192,50365,1,0,0:0:0:0:
448,192,50406,1,0,0:0:0:0:
320,192,50448,1,0,0:0:0:0:
192,192,50491,1,0,0:0:0:0:
64,192,50532,1,0,0:0:0:0:
448,192,50574,1,0,0:0:0:0:
320,192,50616,1,0,0:0:0:0:
192,192,50657,1,0,0:0:0:0:
64,192,50699,1,0,0:0:0:0:
448,192,50741,1,0,0:0:0:0:
320,192,50782,1,0,0:0:0:0:
192,192,50824,1,0,0:0:0:0:
64,192,50866,1,0,0:0:0:0:
448,192,50907,1,0,0:0:0:0:
320,192,50949,1,0,0:0:0:0:
192,192,50992,1,0,0:0:0:0:
64,192,51034,1,0,0:0:0:0:
448,192,51075,1,0,0:0:0:0:
320,192,51117,1,0,0:0:0:0:
192,192,51159,1,0,0:0:0:0:
64,192,51200,1,0,0:0:0:0:
448,192,51200,1,0,0:0:0:0:
320,192,51284,1,0,0:0:0:0:
192,192,51367,1,0,0:0:0:0:
448,192,51451,1,0,0:0:0:0:
320,192,51451,1,0,0:0:0:0:
64,192,51535,1,0,0:0:0:0:
448,192,51618,1,0,0:0:0:0:
320,192,51701,1,0,0:0:0:0:
192,192,51701,1,0,0:0:0:0:
64,192,51785,1,0,0:0:0:0:
448,192,51868,1,0,0:0:0:0:
64,192,51953,1,0,0:0:0:0:
192,192,51994,1,0,0:0:0:0:
320,192,52036,1,0,0:0:0:0:
448,192,52078,1,0,0:0:0:0:
64,192,52119,1,0,0:0:0:0:
192,192,52161,1,0,0:0:0:0:
320,192,52203,1,0,0:0:0:0:
448,192,52244,1,0,0:0:0:0:
64,192,52286,1,0,0:0:0:0:
192,192,52328,1,0,0:0:0:0:
320,192,52369,1,0,0:0:0:0:
448,192,52412,1,0,0:0:0:0:
320,192,52454,1,0,0:0:0:0:
192,192,52495,1,0,0:0:0:0:
64,192,52537,1,0,0:0:0:0:
448,192,52579,1,0,0:0:0:0:
320,192,52620,1,0,0:0:0:0:
192,192,52662,1,0,0:0:0:0:
64,192,52704,1,0,0:0:0:0:
448,192,52746,1,0,0:0:0:0:
320,192,52787,1,0,0:0:0:0:
192,192,52829,1,0,0:0:0:0:
64,192,52872,1,0,0:0:0:0:
448,192,52913,1,0,0:0:0:0:
320,192,52955,1,0,0:0:0:0:
192,192,52997,1,0,0:0:0:0:
64,192,53038,1,0,0:0:0:0:
448,192,53080,1,0,0:0:0:0:
320,192,53122,1,0,0:0:0:0:
192,192,53163,1,0,0:0:0:0:
64,192,53205,1,0,0:0:0:0:
448,192,53205,1,0,0:0:0:0:
192,192,53288,1,0,0:0:0:0:
320,192,53373,1,0,0:0:0:0:
192,192,53456,1,0,0:0:0:0:
448,192,53456,1,0,0:0:0:0:
320,192,53539,1,0,0:0:0:0:
64,192,53623,1,0,0:0:0:0:
320,192,53706,1,0,0:0:0:0:
192,192,53706,1,0,0:0:0:0:
448,192,53791,1,0,0:0:0:0:
320,192,53874,1,0,0:0:0:0:
64,192,53957,1,0,0:0:0:0:
192,192,53999,1,0,0:0:0:0:
320,192,54041,1,0,0:0:0:0:
448,192,54082,1,0,0:0:0:0:
64,192,54124,1,0,0:0:0:0:
192,192,54166,1,0,0:0:0:0:
320,192,54207,1,0,0:0:0:0:
448,192,54249,1,0,0:0:0:0:
64,192,54292,1,0,0:0:0:0:
192,192,54333,1,0,0:0:0:0:
320,192,54375,1,0,0:0:0:0:
448,192,54417,1,0,0:0:0:0:
320,192,54458,1,0,0:0:0:0:
192,192,54500,1,0,0:0:0:0:
64,192,54542,1,0,0:0:0:0:
448,192,54584,1,0,0:0:0:0:
320,192,54625,1,0,0:0:0:0:
192,192,54667,1,0,0:0:0:0:
64,192,54709,1,0,0:0:0:0:
448,192,54751,1,0,0:0:0:0:
320,192,54793,1,0,0:0:0:0:
192,192,54835,1,0,0:0:0:0:
64,192,54876,1,0,0:0:0:0:
448,192,54918,1,0,0:0:0:0:
320,192,54960,1,0,0:0:0:0:
192,192,55001,1,0,0:0:0:0:
64,192,55043,1,0,0:0:0:0:
448,192,55085,1,0,0:0:0:0:
320,192,55126,1,0,0:0:0:0:
192,192,55168,1,0,0:0:0:0:
448,192,55211,1,0,0:0:0:0:
64,192,55211,1,0,0:0:0:0:
320,192,55294,1,0,0:0:0:0:
448,192,55378,1,0,0:0:0:0:
192,192,55461,1,0,0:0:0:0:
64,192,55461,1,0,0:0:0:0:
320,192,55544,1,0,0:0:0:0:
192,192,55628,1,0,0:0:0:0:
320,192,55712,1,0,0:0:0:0:
448,192,55712,1,0,0:0:0:0:
64,192,55795,1,0,0:0:0:0:
192,192,55879,1,0,0:0:0:0:
448,192,55962,1,0,0:0:0:0:
64,192,55962,1,0,0:0:0:0:
320,192,56004,1,0,0:0:0:0:
192,192,56087,1,0,0:0:0:0:
320,192,56213,1,0,0:0:0:0:
64,192,56338,1,0,0:0:0:0:
448,192,56338,1,0,0:0:0:0:
320,192,56380,1,0,0:0:0:0:
192,192,56463,1,0,0:0:0:0:
448,192,56588,1,0,0:0:0:0:
64,192,56714,1,0,0:0:0:0:
320,192,56714,1,0,0:0:0:0:
192,192,56756,1,0,0:0:0:0:
448,192,56777,1,0,0:0:0:0:
448,192,56964,1,0,0:0:0:0:
64,192,56964,1,0,0:0:0:0:
320,192,57006,1,0,0:0:0:0:
192,192,57048,1,0,0:0:0:0:
64,192,57089,1,0,0:0:0:0:
448,192,57132,1,0,0:0:0:0:
320,192,57174,1,0,0:0:0:0:
192,192,57216,1,0,0:0:0:0:
448,192,57257,1,0,0:0:0:0:
320,192,57299,1,0,0:0:0:0:
64,192,57341,1,0,0:0:0:0:
192,192,57382,1,0,0:0:0:0:
320,192,57424,1,0,0:0:0:0:
448,192,57466,1,0,0:0:0:0:
64,192,57507,1,0,0:0:0:0:
192,192,57549,1,0,0:0:0:0:
320,192,57592,1,0,0:0:0:0:
64,192,57633,1,0,0:0:0:0:
192,192,57675,1,0,0:0:0:0:
320,192,57717,1,0,0:0:0:0:
448,192,57758,1,0,0:0:0:0:
192,192,57800,1,0,0:0:0:0:
320,192,57842,1,0,0:0:0:0:
448,192,57883,1,0,0:0:0:0:
64,192,57967,1,0,0:0:0:0:
192,192,57967,1,0,0:0:0:0:
320,192,58009,1,0,0:0:0:0:
448,192,58051,1,0,0:0:0:0:
192,192,58093,1,0,0:0:0:0:
320,192,58135,1,0,0:0:0:0:
448,192,58176,1,0,0:0:0:0:
192,192,58218,1,0,0:0:0:0:
320,192,58260,1,0,0:0:0:0:
448,192,58301,1,0,0:0:0:0:
192,192,58343,1,0,0:0:0:0:
320,192,58385,1,0,0:0:0:0:
448,192,58426,1,0,0:0:0:0:
320,192,58468,1,0,0:0:0:0:
192,192,58511,1,0,0:0:0:0:
64,192,58552,1,0,0:0:0:0:
320,192,58594,1,0,0:0:0:0:
192,192,58636,1,0,0:0:0:0:
64,192,58677,1,0,0:0:0:0:
320,192,58719,1,0,0:0:0:0:
192,192,58761,1,0,0:0:0:0:
64,192,58802,1,0,0:0:0:0:
320,192,58844,1,0,0:0:0:0:
192,192,58886,1,0,0:0:0:0:
64,192,58928,1,0,0:0:0:0:
320,192,58969,1,0,0:0:0:0:
192,192,59012,1,0,0:0:0:0:
64,192,59054,1,0,0:0:0:0:
320,192,59095,1,0,0:0:0:0:
192,192,59137,1,0,0:0:0:0:
64,192,59179,1,0,0:0:0:0:
192,192,59220,1,0,0:0:0:0:
448,192,59220,1,0,0:0:0:0:
320,192,59304,1,0,0:0:0:0:
192,192,59387,1,0,0:0:0:0:
448,192,59471,1,0,0:0:0:0:
320,192,59471,1,0,0:0:0:0:
64,192,59555,1,0,0:0:0:0:
448,192,59638,1,0,0:0:0:0:
320,192,59721,1,0,0:0:0:0:
192,192,59721,1,0,0:0:0:0:
64,192,59805,1,0,0:0:0:0:
448,192,59888,1,0,0:0:0:0:
192,192,59973,1,0,0:0:0:0:
320,192,60014,1,0,0:0:0:0:
448,192,60056,1,0,0:0:0:0:
192,192,60098,1,0,0:0:0:0:
320,192,60139,1,0,0:0:0:0:
448,192,60181,1,0,0:0:0:0:
192,192,60223,1,0,0:0:0:0:
320,192,60264,1,0,0:0:0:0:
448,192,60306,1,0,0:0:0:0:
192,192,60348,1,0,0:0:0:0:
320,192,60389,1,0,0:0:0:0:
448,192,60432,1,0,0:0:0:0:
320,192,60474,1,0,0:0:0:0:
192,192,60515,1,0,0:0:0:0:
64,192,60557,1,0,0:0:0:0:
320,192,60599,1,0,0:0:0:0:
192,192,60641,1,0,0:0:0:0:
64,192,60682,1,0,0:0:0:0:
320,192,60724,1,0,0:0:0:0:
192,192,60766,1,0,0:0:0:0:
64,192,60807,1,0,0:0:0:0:
320,192,60849,1,0,0:0:0:0:
192,192,60892,1,0,0:0:0:0:
64,192,60933,1,0,0:0:0:0:
320,192,60975,1,0,0:0:0:0:
192,192,61017,1,0,0:0:0:0:
64,192,61058,1,0,0:0:0:0:
320,192,61100,1,0,0:0:0:0:
192,192,61142,1,0,0:0:0:0:
64,192,61183,1,0,0:0:0:0:
320,192,61225,1,0,0:0:0:0:
448,192,61225,1,0,0:0:0:0:
192,192,61308,1,0,0:0:0:0:
320,192,61393,1,0,0:0:0:0:
192,192,61476,1,0,0:0:0:0:
448,192,61476,1,0,0:0:0:0:
320,192,61560,1,0,0:0:0:0:
64,192,61643,1,0,0:0:0:0:
320,192,61726,1,0,0:0:0:0:
192,192,61726,1,0,0:0:0:0:
448,192,61811,1,0,0:0:0:0:
320,192,61894,1,0,0:0:0:0:
192,192,61977,1,0,0:0:0:0:
64,192,61977,1,0,0:0:0:0:
320,192,62019,1,0,0:0:0:0:
448,192,62061,1,0,0:0:0:0:
192,192,62102,1,0,0:0:0:0:
320,192,62144,1,0,0:0:0:0:
448,192,62186,1,0,0:0:0:0:
192,192,62227,1,0,0:0:0:0:
320,192,62269,1,0,0:0:0:0:
448,192,62312,1,0,0:0:0:0:
192,192,62353,1,0,0:0:0:0:
320,192,62395,1,0,0:0:0:0:
448,192,62437,1,0,0:0:0:0:
320,192,62479,1,0,0:0:0:0:
192,192,62520,1,0,0:0:0:0:
64,192,62562,1,0,0:0:0:0:
320,192,62604,1,0,0:0:0:0:
192,192,62645,1,0,0:0:0:0:
64,192,62687,1,0,0:0:0:0:
320,192,62729,1,0,0:0:0:0:
192,192,62771,1,0,0:0:0:0:
64,192,62813,1,0,0:0:0:0:
320,192,62855,1,0,0:0:0:0:
192,192,62896,1,0,0:0:0:0:
64,192,62938,1,0,0:0:0:0:
320,192,62980,1,0,0:0:0:0:
192,192,63021,1,0,0:0:0:0:
64,192,63063,1,0,0:0:0:0:
320,192,63105,1,0,0:0:0:0:
192,192,63146,1,0,0:0:0:0:
64,192,63188,1,0,0:0:0:0:
448,192,63231,1,0,0:0:0:0:
320,192,63231,1,0,0:0:0:0:
192,192,63314,1,0,0:0:0:0:
448,192,63398,1,0,0:0:0:0:
192,192,63481,1,0,0:0:0:0:
64,192,63481,1,0,0:0:0:0:
320,192,63564,1,0,0:0:0:0:
192,192,63648,1,0,0:0:0:0:
320,192,63732,1,0,0:0:0:0:
448,192,63732,1,0,0:0:0:0:
64,192,63815,1,0,0:0:0:0:
192,192,63899,1,0,0:0:0:0:
448,192,63982,1,0,0:0:0:0:
64,192,63982,1,0,0:0:0:0:
320,192,64024,1,0,0:0:0:0:
192,192,64107,1,0,0:0:0:0:
320,192,64233,1,0,0:0:0:0:
64,192,64358,1,0,0:0:0:0:
448,192,64358,1,0,0:0:0:0:
320,192,64400,1,0,0:0:0:0:
192,192,64483,1,0,0:0:0:0:
448,192,64608,1,0,0:0:0:0:
64,192,64734,1,0,0:0:0:0:
320,192,64734,1,0,0:0:0:0:
192,192,64776,1,0,0:0:0:0:
448,192,64797,1,0,0:0:0:0:
448,192,64984,1,0,0:0:0:0:
64,192,64984,1,0,0:0:0:0:
320,192,65026,1,0,0:0:0:0:
192,192,65068,1,0,0:0:0:0:
64,192,65111,1,0,0:0:0:0:
448,192,65152,1,0,0:0:0:0:
320,192,65194,1,0,0:0:0:0:
192,192,65236,1,0,0:0:0:0:
448,192,65277,1,0,0:0:0:0:
320,192,65319,1,0,0:0:0:0:
64,192,65361,1,0,0:0:0:0:
192,192,65402,1,0,0:0:0:0:
320,192,65444,1,0,0:0:0:0:
448,192,65486,1,0,0:0:0:0:
64,192,65527,1,0,0:0:0:0:
192,192,65569,1,0,0:0:0:0:
320,192,65612,1,0,0:0:0:0:
64,192,65653,1,0,0:0:0:0:
192,192,65695,1,0,0:0:0:0:
320,192,65737,1,0,0:0:0:0:
448,192,65778,1,0,0:0:0:0:
192,192,65820,1,0,0:0:0:0:
320,192,65862,1,0,0:0:0:0:
448,192,65904,1,0,0:0:0:0:
64,192,65987,1,0,0:0:0:0:
192,192,65987,1,0,0:0:0:0:
320,192,66029,1,0,0:0:0:0:
448,192,66071,1,0,0:0:0:0:
192,192,66113,1,0,0:0:0:0:
320,192,66155,1,0,0:0:0:0:
448,192,66196,1,0,0:0:0:0:
192,192,66238,1,0,0:0:0:0:
320,192,66280,1,0,0:0:0:0:
448,192,66321,1,0,0:0:0:0:
192,192,66363,1,0,0:0:0:0:
320,192,66405,1,0,0:0:0:0:
448,192,66446,1,0,0:0:0:0:
320,192,66488,1,0,0:0:0:0:
192,192,66531,1,0,0:0:0:0:
64,192,66572,1,0,0:0:0:0:
320,192,66614,1,0,0:0:0:0:
192,192,66656,1,0,0:0:0:0:
64,192,66697,1,0,0:0:0:0:
320,192,66739,1,0,0:0:0:0:
192,192,66781,1,0,0:0:0:0:
64,192,66823,1,0,0:0:0:0:
320,192,66864,1,0,0:0:0:0:
192,192,66906,1,0,0:0:0:0:
64,192,66948,1,0,0:0:0:0:
320,192,66989,1,0,0:0:0:0:
192,192,67032,1,0,0:0:0:0:
64,192,67074,1,0,0:0:0:0:
320,192,67115,1,0,0:0:0:0:
192,192,67157,1,0,0:0:0:0:
64,192,67199,1,0,0:0:0:0:
320,192,67240,1,0,0:0:0:0:
448,192,67240,1,0,0:0:0:0:
192,192,67324,1,0,0:0:0:0:
320,192,67407,1,0,0:0:0:0:
448,192,67491,1,0,0:0:0:0:
192,192,67491,1,0,0:0:0:0:
64,192,67575,1,0,0:0:0:0:
448,192,67658,1,0,0:0:0:0:
320,192,67742,1,0,0:0:0:0:
192,192,67742,1,0,0:0:0:0:
64,192,67825,1,0,0:0:0:0:
448,192,67908,1,0,0:0:0:0:
192,192,67993,1,0,0:0:0:0:
320,192,68034,1,0,0:0:0:0:
448,192,68076,1,0,0:0:0:0:
192,192,68118,1,0,0:0:0:0:
320,192,68159,1,0,0:0:0:0:
448,192,68201,1,0,0:0:0:0:
192,192,68243,1,0,0:0:0:0:
320,192,68284,1,0,0:0:0:0:
448,192,68326,1,0,0:0:0:0:
192,192,68368,1,0,0:0:0:0:
320,192,68409,1,0,0:0:0:0:
448,192,68452,1,0,0:0:0:0:
320,192,68494,1,0,0:0:0:0:
192,192,68536,1,0,0:0:0:0:
64,192,68577,1,0,0:0:0:0:
320,192,68619,1,0,0:0:0:0:
192,192,68661,1,0,0:0:0:0:
64,192,68702,1,0,0:0:0:0:
320,192,68744,1,0,0:0:0:0:
192,192,68786,1,0,0:0:0:0:
64,192,68827,1,0,0:0:0:0:
320,192,68869,1,0,0:0:0:0:
192,192,68912,1,0,0:0:0:0:
64,192,68953,1,0,0:0:0:0:
320,192,68995,1,0,0:0:0:0:
192,192,69037,1,0,0:0:0:0:
64,192,69078,1,0,0:0:0:0:
320,192,69120,1,0,0:0:0:0:
192,192,69162,1,0,0:0:0:0:
64,192,69203,1,0,0:0:0:0:
320,192,69245,1,0,0:0:0:0:
448,192,69245,1,0,0:0:0:0:
192,192,69328,1,0,0:0:0:0:
320,192,69413,1,0,0:0:0:0:
192,192,69496,1,0,0:0:0:0:
448,192,69496,1,0,0:0:0:0:
320,192,69580,1,0,0:0:0:0:
64,192,69663,1,0,0:0:0:0:
320,192,69746,1,0,0:0:0:0:
192,192,69746,1,0,0:0:0:0:
448,192,69831,1,0,0:0:0:0:
320,192,69914,1,0,0:0:0:0:
192,192,69997,1,0,0:0:0:0:
64,192,69997,1,0,0:0:0:0:
320,192,70039,1,0,0:0:0:0:
448,192,70081,1,0,0:0:0:0:
192,192,70122,1,0,0:0:0:0:
320,192,70164,1,0,0:0:0:0:
448,192,70206,1,0,0:0:0:0:
192,192,70247,1,0,0:0:0:0:
320,192,70289,1,0,0:0:0:0:
448,192,70332,1,0,0:0:0:0:
192,192,70374,1,0,0:0:0:0:
320,192,70415,1,0,0:0:0:0:
448,192,70457,1,0,0:0:0:0:
320,192,70499,1,0,0:0:0:0:
192,192,70540,1,0,0:0:0:0:
64,192,70582,1,0,0:0:0:0:
320,192,70624,1,0,0:0:0:0:
192,192,70665,1,0,0:0:0:0:
64,192,70707,1,0,0:0:0:0:
320,192,70749,1,0,0:0:0:0:
192,192,70791,1,0,0:0:0:0:
64,192,70833,1,0,0:0:0:0:
320,192,70875,1,0,0:0:0:0:
192,192,70916,1,0,0:0:0:0:
64,192,70958,1,0,0:0:0:0:
320,192,71000,1,0,0:0:0:0:
192,192,71041,1,0,0:0:0:0:
64,192,71083,1,0,0:0:0:0:
320,192,71125,1,0,0:0:0:0:
192,192,71167,1,0,0:0:0:0:
64,192,71208,1,0,0:0:0:0:
448,192,71251,1,0,0:0:0:0:
192,192,71251,1,0,0:0:0:0:
320,192,71334,1,0,0:0:0:0:
448,192,71418,1,0,0:0:0:0:
192,192,71501,1,0,0:0:0:0:
64,192,71501,1,0,0:0:0:0:
320,192,71584,1,0,0:0:0:0:
192,192,71668,1,0,0:0:0:0:
320,192,71752,1,0,0:0:0:0:
448,192,71752,1,0,0:0:0:0:
64,192,71835,1,0,0:0:0:0:
192,192,71919,1,0,0:0:0:0:
448,192,72002,1,0,0:0:0:0:
64,192,72002,1,0,0:0:0:0:
320,192,72044,1,0,0:0:0:0:
192,192,72127,1,0,0:0:0:0:
320,192,72253,1,0,0:0:0:0:
64,192,72378,1,0,0:0:0:0:
448,192,72378,1,0,0:0:0:0:
320,192,72420,1,0,0:0:0:0:
192,192,72503,1,0,0:0:0:0:
448,192,72628,1,0,0:0:0:0:
64,192,72754,5,0,0:0:0:0:
320,192,72754,1,0,0:0:0:0:
192,192,72796,1,0,0:0:0:0:
448,192,72817,1,0,0:0:0:0:
448,192,73005,1,0,0:0:0:0:
64,192,73005,1,0,0:0:0:0:
192,192,73046,1,0,0:0:0:0:
320,192,73088,1,0,0:0:0:0:
64,192,73131,1,0,0:0:0:0:
448,192,73172,1,0,0:0:0:0:
320,192,73214,1,0,0:0:0:0:
192,192,73256,1,0,0:0:0:0:
448,192,73297,1,0,0:0:0:0:
320,192,73339,1,0,0:0:0:0:
64,192,73381,1,0,0:0:0:0:
192,192,73422,1,0,0:0:0:0:
320,192,73464,1,0,0:0:0:0:
448,192,73506,1,0,0:0:0:0:
64,192,73547,1,0,0:0:0:0:
192,192,73589,1,0,0:0:0:0:
320,192,73632,1,0,0:0:0:0:
64,192,73673,1,0,0:0:0:0:
192,192,73715,1,0,0:0:0:0:
320,192,73757,1,0,0:0:0:0:
448,192,73799,1,0,0:0:0:0:
192,192,73840,1,0,0:0:0:0:
320,192,73882,1,0,0:0:0:0:
64,192,73924,1,0,0:0:0:0:
192,192,74007,5,0,0:0:0:0:
448,192,74007,1,0,0:0:0:0:
320,192,74007,1,0,0:0:0:0:
64,192,74258,1,0,0:0:0:0:
320,192,74258,1,0,0:0:0:0:
448,192,74258,1,0,0:0:0:0:
192,192,74508,1,0,0:0:0:0:
320,192,74508,1,0,0:0:0:0:
64,192,74508,1,0,0:0:0:0:
448,192,74759,1,0,0:0:0:0:
64,192,74759,1,0,0:0:0:0:
192,192,74759,1,0,0:0:0:0:
320,192,75009,1,0,0:0:0:0:
448,192,75009,1,0,0:0:0:0:
64,192,75009,1,0,0:0:0:0:
448,192,75260,1,0,0:0:0:0:
192,192,75260,1,0,0:0:0:0:
320,192,75260,1,0,0:0:0:0:
320,192,75511,1,0,0:0:0:0:
64,192,75511,1,0,0:0:0:0:
192,192,75511,1,0,0:0:0:0:
64,192,75762,1,0,0:0:0:0:
448,192,75762,1,0,0:0:0:0:
64,192,76013,1,0,0:0:0:0:
448,192,76013,1,0,0:0:0:0:
192,192,76013,1,0,0:0:0:0:
320,192,76013,1,0,0:0:0:0:
192,192,76263,1,0,0:0:0:0:
64,192,76263,1,0,0:0:0:0:
64,192,76514,1,0,0:0:0:0:
448,192,76514,1,0,0:0:0:0:
320,192,76514,1,0,0:0:0:0:
192,192,76514,1,0,0:0:0:0:
192,192,76764,1,0,0:0:0:0:
448,192,76764,1,0,0:0:0:0:
192,192,77015,1,0,0:0:0:0:
448,192,77015,1,0,0:0:0:0:
320,192,77015,1,0,0:0:0:0:
64,192,77015,1,0,0:0:0:0:
64,192,77265,1,0,0:0:0:0:
320,192,77265,1,0,0:0:0:0:
192,192,77516,1,0,0:0:0:0:
448,192,77516,1,0,0:0:0:0:
64,192,77516,1,0,0:0:0:0:
320,192,77516,1,0,0:0:0:0:
448,192,77766,1,0,0:0:0:0:
320,192,77766,1,0,0:0:0:0:
192,192,78017,1,0,0:0:0:0:
320,192,78017,1,0,0:0:0:0:
64,192,78017,1,0,0:0:0:0:
64,192,78268,1,0,0:0:0:0:
320,192,78268,1,0,0:0:0:0:
448,192,78268,1,0,0:0:0:0:
64,192,78519,1,0,0:0:0:0:
448,192,78519,1,0,0:0:0:0:
192,192,78519,1,0,0:0:0:0:
64,192,78769,1,0,0:0:0:0:
192,192,78769,1,0,0:0:0:0:
320,192,78769,1,0,0:0:0:0:
448,192,79020,1,0,0:0:0:0:
320,192,79020,1,0,0:0:0:0:
64,192,79020,1,0,0:0:0:0:
192,192,79271,1,0,0:0:0:0:
320,192,79271,1,0,0:0:0:0:
448,192,79271,1,0,0:0:0:0:
320,192,79521,1,0,0:0:0:0:
64,192,79521,1,0,0:0:0:0:
192,192,79521,1,0,0:0:0:0:
448,192,79772,1,0,0:0:0:0:
64,192,79772,1,0,0:0:0:0:
64,192,80022,1,0,0:0:0:0:
192,192,80022,1,0,0:0:0:0:
448,192,80022,1,0,0:0:0:0:
320,192,80022,1,0,0:0:0:0:
192,192,80273,1,0,0:0:0:0:
448,192,80273,1,0,0:0:0:0:
448,192,80523,1,0,0:0:0:0:
320,192,80523,1,0,0:0:0:0:
192,192,80523,1,0,0:0:0:0:
64,192,80523,1,0,0:0:0:0:
320,192,80774,1,0,0:0:0:0:
448,192,80774,1,0,0:0:0:0:
64,192,81025,1,0,0:0:0:0:
192,192,81025,1,0,0:0:0:0:
448,192,81025,1,0,0:0:0:0:
320,192,81025,1,0,0:0:0:0:
320,192,81276,1,0,0:0:0:0:
64,192,81276,1,0,0:0:0:0:
64,192,81526,1,0,0:0:0:0:
192,192,81526,1,0,0:0:0:0:
320,192,81526,1,0,0:0:0:0:
448,192,81526,1,0,0:0:0:0:
64,192,81777,1,0,0:0:0:0:
192,192,81777,1,0,0:0:0:0:
64,192,82027,1,0,0:0:0:0:
192,192,82027,1,0,0:0:0:0:
320,192,82027,1,0,0:0:0:0:
64,192,82278,1,0,0:0:0:0:
448,192,82278,1,0,0:0:0:0:
320,192,82278,1,0,0:0:0:0:
64,192,82528,1,0,0:0:0:0:
192,192,82528,1,0,0:0:0:0:
320,192,82528,1,0,0:0:0:0:
448,192,82779,1,0,0:0:0:0:
64,192,82779,1,0,0:0:0:0:
192,192,82779,1,0,0:0:0:0:
320,192,83029,1,0,0:0:0:0:
64,192,83029,1,0,0:0:0:0:
448,192,83029,1,0,0:0:0:0:
192,192,83072,1,0,0:0:0:0:
64,192,83114,1,0,0:0:0:0:
448,192,83155,1,0,0:0:0:0:
320,192,83197,1,0,0:0:0:0:
64,192,83239,1,0,0:0:0:0:
192,192,83280,1,0,0:0:0:0:
448,192,83280,1,0,0:0:0:0:
320,192,83322,1,0,0:0:0:0:
64,192,83364,1,0,0:0:0:0:
192,192,83405,1,0,0:0:0:0:
448,192,83447,1,0,0:0:0:0:
320,192,83489,1,0,0:0:0:0:
64,192,83532,1,0,0:0:0:0:
192,192,83532,1,0,0:0:0:0:
64,192,83782,1,0,0:0:0:0:
448,192,83782,1,0,0:0:0:0:
64,192,84033,1,0,0:0:0:0:
448,192,84033,1,0,0:0:0:0:
192,192,84033,1,0,0:0:0:0:
320,192,84033,1,0,0:0:0:0:
320,192,84283,1,0,0:0:0:0:
192,192,84283,1,0,0:0:0:0:
64,192,84534,1,0,0:0:0:0:
448,192,84534,1,0,0:0:0:0:
320,192,84534,1,0,0:0:0:0:
192,192,84534,1,0,0:0:0:0:
192,192,84784,1,0,0:0:0:0:
448,192,84784,1,0,0:0:0:0:
192,192,85035,1,0,0:0:0:0:
448,192,85035,1,0,0:0:0:0:
320,192,85035,1,0,0:0:0:0:
64,192,85035,1,0,0:0:0:0:
64,192,85285,1,0,0:0:0:0:
320,192,85285,1,0,0:0:0:0:
192,192,85536,1,0,0:0:0:0:
448,192,85536,1,0,0:0:0:0:
64,192,85536,1,0,0:0:0:0:
320,192,85536,1,0,0:0:0:0:
192,192,85786,1,0,0:0:0:0:
320,192,85786,1,0,0:0:0:0:
192,192,86037,1,0,0:0:0:0:
448,192,86037,1,0,0:0:0:0:
320,192,86037,1,0,0:0:0:0:
64,192,86288,1,0,0:0:0:0:
320,192,86288,1,0,0:0:0:0:
448,192,86288,1,0,0:0:0:0:
64,192,86539,1,0,0:0:0:0:
448,192,86539,1,0,0:0:0:0:
192,192,86539,1,0,0:0:0:0:
64,192,86789,1,0,0:0:0:0:
192,192,86789,1,0,0:0:0:0:
320,192,86789,1,0,0:0:0:0:
192,192,87040,1,0,0:0:0:0:
64,192,87040,1,0,0:0:0:0:
448,192,87040,1,0,0:0:0:0:
320,192,87082,1,0,0:0:0:0:
448,192,87123,1,0,0:0:0:0:
64,192,87165,1,0,0:0:0:0:
192,192,87207,1,0,0:0:0:0:
448,192,87248,1,0,0:0:0:0:
320,192,87291,1,0,0:0:0:0:
64,192,87291,1,0,0:0:0:0:
192,192,87333,1,0,0:0:0:0:
448,192,87374,1,0,0:0:0:0:
320,192,87416,1,0,0:0:0:0:
64,192,87458,1,0,0:0:0:0:
192,192,87499,1,0,0:0:0:0:
448,192,87541,1,0,0:0:0:0:
320,192,87541,1,0,0:0:0:0:
448,192,87792,1,0,0:0:0:0:
64,192,87792,1,0,0:0:0:0:
64,192,88042,1,0,0:0:0:0:
192,192,88042,1,0,0:0:0:0:
448,192,88042,1,0,0:0:0:0:
320,192,88042,1,0,0:0:0:0:
64,192,88293,1,0,0:0:0:0:
192,192,88293,1,0,0:0:0:0:
448,192,88543,1,0,0:0:0:0:
320,192,88543,1,0,0:0:0:0:
192,192,88543,1,0,0:0:0:0:
64,192,88543,1,0,0:0:0:0:
64,192,88795,1,0,0:0:0:0:
320,192,88795,1,0,0:0:0:0:
64,192,89045,1,0,0:0:0:0:
192,192,89045,1,0,0:0:0:0:
448,192,89045,1,0,0:0:0:0:
320,192,89045,1,0,0:0:0:0:
448,192,89296,1,0,0:0:0:0:
192,192,89296,1,0,0:0:0:0:
64,192,89546,1,0,0:0:0:0:
192,192,89546,1,0,0:0:0:0:
320,192,89546,1,0,0:0:0:0:
448,192,89546,1,0,0:0:0:0:
192,192,89672,1,0,0:0:0:0:
448,192,89797,1,0,0:0:0:0:
320,192,89797,1,0,0:0:0:0:
320,192,89922,1,0,0:0:0:0:
64,192,90047,1,0,0:0:0:0:
448,192,90047,1,0,0:0:0:0:
192,192,90047,1,0,0:0:0:0:
192,192,90173,1,0,0:0:0:0:
320,192,90298,1,0,0:0:0:0:
448,192,90298,1,0,0:0:0:0:
64,192,90298,1,0,0:0:0:0:
448,192,90423,1,0,0:0:0:0:
320,192,90548,1,0,0:0:0:0:
192,192,90548,1,0,0:0:0:0:
64,192,90548,1,0,0:0:0:0:
320,192,90674,1,0,0:0:0:0:
192,192,90799,1,0,0:0:0:0:
64,192,90799,1,0,0:0:0:0:
448,192,90799,1,0,0:0:0:0:
192,192,90924,1,0,0:0:0:0:
448,192,91049,1,0,0:0:0:0:
64,192,91049,1,0,0:0:0:0:
320,192,91049,1,0,0:0:0:0:
64,192,91175,1,0,0:0:0:0:
448,192,91300,1,0,0:0:0:0:
320,192,91300,1,0,0:0:0:0:
192,192,91300,1,0,0:0:0:0:
448,192,91426,1,0,0:0:0:0:
320,192,91552,1,0,0:0:0:0:
192,192,91552,1,0,0:0:0:0:
64,192,91552,1,0,0:0:0:0:
192,192,91677,1,0,0:0:0:0:
448,192,91802,1,0,0:0:0:0:
64,192,91802,1,0,0:0:0:0:
192,192,92053,1,0,0:0:0:0:
320,192,92053,1,0,0:0:0:0:
64,192,92053,1,0,0:0:0:0:
448,192,92053,1,0,0:0:0:0:
192,192,92303,1,0,0:0:0:0:
64,192,92303,1,0,0:0:0:0:
320,192,92554,1,0,0:0:0:0:
192,192,92554,1,0,0:0:0:0:
64,192,92554,1,0,0:0:0:0:
448,192,92554,1,0,0:0:0:0:
320,192,92679,1,0,0:0:0:0:
448,192,92804,1,0,0:0:0:0:
192,192,92804,1,0,0:0:0:0:
192,192,92929,1,0,0:0:0:0:
320,192,93055,1,0,0:0:0:0:
64,192,93055,1,0,0:0:0:0:
192,192,93055,1,0,0:0:0:0:
448,192,93055,1,0,0:0:0:0:
448,192,93180,1,0,0:0:0:0:
320,192,93305,1,0,0:0:0:0:
64,192,93305,1,0,0:0:0:0:
320,192,93431,1,0,0:0:0:0:
64,192,93556,1,0,0:0:0:0:
320,192,93556,1,0,0:0:0:0:
192,192,93556,1,0,0:0:0:0:
448,192,93556,1,0,0:0:0:0:
192,192,93681,1,0,0:0:0:0:
320,192,93806,1,0,0:0:0:0:
448,192,93806,1,0,0:0:0:0:
320,192,94058,1,0,0:0:0:0:
448,192,94058,1,0,0:0:0:0:
192,192,94058,1,0,0:0:0:0:
192,192,94183,1,0,0:0:0:0:
448,192,94308,1,0,0:0:0:0:
320,192,94308,1,0,0:0:0:0:
64,192,94308,1,0,0:0:0:0:
192,192,94559,1,0,0:0:0:0:
448,192,94559,1,0,0:0:0:0:
64,192,94559,1,0,0:0:0:0:
448,192,94684,1,0,0:0:0:0:
320,192,94809,1,0,0:0:0:0:
192,192,94809,1,0,0:0:0:0:
64,192,94809,1,0,0:0:0:0:
192,192,94935,1,0,0:0:0:0:
64,192,95060,1,0,0:0:0:0:
320,192,95060,1,0,0:0:0:0:
448,192,95060,1,0,0:0:0:0:
64,192,95185,1,0,0:0:0:0:
448,192,95311,1,0,0:0:0:0:
320,192,95311,1,0,0:0:0:0:
192,192,95311,1,0,0:0:0:0:
448,192,95436,1,0,0:0:0:0:
192,192,95561,1,0,0:0:0:0:
64,192,95561,1,0,0:0:0:0:
320,192,95561,1,0,0:0:0:0:
320,192,95686,1,0,0:0:0:0:
64,192,95812,1,0,0:0:0:0:
448,192,95812,1,0,0:0:0:0:
448,192,96062,1,0,0:0:0:0:
320,192,96062,1,0,0:0:0:0:
64,192,96062,1,0,0:0:0:0:
192,192,96062,1,0,0:0:0:0:
448,192,96313,1,0,0:0:0:0:
320,192,96313,1,0,0:0:0:0:
192,192,96563,1,0,0:0:0:0:
64,192,96563,1,0,0:0:0:0:
448,192,96563,1,0,0:0:0:0:
320,192,96563,1,0,0:0:0:0:
192,192,96689,1,0,0:0:0:0:
320,192,96815,1,0,0:0:0:0:
64,192,96815,1,0,0:0:0:0:
320,192,96940,1,0,0:0:0:0:
448,192,97065,1,0,0:0:0:0:
320,192,97065,1,0,0:0:0:0:
64,192,97065,1,0,0:0:0:0:
192,192,97065,1,0,0:0:0:0:
64,192,97191,1,0,0:0:0:0:
192,192,97316,1,0,0:0:0:0:
448,192,97316,1,0,0:0:0:0:
192,192,97441,1,0,0:0:0:0:
320,192,97566,1,0,0:0:0:0:
448,192,97566,1,0,0:0:0:0:
64,192,97566,1,0,0:0:0:0:
192,192,97566,1,0,0:0:0:0:
320,192,97692,1,0,0:0:0:0:
192,192,97817,1,0,0:0:0:0:
64,192,97817,1,0,0:0:0:0:
64,192,98067,1,0,0:0:0:0:
192,192,98067,1,0,0:0:0:0:
320,192,98067,1,0,0:0:0:0:
448,192,98067,1,0,0:0:0:0:
192,192,98193,1,0,0:0:0:0:
64,192,98318,1,0,0:0:0:0:
448,192,98318,1,0,0:0:0:0:
320,192,98318,1,0,0:0:0:0:
448,192,98443,1,0,0:0:0:0:
64,192,98568,1,0,0:0:0:0:
192,192,98568,1,0,0:0:0:0:
320,192,98568,1,0,0:0:0:0:
320,192,98694,1,0,0:0:0:0:
448,192,98819,1,0,0:0:0:0:
64,192,98819,1,0,0:0:0:0:
192,192,98819,1,0,0:0:0:0:
64,192,99069,1,0,0:0:0:0:
448,192,99069,1,0,0:0:0:0:
192,192,99069,1,0,0:0:0:0:
320,192,99112,1,0,0:0:0:0:
192,192,99154,1,0,0:0:0:0:
448,192,99195,1,0,0:0:0:0:
320,192,99237,1,0,0:0:0:0:
64,192,99279,1,0,0:0:0:0:
448,192,99321,1,0,0:0:0:0:
192,192,99321,1,0,0:0:0:0:
320,192,99362,1,0,0:0:0:0:
64,192,99404,1,0,0:0:0:0:
192,192,99446,1,0,0:0:0:0:
448,192,99487,1,0,0:0:0:0:
320,192,99529,1,0,0:0:0:0:
192,192,99572,1,0,0:0:0:0:
64,192,99572,1,0,0:0:0:0:
64,192,99822,1,0,0:0:0:0:
448,192,99822,1,0,0:0:0:0:
64,192,100073,1,0,0:0:0:0:
448,192,100073,1,0,0:0:0:0:
192,192,100073,1,0,0:0:0:0:
320,192,100073,1,0,0:0:0:0:
320,192,100198,1,0,0:0:0:0:
192,192,100323,1,0,0:0:0:0:
64,192,100323,1,0,0:0:0:0:
192,192,100448,1,0,0:0:0:0:
64,192,100574,1,0,0:0:0:0:
448,192,100574,1,0,0:0:0:0:
320,192,100574,1,0,0:0:0:0:
192,192,100574,1,0,0:0:0:0:
320,192,100699,1,0,0:0:0:0:
192,192,100824,1,0,0:0:0:0:
448,192,100824,1,0,0:0:0:0:
192,192,101075,1,0,0:0:0:0:
448,192,101075,1,0,0:0:0:0:
64,192,101075,1,0,0:0:0:0:
320,192,101117,1,0,0:0:0:0:
192,192,101159,1,0,0:0:0:0:
448,192,101200,1,0,0:0:0:0:
320,192,101242,1,0,0:0:0:0:
192,192,101284,1,0,0:0:0:0:
64,192,101325,1,0,0:0:0:0:
448,192,101325,1,0,0:0:0:0:
192,192,101576,1,0,0:0:0:0:
448,192,101576,1,0,0:0:0:0:
64,192,101576,1,0,0:0:0:0:
320,192,101576,1,0,0:0:0:0:
448,192,101826,1,0,0:0:0:0:
320,192,101826,1,0,0:0:0:0:
192,192,102078,1,0,0:0:0:0:
448,192,102078,1,0,0:0:0:0:
320,192,102078,1,0,0:0:0:0:
192,192,102203,1,0,0:0:0:0:
64,192,102328,1,0,0:0:0:0:
320,192,102328,1,0,0:0:0:0:
448,192,102328,1,0,0:0:0:0:
320,192,102454,1,0,0:0:0:0:
64,192,102579,1,0,0:0:0:0:
448,192,102579,1,0,0:0:0:0:
192,192,102579,1,0,0:0:0:0:
448,192,102704,1,0,0:0:0:0:
64,192,102829,1,0,0:0:0:0:
192,192,102829,1,0,0:0:0:0:
320,192,102829,1,0,0:0:0:0:
320,192,103080,1,0,0:0:0:0:
64,192,103080,1,0,0:0:0:0:
448,192,103080,1,0,0:0:0:0:
192,192,103122,1,0,0:0:0:0:
320,192,103163,1,0,0:0:0:0:
64,192,103205,1,0,0:0:0:0:
192,192,103247,1,0,0:0:0:0:
448,192,103288,1,0,0:0:0:0:
320,192,103331,1,0,0:0:0:0:
64,192,103331,1,0,0:0:0:0:
192,192,103373,1,0,0:0:0:0:
448,192,103414,1,0,0:0:0:0:
320,192,103456,1,0,0:0:0:0:
64,192,103498,1,0,0:0:0:0:
192,192,103539,1,0,0:0:0:0:
448,192,103581,1,0,0:0:0:0:
320,192,103581,1,0,0:0:0:0:
448,192,103832,1,0,0:0:0:0:
64,192,103832,1,0,0:0:0:0:
64,192,104082,1,0,0:0:0:0:
192,192,104082,1,0,0:0:0:0:
448,192,104082,1,0,0:0:0:0:
320,192,104082,1,0,0:0:0:0:
448,192,104207,1,0,0:0:0:0:
192,192,104333,1,0,0:0:0:0:
320,192,104333,1,0,0:0:0:0:
192,192,104458,1,0,0:0:0:0:
448,192,104584,1,0,0:0:0:0:
320,192,104584,1,0,0:0:0:0:
192,192,104584,1,0,0:0:0:0:
64,192,104584,1,0,0:0:0:0:
320,192,104709,1,0,0:0:0:0:
64,192,104835,1,0,0:0:0:0:
448,192,104835,1,0,0:0:0:0:
64,192,105085,1,0,0:0:0:0:
192,192,105085,1,0,0:0:0:0:
448,192,105085,1,0,0:0:0:0:
320,192,105085,1,0,0:0:0:0:
192,192,105336,1,0,0:0:0:0:
320,192,105336,1,0,0:0:0:0:
64,192,105586,1,0,0:0:0:0:
192,192,105586,1,0,0:0:0:0:
320,192,105586,1,0,0:0:0:0:
448,192,105586,1,0,0:0:0:0:
448,192,105837,1,0,0:0:0:0:
320,192,105837,1,0,0:0:0:0:
448,192,106087,1,0,0:0:0:0:
320,192,106087,1,0,0:0:0:0:
192,192,106087,1,0,0:0:0:0:
64,192,106087,1,0,0:0:0:0:
192,192,106213,1,0,0:0:0:0:
64,192,106338,1,0,0:0:0:0:
320,192,106338,1,0,0:0:0:0:
448,192,106338,1,0,0:0:0:0:
320,192,106463,1,0,0:0:0:0:
64,192,106588,1,0,0:0:0:0:
192,192,106588,1,0,0:0:0:0:
448,192,106588,1,0,0:0:0:0:
448,192,106714,1,0,0:0:0:0:
192,192,106839,1,0,0:0:0:0:
64,192,106839,1,0,0:0:0:0:
320,192,106839,1,0,0:0:0:0:
448,192,107089,1,0,0:0:0:0:
320,192,107089,1,0,0:0:0:0:
64,192,107089,1,0,0:0:0:0:
192,192,107341,1,0,0:0:0:0:
64,192,107341,1,0,0:0:0:0:
448,192,107341,1,0,0:0:0:0:
320,192,107592,1,0,0:0:0:0:
192,192,107592,1,0,0:0:0:0:
448,192,107592,1,0,0:0:0:0:
64,192,107842,1,0,0:0:0:0:
320,192,107842,1,0,0:0:0:0:
64,192,108093,1,0,0:0:0:0:
192,192,108093,1,0,0:0:0:0:
320,192,108093,1,0,0:0:0:0:
448,192,108093,1,0,0:0:0:0:
320,192,108218,1,0,0:0:0:0:
64,192,108343,1,0,0:0:0:0:
192,192,108343,1,0,0:0:0:0:
64,192,108468,1,0,0:0:0:0:
448,192,108594,1,0,0:0:0:0:
320,192,108594,1,0,0:0:0:0:
192,192,108594,1,0,0:0:0:0:
64,192,108594,1,0,0:0:0:0:
320,192,108719,1,0,0:0:0:0:
320,192,108844,1,0,0:0:0:0:
448,192,108844,1,0,0:0:0:0:
448,192,109095,1,0,0:0:0:0:
192,192,109095,1,0,0:0:0:0:
320,192,109095,1,0,0:0:0:0:
64,192,109095,1,0,0:0:0:0:
64,192,109345,1,0,0:0:0:0:
320,192,109345,1,0,0:0:0:0:
448,192,109596,1,0,0:0:0:0:
320,192,109596,1,0,0:0:0:0:
64,192,109596,1,0,0:0:0:0:
192,192,109596,1,0,0:0:0:0:
192,192,109847,1,0,0:0:0:0:
448,192,109847,1,0,0:0:0:0:
64,192,110098,1,0,0:0:0:0:
192,192,110098,1,0,0:0:0:0:
320,192,110139,1,0,0:0:0:0:
448,192,110181,1,0,0:0:0:0:
64,192,110223,1,0,0:0:0:0:
192,192,110264,1,0,0:0:0:0:
320,192,110306,1,0,0:0:0:0:
448,192,110348,1,0,0:0:0:0:
192,192,110389,1,0,0:0:0:0:
64,192,110432,1,0,0:0:0:0:
320,192,110474,1,0,0:0:0:0:
192,192,110515,1,0,0:0:0:0:
448,192,110557,1,0,0:0:0:0:
320,192,110599,1,0,0:0:0:0:
64,192,110599,1,0,0:0:0:0:
192,192,110641,1,0,0:0:0:0:
320,192,110682,1,0,0:0:0:0:
448,192,110724,1,0,0:0:0:0:
64,192,110766,1,0,0:0:0:0:
192,192,110807,1,0,0:0:0:0:
320,192,110849,1,0,0:0:0:0:
448,192,110892,1,0,0:0:0:0:
192,192,110933,1,0,0:0:0:0:
320,192,110975,1,0,0:0:0:0:
448,192,111017,1,0,0:0:0:0:
320,192,111058,1,0,0:0:0:0:
192,192,111100,1,0,0:0:0:0:
64,192,111100,1,0,0:0:0:0:
448,192,111142,1,0,0:0:0:0:
320,192,111183,1,0,0:0:0:0:
192,192,111225,1,0,0:0:0:0:
64,192,111267,1,0,0:0:0:0:
320,192,111308,1,0,0:0:0:0:
192,192,111351,1,0,0:0:0:0:
64,192,111393,1,0,0:0:0:0:
448,192,111434,1,0,0:0:0:0:
320,192,111476,1,0,0:0:0:0:
64,192,111518,1,0,0:0:0:0:
192,192,111560,1,0,0:0:0:0:
448,192,111601,1,0,0:0:0:0:
320,192,111601,1,0,0:0:0:0:
192,192,111643,1,0,0:0:0:0:
64,192,111685,1,0,0:0:0:0:
448,192,111726,1,0,0:0:0:0:
320,192,111768,1,0,0:0:0:0:
64,192,111811,1,0,0:0:0:0:
192,192,111852,1,0,0:0:0:0:
320,192,111894,1,0,0:0:0:0:
64,192,111936,1,0,0:0:0:0:
448,192,111977,1,0,0:0:0:0:
320,192,112019,1,0,0:0:0:0:
192,192,112061,1,0,0:0:0:0:
448,192,112102,1,0,0:0:0:0:
64,192,112102,1,0,0:0:0:0:
192,192,112144,1,0,0:0:0:0:
320,192,112186,1,0,0:0:0:0:
448,192,112227,1,0,0:0:0:0:
64,192,112269,1,0,0:0:0:0:
192,192,112312,1,0,0:0:0:0:
320,192,112353,1,0,0:0:0:0:
448,192,112395,1,0,0:0:0:0:
192,192,112437,1,0,0:0:0:0:
320,192,112479,1,0,0:0:0:0:
448,192,112520,1,0,0:0:0:0:
192,192,112562,1,0,0:0:0:0:
320,192,112604,1,0,0:0:0:0:
64,192,112645,1,0,0:0:0:0:
448,192,112687,1,0,0:0:0:0:
320,192,112729,1,0,0:0:0:0:
64,192,112771,1,0,0:0:0:0:
192,192,112813,1,0,0:0:0:0:
320,192,112855,1,0,0:0:0:0:
448,192,112896,1,0,0:0:0:0:
192,192,112938,1,0,0:0:0:0:
320,192,112980,1,0,0:0:0:0:
64,192,113021,1,0,0:0:0:0:
192,192,113063,1,0,0:0:0:0:
448,192,113105,1,0,0:0:0:0:
320,192,113105,1,0,0:0:0:0:
64,192,113146,1,0,0:0:0:0:
192,192,113188,1,0,0:0:0:0:
448,192,113231,1,0,0:0:0:0:
320,192,113273,1,0,0:0:0:0:
192,192,113314,1,0,0:0:0:0:
64,192,113356,1,0,0:0:0:0:
448,192,113398,1,0,0:0:0:0:
320,192,113439,1,0,0:0:0:0:
192,192,113481,1,0,0:0:0:0:
448,192,113523,1,0,0:0:0:0:
64,192,113564,1,0,0:0:0:0:
320,192,113606,1,0,0:0:0:0:
448,192,113606,1,0,0:0:0:0:
192,192,113648,1,0,0:0:0:0:
64,192,113689,1,0,0:0:0:0:
320,192,113732,1,0,0:0:0:0:
448,192,113774,1,0,0:0:0:0:
192,192,113815,1,0,0:0:0:0:
64,192,113857,1,0,0:0:0:0:
448,192,113899,1,0,0:0:0:0:
320,192,113940,1,0,0:0:0:0:
192,192,113982,1,0,0:0:0:0:
64,192,114024,1,0,0:0:0:0:
448,192,114065,1,0,0:0:0:0:
192,192,114107,1,0,0:0:0:0:
320,192,114107,1,0,0:0:0:0:
64,192,114149,1,0,0:0:0:0:
448,192,114192,1,0,0:0:0:0:
320,192,114233,1,0,0:0:0:0:
192,192,114275,1,0,0:0:0:0:
64,192,114317,1,0,0:0:0:0:
448,192,114358,1,0,0:0:0:0:
192,192,114400,1,0,0:0:0:0:
320,192,114442,1,0,0:0:0:0:
64,192,114483,1,0,0:0:0:0:
448,192,114525,1,0,0:0:0:0:
192,192,114567,1,0,0:0:0:0:
320,192,114608,1,0,0:0:0:0:
448,192,114608,1,0,0:0:0:0:
64,192,114651,1,0,0:0:0:0:
192,192,114693,1,0,0:0:0:0:
448,192,114734,1,0,0:0:0:0:
320,192,114776,1,0,0:0:0:0:
64,192,114818,1,0,0:0:0:0:
192,192,114859,1,0,0:0:0:0:
320,192,114901,1,0,0:0:0:0:
64,192,114943,1,0,0:0:0:0:
448,192,114984,1,0,0:0:0:0:
320,192,115026,1,0,0:0:0:0:
192,192,115068,1,0,0:0:0:0:
64,192,115111,1,0,0:0:0:0:
448,192,115111,1,0,0:0:0:0:
320,192,115152,1,0,0:0:0:0:
192,192,115194,1,0,0:0:0:0:
448,192,115236,1,0,0:0:0:0:
320,192,115277,1,0,0:0:0:0:
64,192,115319,1,0,0:0:0:0:
192,192,115361,1,0,0:0:0:0:
448,192,115402,1,0,0:0:0:0:
320,192,115444,1,0,0:0:0:0:
64,192,115486,1,0,0:0:0:0:
192,192,115527,1,0,0:0:0:0:
320,192,115569,1,0,0:0:0:0:
448,192,115612,1,0,0:0:0:0:
192,192,115612,1,0,0:0:0:0:
64,192,115653,1,0,0:0:0:0:
320,192,115695,1,0,0:0:0:0:
448,192,115737,1,0,0:0:0:0:
64,192,115778,1,0,0:0:0:0:
192,192,115820,1,0,0:0:0:0:
320,192,115862,1,0,0:0:0:0:
64,192,116113,1,0,0:0:0:0:
448,192,116113,1,0,0:0:0:0:
320,192,116155,1,0,0:0:0:0:
192,192,116196,1,0,0:0:0:0:
64,192,116238,1,0,0:0:0:0:
320,192,116280,1,0,0:0:0:0:
448,192,116321,1,0,0:0:0:0:
192,192,116363,1,0,0:0:0:0:
64,192,116405,1,0,0:0:0:0:
448,192,116446,1,0,0:0:0:0:
320,192,116488,1,0,0:0:0:0:
192,192,116531,1,0,0:0:0:0:
448,192,116572,1,0,0:0:0:0:
320,192,116614,1,0,0:0:0:0:
64,192,116614,1,0,0:0:0:0:
192,192,116656,1,0,0:0:0:0:
448,192,116697,1,0,0:0:0:0:
320,192,116739,1,0,0:0:0:0:
64,192,116781,1,0,0:0:0:0:
192,192,116823,1,0,0:0:0:0:
320,192,116864,1,0,0:0:0:0:
448,192,116906,1,0,0:0:0:0:
64,192,116948,1,0,0:0:0:0:
320,192,116989,1,0,0:0:0:0:
192,192,117032,1,0,0:0:0:0:
448,192,117074,1,0,0:0:0:0:
320,192,117115,1,0,0:0:0:0:
64,192,117115,1,0,0:0:0:0:
192,192,117157,1,0,0:0:0:0:
320,192,117199,1,0,0:0:0:0:
448,192,117240,1,0,0:0:0:0:
64,192,117282,1,0,0:0:0:0:
192,192,117324,1,0,0:0:0:0:
320,192,117365,1,0,0:0:0:0:
64,192,117407,1,0,0:0:0:0:
448,192,117449,1,0,0:0:0:0:
192,192,117491,1,0,0:0:0:0:
320,192,117533,1,0,0:0:0:0:
448,192,117575,1,0,0:0:0:0:
192,192,117616,1,0,0:0:0:0:
64,192,117616,1,0,0:0:0:0:
320,192,117658,1,0,0:0:0:0:
448,192,117700,1,0,0:0:0:0:
192,192,117742,1,0,0:0:0:0:
64,192,117783,1,0,0:0:0:0:
320,192,117825,1,0,0:0:0:0:
448,192,117867,1,0,0:0:0:0:
64,192,118118,1,0,0:0:0:0:
448,192,118118,1,0,0:0:0:0:
320,192,118118,1,0,0:0:0:0:
192,192,118159,1,0,0:0:0:0:
64,192,118201,1,0,0:0:0:0:
448,192,118243,1,0,0:0:0:0:
320,192,118284,1,0,0:0:0:0:
192,192,118326,1,0,0:0:0:0:
64,192,118368,1,0,0:0:0:0:
320,192,118409,1,0,0:0:0:0:
448,192,118452,1,0,0:0:0:0:
192,192,118494,1,0,0:0:0:0:
320,192,118536,1,0,0:0:0:0:
64,192,118577,1,0,0:0:0:0:
192,192,118619,1,0,0:0:0:0:
448,192,118619,1,0,0:0:0:0:
320,192,118661,1,0,0:0:0:0:
192,192,118702,1,0,0:0:0:0:
64,192,118744,1,0,0:0:0:0:
448,192,118786,1,0,0:0:0:0:
320,192,118827,1,0,0:0:0:0:
192,192,118869,1,0,0:0:0:0:
64,192,118912,1,0,0:0:0:0:
320,192,118953,1,0,0:0:0:0:
192,192,118995,1,0,0:0:0:0:
64,192,119037,1,0,0:0:0:0:
192,192,119078,1,0,0:0:0:0:
320,192,119120,1,0,0:0:0:0:
448,192,119120,1,0,0:0:0:0:
64,192,119162,1,0,0:0:0:0:
192,192,119203,1,0,0:0:0:0:
320,192,119245,1,0,0:0:0:0:
448,192,119287,1,0,0:0:0:0:
192,192,119328,1,0,0:0:0:0:
320,192,119371,1,0,0:0:0:0:
448,192,119413,1,0,0:0:0:0:
64,192,119455,1,0,0:0:0:0:
192,192,119496,1,0,0:0:0:0:
448,192,119538,1,0,0:0:0:0:
320,192,119580,1,0,0:0:0:0:
64,192,119621,1,0,0:0:0:0:
192,192,119621,1,0,0:0:0:0:
320,192,119663,1,0,0:0:0:0:
448,192,119705,1,0,0:0:0:0:
64,192,119746,1,0,0:0:0:0:
192,192,119788,1,0,0:0:0:0:
448,192,119831,1,0,0:0:0:0:
320,192,119872,1,0,0:0:0:0:
192,192,119914,1,0,0:0:0:0:
448,192,119956,1,0,0:0:0:0:
64,192,119997,1,0,0:0:0:0:
192,192,120039,1,0,0:0:0:0:
320,192,120081,1,0,0:0:0:0:
64,192,120122,1,0,0:0:0:0:
448,192,120122,1,0,0:0:0:0:
320,192,120164,1,0,0:0:0:0:
192,192,120206,1,0,0:0:0:0:
64,192,120247,1,0,0:0:0:0:
448,192,120289,1,0,0:0:0:0:
320,192,120332,1,0,0:0:0:0:
192,192,120374,1,0,0:0:0:0:
64,192,120415,1,0,0:0:0:0:
320,192,120457,1,0,0:0:0:0:
192,192,120499,1,0,0:0:0:0:
64,192,120540,1,0,0:0:0:0:
320,192,120582,1,0,0:0:0:0:
192,192,120624,1,0,0:0:0:0:
448,192,120665,1,0,0:0:0:0:
64,192,120707,1,0,0:0:0:0:
192,192,120749,1,0,0:0:0:0:
448,192,120791,1,0,0:0:0:0:
320,192,120833,1,0,0:0:0:0:
192,192,120875,1,0,0:0:0:0:
64,192,120916,1,0,0:0:0:0:
320,192,120958,1,0,0:0:0:0:
192,192,121000,1,0,0:0:0:0:
448,192,121041,1,0,0:0:0:0:
320,192,121083,1,0,0:0:0:0:
64,192,121125,1,0,0:0:0:0:
192,192,121125,1,0,0:0:0:0:
448,192,121167,1,0,0:0:0:0:
320,192,121208,1,0,0:0:0:0:
64,192,121251,1,0,0:0:0:0:
192,192,121293,1,0,0:0:0:0:
320,192,121334,1,0,0:0:0:0:
448,192,121376,1,0,0:0:0:0:
64,192,121418,1,0,0:0:0:0:
192,192,121459,1,0,0:0:0:0:
320,192,121501,1,0,0:0:0:0:
64,192,121543,1,0,0:0:0:0:
448,192,121584,1,0,0:0:0:0:
192,192,121626,1,0,0:0:0:0:
64,192,121626,1,0,0:0:0:0:
320,192,121668,1,0,0:0:0:0:
448,192,121709,1,0,0:0:0:0:
192,192,121752,1,0,0:0:0:0:
64,192,121794,1,0,0:0:0:0:
320,192,121835,1,0,0:0:0:0:
448,192,121877,1,0,0:0:0:0:
64,192,121919,1,0,0:0:0:0:
192,192,121960,1,0,0:0:0:0:
320,192,122002,1,0,0:0:0:0:
448,192,122044,1,0,0:0:0:0:
64,192,122086,1,0,0:0:0:0:
320,192,122127,1,0,0:0:0:0:
192,192,122127,1,0,0:0:0:0:
448,192,122169,1,0,0:0:0:0:
64,192,122212,1,0,0:0:0:0:
192,192,122253,1,0,0:0:0:0:
320,192,122295,1,0,0:0:0:0:
448,192,122337,1,0,0:0:0:0:
64,192,122378,1,0,0:0:0:0:
320,192,122420,1,0,0:0:0:0:
192,192,122462,1,0,0:0:0:0:
448,192,122503,1,0,0:0:0:0:
64,192,122545,1,0,0:0:0:0:
320,192,122587,1,0,0:0:0:0:
192,192,122628,1,0,0:0:0:0:
64,192,122628,1,0,0:0:0:0:
448,192,122671,1,0,0:0:0:0:
320,192,122713,1,0,0:0:0:0:
64,192,122754,1,0,0:0:0:0:
192,192,122796,1,0,0:0:0:0:
448,192,122838,1,0,0:0:0:0:
320,192,122879,1,0,0:0:0:0:
192,192,122921,1,0,0:0:0:0:
448,192,122963,1,0,0:0:0:0:
64,192,123005,1,0,0:0:0:0:
192,192,123046,1,0,0:0:0:0:
320,192,123088,1,0,0:0:0:0:
448,192,123131,1,0,0:0:0:0:
64,192,123131,1,0,0:0:0:0:
192,192,123172,1,0,0:0:0:0:
320,192,123214,1,0,0:0:0:0:
64,192,123256,1,0,0:0:0:0:
192,192,123297,1,0,0:0:0:0:
448,192,123339,1,0,0:0:0:0:
320,192,123381,1,0,0:0:0:0:
64,192,123422,1,0,0:0:0:0:
192,192,123464,1,0,0:0:0:0:
448,192,123506,1,0,0:0:0:0:
320,192,123547,1,0,0:0:0:0:
192,192,123589,1,0,0:0:0:0:
64,192,123632,1,0,0:0:0:0:
320,192,123632,1,0,0:0:0:0:
448,192,123673,1,0,0:0:0:0:
192,192,123715,1,0,0:0:0:0:
64,192,123757,1,0,0:0:0:0:
448,192,123799,1,0,0:0:0:0:
320,192,123840,1,0,0:0:0:0:
192,192,123882,1,0,0:0:0:0:
448,192,124133,1,0,0:0:0:0:
64,192,124133,1,0,0:0:0:0:
192,192,124175,1,0,0:0:0:0:
320,192,124216,1,0,0:0:0:0:
448,192,124258,1,0,0:0:0:0:
192,192,124300,1,0,0:0:0:0:
64,192,124341,1,0,0:0:0:0:
320,192,124383,1,0,0:0:0:0:
448,192,124425,1,0,0:0:0:0:
64,192,124466,1,0,0:0:0:0:
192,192,124508,1,0,0:0:0:0:
320,192,124551,1,0,0:0:0:0:
64,192,124592,1,0,0:0:0:0:
192,192,124634,1,0,0:0:0:0:
448,192,124634,1,0,0:0:0:0:
320,192,124676,1,0,0:0:0:0:
64,192,124718,1,0,0:0:0:0:
192,192,124759,1,0,0:0:0:0:
448,192,124801,1,0,0:0:0:0:
320,192,124843,1,0,0:0:0:0:
192,192,124884,1,0,0:0:0:0:
64,192,124926,1,0,0:0:0:0:
448,192,124968,1,0,0:0:0:0:
192,192,125009,1,0,0:0:0:0:
320,192,125052,1,0,0:0:0:0:
64,192,125094,1,0,0:0:0:0:
192,192,125135,1,0,0:0:0:0:
448,192,125135,1,0,0:0:0:0:
320,192,125177,1,0,0:0:0:0:
192,192,125219,1,0,0:0:0:0:
64,192,125260,1,0,0:0:0:0:
448,192,125302,1,0,0:0:0:0:
320,192,125344,1,0,0:0:0:0:
192,192,125385,1,0,0:0:0:0:
448,192,125427,1,0,0:0:0:0:
64,192,125469,1,0,0:0:0:0:
320,192,125511,1,0,0:0:0:0:
192,192,125553,1,0,0:0:0:0:
64,192,125595,1,0,0:0:0:0:
320,192,125637,1,0,0:0:0:0:
448,192,125637,1,0,0:0:0:0:
192,192,125678,1,0,0:0:0:0:
64,192,125720,1,0,0:0:0:0:
320,192,125762,1,0,0:0:0:0:
448,192,125803,1,0,0:0:0:0:
192,192,125845,1,0,0:0:0:0:
64,192,125887,1,0,0:0:0:0:
64,192,126138,1,0,0:0:0:0:
192,192,126138,1,0,0:0:0:0:
320,192,126179,1,0,0:0:0:0:
448,192,126221,1,0,0:0:0:0:
192,192,126263,1,0,0:0:0:0:
320,192,126304,1,0,0:0:0:0:
448,192,126346,1,0,0:0:0:0:
64,192,126388,1,0,0:0:0:0:
320,192,126388,1,0,0:0:0:0:
192,192,126431,1,0,0:0:0:0:
448,192,126472,1,0,0:0:0:0:
64,192,126514,1,0,0:0:0:0:
192,192,126556,1,0,0:0:0:0:
320,192,126597,1,0,0:0:0:0:
448,192,126639,1,0,0:0:0:0:
64,192,126639,1,0,0:0:0:0:
192,192,126681,1,0,0:0:0:0:
320,192,126722,1,0,0:0:0:0:
64,192,126764,1,0,0:0:0:0:
448,192,126806,1,0,0:0:0:0:
192,192,126847,1,0,0:0:0:0:
320,192,126889,1,0,0:0:0:0:
448,192,126889,1,0,0:0:0:0:
64,192,126932,1,0,0:0:0:0:
192,192,126973,1,0,0:0:0:0:
448,192,127015,1,0,0:0:0:0:
320,192,127057,1,0,0:0:0:0:
192,192,127098,1,0,0:0:0:0:
64,192,127140,1,0,0:0:0:0:
448,192,127140,1,0,0:0:0:0:
320,192,127182,1,0,0:0:0:0:
192,192,127223,1,0,0:0:0:0:
448,192,127265,1,0,0:0:0:0:
64,192,127307,1,0,0:0:0:0:
192,192,127349,1,0,0:0:0:0:
448,192,127391,1,0,0:0:0:0:
320,192,127391,1,0,0:0:0:0:
64,192,127433,1,0,0:0:0:0:
192,192,127475,1,0,0:0:0:0:
448,192,127516,1,0,0:0:0:0:
320,192,127558,1,0,0:0:0:0:
64,192,127600,1,0,0:0:0:0:
192,192,127641,1,0,0:0:0:0:
448,192,127641,1,0,0:0:0:0:
320,192,127683,1,0,0:0:0:0:
448,192,127725,1,0,0:0:0:0:
192,192,127766,1,0,0:0:0:0:
64,192,127808,1,0,0:0:0:0:
320,192,127851,1,0,0:0:0:0:
448,192,127892,1,0,0:0:0:0:
192,192,127892,1,0,0:0:0:0:
64,192,127934,1,0,0:0:0:0:
320,192,127976,1,0,0:0:0:0:
192,192,128017,1,0,0:0:0:0:
64,192,128059,1,0,0:0:0:0:
448,192,128101,1,0,0:0:0:0:
320,192,128142,1,0,0:0:0:0:
192,192,128142,1,0,0:0:0:0:
64,192,128184,1,0,0:0:0:0:
448,192,128226,1,0,0:0:0:0:
192,192,128268,1,0,0:0:0:0:
320,192,128309,1,0,0:0:0:0:
448,192,128352,1,0,0:0:0:0:
64,192,128394,1,0,0:0:0:0:
192,192,128394,1,0,0:0:0:0:
320,192,128435,1,0,0:0:0:0:
448,192,128477,1,0,0:0:0:0:
64,192,128519,1,0,0:0:0:0:
192,192,128560,1,0,0:0:0:0:
320,192,128602,1,0,0:0:0:0:
64,192,128644,1,0,0:0:0:0:
448,192,128644,1,0,0:0:0:0:
192,192,128685,1,0,0:0:0:0:
320,192,128727,1,0,0:0:0:0:
64,192,128769,1,0,0:0:0:0:
448,192,128811,1,0,0:0:0:0:
320,192,128853,1,0,0:0:0:0:
192,192,128895,1,0,0:0:0:0:
64,192,128895,1,0,0:0:0:0:
448,192,128936,1,0,0:0:0:0:
320,192,128978,1,0,0:0:0:0:
192,192,129020,1,0,0:0:0:0:
64,192,129062,1,0,0:0:0:0:
448,192,129103,1,0,0:0:0:0:
320,192,129145,1,0,0:0:0:0:
192,192,129145,1,0,0:0:0:0:
64,192,129187,1,0,0:0:0:0:
320,192,129228,1,0,0:0:0:0:
448,192,129271,1,0,0:0:0:0:
192,192,129313,1,0,0:0:0:0:
320,192,129354,1,0,0:0:0:0:
64,192,129396,1,0,0:0:0:0:
448,192,129396,1,0,0:0:0:0:
192,192,129438,1,0,0:0:0:0:
320,192,129479,1,0,0:0:0:0:
448,192,129521,1,0,0:0:0:0:
64,192,129563,1,0,0:0:0:0:
192,192,129604,1,0,0:0:0:0:
448,192,129646,1,0,0:0:0:0:
320,192,129646,1,0,0:0:0:0:
192,192,129688,1,0,0:0:0:0:
64,192,129729,1,0,0:0:0:0:
448,192,129772,1,0,0:0:0:0:
320,192,129814,1,0,0:0:0:0:
192,192,129855,1,0,0:0:0:0:
64,192,129897,1,0,0:0:0:0:
448,192,129897,1,0,0:0:0:0:
320,192,129939,1,0,0:0:0:0:
192,192,129981,1,0,0:0:0:0:
448,192,130022,1,0,0:0:0:0:
320,192,130064,1,0,0:0:0:0:
448,192,130106,1,0,0:0:0:0:
64,192,130147,1,0,0:0:0:0:
192,192,130147,1,0,0:0:0:0:
320,192,130189,1,0,0:0:0:0:
448,192,130232,1,0,0:0:0:0:
64,192,130273,1,0,0:0:0:0:
192,192,130315,1,0,0:0:0:0:
320,192,130357,1,0,0:0:0:0:
448,192,130398,1,0,0:0:0:0:
64,192,130398,1,0,0:0:0:0:
192,192,130440,1,0,0:0:0:0:
320,192,130482,1,0,0:0:0:0:
64,192,130523,1,0,0:0:0:0:
192,192,130565,1,0,0:0:0:0:
448,192,130607,1,0,0:0:0:0:
320,192,130648,1,0,0:0:0:0:
64,192,130648,1,0,0:0:0:0:
192,192,130691,1,0,0:0:0:0:
448,192,130733,1,0,0:0:0:0:
320,192,130774,1,0,0:0:0:0:
64,192,130816,1,0,0:0:0:0:
192,192,130858,1,0,0:0:0:0:
448,192,130900,1,0,0:0:0:0:
320,192,130900,1,0,0:0:0:0:
64,192,130941,1,0,0:0:0:0:
192,192,130983,1,0,0:0:0:0:
448,192,131025,1,0,0:0:0:0:
320,192,131066,1,0,0:0:0:0:
192,192,131108,1,0,0:0:0:0:
64,192,131151,1,0,0:0:0:0:
448,192,131151,1,0,0:0:0:0:
320,192,131192,1,0,0:0:0:0:
192,192,131234,1,0,0:0:0:0:
320,192,131276,1,0,0:0:0:0:
448,192,131317,1,0,0:0:0:0:
64,192,131359,1,0,0:0:0:0:
192,192,131401,1,0,0:0:0:0:
320,192,131401,1,0,0:0:0:0:
448,192,131442,1,0,0:0:0:0:
64,192,131484,1,0,0:0:0:0:
320,192,131526,1,0,0:0:0:0:
192,192,131567,1,0,0:0:0:0:
448,192,131609,1,0,0:0:0:0:
320,192,131652,1,0,0:0:0:0:
64,192,131652,1,0,0:0:0:0:
192,192,131694,1,0,0:0:0:0:
320,192,131735,1,0,0:0:0:0:
448,192,131777,1,0,0:0:0:0:
64,192,131819,1,0,0:0:0:0:
192,192,131860,1,0,0:0:0:0:
320,192,131902,1,0,0:0:0:0:
64,192,131944,1,0,0:0:0:0:
192,192,131985,1,0,0:0:0:0:
448,192,132027,1,0,0:0:0:0:
320,192,132069,1,0,0:0:0:0:
64,192,132111,1,0,0:0:0:0:
192,192,132153,1,0,0:0:0:0:
320,192,132195,1,0,0:0:0:0:
448,192,132236,1,0,0:0:0:0:
192,192,132278,1,0,0:0:0:0:
320,192,132320,1,0,0:0:0:0:
64,192,132361,1,0,0:0:0:0:
192,192,132403,1,0,0:0:0:0:
448,192,132403,1,0,0:0:0:0:
320,192,132445,1,0,0:0:0:0:
64,192,132486,1,0,0:0:0:0:
192,192,132528,1,0,0:0:0:0:
320,192,132571,1,0,0:0:0:0:
448,192,132613,1,0,0:0:0:0:
192,192,132654,1,0,0:0:0:0:
64,192,132654,1,0,0:0:0:0:
320,192,132696,1,0,0:0:0:0:
448,192,132738,1,0,0:0:0:0:
192,192,132779,1,0,0:0:0:0:
64,192,132821,1,0,0:0:0:0:
448,192,132863,1,0,0:0:0:0:
320,192,132904,1,0,0:0:0:0:
192,192,132904,1,0,0:0:0:0:
64,192,132946,1,0,0:0:0:0:
448,192,132988,1,0,0:0:0:0:
192,192,133029,1,0,0:0:0:0:
320,192,133072,1,0,0:0:0:0:
64,192,133114,1,0,0:0:0:0:
448,192,133155,1,0,0:0:0:0:
192,192,133155,1,0,0:0:0:0:
320,192,133197,1,0,0:0:0:0:
448,192,133239,1,0,0:0:0:0:
64,192,133280,1,0,0:0:0:0:
192,192,133322,1,0,0:0:0:0:
320,192,133364,1,0,0:0:0:0:
448,192,133405,1,0,0:0:0:0:
64,192,133405,1,0,0:0:0:0:
192,192,133447,1,0,0:0:0:0:
320,192,133489,1,0,0:0:0:0:
448,192,133532,1,0,0:0:0:0:
64,192,133573,1,0,0:0:0:0:
320,192,133615,1,0,0:0:0:0:
448,192,133657,1,0,0:0:0:0:
192,192,133657,1,0,0:0:0:0:
64,192,133698,1,0,0:0:0:0:
320,192,133740,1,0,0:0:0:0:
192,192,133782,1,0,0:0:0:0:
64,192,133823,1,0,0:0:0:0:
448,192,133865,1,0,0:0:0:0:
320,192,133907,1,0,0:0:0:0:
192,192,133907,1,0,0:0:0:0:
64,192,133948,1,0,0:0:0:0:
448,192,133991,1,0,0:0:0:0:
320,192,134033,1,0,0:0:0:0:
192,192,134074,1,0,0:0:0:0:
448,192,134116,1,0,0:0:0:0:
64,192,134158,1,0,0:0:0:0:
320,192,134199,1,0,0:0:0:0:
448,192,134241,1,0,0:0:0:0:
64,192,134283,1,0,0:0:0:0:
192,192,134325,1,0,0:0:0:0:
320,192,134366,1,0,0:0:0:0:
64,192,134408,1,0,0:0:0:0:
448,192,134408,1,0,0:0:0:0:
192,192,134451,1,0,0:0:0:0:
320,192,134492,1,0,0:0:0:0:
64,192,134534,1,0,0:0:0:0:
192,192,134576,1,0,0:0:0:0:
320,192,134617,1,0,0:0:0:0:
448,192,134659,1,0,0:0:0:0:
64,192,134659,1,0,0:0:0:0:
192,192,134701,1,0,0:0:0:0:
320,192,134742,1,0,0:0:0:0:
64,192,134784,1,0,0:0:0:0:
448,192,134826,1,0,0:0:0:0:
192,192,134867,1,0,0:0:0:0:
320,192,134909,1,0,0:0:0:0:
448,192,134909,1,0,0:0:0:0:
64,192,134952,1,0,0:0:0:0:
192,192,134993,1,0,0:0:0:0:
448,192,135035,1,0,0:0:0:0:
320,192,135077,1,0,0:0:0:0:
192,192,135118,1,0,0:0:0:0:
64,192,135160,1,0,0:0:0:0:
448,192,135160,1,0,0:0:0:0:
320,192,135202,1,0,0:0:0:0:
192,192,135244,1,0,0:0:0:0:
320,192,135285,1,0,0:0:0:0:
64,192,135327,1,0,0:0:0:0:
192,192,135369,1,0,0:0:0:0:
448,192,135411,1,0,0:0:0:0:
320,192,135411,1,0,0:0:0:0:
64,192,135453,1,0,0:0:0:0:
192,192,135495,1,0,0:0:0:0:
448,192,135536,1,0,0:0:0:0:
320,192,135578,1,0,0:0:0:0:
64,192,135620,1,0,0:0:0:0:
192,192,135661,1,0,0:0:0:0:
448,192,135661,1,0,0:0:0:0:
320,192,135703,1,0,0:0:0:0:
64,192,135745,1,0,0:0:0:0:
448,192,135786,1,0,0:0:0:0:
192,192,135828,1,0,0:0:0:0:
64,192,135871,1,0,0:0:0:0:
320,192,135912,1,0,0:0:0:0:
192,192,135912,1,0,0:0:0:0:
448,192,135954,1,0,0:0:0:0:
320,192,135996,1,0,0:0:0:0:
192,192,136037,1,0,0:0:0:0:
64,192,136079,1,0,0:0:0:0:
448,192,136121,1,0,0:0:0:0:
320,192,136163,1,0,0:0:0:0:
192,192,136163,1,0,0:0:0:0:
64,192,136204,1,0,0:0:0:0:
448,192,136246,1,0,0:0:0:0:
192,192,136288,1,0,0:0:0:0:
320,192,136329,1,0,0:0:0:0:
448,192,136372,1,0,0:0:0:0:
64,192,136414,1,0,0:0:0:0:
192,192,136414,1,0,0:0:0:0:
320,192,136455,1,0,0:0:0:0:
448,192,136497,1,0,0:0:0:0:
64,192,136539,1,0,0:0:0:0:
192,192,136580,1,0,0:0:0:0:
320,192,136622,1,0,0:0:0:0:
64,192,136664,1,0,0:0:0:0:
448,192,136664,1,0,0:0:0:0:
192,192,136705,1,0,0:0:0:0:
320,192,136747,1,0,0:0:0:0:
64,192,136789,1,0,0:0:0:0:
448,192,136831,1,0,0:0:0:0:
320,192,136873,1,0,0:0:0:0:
192,192,136915,1,0,0:0:0:0:
64,192,136915,1,0,0:0:0:0:
448,192,136957,1,0,0:0:0:0:
320,192,136998,1,0,0:0:0:0:
192,192,137040,1,0,0:0:0:0:
64,192,137082,1,0,0:0:0:0:
448,192,137123,1,0,0:0:0:0:
320,192,137165,1,0,0:0:0:0:
192,192,137165,1,0,0:0:0:0:
64,192,137207,1,0,0:0:0:0:
320,192,137248,1,0,0:0:0:0:
448,192,137291,1,0,0:0:0:0:
192,192,137333,1,0,0:0:0:0:
320,192,137374,1,0,0:0:0:0:
64,192,137416,1,0,0:0:0:0:
448,192,137416,1,0,0:0:0:0:
192,192,137458,1,0,0:0:0:0:
320,192,137499,1,0,0:0:0:0:
448,192,137541,1,0,0:0:0:0:
64,192,137583,1,0,0:0:0:0:
192,192,137624,1,0,0:0:0:0:
448,192,137666,1,0,0:0:0:0:
320,192,137666,1,0,0:0:0:0:
192,192,137708,1,0,0:0:0:0:
64,192,137749,1,0,0:0:0:0:
448,192,137792,1,0,0:0:0:0:
320,192,137834,1,0,0:0:0:0:
192,192,137876,1,0,0:0:0:0:
64,192,137917,1,0,0:0:0:0:
448,192,137917,1,0,0:0:0:0:
320,192,137959,1,0,0:0:0:0:
192,192,138001,1,0,0:0:0:0:
448,192,138042,1,0,0:0:0:0:
320,192,138084,1,0,0:0:0:0:
192,192,138126,1,0,0:0:0:0:
64,192,138167,1,0,0:0:0:0:
320,192,138209,1,0,0:0:0:0:
448,192,138252,1,0,0:0:0:0:
64,192,138293,1,0,0:0:0:0:
192,192,138335,1,0,0:0:0:0:
320,192,138377,1,0,0:0:0:0:
448,192,138418,1,0,0:0:0:0:
64,192,138418,1,0,0:0:0:0:
192,192,138460,1,0,0:0:0:0:
320,192,138502,1,0,0:0:0:0:
64,192,138543,1,0,0:0:0:0:
192,192,138585,1,0,0:0:0:0:
448,192,138627,1,0,0:0:0:0:
320,192,138668,1,0,0:0:0:0:
64,192,138668,1,0,0:0:0:0:
192,192,138711,1,0,0:0:0:0:
448,192,138753,1,0,0:0:0:0:
320,192,138795,1,0,0:0:0:0:
64,192,138836,1,0,0:0:0:0:
192,192,138878,1,0,0:0:0:0:
448,192,138920,1,0,0:0:0:0:
320,192,138920,1,0,0:0:0:0:
64,192,138961,1,0,0:0:0:0:
192,192,139003,1,0,0:0:0:0:
448,192,139045,1,0,0:0:0:0:
320,192,139086,1,0,0:0:0:0:
192,192,139128,1,0,0:0:0:0:
64,192,139171,1,0,0:0:0:0:
448,192,139171,1,0,0:0:0:0:
320,192,139212,1,0,0:0:0:0:
192,192,139254,1,0,0:0:0:0:
320,192,139296,1,0,0:0:0:0:
448,192,139337,1,0,0:0:0:0:
64,192,139379,1,0,0:0:0:0:
192,192,139421,1,0,0:0:0:0:
320,192,139421,1,0,0:0:0:0:
448,192,139462,1,0,0:0:0:0:
64,192,139504,1,0,0:0:0:0:
320,192,139546,1,0,0:0:0:0:
192,192,139588,1,0,0:0:0:0:
448,192,139629,1,0,0:0:0:0:
320,192,139672,1,0,0:0:0:0:
64,192,139672,1,0,0:0:0:0:
192,192,139714,1,0,0:0:0:0:
320,192,139755,1,0,0:0:0:0:
448,192,139797,1,0,0:0:0:0:
64,192,139839,1,0,0:0:0:0:
192,192,139880,1,0,0:0:0:0:
320,192,139922,1,0,0:0:0:0:
64,192,139964,1,0,0:0:0:0:
192,192,140005,1,0,0:0:0:0:
448,192,140047,1,0,0:0:0:0:
320,192,140089,1,0,0:0:0:0:
64,192,140131,1,0,0:0:0:0:
192,192,140173,1,0,0:0:0:0:
448,192,140173,1,0,0:0:0:0:
320,192,140215,1,0,0:0:0:0:
64,192,140256,1,0,0:0:0:0:
192,192,140298,1,0,0:0:0:0:
320,192,140340,1,0,0:0:0:0:
64,192,140381,1,0,0:0:0:0:
192,192,140423,1,0,0:0:0:0:
448,192,140423,1,0,0:0:0:0:
320,192,140465,1,0,0:0:0:0:
64,192,140507,1,0,0:0:0:0:
192,192,140548,1,0,0:0:0:0:
320,192,140591,1,0,0:0:0:0:
448,192,140633,1,0,0:0:0:0:
192,192,140674,1,0,0:0:0:0:
64,192,140674,1,0,0:0:0:0:
320,192,140716,1,0,0:0:0:0:
448,192,140758,1,0,0:0:0:0:
192,192,140799,1,0,0:0:0:0:
64,192,140841,1,0,0:0:0:0:
448,192,140883,1,0,0:0:0:0:
320,192,140924,1,0,0:0:0:0:
192,192,140924,1,0,0:0:0:0:
64,192,140966,1,0,0:0:0:0:
448,192,141008,1,0,0:0:0:0:
192,192,141049,1,0,0:0:0:0:
320,192,141092,1,0,0:0:0:0:
64,192,141134,1,0,0:0:0:0:
192,192,141175,1,0,0:0:0:0:
320,192,141217,1,0,0:0:0:0:
448,192,141259,1,0,0:0:0:0:
64,192,141300,1,0,0:0:0:0:
192,192,141342,1,0,0:0:0:0:
320,192,141384,1,0,0:0:0:0:
448,192,141426,1,0,0:0:0:0:
64,192,141467,1,0,0:0:0:0:
192,192,141509,1,0,0:0:0:0:
320,192,141593,1,0,0:0:0:0:
448,192,141677,1,0,0:0:0:0:
64,192,141760,1,0,0:0:0:0:
192,192,141843,1,0,0:0:0:0:
320,192,141927,1,0,0:0:0:0:
448,192,142011,1,0,0:0:0:0:
192,192,142053,1,0,0:0:0:0:
64,192,142178,1,0,0:0:0:0:
192,192,142428,1,0,0:0:0:0:
320,192,142679,1,0,0:0:0:0:
