osu file format v14

[General]
AudioFilename: audio80.mp3
AudioLeadIn: 0
PreviewTime: 30646
Countdown: 0
SampleSet: None
StackLeniency: 0.7
Mode: 3
LetterboxInBreaks: 0
SpecialStyle: 0
WidescreenStoryboard: 1

[Editor]
Bookmarks: 2155,11679,30726,49774,68821,87869,106321,125964,130726,140250,149774,168821
DistanceSpacing: 1
BeatDivisor: 12
GridSize: 32
TimelineZoom: 1.8

[Metadata]
Title:perfect nothing
TitleUnicode:perfect nothing
Artist:GHOST
ArtistUnicode:GHOST
Creator:Hlimak
Version:noise [0,8x Rate]
Source:
Tags:dump vocaloid stream
BeatmapID:2070929
BeatmapSetID:989656

[Difficulty]
HPDrainRate:7
CircleSize:4
OverallDifficulty:7
ApproachRate:5
SliderMultiplier:1.4
SliderTickRate:1

[Events]
//Background and Video events
0,0,"bg.jpg",0,0
//Break Periods
//Storyboard Layer 0 (Background)
//Storyboard Layer 1 (Fail)
//Storyboard Layer 2 (Pass)
//Storyboard Layer 3 (Foreground)
//Storyboard Layer 4 (Overlay)
//Storyboard Sound Samples

[TimingPoints]
2155,595.238095238095,4,1,0,50,1,0

[HitObjects]
64,192,2155,5,0,0:0:0:0:
320,192,2155,1,0,0:0:0:0:
448,192,2155,1,0,0:0:0:0:
320,192,2452,1,0,0:0:0:0:
448,192,2452,1,0,0:0:0:0:
64,192,2452,1,0,0:0:0:0:
192,192,2750,1,0,0:0:0:0:
320,192,2750,1,0,0:0:0:0:
64,192,2786,1,0,0:0:0:0:
192,192,3048,1,0,0:0:0:0:
320,192,3048,1,0,0:0:0:0:
64,192,3048,1,0,0:0:0:0:
448,192,3345,1,0,0:0:0:0:
192,192,3345,1,0,0:0:0:0:
64,192,3345,1,0,0:0:0:0:
448,192,3642,1,0,0:0:0:0:
320,192,3642,1,0,0:0:0:0:
192,192,3642,1,0,0:0:0:0:
64,192,3940,1,0,0:0:0:0:
448,192,3940,1,0,0:0:0:0:
320,192,3978,1,0,0:0:0:0:
448,192,4238,1,0,0:0:0:0:
320,192,4238,1,0,0:0:0:0:
192,192,4238,1,0,0:0:0:0:
448,192,4535,1,0,0:0:0:0:
192,192,4535,1,0,0:0:0:0:
64,192,4535,1,0,0:0:0:0:
320,192,4832,1,0,0:0:0:0:
192,192,4832,1,0,0:0:0:0:
448,192,4832,1,0,0:0:0:0:
448,192,5130,1,0,0:0:0:0:
64,192,5130,1,0,0:0:0:0:
192,192,5168,1,0,0:0:0:0:
448,192,5429,1,0,0:0:0:0:
320,192,5429,1,0,0:0:0:0:
192,192,5429,1,0,0:0:0:0:
64,192,5726,1,0,0:0:0:0:
448,192,5726,1,0,0:0:0:0:
192,192,5775,1,0,0:0:0:0:
320,192,5825,1,0,0:0:0:0:
448,192,5974,1,0,0:0:0:0:
320,192,6024,1,0,0:0:0:0:
192,192,6024,1,0,0:0:0:0:
64,192,6072,1,0,0:0:0:0:
448,192,6172,1,0,0:0:0:0:
64,192,6271,1,0,0:0:0:0:
192,192,6271,1,0,0:0:0:0:
320,192,6321,1,0,0:0:0:0:
448,192,6371,1,0,0:0:0:0:
64,192,6420,1,0,0:0:0:0:
192,192,6470,1,0,0:0:0:0:
320,192,6520,1,0,0:0:0:0:
448,192,6569,1,0,0:0:0:0:
192,192,6619,1,0,0:0:0:0:
448,192,6718,1,0,0:0:0:0:
64,192,6768,1,0,0:0:0:0:
192,192,6818,1,0,0:0:0:0:
320,192,6866,1,0,0:0:0:0:
64,192,6916,1,0,0:0:0:0:
320,192,6966,1,0,0:0:0:0:
448,192,7015,1,0,0:0:0:0:
192,192,7065,1,0,0:0:0:0:
320,192,7115,1,0,0:0:0:0:
64,192,7214,1,0,0:0:0:0:
192,192,7214,1,0,0:0:0:0:
448,192,7214,1,0,0:0:0:0:
320,192,7511,1,0,0:0:0:0:
64,192,7511,1,0,0:0:0:0:
192,192,7549,1,0,0:0:0:0:
448,192,7809,1,0,0:0:0:0:
192,192,7809,1,0,0:0:0:0:
320,192,7846,1,0,0:0:0:0:
448,192,8106,1,0,0:0:0:0:
192,192,8106,1,0,0:0:0:0:
64,192,8144,1,0,0:0:0:0:
320,192,8404,1,0,0:0:0:0:
64,192,8404,1,0,0:0:0:0:
448,192,8441,1,0,0:0:0:0:
192,192,8702,1,0,0:0:0:0:
64,192,8702,1,0,0:0:0:0:
320,192,8739,1,0,0:0:0:0:
448,192,9000,1,0,0:0:0:0:
320,192,9000,1,0,0:0:0:0:
192,192,9036,1,0,0:0:0:0:
320,192,9298,1,0,0:0:0:0:
192,192,9298,1,0,0:0:0:0:
64,192,9346,1,0,0:0:0:0:
448,192,9396,1,0,0:0:0:0:
320,192,9446,1,0,0:0:0:0:
64,192,9545,1,0,0:0:0:0:
192,192,9595,1,0,0:0:0:0:
320,192,9645,1,0,0:0:0:0:
448,192,9694,1,0,0:0:0:0:
320,192,9794,1,0,0:0:0:0:
64,192,9892,1,0,0:0:0:0:
192,192,9892,1,0,0:0:0:0:
448,192,9991,1,0,0:0:0:0:
192,192,10041,1,0,0:0:0:0:
64,192,10091,1,0,0:0:0:0:
448,192,10190,1,0,0:0:0:0:
320,192,10228,1,0,0:0:0:0:
64,192,10488,1,0,0:0:0:0:
192,192,10488,1,0,0:0:0:0:
448,192,10538,1,0,0:0:0:0:
320,192,10588,1,0,0:0:0:0:
192,192,10636,1,0,0:0:0:0:
64,192,10686,1,0,0:0:0:0:
448,192,10736,1,0,0:0:0:0:
192,192,10785,1,0,0:0:0:0:
320,192,10785,1,0,0:0:0:0:
64,192,11082,1,0,0:0:0:0:
192,192,11082,1,0,0:0:0:0:
320,192,11132,1,0,0:0:0:0:
448,192,11182,1,0,0:0:0:0:
64,192,11231,1,0,0:0:0:0:
192,192,11281,1,0,0:0:0:0:
320,192,11331,1,0,0:0:0:0:
64,192,11380,1,0,0:0:0:0:
192,192,11430,1,0,0:0:0:0:
320,192,11480,1,0,0:0:0:0:
448,192,11529,1,0,0:0:0:0:
192,192,11579,1,0,0:0:0:0:
320,192,11629,1,0,0:0:0:0:
448,192,11679,1,0,0:0:0:0:
64,192,11679,1,0,0:0:0:0:
448,192,11876,1,0,0:0:0:0:
320,192,11926,1,0,0:0:0:0:
192,192,11976,1,0,0:0:0:0:
448,192,12025,1,0,0:0:0:0:
64,192,12075,1,0,0:0:0:0:
192,192,12125,1,0,0:0:0:0:
320,192,12174,1,0,0:0:0:0:
64,192,12274,1,0,0:0:0:0:
192,192,12274,1,0,0:0:0:0:
448,192,12422,1,0,0:0:0:0:
64,192,12571,1,0,0:0:0:0:
320,192,12621,1,0,0:0:0:0:
192,192,12670,1,0,0:0:0:0:
64,192,12720,1,0,0:0:0:0:
448,192,12770,1,0,0:0:0:0:
320,192,12819,1,0,0:0:0:0:
192,192,12869,1,0,0:0:0:0:
64,192,12869,1,0,0:0:0:0:
320,192,12968,1,0,0:0:0:0:
448,192,13018,1,0,0:0:0:0:
192,192,13166,1,0,0:0:0:0:
320,192,13216,1,0,0:0:0:0:
448,192,13265,1,0,0:0:0:0:
192,192,13315,1,0,0:0:0:0:
64,192,13365,1,0,0:0:0:0:
448,192,13414,1,0,0:0:0:0:
320,192,13464,1,0,0:0:0:0:
192,192,13464,1,0,0:0:0:0:
320,192,13612,1,0,0:0:0:0:
64,192,13761,1,0,0:0:0:0:
192,192,13811,1,0,0:0:0:0:
448,192,13861,1,0,0:0:0:0:
320,192,13910,1,0,0:0:0:0:
192,192,13960,1,0,0:0:0:0:
64,192,14010,1,0,0:0:0:0:
448,192,14059,1,0,0:0:0:0:
320,192,14059,1,0,0:0:0:0:
192,192,14208,1,0,0:0:0:0:
320,192,14356,1,0,0:0:0:0:
448,192,14406,1,0,0:0:0:0:
64,192,14456,1,0,0:0:0:0:
192,192,14505,1,0,0:0:0:0:
320,192,14555,1,0,0:0:0:0:
448,192,14605,1,0,0:0:0:0:
192,192,14654,1,0,0:0:0:0:
64,192,14654,1,0,0:0:0:0:
320,192,14804,1,0,0:0:0:0:
64,192,14952,1,0,0:0:0:0:
448,192,15001,1,0,0:0:0:0:
320,192,15051,1,0,0:0:0:0:
192,192,15101,1,0,0:0:0:0:
64,192,15150,1,0,0:0:0:0:
192,192,15200,1,0,0:0:0:0:
320,192,15250,1,0,0:0:0:0:
448,192,15250,1,0,0:0:0:0:
320,192,15399,1,0,0:0:0:0:
192,192,15548,1,0,0:0:0:0:
64,192,15696,1,0,0:0:0:0:
448,192,15845,1,0,0:0:0:0:
320,192,15895,1,0,0:0:0:0:
64,192,15944,1,0,0:0:0:0:
448,192,15994,1,0,0:0:0:0:
320,192,16044,1,0,0:0:0:0:
192,192,16092,1,0,0:0:0:0:
448,192,16142,1,0,0:0:0:0:
320,192,16192,1,0,0:0:0:0:
64,192,16241,1,0,0:0:0:0:
448,192,16291,1,0,0:0:0:0:
320,192,16341,1,0,0:0:0:0:
192,192,16390,1,0,0:0:0:0:
448,192,16440,1,0,0:0:0:0:
64,192,16440,1,0,0:0:0:0:
64,192,16639,1,0,0:0:0:0:
192,192,16688,1,0,0:0:0:0:
320,192,16738,1,0,0:0:0:0:
64,192,16788,1,0,0:0:0:0:
448,192,16838,1,0,0:0:0:0:
320,192,16886,1,0,0:0:0:0:
192,192,16936,1,0,0:0:0:0:
448,192,17035,1,0,0:0:0:0:
320,192,17035,1,0,0:0:0:0:
64,192,17184,1,0,0:0:0:0:
448,192,17332,1,0,0:0:0:0:
192,192,17382,1,0,0:0:0:0:
320,192,17432,1,0,0:0:0:0:
448,192,17481,1,0,0:0:0:0:
64,192,17531,1,0,0:0:0:0:
192,192,17581,1,0,0:0:0:0:
320,192,17630,1,0,0:0:0:0:
448,192,17630,1,0,0:0:0:0:
192,192,17730,1,0,0:0:0:0:
64,192,17779,1,0,0:0:0:0:
320,192,17929,1,0,0:0:0:0:
192,192,17978,1,0,0:0:0:0:
64,192,18028,1,0,0:0:0:0:
320,192,18078,1,0,0:0:0:0:
448,192,18126,1,0,0:0:0:0:
64,192,18176,1,0,0:0:0:0:
192,192,18226,1,0,0:0:0:0:
320,192,18226,1,0,0:0:0:0:
192,192,18375,1,0,0:0:0:0:
448,192,18524,1,0,0:0:0:0:
320,192,18572,1,0,0:0:0:0:
64,192,18622,1,0,0:0:0:0:
192,192,18672,1,0,0:0:0:0:
320,192,18721,1,0,0:0:0:0:
448,192,18771,1,0,0:0:0:0:
64,192,18821,1,0,0:0:0:0:
192,192,18821,1,0,0:0:0:0:
320,192,18970,1,0,0:0:0:0:
192,192,19119,1,0,0:0:0:0:
64,192,19169,1,0,0:0:0:0:
448,192,19218,1,0,0:0:0:0:
320,192,19268,1,0,0:0:0:0:
192,192,19318,1,0,0:0:0:0:
64,192,19366,1,0,0:0:0:0:
320,192,19416,1,0,0:0:0:0:
448,192,19416,1,0,0:0:0:0:
192,192,19565,1,0,0:0:0:0:
448,192,19714,1,0,0:0:0:0:
64,192,19764,1,0,0:0:0:0:
192,192,19812,1,0,0:0:0:0:
320,192,19862,1,0,0:0:0:0:
448,192,19912,1,0,0:0:0:0:
320,192,19962,1,0,0:0:0:0:
192,192,20011,1,0,0:0:0:0:
64,192,20011,1,0,0:0:0:0:
320,192,20160,1,0,0:0:0:0:
192,192,20309,1,0,0:0:0:0:
448,192,20458,1,0,0:0:0:0:
64,192,20606,1,0,0:0:0:0:
192,192,20656,1,0,0:0:0:0:
448,192,20706,1,0,0:0:0:0:
64,192,20755,1,0,0:0:0:0:
192,192,20805,1,0,0:0:0:0:
320,192,20855,1,0,0:0:0:0:
64,192,20904,1,0,0:0:0:0:
192,192,20954,1,0,0:0:0:0:
448,192,21004,1,0,0:0:0:0:
64,192,21054,1,0,0:0:0:0:
192,192,21102,1,0,0:0:0:0:
320,192,21152,1,0,0:0:0:0:
64,192,21202,1,0,0:0:0:0:
448,192,21202,1,0,0:0:0:0:
448,192,21400,1,0,0:0:0:0:
320,192,21450,1,0,0:0:0:0:
192,192,21500,1,0,0:0:0:0:
448,192,21549,1,0,0:0:0:0:
64,192,21599,1,0,0:0:0:0:
192,192,21649,1,0,0:0:0:0:
320,192,21698,1,0,0:0:0:0:
192,192,21798,1,0,0:0:0:0:
64,192,21798,1,0,0:0:0:0:
448,192,21946,1,0,0:0:0:0:
64,192,22095,1,0,0:0:0:0:
320,192,22145,1,0,0:0:0:0:
192,192,22194,1,0,0:0:0:0:
64,192,22244,1,0,0:0:0:0:
448,192,22294,1,0,0:0:0:0:
320,192,22342,1,0,0:0:0:0:
64,192,22392,1,0,0:0:0:0:
192,192,22392,1,0,0:0:0:0:
320,192,22491,1,0,0:0:0:0:
448,192,22541,1,0,0:0:0:0:
320,192,22591,1,0,0:0:0:0:
64,192,22640,1,0,0:0:0:0:
192,192,22690,1,0,0:0:0:0:
320,192,22740,1,0,0:0:0:0:
448,192,22789,1,0,0:0:0:0:
192,192,22839,1,0,0:0:0:0:
64,192,22889,1,0,0:0:0:0:
448,192,22938,1,0,0:0:0:0:
192,192,22988,1,0,0:0:0:0:
320,192,22988,1,0,0:0:0:0:
448,192,23088,1,0,0:0:0:0:
320,192,23136,1,0,0:0:0:0:
64,192,23186,1,0,0:0:0:0:
192,192,23236,1,0,0:0:0:0:
320,192,23285,1,0,0:0:0:0:
192,192,23335,1,0,0:0:0:0:
448,192,23385,1,0,0:0:0:0:
320,192,23434,1,0,0:0:0:0:
192,192,23484,1,0,0:0:0:0:
64,192,23534,1,0,0:0:0:0:
320,192,23582,1,0,0:0:0:0:
448,192,23582,1,0,0:0:0:0:
192,192,23731,1,0,0:0:0:0:
320,192,23880,1,0,0:0:0:0:
448,192,23930,1,0,0:0:0:0:
64,192,23980,1,0,0:0:0:0:
192,192,24029,1,0,0:0:0:0:
320,192,24079,1,0,0:0:0:0:
448,192,24129,1,0,0:0:0:0:
64,192,24179,1,0,0:0:0:0:
192,192,24179,1,0,0:0:0:0:
320,192,24328,1,0,0:0:0:0:
64,192,24476,1,0,0:0:0:0:
448,192,24525,1,0,0:0:0:0:
320,192,24575,1,0,0:0:0:0:
192,192,24625,1,0,0:0:0:0:
64,192,24674,1,0,0:0:0:0:
192,192,24724,1,0,0:0:0:0:
448,192,24774,1,0,0:0:0:0:
320,192,24774,1,0,0:0:0:0:
64,192,24922,1,0,0:0:0:0:
192,192,25071,1,0,0:0:0:0:
320,192,25220,1,0,0:0:0:0:
448,192,25369,1,0,0:0:0:0:
320,192,25419,1,0,0:0:0:0:
64,192,25468,1,0,0:0:0:0:
448,192,25518,1,0,0:0:0:0:
320,192,25568,1,0,0:0:0:0:
192,192,25616,1,0,0:0:0:0:
448,192,25666,1,0,0:0:0:0:
320,192,25716,1,0,0:0:0:0:
64,192,25765,1,0,0:0:0:0:
448,192,25815,1,0,0:0:0:0:
320,192,25865,1,0,0:0:0:0:
192,192,25914,1,0,0:0:0:0:
64,192,25964,1,0,0:0:0:0:
448,192,25964,1,0,0:0:0:0:
64,192,26162,1,0,0:0:0:0:
192,192,26212,1,0,0:0:0:0:
320,192,26261,1,0,0:0:0:0:
64,192,26311,1,0,0:0:0:0:
448,192,26361,1,0,0:0:0:0:
320,192,26410,1,0,0:0:0:0:
192,192,26460,1,0,0:0:0:0:
448,192,26559,1,0,0:0:0:0:
320,192,26559,1,0,0:0:0:0:
64,192,26708,1,0,0:0:0:0:
448,192,26856,1,0,0:0:0:0:
192,192,26906,1,0,0:0:0:0:
320,192,26956,1,0,0:0:0:0:
448,192,27005,1,0,0:0:0:0:
64,192,27055,1,0,0:0:0:0:
192,192,27105,1,0,0:0:0:0:
320,192,27154,1,0,0:0:0:0:
448,192,27154,1,0,0:0:0:0:
192,192,27254,1,0,0:0:0:0:
64,192,27304,1,0,0:0:0:0:
448,192,27352,1,0,0:0:0:0:
192,192,27402,1,0,0:0:0:0:
320,192,27452,1,0,0:0:0:0:
192,192,27501,1,0,0:0:0:0:
64,192,27551,1,0,0:0:0:0:
320,192,27601,1,0,0:0:0:0:
448,192,27650,1,0,0:0:0:0:
64,192,27700,1,0,0:0:0:0:
192,192,27750,1,0,0:0:0:0:
320,192,27750,1,0,0:0:0:0:
448,192,27849,1,0,0:0:0:0:
192,192,27899,1,0,0:0:0:0:
64,192,27948,1,0,0:0:0:0:
320,192,27998,1,0,0:0:0:0:
448,192,28048,1,0,0:0:0:0:
320,192,28096,1,0,0:0:0:0:
64,192,28146,1,0,0:0:0:0:
192,192,28196,1,0,0:0:0:0:
320,192,28246,1,0,0:0:0:0:
448,192,28295,1,0,0:0:0:0:
64,192,28345,1,0,0:0:0:0:
192,192,28345,1,0,0:0:0:0:
320,192,28494,1,0,0:0:0:0:
192,192,28642,1,0,0:0:0:0:
64,192,28692,1,0,0:0:0:0:
448,192,28741,1,0,0:0:0:0:
320,192,28791,1,0,0:0:0:0:
192,192,28841,1,0,0:0:0:0:
64,192,28890,1,0,0:0:0:0:
320,192,28940,1,0,0:0:0:0:
448,192,28940,1,0,0:0:0:0:
192,192,29089,1,0,0:0:0:0:
448,192,29238,1,0,0:0:0:0:
64,192,29288,1,0,0:0:0:0:
192,192,29338,1,0,0:0:0:0:
320,192,29386,1,0,0:0:0:0:
448,192,29436,1,0,0:0:0:0:
320,192,29486,1,0,0:0:0:0:
192,192,29535,1,0,0:0:0:0:
64,192,29535,1,0,0:0:0:0:
320,192,29684,1,0,0:0:0:0:
192,192,29832,1,0,0:0:0:0:
448,192,29981,1,0,0:0:0:0:
64,192,30130,1,0,0:0:0:0:
192,192,30180,1,0,0:0:0:0:
448,192,30230,1,0,0:0:0:0:
64,192,30279,1,0,0:0:0:0:
192,192,30329,1,0,0:0:0:0:
320,192,30379,1,0,0:0:0:0:
64,192,30429,1,0,0:0:0:0:
192,192,30478,1,0,0:0:0:0:
448,192,30528,1,0,0:0:0:0:
64,192,30578,1,0,0:0:0:0:
192,192,30626,1,0,0:0:0:0:
320,192,30676,1,0,0:0:0:0:
448,192,30726,1,0,0:0:0:0:
64,192,30726,1,0,0:0:0:0:
448,192,30924,1,0,0:0:0:0:
64,192,30974,1,0,0:0:0:0:
192,192,31024,1,0,0:0:0:0:
320,192,31072,1,0,0:0:0:0:
448,192,31122,1,0,0:0:0:0:
192,192,31172,1,0,0:0:0:0:
64,192,31221,1,0,0:0:0:0:
192,192,31321,1,0,0:0:0:0:
320,192,31321,1,0,0:0:0:0:
448,192,31470,1,0,0:0:0:0:
64,192,31619,1,0,0:0:0:0:
192,192,31669,1,0,0:0:0:0:
320,192,31718,1,0,0:0:0:0:
64,192,31768,1,0,0:0:0:0:
192,192,31818,1,0,0:0:0:0:
320,192,31866,1,0,0:0:0:0:
64,192,31916,1,0,0:0:0:0:
448,192,31916,1,0,0:0:0:0:
192,192,32015,1,0,0:0:0:0:
320,192,32065,1,0,0:0:0:0:
448,192,32115,1,0,0:0:0:0:
64,192,32164,1,0,0:0:0:0:
192,192,32214,1,0,0:0:0:0:
320,192,32264,1,0,0:0:0:0:
448,192,32312,1,0,0:0:0:0:
192,192,32362,1,0,0:0:0:0:
64,192,32412,1,0,0:0:0:0:
448,192,32462,1,0,0:0:0:0:
192,192,32511,1,0,0:0:0:0:
320,192,32511,1,0,0:0:0:0:
64,192,32611,1,0,0:0:0:0:
448,192,32660,1,0,0:0:0:0:
320,192,32710,1,0,0:0:0:0:
192,192,32760,1,0,0:0:0:0:
64,192,32809,1,0,0:0:0:0:
448,192,32859,1,0,0:0:0:0:
320,192,32909,1,0,0:0:0:0:
192,192,32958,1,0,0:0:0:0:
64,192,33008,1,0,0:0:0:0:
192,192,33058,1,0,0:0:0:0:
320,192,33106,1,0,0:0:0:0:
448,192,33106,1,0,0:0:0:0:
192,192,33255,1,0,0:0:0:0:
448,192,33404,1,0,0:0:0:0:
320,192,33454,1,0,0:0:0:0:
192,192,33504,1,0,0:0:0:0:
448,192,33554,1,0,0:0:0:0:
64,192,33602,1,0,0:0:0:0:
192,192,33652,1,0,0:0:0:0:
320,192,33702,1,0,0:0:0:0:
448,192,33702,1,0,0:0:0:0:
320,192,33851,1,0,0:0:0:0:
192,192,34000,1,0,0:0:0:0:
320,192,34049,1,0,0:0:0:0:
448,192,34099,1,0,0:0:0:0:
64,192,34149,1,0,0:0:0:0:
192,192,34198,1,0,0:0:0:0:
320,192,34248,1,0,0:0:0:0:
64,192,34298,1,0,0:0:0:0:
448,192,34298,1,0,0:0:0:0:
320,192,34446,1,0,0:0:0:0:
192,192,34595,1,0,0:0:0:0:
64,192,34744,1,0,0:0:0:0:
320,192,34892,1,0,0:0:0:0:
192,192,34942,1,0,0:0:0:0:
64,192,34991,1,0,0:0:0:0:
192,192,35041,1,0,0:0:0:0:
320,192,35091,1,0,0:0:0:0:
448,192,35140,1,0,0:0:0:0:
192,192,35190,1,0,0:0:0:0:
320,192,35240,1,0,0:0:0:0:
64,192,35289,1,0,0:0:0:0:
192,192,35339,1,0,0:0:0:0:
448,192,35389,1,0,0:0:0:0:
320,192,35438,1,0,0:0:0:0:
448,192,35488,1,0,0:0:0:0:
64,192,35488,1,0,0:0:0:0:
64,192,35686,1,0,0:0:0:0:
448,192,35736,1,0,0:0:0:0:
320,192,35785,1,0,0:0:0:0:
192,192,35835,1,0,0:0:0:0:
64,192,35885,1,0,0:0:0:0:
320,192,35934,1,0,0:0:0:0:
448,192,35984,1,0,0:0:0:0:
320,192,36082,1,0,0:0:0:0:
192,192,36082,1,0,0:0:0:0:
64,192,36231,1,0,0:0:0:0:
448,192,36380,1,0,0:0:0:0:
320,192,36430,1,0,0:0:0:0:
192,192,36480,1,0,0:0:0:0:
448,192,36529,1,0,0:0:0:0:
320,192,36579,1,0,0:0:0:0:
192,192,36629,1,0,0:0:0:0:
448,192,36679,1,0,0:0:0:0:
64,192,36679,1,0,0:0:0:0:
320,192,36778,1,0,0:0:0:0:
192,192,36828,1,0,0:0:0:0:
64,192,36876,1,0,0:0:0:0:
448,192,36926,1,0,0:0:0:0:
320,192,36976,1,0,0:0:0:0:
192,192,37025,1,0,0:0:0:0:
64,192,37075,1,0,0:0:0:0:
320,192,37125,1,0,0:0:0:0:
448,192,37174,1,0,0:0:0:0:
64,192,37224,1,0,0:0:0:0:
320,192,37274,1,0,0:0:0:0:
192,192,37274,1,0,0:0:0:0:
448,192,37372,1,0,0:0:0:0:
64,192,37422,1,0,0:0:0:0:
192,192,37471,1,0,0:0:0:0:
320,192,37521,1,0,0:0:0:0:
448,192,37571,1,0,0:0:0:0:
64,192,37621,1,0,0:0:0:0:
192,192,37670,1,0,0:0:0:0:
320,192,37720,1,0,0:0:0:0:
448,192,37770,1,0,0:0:0:0:
320,192,37819,1,0,0:0:0:0:
192,192,37869,1,0,0:0:0:0:
64,192,37869,1,0,0:0:0:0:
320,192,38018,1,0,0:0:0:0:
64,192,38166,1,0,0:0:0:0:
192,192,38216,1,0,0:0:0:0:
320,192,38265,1,0,0:0:0:0:
64,192,38315,1,0,0:0:0:0:
448,192,38365,1,0,0:0:0:0:
320,192,38414,1,0,0:0:0:0:
192,192,38464,1,0,0:0:0:0:
64,192,38464,1,0,0:0:0:0:
192,192,38612,1,0,0:0:0:0:
320,192,38761,1,0,0:0:0:0:
192,192,38811,1,0,0:0:0:0:
64,192,38861,1,0,0:0:0:0:
448,192,38910,1,0,0:0:0:0:
320,192,38960,1,0,0:0:0:0:
192,192,39010,1,0,0:0:0:0:
448,192,39059,1,0,0:0:0:0:
64,192,39059,1,0,0:0:0:0:
192,192,39208,1,0,0:0:0:0:
320,192,39356,1,0,0:0:0:0:
448,192,39505,1,0,0:0:0:0:
192,192,39654,1,0,0:0:0:0:
320,192,39704,1,0,0:0:0:0:
448,192,39754,1,0,0:0:0:0:
320,192,39804,1,0,0:0:0:0:
192,192,39852,1,0,0:0:0:0:
64,192,39902,1,0,0:0:0:0:
320,192,39952,1,0,0:0:0:0:
192,192,40001,1,0,0:0:0:0:
448,192,40051,1,0,0:0:0:0:
320,192,40101,1,0,0:0:0:0:
64,192,40150,1,0,0:0:0:0:
192,192,40200,1,0,0:0:0:0:
64,192,40250,1,0,0:0:0:0:
448,192,40250,1,0,0:0:0:0:
448,192,40448,1,0,0:0:0:0:
64,192,40498,1,0,0:0:0:0:
192,192,40548,1,0,0:0:0:0:
320,192,40596,1,0,0:0:0:0:
448,192,40646,1,0,0:0:0:0:
192,192,40696,1,0,0:0:0:0:
64,192,40746,1,0,0:0:0:0:
320,192,40845,1,0,0:0:0:0:
192,192,40845,1,0,0:0:0:0:
448,192,40994,1,0,0:0:0:0:
64,192,41142,1,0,0:0:0:0:
192,192,41192,1,0,0:0:0:0:
320,192,41241,1,0,0:0:0:0:
64,192,41291,1,0,0:0:0:0:
192,192,41341,1,0,0:0:0:0:
320,192,41390,1,0,0:0:0:0:
448,192,41440,1,0,0:0:0:0:
64,192,41440,1,0,0:0:0:0:
192,192,41539,1,0,0:0:0:0:
320,192,41589,1,0,0:0:0:0:
448,192,41639,1,0,0:0:0:0:
64,192,41688,1,0,0:0:0:0:
192,192,41738,1,0,0:0:0:0:
320,192,41788,1,0,0:0:0:0:
448,192,41838,1,0,0:0:0:0:
192,192,41886,1,0,0:0:0:0:
64,192,41936,1,0,0:0:0:0:
448,192,41986,1,0,0:0:0:0:
320,192,42035,1,0,0:0:0:0:
192,192,42035,1,0,0:0:0:0:
64,192,42135,1,0,0:0:0:0:
448,192,42184,1,0,0:0:0:0:
320,192,42234,1,0,0:0:0:0:
192,192,42284,1,0,0:0:0:0:
64,192,42332,1,0,0:0:0:0:
448,192,42382,1,0,0:0:0:0:
320,192,42432,1,0,0:0:0:0:
192,192,42481,1,0,0:0:0:0:
64,192,42531,1,0,0:0:0:0:
192,192,42581,1,0,0:0:0:0:
448,192,42630,1,0,0:0:0:0:
320,192,42630,1,0,0:0:0:0:
192,192,42779,1,0,0:0:0:0:
448,192,42929,1,0,0:0:0:0:
320,192,42978,1,0,0:0:0:0:
192,192,43028,1,0,0:0:0:0:
448,192,43078,1,0,0:0:0:0:
64,192,43126,1,0,0:0:0:0:
192,192,43176,1,0,0:0:0:0:
448,192,43226,1,0,0:0:0:0:
320,192,43226,1,0,0:0:0:0:
320,192,43375,1,0,0:0:0:0:
192,192,43524,1,0,0:0:0:0:
320,192,43572,1,0,0:0:0:0:
448,192,43622,1,0,0:0:0:0:
64,192,43672,1,0,0:0:0:0:
192,192,43721,1,0,0:0:0:0:
320,192,43771,1,0,0:0:0:0:
448,192,43821,1,0,0:0:0:0:
64,192,43821,1,0,0:0:0:0:
320,192,43970,1,0,0:0:0:0:
192,192,44119,1,0,0:0:0:0:
64,192,44268,1,0,0:0:0:0:
320,192,44416,1,0,0:0:0:0:
448,192,44466,1,0,0:0:0:0:
64,192,44515,1,0,0:0:0:0:
192,192,44565,1,0,0:0:0:0:
320,192,44615,1,0,0:0:0:0:
448,192,44664,1,0,0:0:0:0:
192,192,44714,1,0,0:0:0:0:
320,192,44764,1,0,0:0:0:0:
64,192,44812,1,0,0:0:0:0:
192,192,44862,1,0,0:0:0:0:
320,192,44912,1,0,0:0:0:0:
192,192,44962,1,0,0:0:0:0:
448,192,45011,1,0,0:0:0:0:
64,192,45011,1,0,0:0:0:0:
64,192,45210,1,0,0:0:0:0:
448,192,45260,1,0,0:0:0:0:
320,192,45309,1,0,0:0:0:0:
192,192,45359,1,0,0:0:0:0:
64,192,45409,1,0,0:0:0:0:
320,192,45458,1,0,0:0:0:0:
448,192,45508,1,0,0:0:0:0:
320,192,45606,1,0,0:0:0:0:
192,192,45606,1,0,0:0:0:0:
64,192,45755,1,0,0:0:0:0:
448,192,45904,1,0,0:0:0:0:
320,192,45954,1,0,0:0:0:0:
192,192,46004,1,0,0:0:0:0:
448,192,46054,1,0,0:0:0:0:
320,192,46102,1,0,0:0:0:0:
192,192,46152,1,0,0:0:0:0:
448,192,46202,1,0,0:0:0:0:
64,192,46202,1,0,0:0:0:0:
320,192,46301,1,0,0:0:0:0:
192,192,46351,1,0,0:0:0:0:
64,192,46400,1,0,0:0:0:0:
448,192,46450,1,0,0:0:0:0:
320,192,46500,1,0,0:0:0:0:
192,192,46549,1,0,0:0:0:0:
64,192,46599,1,0,0:0:0:0:
320,192,46649,1,0,0:0:0:0:
448,192,46698,1,0,0:0:0:0:
64,192,46748,1,0,0:0:0:0:
320,192,46798,1,0,0:0:0:0:
192,192,46798,1,0,0:0:0:0:
448,192,46896,1,0,0:0:0:0:
64,192,46946,1,0,0:0:0:0:
192,192,46996,1,0,0:0:0:0:
320,192,47045,1,0,0:0:0:0:
448,192,47095,1,0,0:0:0:0:
64,192,47145,1,0,0:0:0:0:
192,192,47194,1,0,0:0:0:0:
320,192,47244,1,0,0:0:0:0:
448,192,47294,1,0,0:0:0:0:
320,192,47342,1,0,0:0:0:0:
192,192,47392,1,0,0:0:0:0:
64,192,47392,1,0,0:0:0:0:
320,192,47541,1,0,0:0:0:0:
64,192,47690,1,0,0:0:0:0:
192,192,47740,1,0,0:0:0:0:
320,192,47789,1,0,0:0:0:0:
64,192,47839,1,0,0:0:0:0:
448,192,47889,1,0,0:0:0:0:
320,192,47938,1,0,0:0:0:0:
192,192,47988,1,0,0:0:0:0:
64,192,47988,1,0,0:0:0:0:
192,192,48136,1,0,0:0:0:0:
320,192,48285,1,0,0:0:0:0:
192,192,48335,1,0,0:0:0:0:
64,192,48385,1,0,0:0:0:0:
448,192,48434,1,0,0:0:0:0:
320,192,48484,1,0,0:0:0:0:
192,192,48534,1,0,0:0:0:0:
448,192,48582,1,0,0:0:0:0:
64,192,48582,1,0,0:0:0:0:
192,192,48731,1,0,0:0:0:0:
320,192,48880,1,0,0:0:0:0:
448,192,49029,1,0,0:0:0:0:
192,192,49179,1,0,0:0:0:0:
64,192,49228,1,0,0:0:0:0:
448,192,49278,1,0,0:0:0:0:
320,192,49328,1,0,0:0:0:0:
192,192,49376,1,0,0:0:0:0:
64,192,49426,1,0,0:0:0:0:
448,192,49476,1,0,0:0:0:0:
192,192,49525,1,0,0:0:0:0:
320,192,49575,1,0,0:0:0:0:
64,192,49625,1,0,0:0:0:0:
448,192,49674,1,0,0:0:0:0:
320,192,49724,1,0,0:0:0:0:
64,192,49774,1,0,0:0:0:0:
192,192,49822,1,0,0:0:0:0:
320,192,49872,1,0,0:0:0:0:
448,192,49922,1,0,0:0:0:0:
64,192,49971,1,0,0:0:0:0:
192,192,50021,1,0,0:0:0:0:
320,192,50071,1,0,0:0:0:0:
448,192,50121,1,0,0:0:0:0:
64,192,50170,1,0,0:0:0:0:
192,192,50220,1,0,0:0:0:0:
320,192,50270,1,0,0:0:0:0:
448,192,50319,1,0,0:0:0:0:
320,192,50369,1,0,0:0:0:0:
192,192,50419,1,0,0:0:0:0:
64,192,50468,1,0,0:0:0:0:
448,192,50518,1,0,0:0:0:0:
320,192,50568,1,0,0:0:0:0:
192,192,50616,1,0,0:0:0:0:
64,192,50666,1,0,0:0:0:0:
448,192,50716,1,0,0:0:0:0:
320,192,50765,1,0,0:0:0:0:
192,192,50815,1,0,0:0:0:0:
64,192,50865,1,0,0:0:0:0:
448,192,50914,1,0,0:0:0:0:
320,192,50964,1,0,0:0:0:0:
192,192,51014,1,0,0:0:0:0:
64,192,51062,1,0,0:0:0:0:
448,192,51112,1,0,0:0:0:0:
320,192,51162,1,0,0:0:0:0:
192,192,51212,1,0,0:0:0:0:
64,192,51261,1,0,0:0:0:0:
448,192,51261,1,0,0:0:0:0:
320,192,51361,1,0,0:0:0:0:
192,192,51460,1,0,0:0:0:0:
448,192,51559,1,0,0:0:0:0:
320,192,51559,1,0,0:0:0:0:
64,192,51659,1,0,0:0:0:0:
448,192,51758,1,0,0:0:0:0:
320,192,51856,1,0,0:0:0:0:
192,192,51856,1,0,0:0:0:0:
64,192,51956,1,0,0:0:0:0:
448,192,52055,1,0,0:0:0:0:
64,192,52154,1,0,0:0:0:0:
192,192,52204,1,0,0:0:0:0:
320,192,52254,1,0,0:0:0:0:
448,192,52304,1,0,0:0:0:0:
64,192,52352,1,0,0:0:0:0:
192,192,52402,1,0,0:0:0:0:
320,192,52452,1,0,0:0:0:0:
448,192,52501,1,0,0:0:0:0:
64,192,52551,1,0,0:0:0:0:
192,192,52601,1,0,0:0:0:0:
320,192,52650,1,0,0:0:0:0:
448,192,52700,1,0,0:0:0:0:
320,192,52750,1,0,0:0:0:0:
192,192,52799,1,0,0:0:0:0:
64,192,52849,1,0,0:0:0:0:
448,192,52899,1,0,0:0:0:0:
320,192,52948,1,0,0:0:0:0:
192,192,52998,1,0,0:0:0:0:
64,192,53048,1,0,0:0:0:0:
448,192,53096,1,0,0:0:0:0:
320,192,53146,1,0,0:0:0:0:
192,192,53196,1,0,0:0:0:0:
64,192,53246,1,0,0:0:0:0:
448,192,53295,1,0,0:0:0:0:
320,192,53345,1,0,0:0:0:0:
192,192,53395,1,0,0:0:0:0:
64,192,53444,1,0,0:0:0:0:
448,192,53494,1,0,0:0:0:0:
320,192,53544,1,0,0:0:0:0:
192,192,53592,1,0,0:0:0:0:
64,192,53642,1,0,0:0:0:0:
448,192,53642,1,0,0:0:0:0:
192,192,53741,1,0,0:0:0:0:
320,192,53841,1,0,0:0:0:0:
192,192,53940,1,0,0:0:0:0:
448,192,53940,1,0,0:0:0:0:
320,192,54039,1,0,0:0:0:0:
64,192,54139,1,0,0:0:0:0:
320,192,54238,1,0,0:0:0:0:
192,192,54238,1,0,0:0:0:0:
448,192,54338,1,0,0:0:0:0:
320,192,54436,1,0,0:0:0:0:
64,192,54535,1,0,0:0:0:0:
192,192,54585,1,0,0:0:0:0:
320,192,54635,1,0,0:0:0:0:
448,192,54684,1,0,0:0:0:0:
64,192,54734,1,0,0:0:0:0:
192,192,54784,1,0,0:0:0:0:
320,192,54832,1,0,0:0:0:0:
448,192,54882,1,0,0:0:0:0:
64,192,54932,1,0,0:0:0:0:
192,192,54981,1,0,0:0:0:0:
320,192,55031,1,0,0:0:0:0:
448,192,55081,1,0,0:0:0:0:
320,192,55130,1,0,0:0:0:0:
192,192,55180,1,0,0:0:0:0:
64,192,55230,1,0,0:0:0:0:
448,192,55279,1,0,0:0:0:0:
320,192,55329,1,0,0:0:0:0:
192,192,55379,1,0,0:0:0:0:
64,192,55429,1,0,0:0:0:0:
448,192,55478,1,0,0:0:0:0:
320,192,55528,1,0,0:0:0:0:
192,192,55578,1,0,0:0:0:0:
64,192,55626,1,0,0:0:0:0:
448,192,55676,1,0,0:0:0:0:
320,192,55726,1,0,0:0:0:0:
192,192,55775,1,0,0:0:0:0:
64,192,55825,1,0,0:0:0:0:
448,192,55875,1,0,0:0:0:0:
320,192,55924,1,0,0:0:0:0:
192,192,55974,1,0,0:0:0:0:
448,192,56024,1,0,0:0:0:0:
64,192,56024,1,0,0:0:0:0:
320,192,56122,1,0,0:0:0:0:
448,192,56221,1,0,0:0:0:0:
192,192,56321,1,0,0:0:0:0:
64,192,56321,1,0,0:0:0:0:
320,192,56420,1,0,0:0:0:0:
192,192,56520,1,0,0:0:0:0:
320,192,56619,1,0,0:0:0:0:
448,192,56619,1,0,0:0:0:0:
64,192,56718,1,0,0:0:0:0:
192,192,56818,1,0,0:0:0:0:
448,192,56916,1,0,0:0:0:0:
64,192,56916,1,0,0:0:0:0:
320,192,56966,1,0,0:0:0:0:
192,192,57065,1,0,0:0:0:0:
320,192,57214,1,0,0:0:0:0:
64,192,57362,1,0,0:0:0:0:
448,192,57362,1,0,0:0:0:0:
320,192,57412,1,0,0:0:0:0:
192,192,57511,1,0,0:0:0:0:
448,192,57660,1,0,0:0:0:0:
64,192,57809,1,0,0:0:0:0:
320,192,57809,1,0,0:0:0:0:
192,192,57859,1,0,0:0:0:0:
448,192,57884,1,0,0:0:0:0:
448,192,58106,1,0,0:0:0:0:
64,192,58106,1,0,0:0:0:0:
320,192,58156,1,0,0:0:0:0:
192,192,58206,1,0,0:0:0:0:
64,192,58255,1,0,0:0:0:0:
448,192,58305,1,0,0:0:0:0:
320,192,58355,1,0,0:0:0:0:
192,192,58404,1,0,0:0:0:0:
448,192,58454,1,0,0:0:0:0:
320,192,58504,1,0,0:0:0:0:
64,192,58554,1,0,0:0:0:0:
192,192,58602,1,0,0:0:0:0:
320,192,58652,1,0,0:0:0:0:
448,192,58702,1,0,0:0:0:0:
64,192,58751,1,0,0:0:0:0:
192,192,58801,1,0,0:0:0:0:
320,192,58851,1,0,0:0:0:0:
64,192,58900,1,0,0:0:0:0:
192,192,58950,1,0,0:0:0:0:
320,192,59000,1,0,0:0:0:0:
448,192,59049,1,0,0:0:0:0:
192,192,59099,1,0,0:0:0:0:
320,192,59149,1,0,0:0:0:0:
448,192,59198,1,0,0:0:0:0:
64,192,59298,1,0,0:0:0:0:
192,192,59346,1,0,0:0:0:0:
320,192,59396,1,0,0:0:0:0:
448,192,59446,1,0,0:0:0:0:
64,192,59496,1,0,0:0:0:0:
192,192,59545,1,0,0:0:0:0:
320,192,59595,1,0,0:0:0:0:
448,192,59645,1,0,0:0:0:0:
64,192,59694,1,0,0:0:0:0:
192,192,59744,1,0,0:0:0:0:
320,192,59794,1,0,0:0:0:0:
448,192,59842,1,0,0:0:0:0:
320,192,59892,1,0,0:0:0:0:
192,192,59942,1,0,0:0:0:0:
64,192,59991,1,0,0:0:0:0:
448,192,60041,1,0,0:0:0:0:
320,192,60091,1,0,0:0:0:0:
192,192,60140,1,0,0:0:0:0:
64,192,60190,1,0,0:0:0:0:
448,192,60240,1,0,0:0:0:0:
320,192,60289,1,0,0:0:0:0:
192,192,60339,1,0,0:0:0:0:
64,192,60389,1,0,0:0:0:0:
448,192,60438,1,0,0:0:0:0:
320,192,60488,1,0,0:0:0:0:
192,192,60538,1,0,0:0:0:0:
64,192,60588,1,0,0:0:0:0:
448,192,60636,1,0,0:0:0:0:
320,192,60686,1,0,0:0:0:0:
192,192,60736,1,0,0:0:0:0:
64,192,60785,1,0,0:0:0:0:
448,192,60785,1,0,0:0:0:0:
320,192,60885,1,0,0:0:0:0:
192,192,60984,1,0,0:0:0:0:
448,192,61082,1,0,0:0:0:0:
320,192,61082,1,0,0:0:0:0:
64,192,61182,1,0,0:0:0:0:
448,192,61281,1,0,0:0:0:0:
320,192,61380,1,0,0:0:0:0:
192,192,61380,1,0,0:0:0:0:
64,192,61480,1,0,0:0:0:0:
448,192,61579,1,0,0:0:0:0:
64,192,61679,1,0,0:0:0:0:
192,192,61728,1,0,0:0:0:0:
320,192,61778,1,0,0:0:0:0:
448,192,61828,1,0,0:0:0:0:
64,192,61876,1,0,0:0:0:0:
192,192,61926,1,0,0:0:0:0:
320,192,61976,1,0,0:0:0:0:
448,192,62025,1,0,0:0:0:0:
64,192,62075,1,0,0:0:0:0:
192,192,62125,1,0,0:0:0:0:
320,192,62174,1,0,0:0:0:0:
448,192,62224,1,0,0:0:0:0:
320,192,62274,1,0,0:0:0:0:
192,192,62322,1,0,0:0:0:0:
64,192,62372,1,0,0:0:0:0:
448,192,62422,1,0,0:0:0:0:
320,192,62471,1,0,0:0:0:0:
192,192,62521,1,0,0:0:0:0:
64,192,62571,1,0,0:0:0:0:
448,192,62621,1,0,0:0:0:0:
320,192,62670,1,0,0:0:0:0:
192,192,62720,1,0,0:0:0:0:
64,192,62770,1,0,0:0:0:0:
448,192,62819,1,0,0:0:0:0:
320,192,62869,1,0,0:0:0:0:
192,192,62919,1,0,0:0:0:0:
64,192,62968,1,0,0:0:0:0:
448,192,63018,1,0,0:0:0:0:
320,192,63068,1,0,0:0:0:0:
192,192,63116,1,0,0:0:0:0:
64,192,63166,1,0,0:0:0:0:
448,192,63166,1,0,0:0:0:0:
192,192,63265,1,0,0:0:0:0:
320,192,63365,1,0,0:0:0:0:
192,192,63464,1,0,0:0:0:0:
448,192,63464,1,0,0:0:0:0:
320,192,63562,1,0,0:0:0:0:
64,192,63662,1,0,0:0:0:0:
320,192,63761,1,0,0:0:0:0:
192,192,63761,1,0,0:0:0:0:
448,192,63861,1,0,0:0:0:0:
320,192,63960,1,0,0:0:0:0:
64,192,64059,1,0,0:0:0:0:
192,192,64109,1,0,0:0:0:0:
320,192,64159,1,0,0:0:0:0:
448,192,64208,1,0,0:0:0:0:
64,192,64258,1,0,0:0:0:0:
192,192,64308,1,0,0:0:0:0:
320,192,64356,1,0,0:0:0:0:
448,192,64406,1,0,0:0:0:0:
64,192,64456,1,0,0:0:0:0:
192,192,64505,1,0,0:0:0:0:
320,192,64555,1,0,0:0:0:0:
448,192,64605,1,0,0:0:0:0:
320,192,64654,1,0,0:0:0:0:
192,192,64704,1,0,0:0:0:0:
64,192,64754,1,0,0:0:0:0:
448,192,64804,1,0,0:0:0:0:
320,192,64852,1,0,0:0:0:0:
192,192,64902,1,0,0:0:0:0:
64,192,64952,1,0,0:0:0:0:
448,192,65001,1,0,0:0:0:0:
320,192,65051,1,0,0:0:0:0:
192,192,65101,1,0,0:0:0:0:
64,192,65150,1,0,0:0:0:0:
448,192,65200,1,0,0:0:0:0:
320,192,65250,1,0,0:0:0:0:
192,192,65299,1,0,0:0:0:0:
64,192,65349,1,0,0:0:0:0:
448,192,65399,1,0,0:0:0:0:
320,192,65448,1,0,0:0:0:0:
192,192,65498,1,0,0:0:0:0:
448,192,65548,1,0,0:0:0:0:
64,192,65548,1,0,0:0:0:0:
320,192,65646,1,0,0:0:0:0:
448,192,65746,1,0,0:0:0:0:
192,192,65845,1,0,0:0:0:0:
64,192,65845,1,0,0:0:0:0:
320,192,65944,1,0,0:0:0:0:
192,192,66044,1,0,0:0:0:0:
320,192,66142,1,0,0:0:0:0:
448,192,66142,1,0,0:0:0:0:
64,192,66241,1,0,0:0:0:0:
192,192,66341,1,0,0:0:0:0:
448,192,66440,1,0,0:0:0:0:
64,192,66440,1,0,0:0:0:0:
320,192,66490,1,0,0:0:0:0:
192,192,66589,1,0,0:0:0:0:
320,192,66738,1,0,0:0:0:0:
64,192,66886,1,0,0:0:0:0:
448,192,66886,1,0,0:0:0:0:
320,192,66936,1,0,0:0:0:0:
192,192,67035,1,0,0:0:0:0:
448,192,67184,1,0,0:0:0:0:
64,192,67332,1,0,0:0:0:0:
320,192,67332,1,0,0:0:0:0:
192,192,67382,1,0,0:0:0:0:
448,192,67408,1,0,0:0:0:0:
448,192,67630,1,0,0:0:0:0:
64,192,67630,1,0,0:0:0:0:
320,192,67680,1,0,0:0:0:0:
192,192,67730,1,0,0:0:0:0:
64,192,67779,1,0,0:0:0:0:
448,192,67829,1,0,0:0:0:0:
320,192,67879,1,0,0:0:0:0:
192,192,67929,1,0,0:0:0:0:
448,192,67978,1,0,0:0:0:0:
320,192,68028,1,0,0:0:0:0:
64,192,68078,1,0,0:0:0:0:
192,192,68126,1,0,0:0:0:0:
320,192,68176,1,0,0:0:0:0:
448,192,68226,1,0,0:0:0:0:
64,192,68275,1,0,0:0:0:0:
192,192,68325,1,0,0:0:0:0:
320,192,68375,1,0,0:0:0:0:
64,192,68424,1,0,0:0:0:0:
192,192,68474,1,0,0:0:0:0:
320,192,68524,1,0,0:0:0:0:
448,192,68572,1,0,0:0:0:0:
192,192,68622,1,0,0:0:0:0:
320,192,68672,1,0,0:0:0:0:
448,192,68721,1,0,0:0:0:0:
64,192,68821,1,0,0:0:0:0:
192,192,68821,1,0,0:0:0:0:
320,192,68871,1,0,0:0:0:0:
448,192,68920,1,0,0:0:0:0:
192,192,68970,1,0,0:0:0:0:
320,192,69020,1,0,0:0:0:0:
448,192,69069,1,0,0:0:0:0:
192,192,69119,1,0,0:0:0:0:
320,192,69169,1,0,0:0:0:0:
448,192,69218,1,0,0:0:0:0:
192,192,69268,1,0,0:0:0:0:
320,192,69318,1,0,0:0:0:0:
448,192,69366,1,0,0:0:0:0:
320,192,69416,1,0,0:0:0:0:
192,192,69466,1,0,0:0:0:0:
64,192,69515,1,0,0:0:0:0:
320,192,69565,1,0,0:0:0:0:
192,192,69615,1,0,0:0:0:0:
64,192,69664,1,0,0:0:0:0:
320,192,69714,1,0,0:0:0:0:
192,192,69764,1,0,0:0:0:0:
64,192,69812,1,0,0:0:0:0:
320,192,69862,1,0,0:0:0:0:
192,192,69912,1,0,0:0:0:0:
64,192,69962,1,0,0:0:0:0:
320,192,70011,1,0,0:0:0:0:
192,192,70061,1,0,0:0:0:0:
64,192,70111,1,0,0:0:0:0:
320,192,70160,1,0,0:0:0:0:
192,192,70210,1,0,0:0:0:0:
64,192,70260,1,0,0:0:0:0:
192,192,70309,1,0,0:0:0:0:
448,192,70309,1,0,0:0:0:0:
320,192,70409,1,0,0:0:0:0:
192,192,70508,1,0,0:0:0:0:
448,192,70606,1,0,0:0:0:0:
320,192,70606,1,0,0:0:0:0:
64,192,70706,1,0,0:0:0:0:
448,192,70805,1,0,0:0:0:0:
320,192,70904,1,0,0:0:0:0:
192,192,70904,1,0,0:0:0:0:
64,192,71004,1,0,0:0:0:0:
448,192,71102,1,0,0:0:0:0:
192,192,71202,1,0,0:0:0:0:
320,192,71251,1,0,0:0:0:0:
448,192,71301,1,0,0:0:0:0:
192,192,71351,1,0,0:0:0:0:
320,192,71400,1,0,0:0:0:0:
448,192,71450,1,0,0:0:0:0:
192,192,71500,1,0,0:0:0:0:
320,192,71549,1,0,0:0:0:0:
448,192,71599,1,0,0:0:0:0:
192,192,71649,1,0,0:0:0:0:
320,192,71698,1,0,0:0:0:0:
448,192,71748,1,0,0:0:0:0:
320,192,71798,1,0,0:0:0:0:
192,192,71846,1,0,0:0:0:0:
64,192,71896,1,0,0:0:0:0:
320,192,71946,1,0,0:0:0:0:
192,192,71996,1,0,0:0:0:0:
64,192,72045,1,0,0:0:0:0:
320,192,72095,1,0,0:0:0:0:
192,192,72145,1,0,0:0:0:0:
64,192,72194,1,0,0:0:0:0:
320,192,72244,1,0,0:0:0:0:
192,192,72294,1,0,0:0:0:0:
64,192,72342,1,0,0:0:0:0:
320,192,72392,1,0,0:0:0:0:
192,192,72442,1,0,0:0:0:0:
64,192,72491,1,0,0:0:0:0:
320,192,72541,1,0,0:0:0:0:
192,192,72591,1,0,0:0:0:0:
64,192,72640,1,0,0:0:0:0:
320,192,72690,1,0,0:0:0:0:
448,192,72690,1,0,0:0:0:0:
192,192,72789,1,0,0:0:0:0:
320,192,72889,1,0,0:0:0:0:
192,192,72988,1,0,0:0:0:0:
448,192,72988,1,0,0:0:0:0:
320,192,73088,1,0,0:0:0:0:
64,192,73186,1,0,0:0:0:0:
320,192,73285,1,0,0:0:0:0:
192,192,73285,1,0,0:0:0:0:
448,192,73385,1,0,0:0:0:0:
320,192,73484,1,0,0:0:0:0:
192,192,73582,1,0,0:0:0:0:
64,192,73582,1,0,0:0:0:0:
320,192,73632,1,0,0:0:0:0:
448,192,73682,1,0,0:0:0:0:
192,192,73731,1,0,0:0:0:0:
320,192,73781,1,0,0:0:0:0:
448,192,73831,1,0,0:0:0:0:
192,192,73880,1,0,0:0:0:0:
320,192,73930,1,0,0:0:0:0:
448,192,73980,1,0,0:0:0:0:
192,192,74029,1,0,0:0:0:0:
320,192,74079,1,0,0:0:0:0:
448,192,74129,1,0,0:0:0:0:
320,192,74179,1,0,0:0:0:0:
192,192,74228,1,0,0:0:0:0:
64,192,74278,1,0,0:0:0:0:
320,192,74328,1,0,0:0:0:0:
192,192,74376,1,0,0:0:0:0:
64,192,74426,1,0,0:0:0:0:
320,192,74476,1,0,0:0:0:0:
192,192,74525,1,0,0:0:0:0:
64,192,74575,1,0,0:0:0:0:
320,192,74625,1,0,0:0:0:0:
192,192,74674,1,0,0:0:0:0:
64,192,74724,1,0,0:0:0:0:
320,192,74774,1,0,0:0:0:0:
192,192,74822,1,0,0:0:0:0:
64,192,74872,1,0,0:0:0:0:
320,192,74922,1,0,0:0:0:0:
192,192,74971,1,0,0:0:0:0:
64,192,75021,1,0,0:0:0:0:
448,192,75071,1,0,0:0:0:0:
320,192,75071,1,0,0:0:0:0:
192,192,75170,1,0,0:0:0:0:
448,192,75270,1,0,0:0:0:0:
192,192,75369,1,0,0:0:0:0:
64,192,75369,1,0,0:0:0:0:
320,192,75468,1,0,0:0:0:0:
192,192,75568,1,0,0:0:0:0:
320,192,75666,1,0,0:0:0:0:
448,192,75666,1,0,0:0:0:0:
64,192,75765,1,0,0:0:0:0:
192,192,75865,1,0,0:0:0:0:
448,192,75964,1,0,0:0:0:0:
64,192,75964,1,0,0:0:0:0:
320,192,76014,1,0,0:0:0:0:
192,192,76112,1,0,0:0:0:0:
320,192,76261,1,0,0:0:0:0:
64,192,76410,1,0,0:0:0:0:
448,192,76410,1,0,0:0:0:0:
320,192,76460,1,0,0:0:0:0:
192,192,76559,1,0,0:0:0:0:
448,192,76708,1,0,0:0:0:0:
64,192,76856,1,0,0:0:0:0:
320,192,76856,1,0,0:0:0:0:
192,192,76906,1,0,0:0:0:0:
448,192,76931,1,0,0:0:0:0:
448,192,77154,1,0,0:0:0:0:
64,192,77154,1,0,0:0:0:0:
320,192,77204,1,0,0:0:0:0:
192,192,77254,1,0,0:0:0:0:
64,192,77304,1,0,0:0:0:0:
448,192,77352,1,0,0:0:0:0:
320,192,77402,1,0,0:0:0:0:
192,192,77452,1,0,0:0:0:0:
448,192,77501,1,0,0:0:0:0:
320,192,77551,1,0,0:0:0:0:
64,192,77601,1,0,0:0:0:0:
192,192,77650,1,0,0:0:0:0:
320,192,77700,1,0,0:0:0:0:
448,192,77750,1,0,0:0:0:0:
64,192,77799,1,0,0:0:0:0:
192,192,77849,1,0,0:0:0:0:
320,192,77899,1,0,0:0:0:0:
64,192,77948,1,0,0:0:0:0:
192,192,77998,1,0,0:0:0:0:
320,192,78048,1,0,0:0:0:0:
448,192,78096,1,0,0:0:0:0:
192,192,78146,1,0,0:0:0:0:
320,192,78196,1,0,0:0:0:0:
448,192,78246,1,0,0:0:0:0:
64,192,78345,1,0,0:0:0:0:
192,192,78345,1,0,0:0:0:0:
320,192,78395,1,0,0:0:0:0:
448,192,78444,1,0,0:0:0:0:
192,192,78494,1,0,0:0:0:0:
320,192,78544,1,0,0:0:0:0:
448,192,78592,1,0,0:0:0:0:
192,192,78642,1,0,0:0:0:0:
320,192,78692,1,0,0:0:0:0:
448,192,78741,1,0,0:0:0:0:
192,192,78791,1,0,0:0:0:0:
320,192,78841,1,0,0:0:0:0:
448,192,78890,1,0,0:0:0:0:
320,192,78940,1,0,0:0:0:0:
192,192,78990,1,0,0:0:0:0:
64,192,79039,1,0,0:0:0:0:
320,192,79089,1,0,0:0:0:0:
192,192,79139,1,0,0:0:0:0:
64,192,79188,1,0,0:0:0:0:
320,192,79238,1,0,0:0:0:0:
192,192,79288,1,0,0:0:0:0:
64,192,79338,1,0,0:0:0:0:
320,192,79386,1,0,0:0:0:0:
192,192,79436,1,0,0:0:0:0:
64,192,79486,1,0,0:0:0:0:
320,192,79535,1,0,0:0:0:0:
192,192,79585,1,0,0:0:0:0:
64,192,79635,1,0,0:0:0:0:
320,192,79684,1,0,0:0:0:0:
192,192,79734,1,0,0:0:0:0:
64,192,79784,1,0,0:0:0:0:
320,192,79832,1,0,0:0:0:0:
448,192,79832,1,0,0:0:0:0:
192,192,79932,1,0,0:0:0:0:
320,192,80031,1,0,0:0:0:0:
448,192,80130,1,0,0:0:0:0:
192,192,80130,1,0,0:0:0:0:
64,192,80230,1,0,0:0:0:0:
448,192,80329,1,0,0:0:0:0:
320,192,80429,1,0,0:0:0:0:
192,192,80429,1,0,0:0:0:0:
64,192,80528,1,0,0:0:0:0:
448,192,80626,1,0,0:0:0:0:
192,192,80726,1,0,0:0:0:0:
320,192,80775,1,0,0:0:0:0:
448,192,80825,1,0,0:0:0:0:
192,192,80875,1,0,0:0:0:0:
320,192,80924,1,0,0:0:0:0:
448,192,80974,1,0,0:0:0:0:
192,192,81024,1,0,0:0:0:0:
320,192,81072,1,0,0:0:0:0:
448,192,81122,1,0,0:0:0:0:
192,192,81172,1,0,0:0:0:0:
320,192,81221,1,0,0:0:0:0:
448,192,81271,1,0,0:0:0:0:
320,192,81321,1,0,0:0:0:0:
192,192,81371,1,0,0:0:0:0:
64,192,81420,1,0,0:0:0:0:
320,192,81470,1,0,0:0:0:0:
192,192,81520,1,0,0:0:0:0:
64,192,81569,1,0,0:0:0:0:
320,192,81619,1,0,0:0:0:0:
192,192,81669,1,0,0:0:0:0:
64,192,81718,1,0,0:0:0:0:
320,192,81768,1,0,0:0:0:0:
192,192,81818,1,0,0:0:0:0:
64,192,81866,1,0,0:0:0:0:
320,192,81916,1,0,0:0:0:0:
192,192,81966,1,0,0:0:0:0:
64,192,82015,1,0,0:0:0:0:
320,192,82065,1,0,0:0:0:0:
192,192,82115,1,0,0:0:0:0:
64,192,82164,1,0,0:0:0:0:
320,192,82214,1,0,0:0:0:0:
448,192,82214,1,0,0:0:0:0:
192,192,82312,1,0,0:0:0:0:
320,192,82412,1,0,0:0:0:0:
192,192,82511,1,0,0:0:0:0:
448,192,82511,1,0,0:0:0:0:
320,192,82611,1,0,0:0:0:0:
64,192,82710,1,0,0:0:0:0:
320,192,82809,1,0,0:0:0:0:
192,192,82809,1,0,0:0:0:0:
448,192,82909,1,0,0:0:0:0:
320,192,83008,1,0,0:0:0:0:
192,192,83106,1,0,0:0:0:0:
64,192,83106,1,0,0:0:0:0:
320,192,83156,1,0,0:0:0:0:
448,192,83206,1,0,0:0:0:0:
192,192,83255,1,0,0:0:0:0:
320,192,83305,1,0,0:0:0:0:
448,192,83355,1,0,0:0:0:0:
192,192,83404,1,0,0:0:0:0:
320,192,83454,1,0,0:0:0:0:
448,192,83504,1,0,0:0:0:0:
192,192,83554,1,0,0:0:0:0:
320,192,83602,1,0,0:0:0:0:
448,192,83652,1,0,0:0:0:0:
320,192,83702,1,0,0:0:0:0:
192,192,83751,1,0,0:0:0:0:
64,192,83801,1,0,0:0:0:0:
320,192,83851,1,0,0:0:0:0:
192,192,83900,1,0,0:0:0:0:
64,192,83950,1,0,0:0:0:0:
320,192,84000,1,0,0:0:0:0:
192,192,84049,1,0,0:0:0:0:
64,192,84099,1,0,0:0:0:0:
320,192,84149,1,0,0:0:0:0:
192,192,84198,1,0,0:0:0:0:
64,192,84248,1,0,0:0:0:0:
320,192,84298,1,0,0:0:0:0:
192,192,84346,1,0,0:0:0:0:
64,192,84396,1,0,0:0:0:0:
320,192,84446,1,0,0:0:0:0:
192,192,84496,1,0,0:0:0:0:
64,192,84545,1,0,0:0:0:0:
448,192,84595,1,0,0:0:0:0:
192,192,84595,1,0,0:0:0:0:
320,192,84694,1,0,0:0:0:0:
448,192,84794,1,0,0:0:0:0:
192,192,84892,1,0,0:0:0:0:
64,192,84892,1,0,0:0:0:0:
320,192,84991,1,0,0:0:0:0:
192,192,85091,1,0,0:0:0:0:
320,192,85190,1,0,0:0:0:0:
448,192,85190,1,0,0:0:0:0:
64,192,85289,1,0,0:0:0:0:
192,192,85389,1,0,0:0:0:0:
448,192,85488,1,0,0:0:0:0:
64,192,85488,1,0,0:0:0:0:
320,192,85538,1,0,0:0:0:0:
192,192,85636,1,0,0:0:0:0:
320,192,85785,1,0,0:0:0:0:
64,192,85934,1,0,0:0:0:0:
448,192,85934,1,0,0:0:0:0:
320,192,85984,1,0,0:0:0:0:
192,192,86082,1,0,0:0:0:0:
448,192,86231,1,0,0:0:0:0:
64,192,86380,5,0,0:0:0:0:
320,192,86380,1,0,0:0:0:0:
192,192,86430,1,0,0:0:0:0:
448,192,86455,1,0,0:0:0:0:
448,192,86679,1,0,0:0:0:0:
64,192,86679,1,0,0:0:0:0:
192,192,86728,1,0,0:0:0:0:
320,192,86778,1,0,0:0:0:0:
64,192,86828,1,0,0:0:0:0:
448,192,86876,1,0,0:0:0:0:
320,192,86926,1,0,0:0:0:0:
192,192,86976,1,0,0:0:0:0:
448,192,87025,1,0,0:0:0:0:
320,192,87075,1,0,0:0:0:0:
64,192,87125,1,0,0:0:0:0:
192,192,87174,1,0,0:0:0:0:
320,192,87224,1,0,0:0:0:0:
448,192,87274,1,0,0:0:0:0:
64,192,87322,1,0,0:0:0:0:
192,192,87372,1,0,0:0:0:0:
320,192,87422,1,0,0:0:0:0:
64,192,87471,1,0,0:0:0:0:
192,192,87521,1,0,0:0:0:0:
320,192,87571,1,0,0:0:0:0:
448,192,87621,1,0,0:0:0:0:
192,192,87670,1,0,0:0:0:0:
320,192,87720,1,0,0:0:0:0:
64,192,87770,1,0,0:0:0:0:
192,192,87869,5,0,0:0:0:0:
448,192,87869,1,0,0:0:0:0:
320,192,87869,1,0,0:0:0:0:
64,192,88166,1,0,0:0:0:0:
320,192,88166,1,0,0:0:0:0:
448,192,88166,1,0,0:0:0:0:
192,192,88464,1,0,0:0:0:0:
320,192,88464,1,0,0:0:0:0:
64,192,88464,1,0,0:0:0:0:
448,192,88761,1,0,0:0:0:0:
64,192,88761,1,0,0:0:0:0:
192,192,88761,1,0,0:0:0:0:
320,192,89059,1,0,0:0:0:0:
448,192,89059,1,0,0:0:0:0:
64,192,89059,1,0,0:0:0:0:
448,192,89356,1,0,0:0:0:0:
192,192,89356,1,0,0:0:0:0:
320,192,89356,1,0,0:0:0:0:
320,192,89654,1,0,0:0:0:0:
64,192,89654,1,0,0:0:0:0:
192,192,89654,1,0,0:0:0:0:
64,192,89952,1,0,0:0:0:0:
448,192,89952,1,0,0:0:0:0:
64,192,90250,1,0,0:0:0:0:
448,192,90250,1,0,0:0:0:0:
192,192,90250,1,0,0:0:0:0:
320,192,90250,1,0,0:0:0:0:
192,192,90548,1,0,0:0:0:0:
64,192,90548,1,0,0:0:0:0:
64,192,90845,1,0,0:0:0:0:
448,192,90845,1,0,0:0:0:0:
320,192,90845,1,0,0:0:0:0:
192,192,90845,1,0,0:0:0:0:
192,192,91142,1,0,0:0:0:0:
448,192,91142,1,0,0:0:0:0:
192,192,91440,1,0,0:0:0:0:
448,192,91440,1,0,0:0:0:0:
320,192,91440,1,0,0:0:0:0:
64,192,91440,1,0,0:0:0:0:
64,192,91738,1,0,0:0:0:0:
320,192,91738,1,0,0:0:0:0:
192,192,92035,1,0,0:0:0:0:
448,192,92035,1,0,0:0:0:0:
64,192,92035,1,0,0:0:0:0:
320,192,92035,1,0,0:0:0:0:
448,192,92332,1,0,0:0:0:0:
320,192,92332,1,0,0:0:0:0:
192,192,92630,1,0,0:0:0:0:
320,192,92630,1,0,0:0:0:0:
64,192,92630,1,0,0:0:0:0:
64,192,92929,1,0,0:0:0:0:
320,192,92929,1,0,0:0:0:0:
448,192,92929,1,0,0:0:0:0:
64,192,93226,1,0,0:0:0:0:
448,192,93226,1,0,0:0:0:0:
192,192,93226,1,0,0:0:0:0:
64,192,93524,1,0,0:0:0:0:
192,192,93524,1,0,0:0:0:0:
320,192,93524,1,0,0:0:0:0:
448,192,93821,1,0,0:0:0:0:
320,192,93821,1,0,0:0:0:0:
64,192,93821,1,0,0:0:0:0:
192,192,94119,1,0,0:0:0:0:
320,192,94119,1,0,0:0:0:0:
448,192,94119,1,0,0:0:0:0:
320,192,94416,1,0,0:0:0:0:
64,192,94416,1,0,0:0:0:0:
192,192,94416,1,0,0:0:0:0:
448,192,94714,1,0,0:0:0:0:
64,192,94714,1,0,0:0:0:0:
64,192,95011,1,0,0:0:0:0:
192,192,95011,1,0,0:0:0:0:
448,192,95011,1,0,0:0:0:0:
320,192,95011,1,0,0:0:0:0:
192,192,95309,1,0,0:0:0:0:
448,192,95309,1,0,0:0:0:0:
448,192,95606,1,0,0:0:0:0:
320,192,95606,1,0,0:0:0:0:
192,192,95606,1,0,0:0:0:0:
64,192,95606,1,0,0:0:0:0:
320,192,95904,1,0,0:0:0:0:
448,192,95904,1,0,0:0:0:0:
64,192,96202,1,0,0:0:0:0:
192,192,96202,1,0,0:0:0:0:
448,192,96202,1,0,0:0:0:0:
320,192,96202,1,0,0:0:0:0:
320,192,96500,1,0,0:0:0:0:
64,192,96500,1,0,0:0:0:0:
64,192,96798,1,0,0:0:0:0:
192,192,96798,1,0,0:0:0:0:
320,192,96798,1,0,0:0:0:0:
448,192,96798,1,0,0:0:0:0:
64,192,97095,1,0,0:0:0:0:
192,192,97095,1,0,0:0:0:0:
64,192,97392,1,0,0:0:0:0:
192,192,97392,1,0,0:0:0:0:
320,192,97392,1,0,0:0:0:0:
64,192,97690,1,0,0:0:0:0:
448,192,97690,1,0,0:0:0:0:
320,192,97690,1,0,0:0:0:0:
64,192,97988,1,0,0:0:0:0:
192,192,97988,1,0,0:0:0:0:
320,192,97988,1,0,0:0:0:0:
448,192,98285,1,0,0:0:0:0:
64,192,98285,1,0,0:0:0:0:
192,192,98285,1,0,0:0:0:0:
320,192,98582,1,0,0:0:0:0:
64,192,98582,1,0,0:0:0:0:
448,192,98582,1,0,0:0:0:0:
192,192,98632,1,0,0:0:0:0:
64,192,98682,1,0,0:0:0:0:
448,192,98731,1,0,0:0:0:0:
320,192,98781,1,0,0:0:0:0:
64,192,98831,1,0,0:0:0:0:
192,192,98880,1,0,0:0:0:0:
448,192,98880,1,0,0:0:0:0:
320,192,98930,1,0,0:0:0:0:
64,192,98980,1,0,0:0:0:0:
192,192,99029,1,0,0:0:0:0:
448,192,99079,1,0,0:0:0:0:
320,192,99129,1,0,0:0:0:0:
64,192,99179,1,0,0:0:0:0:
192,192,99179,1,0,0:0:0:0:
64,192,99476,1,0,0:0:0:0:
448,192,99476,1,0,0:0:0:0:
64,192,99774,1,0,0:0:0:0:
448,192,99774,1,0,0:0:0:0:
192,192,99774,1,0,0:0:0:0:
320,192,99774,1,0,0:0:0:0:
320,192,100071,1,0,0:0:0:0:
192,192,100071,1,0,0:0:0:0:
64,192,100369,1,0,0:0:0:0:
448,192,100369,1,0,0:0:0:0:
320,192,100369,1,0,0:0:0:0:
192,192,100369,1,0,0:0:0:0:
192,192,100666,1,0,0:0:0:0:
448,192,100666,1,0,0:0:0:0:
192,192,100964,1,0,0:0:0:0:
448,192,100964,1,0,0:0:0:0:
320,192,100964,1,0,0:0:0:0:
64,192,100964,1,0,0:0:0:0:
64,192,101261,1,0,0:0:0:0:
320,192,101261,1,0,0:0:0:0:
192,192,101559,1,0,0:0:0:0:
448,192,101559,1,0,0:0:0:0:
64,192,101559,1,0,0:0:0:0:
320,192,101559,1,0,0:0:0:0:
192,192,101856,1,0,0:0:0:0:
320,192,101856,1,0,0:0:0:0:
192,192,102154,1,0,0:0:0:0:
448,192,102154,1,0,0:0:0:0:
320,192,102154,1,0,0:0:0:0:
64,192,102452,1,0,0:0:0:0:
320,192,102452,1,0,0:0:0:0:
448,192,102452,1,0,0:0:0:0:
64,192,102750,1,0,0:0:0:0:
448,192,102750,1,0,0:0:0:0:
192,192,102750,1,0,0:0:0:0:
64,192,103048,1,0,0:0:0:0:
192,192,103048,1,0,0:0:0:0:
320,192,103048,1,0,0:0:0:0:
192,192,103345,1,0,0:0:0:0:
64,192,103345,1,0,0:0:0:0:
448,192,103345,1,0,0:0:0:0:
320,192,103395,1,0,0:0:0:0:
448,192,103444,1,0,0:0:0:0:
64,192,103494,1,0,0:0:0:0:
192,192,103544,1,0,0:0:0:0:
448,192,103592,1,0,0:0:0:0:
320,192,103642,1,0,0:0:0:0:
64,192,103642,1,0,0:0:0:0:
192,192,103692,1,0,0:0:0:0:
448,192,103741,1,0,0:0:0:0:
320,192,103791,1,0,0:0:0:0:
64,192,103841,1,0,0:0:0:0:
192,192,103890,1,0,0:0:0:0:
448,192,103940,1,0,0:0:0:0:
320,192,103940,1,0,0:0:0:0:
448,192,104238,1,0,0:0:0:0:
64,192,104238,1,0,0:0:0:0:
64,192,104535,1,0,0:0:0:0:
192,192,104535,1,0,0:0:0:0:
448,192,104535,1,0,0:0:0:0:
320,192,104535,1,0,0:0:0:0:
64,192,104832,1,0,0:0:0:0:
192,192,104832,1,0,0:0:0:0:
448,192,105130,1,0,0:0:0:0:
320,192,105130,1,0,0:0:0:0:
192,192,105130,1,0,0:0:0:0:
64,192,105130,1,0,0:0:0:0:
64,192,105429,1,0,0:0:0:0:
320,192,105429,1,0,0:0:0:0:
64,192,105726,1,0,0:0:0:0:
192,192,105726,1,0,0:0:0:0:
448,192,105726,1,0,0:0:0:0:
320,192,105726,1,0,0:0:0:0:
448,192,106024,1,0,0:0:0:0:
192,192,106024,1,0,0:0:0:0:
64,192,106321,1,0,0:0:0:0:
192,192,106321,1,0,0:0:0:0:
320,192,106321,1,0,0:0:0:0:
448,192,106321,1,0,0:0:0:0:
192,192,106470,1,0,0:0:0:0:
448,192,106619,1,0,0:0:0:0:
320,192,106619,1,0,0:0:0:0:
320,192,106768,1,0,0:0:0:0:
64,192,106916,1,0,0:0:0:0:
448,192,106916,1,0,0:0:0:0:
192,192,106916,1,0,0:0:0:0:
192,192,107065,1,0,0:0:0:0:
320,192,107214,1,0,0:0:0:0:
448,192,107214,1,0,0:0:0:0:
64,192,107214,1,0,0:0:0:0:
448,192,107362,1,0,0:0:0:0:
320,192,107511,1,0,0:0:0:0:
192,192,107511,1,0,0:0:0:0:
64,192,107511,1,0,0:0:0:0:
320,192,107660,1,0,0:0:0:0:
192,192,107809,1,0,0:0:0:0:
64,192,107809,1,0,0:0:0:0:
448,192,107809,1,0,0:0:0:0:
192,192,107958,1,0,0:0:0:0:
448,192,108106,1,0,0:0:0:0:
64,192,108106,1,0,0:0:0:0:
320,192,108106,1,0,0:0:0:0:
64,192,108255,1,0,0:0:0:0:
448,192,108404,1,0,0:0:0:0:
320,192,108404,1,0,0:0:0:0:
192,192,108404,1,0,0:0:0:0:
448,192,108554,1,0,0:0:0:0:
320,192,108702,1,0,0:0:0:0:
192,192,108702,1,0,0:0:0:0:
64,192,108702,1,0,0:0:0:0:
192,192,108851,1,0,0:0:0:0:
448,192,109000,1,0,0:0:0:0:
64,192,109000,1,0,0:0:0:0:
192,192,109298,1,0,0:0:0:0:
320,192,109298,1,0,0:0:0:0:
64,192,109298,1,0,0:0:0:0:
448,192,109298,1,0,0:0:0:0:
192,192,109595,1,0,0:0:0:0:
64,192,109595,1,0,0:0:0:0:
320,192,109892,1,0,0:0:0:0:
192,192,109892,1,0,0:0:0:0:
64,192,109892,1,0,0:0:0:0:
448,192,109892,1,0,0:0:0:0:
320,192,110041,1,0,0:0:0:0:
448,192,110190,1,0,0:0:0:0:
192,192,110190,1,0,0:0:0:0:
192,192,110339,1,0,0:0:0:0:
320,192,110488,1,0,0:0:0:0:
64,192,110488,1,0,0:0:0:0:
192,192,110488,1,0,0:0:0:0:
448,192,110488,1,0,0:0:0:0:
448,192,110636,1,0,0:0:0:0:
320,192,110785,1,0,0:0:0:0:
64,192,110785,1,0,0:0:0:0:
320,192,110934,1,0,0:0:0:0:
64,192,111082,1,0,0:0:0:0:
320,192,111082,1,0,0:0:0:0:
192,192,111082,1,0,0:0:0:0:
448,192,111082,1,0,0:0:0:0:
192,192,111231,1,0,0:0:0:0:
320,192,111380,1,0,0:0:0:0:
448,192,111380,1,0,0:0:0:0:
320,192,111679,1,0,0:0:0:0:
448,192,111679,1,0,0:0:0:0:
192,192,111679,1,0,0:0:0:0:
192,192,111828,1,0,0:0:0:0:
448,192,111976,1,0,0:0:0:0:
320,192,111976,1,0,0:0:0:0:
64,192,111976,1,0,0:0:0:0:
192,192,112274,1,0,0:0:0:0:
448,192,112274,1,0,0:0:0:0:
64,192,112274,1,0,0:0:0:0:
448,192,112422,1,0,0:0:0:0:
320,192,112571,1,0,0:0:0:0:
192,192,112571,1,0,0:0:0:0:
64,192,112571,1,0,0:0:0:0:
192,192,112720,1,0,0:0:0:0:
64,192,112869,1,0,0:0:0:0:
320,192,112869,1,0,0:0:0:0:
448,192,112869,1,0,0:0:0:0:
64,192,113018,1,0,0:0:0:0:
448,192,113166,1,0,0:0:0:0:
320,192,113166,1,0,0:0:0:0:
192,192,113166,1,0,0:0:0:0:
448,192,113315,1,0,0:0:0:0:
192,192,113464,1,0,0:0:0:0:
64,192,113464,1,0,0:0:0:0:
320,192,113464,1,0,0:0:0:0:
320,192,113612,1,0,0:0:0:0:
64,192,113761,1,0,0:0:0:0:
448,192,113761,1,0,0:0:0:0:
448,192,114059,1,0,0:0:0:0:
320,192,114059,1,0,0:0:0:0:
64,192,114059,1,0,0:0:0:0:
192,192,114059,1,0,0:0:0:0:
448,192,114356,1,0,0:0:0:0:
320,192,114356,1,0,0:0:0:0:
192,192,114654,1,0,0:0:0:0:
64,192,114654,1,0,0:0:0:0:
448,192,114654,1,0,0:0:0:0:
320,192,114654,1,0,0:0:0:0:
192,192,114804,1,0,0:0:0:0:
320,192,114952,1,0,0:0:0:0:
64,192,114952,1,0,0:0:0:0:
320,192,115101,1,0,0:0:0:0:
448,192,115250,1,0,0:0:0:0:
320,192,115250,1,0,0:0:0:0:
64,192,115250,1,0,0:0:0:0:
192,192,115250,1,0,0:0:0:0:
64,192,115399,1,0,0:0:0:0:
192,192,115548,1,0,0:0:0:0:
448,192,115548,1,0,0:0:0:0:
192,192,115696,1,0,0:0:0:0:
320,192,115845,1,0,0:0:0:0:
448,192,115845,1,0,0:0:0:0:
64,192,115845,1,0,0:0:0:0:
192,192,115845,1,0,0:0:0:0:
320,192,115994,1,0,0:0:0:0:
192,192,116142,1,0,0:0:0:0:
64,192,116142,1,0,0:0:0:0:
64,192,116440,1,0,0:0:0:0:
192,192,116440,1,0,0:0:0:0:
320,192,116440,1,0,0:0:0:0:
448,192,116440,1,0,0:0:0:0:
192,192,116589,1,0,0:0:0:0:
64,192,116738,1,0,0:0:0:0:
448,192,116738,1,0,0:0:0:0:
320,192,116738,1,0,0:0:0:0:
448,192,116886,1,0,0:0:0:0:
64,192,117035,1,0,0:0:0:0:
192,192,117035,1,0,0:0:0:0:
320,192,117035,1,0,0:0:0:0:
320,192,117184,1,0,0:0:0:0:
448,192,117332,1,0,0:0:0:0:
64,192,117332,1,0,0:0:0:0:
192,192,117332,1,0,0:0:0:0:
64,192,117630,1,0,0:0:0:0:
448,192,117630,1,0,0:0:0:0:
192,192,117630,1,0,0:0:0:0:
320,192,117680,1,0,0:0:0:0:
192,192,117730,1,0,0:0:0:0:
448,192,117779,1,0,0:0:0:0:
320,192,117829,1,0,0:0:0:0:
64,192,117879,1,0,0:0:0:0:
448,192,117929,1,0,0:0:0:0:
192,192,117929,1,0,0:0:0:0:
320,192,117978,1,0,0:0:0:0:
64,192,118028,1,0,0:0:0:0:
192,192,118078,1,0,0:0:0:0:
448,192,118126,1,0,0:0:0:0:
320,192,118176,1,0,0:0:0:0:
192,192,118226,1,0,0:0:0:0:
64,192,118226,1,0,0:0:0:0:
64,192,118524,1,0,0:0:0:0:
448,192,118524,1,0,0:0:0:0:
64,192,118821,1,0,0:0:0:0:
448,192,118821,1,0,0:0:0:0:
192,192,118821,1,0,0:0:0:0:
320,192,118821,1,0,0:0:0:0:
320,192,118970,1,0,0:0:0:0:
192,192,119119,1,0,0:0:0:0:
64,192,119119,1,0,0:0:0:0:
192,192,119268,1,0,0:0:0:0:
64,192,119416,1,0,0:0:0:0:
448,192,119416,1,0,0:0:0:0:
320,192,119416,1,0,0:0:0:0:
192,192,119416,1,0,0:0:0:0:
320,192,119565,1,0,0:0:0:0:
192,192,119714,1,0,0:0:0:0:
448,192,119714,1,0,0:0:0:0:
192,192,120011,1,0,0:0:0:0:
448,192,120011,1,0,0:0:0:0:
64,192,120011,1,0,0:0:0:0:
320,192,120061,1,0,0:0:0:0:
192,192,120111,1,0,0:0:0:0:
448,192,120160,1,0,0:0:0:0:
320,192,120210,1,0,0:0:0:0:
192,192,120260,1,0,0:0:0:0:
64,192,120309,1,0,0:0:0:0:
448,192,120309,1,0,0:0:0:0:
192,192,120606,1,0,0:0:0:0:
448,192,120606,1,0,0:0:0:0:
64,192,120606,1,0,0:0:0:0:
320,192,120606,1,0,0:0:0:0:
448,192,120904,1,0,0:0:0:0:
320,192,120904,1,0,0:0:0:0:
192,192,121202,1,0,0:0:0:0:
448,192,121202,1,0,0:0:0:0:
320,192,121202,1,0,0:0:0:0:
192,192,121351,1,0,0:0:0:0:
64,192,121500,1,0,0:0:0:0:
320,192,121500,1,0,0:0:0:0:
448,192,121500,1,0,0:0:0:0:
320,192,121649,1,0,0:0:0:0:
64,192,121798,1,0,0:0:0:0:
448,192,121798,1,0,0:0:0:0:
192,192,121798,1,0,0:0:0:0:
448,192,121946,1,0,0:0:0:0:
64,192,122095,1,0,0:0:0:0:
192,192,122095,1,0,0:0:0:0:
320,192,122095,1,0,0:0:0:0:
320,192,122392,1,0,0:0:0:0:
64,192,122392,1,0,0:0:0:0:
448,192,122392,1,0,0:0:0:0:
192,192,122442,1,0,0:0:0:0:
320,192,122491,1,0,0:0:0:0:
64,192,122541,1,0,0:0:0:0:
192,192,122591,1,0,0:0:0:0:
448,192,122640,1,0,0:0:0:0:
320,192,122690,1,0,0:0:0:0:
64,192,122690,1,0,0:0:0:0:
192,192,122740,1,0,0:0:0:0:
448,192,122789,1,0,0:0:0:0:
320,192,122839,1,0,0:0:0:0:
64,192,122889,1,0,0:0:0:0:
192,192,122938,1,0,0:0:0:0:
448,192,122988,1,0,0:0:0:0:
320,192,122988,1,0,0:0:0:0:
448,192,123285,1,0,0:0:0:0:
64,192,123285,1,0,0:0:0:0:
64,192,123582,1,0,0:0:0:0:
192,192,123582,1,0,0:0:0:0:
448,192,123582,1,0,0:0:0:0:
320,192,123582,1,0,0:0:0:0:
448,192,123731,1,0,0:0:0:0:
192,192,123880,1,0,0:0:0:0:
320,192,123880,1,0,0:0:0:0:
192,192,124029,1,0,0:0:0:0:
448,192,124179,1,0,0:0:0:0:
320,192,124179,1,0,0:0:0:0:
192,192,124179,1,0,0:0:0:0:
64,192,124179,1,0,0:0:0:0:
320,192,124328,1,0,0:0:0:0:
64,192,124476,1,0,0:0:0:0:
448,192,124476,1,0,0:0:0:0:
64,192,124774,1,0,0:0:0:0:
192,192,124774,1,0,0:0:0:0:
448,192,124774,1,0,0:0:0:0:
320,192,124774,1,0,0:0:0:0:
192,192,125071,1,0,0:0:0:0:
320,192,125071,1,0,0:0:0:0:
64,192,125369,1,0,0:0:0:0:
192,192,125369,1,0,0:0:0:0:
320,192,125369,1,0,0:0:0:0:
448,192,125369,1,0,0:0:0:0:
448,192,125666,1,0,0:0:0:0:
320,192,125666,1,0,0:0:0:0:
448,192,125964,1,0,0:0:0:0:
320,192,125964,1,0,0:0:0:0:
192,192,125964,1,0,0:0:0:0:
64,192,125964,1,0,0:0:0:0:
192,192,126112,1,0,0:0:0:0:
64,192,126261,1,0,0:0:0:0:
320,192,126261,1,0,0:0:0:0:
448,192,126261,1,0,0:0:0:0:
320,192,126410,1,0,0:0:0:0:
64,192,126559,1,0,0:0:0:0:
192,192,126559,1,0,0:0:0:0:
448,192,126559,1,0,0:0:0:0:
448,192,126708,1,0,0:0:0:0:
192,192,126856,1,0,0:0:0:0:
64,192,126856,1,0,0:0:0:0:
320,192,126856,1,0,0:0:0:0:
448,192,127154,1,0,0:0:0:0:
320,192,127154,1,0,0:0:0:0:
64,192,127154,1,0,0:0:0:0:
192,192,127452,1,0,0:0:0:0:
64,192,127452,1,0,0:0:0:0:
448,192,127452,1,0,0:0:0:0:
320,192,127750,1,0,0:0:0:0:
192,192,127750,1,0,0:0:0:0:
448,192,127750,1,0,0:0:0:0:
64,192,128048,1,0,0:0:0:0:
320,192,128048,1,0,0:0:0:0:
64,192,128345,1,0,0:0:0:0:
192,192,128345,1,0,0:0:0:0:
320,192,128345,1,0,0:0:0:0:
448,192,128345,1,0,0:0:0:0:
320,192,128494,1,0,0:0:0:0:
64,192,128642,1,0,0:0:0:0:
192,192,128642,1,0,0:0:0:0:
64,192,128791,1,0,0:0:0:0:
448,192,128940,1,0,0:0:0:0:
320,192,128940,1,0,0:0:0:0:
192,192,128940,1,0,0:0:0:0:
64,192,128940,1,0,0:0:0:0:
320,192,129089,1,0,0:0:0:0:
320,192,129238,1,0,0:0:0:0:
448,192,129238,1,0,0:0:0:0:
448,192,129535,1,0,0:0:0:0:
192,192,129535,1,0,0:0:0:0:
320,192,129535,1,0,0:0:0:0:
64,192,129535,1,0,0:0:0:0:
64,192,129832,1,0,0:0:0:0:
320,192,129832,1,0,0:0:0:0:
448,192,130130,1,0,0:0:0:0:
320,192,130130,1,0,0:0:0:0:
64,192,130130,1,0,0:0:0:0:
192,192,130130,1,0,0:0:0:0:
192,192,130429,1,0,0:0:0:0:
448,192,130429,1,0,0:0:0:0:
64,192,130726,1,0,0:0:0:0:
192,192,130726,1,0,0:0:0:0:
320,192,130775,1,0,0:0:0:0:
448,192,130825,1,0,0:0:0:0:
64,192,130875,1,0,0:0:0:0:
192,192,130924,1,0,0:0:0:0:
320,192,130974,1,0,0:0:0:0:
448,192,131024,1,0,0:0:0:0:
192,192,131072,1,0,0:0:0:0:
64,192,131122,1,0,0:0:0:0:
320,192,131172,1,0,0:0:0:0:
192,192,131221,1,0,0:0:0:0:
448,192,131271,1,0,0:0:0:0:
320,192,131321,1,0,0:0:0:0:
64,192,131321,1,0,0:0:0:0:
192,192,131371,1,0,0:0:0:0:
320,192,131420,1,0,0:0:0:0:
448,192,131470,1,0,0:0:0:0:
64,192,131520,1,0,0:0:0:0:
192,192,131569,1,0,0:0:0:0:
320,192,131619,1,0,0:0:0:0:
448,192,131669,1,0,0:0:0:0:
192,192,131718,1,0,0:0:0:0:
320,192,131768,1,0,0:0:0:0:
448,192,131818,1,0,0:0:0:0:
320,192,131866,1,0,0:0:0:0:
192,192,131916,1,0,0:0:0:0:
64,192,131916,1,0,0:0:0:0:
448,192,131966,1,0,0:0:0:0:
320,192,132015,1,0,0:0:0:0:
192,192,132065,1,0,0:0:0:0:
64,192,132115,1,0,0:0:0:0:
320,192,132164,1,0,0:0:0:0:
192,192,132214,1,0,0:0:0:0:
64,192,132264,1,0,0:0:0:0:
448,192,132312,1,0,0:0:0:0:
320,192,132362,1,0,0:0:0:0:
64,192,132412,1,0,0:0:0:0:
192,192,132462,1,0,0:0:0:0:
448,192,132511,1,0,0:0:0:0:
320,192,132511,1,0,0:0:0:0:
192,192,132561,1,0,0:0:0:0:
64,192,132611,1,0,0:0:0:0:
448,192,132660,1,0,0:0:0:0:
320,192,132710,1,0,0:0:0:0:
64,192,132760,1,0,0:0:0:0:
192,192,132809,1,0,0:0:0:0:
320,192,132859,1,0,0:0:0:0:
64,192,132909,1,0,0:0:0:0:
448,192,132958,1,0,0:0:0:0:
320,192,133008,1,0,0:0:0:0:
192,192,133058,1,0,0:0:0:0:
448,192,133106,1,0,0:0:0:0:
64,192,133106,1,0,0:0:0:0:
192,192,133156,1,0,0:0:0:0:
320,192,133206,1,0,0:0:0:0:
448,192,133255,1,0,0:0:0:0:
64,192,133305,1,0,0:0:0:0:
192,192,133355,1,0,0:0:0:0:
320,192,133404,1,0,0:0:0:0:
448,192,133454,1,0,0:0:0:0:
192,192,133504,1,0,0:0:0:0:
320,192,133554,1,0,0:0:0:0:
448,192,133602,1,0,0:0:0:0:
192,192,133652,1,0,0:0:0:0:
320,192,133702,1,0,0:0:0:0:
64,192,133751,1,0,0:0:0:0:
448,192,133801,1,0,0:0:0:0:
320,192,133851,1,0,0:0:0:0:
64,192,133900,1,0,0:0:0:0:
192,192,133950,1,0,0:0:0:0:
320,192,134000,1,0,0:0:0:0:
448,192,134049,1,0,0:0:0:0:
192,192,134099,1,0,0:0:0:0:
320,192,134149,1,0,0:0:0:0:
64,192,134198,1,0,0:0:0:0:
192,192,134248,1,0,0:0:0:0:
448,192,134298,1,0,0:0:0:0:
320,192,134298,1,0,0:0:0:0:
64,192,134346,1,0,0:0:0:0:
192,192,134396,1,0,0:0:0:0:
448,192,134446,1,0,0:0:0:0:
320,192,134496,1,0,0:0:0:0:
192,192,134545,1,0,0:0:0:0:
64,192,134595,1,0,0:0:0:0:
448,192,134645,1,0,0:0:0:0:
320,192,134694,1,0,0:0:0:0:
192,192,134744,1,0,0:0:0:0:
448,192,134794,1,0,0:0:0:0:
64,192,134842,1,0,0:0:0:0:
320,192,134892,1,0,0:0:0:0:
448,192,134892,1,0,0:0:0:0:
192,192,134942,1,0,0:0:0:0:
64,192,134991,1,0,0:0:0:0:
320,192,135041,1,0,0:0:0:0:
448,192,135091,1,0,0:0:0:0:
192,192,135140,1,0,0:0:0:0:
64,192,135190,1,0,0:0:0:0:
448,192,135240,1,0,0:0:0:0:
320,192,135289,1,0,0:0:0:0:
192,192,135339,1,0,0:0:0:0:
64,192,135389,1,0,0:0:0:0:
448,192,135438,1,0,0:0:0:0:
192,192,135488,1,0,0:0:0:0:
320,192,135488,1,0,0:0:0:0:
64,192,135538,1,0,0:0:0:0:
448,192,135588,1,0,0:0:0:0:
320,192,135636,1,0,0:0:0:0:
192,192,135686,1,0,0:0:0:0:
64,192,135736,1,0,0:0:0:0:
448,192,135785,1,0,0:0:0:0:
192,192,135835,1,0,0:0:0:0:
320,192,135885,1,0,0:0:0:0:
64,192,135934,1,0,0:0:0:0:
448,192,135984,1,0,0:0:0:0:
192,192,136034,1,0,0:0:0:0:
320,192,136082,1,0,0:0:0:0:
448,192,136082,1,0,0:0:0:0:
64,192,136132,1,0,0:0:0:0:
192,192,136182,1,0,0:0:0:0:
448,192,136231,1,0,0:0:0:0:
320,192,136281,1,0,0:0:0:0:
64,192,136331,1,0,0:0:0:0:
192,192,136380,1,0,0:0:0:0:
320,192,136430,1,0,0:0:0:0:
64,192,136480,1,0,0:0:0:0:
448,192,136529,1,0,0:0:0:0:
320,192,136579,1,0,0:0:0:0:
192,192,136629,1,0,0:0:0:0:
64,192,136679,1,0,0:0:0:0:
448,192,136679,1,0,0:0:0:0:
320,192,136728,1,0,0:0:0:0:
192,192,136778,1,0,0:0:0:0:
448,192,136828,1,0,0:0:0:0:
320,192,136876,1,0,0:0:0:0:
64,192,136926,1,0,0:0:0:0:
192,192,136976,1,0,0:0:0:0:
448,192,137025,1,0,0:0:0:0:
320,192,137075,1,0,0:0:0:0:
64,192,137125,1,0,0:0:0:0:
192,192,137174,1,0,0:0:0:0:
320,192,137224,1,0,0:0:0:0:
448,192,137274,1,0,0:0:0:0:
192,192,137274,1,0,0:0:0:0:
64,192,137322,1,0,0:0:0:0:
320,192,137372,1,0,0:0:0:0:
448,192,137422,1,0,0:0:0:0:
64,192,137471,1,0,0:0:0:0:
192,192,137521,1,0,0:0:0:0:
320,192,137571,1,0,0:0:0:0:
64,192,137869,1,0,0:0:0:0:
448,192,137869,1,0,0:0:0:0:
320,192,137919,1,0,0:0:0:0:
192,192,137968,1,0,0:0:0:0:
64,192,138018,1,0,0:0:0:0:
320,192,138068,1,0,0:0:0:0:
448,192,138116,1,0,0:0:0:0:
192,192,138166,1,0,0:0:0:0:
64,192,138216,1,0,0:0:0:0:
448,192,138265,1,0,0:0:0:0:
320,192,138315,1,0,0:0:0:0:
192,192,138365,1,0,0:0:0:0:
448,192,138414,1,0,0:0:0:0:
320,192,138464,1,0,0:0:0:0:
64,192,138464,1,0,0:0:0:0:
192,192,138514,1,0,0:0:0:0:
448,192,138562,1,0,0:0:0:0:
320,192,138612,1,0,0:0:0:0:
64,192,138662,1,0,0:0:0:0:
192,192,138712,1,0,0:0:0:0:
320,192,138761,1,0,0:0:0:0:
448,192,138811,1,0,0:0:0:0:
64,192,138861,1,0,0:0:0:0:
320,192,138910,1,0,0:0:0:0:
192,192,138960,1,0,0:0:0:0:
448,192,139010,1,0,0:0:0:0:
320,192,139059,1,0,0:0:0:0:
64,192,139059,1,0,0:0:0:0:
192,192,139109,1,0,0:0:0:0:
320,192,139159,1,0,0:0:0:0:
448,192,139208,1,0,0:0:0:0:
64,192,139258,1,0,0:0:0:0:
192,192,139308,1,0,0:0:0:0:
320,192,139356,1,0,0:0:0:0:
64,192,139406,1,0,0:0:0:0:
448,192,139456,1,0,0:0:0:0:
192,192,139505,1,0,0:0:0:0:
320,192,139555,1,0,0:0:0:0:
448,192,139605,1,0,0:0:0:0:
192,192,139654,1,0,0:0:0:0:
64,192,139654,1,0,0:0:0:0:
320,192,139704,1,0,0:0:0:0:
448,192,139754,1,0,0:0:0:0:
192,192,139804,1,0,0:0:0:0:
64,192,139852,1,0,0:0:0:0:
320,192,139902,1,0,0:0:0:0:
448,192,139952,1,0,0:0:0:0:
64,192,140250,1,0,0:0:0:0:
448,192,140250,1,0,0:0:0:0:
320,192,140250,1,0,0:0:0:0:
192,192,140299,1,0,0:0:0:0:
64,192,140349,1,0,0:0:0:0:
448,192,140399,1,0,0:0:0:0:
320,192,140448,1,0,0:0:0:0:
192,192,140498,1,0,0:0:0:0:
64,192,140548,1,0,0:0:0:0:
320,192,140596,1,0,0:0:0:0:
448,192,140646,1,0,0:0:0:0:
192,192,140696,1,0,0:0:0:0:
320,192,140746,1,0,0:0:0:0:
64,192,140795,1,0,0:0:0:0:
192,192,140845,1,0,0:0:0:0:
448,192,140845,1,0,0:0:0:0:
320,192,140895,1,0,0:0:0:0:
192,192,140944,1,0,0:0:0:0:
64,192,140994,1,0,0:0:0:0:
448,192,141044,1,0,0:0:0:0:
320,192,141092,1,0,0:0:0:0:
192,192,141142,1,0,0:0:0:0:
64,192,141192,1,0,0:0:0:0:
320,192,141241,1,0,0:0:0:0:
192,192,141291,1,0,0:0:0:0:
64,192,141341,1,0,0:0:0:0:
192,192,141390,1,0,0:0:0:0:
320,192,141440,1,0,0:0:0:0:
448,192,141440,1,0,0:0:0:0:
64,192,141490,1,0,0:0:0:0:
192,192,141539,1,0,0:0:0:0:
320,192,141589,1,0,0:0:0:0:
448,192,141639,1,0,0:0:0:0:
192,192,141688,1,0,0:0:0:0:
320,192,141738,1,0,0:0:0:0:
448,192,141788,1,0,0:0:0:0:
64,192,141838,1,0,0:0:0:0:
192,192,141886,1,0,0:0:0:0:
448,192,141936,1,0,0:0:0:0:
320,192,141986,1,0,0:0:0:0:
64,192,142035,1,0,0:0:0:0:
192,192,142035,1,0,0:0:0:0:
320,192,142085,1,0,0:0:0:0:
448,192,142135,1,0,0:0:0:0:
64,192,142184,1,0,0:0:0:0:
192,192,142234,1,0,0:0:0:0:
448,192,142284,1,0,0:0:0:0:
320,192,142332,1,0,0:0:0:0:
192,192,142382,1,0,0:0:0:0:
448,192,142432,1,0,0:0:0:0:
64,192,142481,1,0,0:0:0:0:
192,192,142531,1,0,0:0:0:0:
320,192,142581,1,0,0:0:0:0:
64,192,142630,1,0,0:0:0:0:
448,192,142630,1,0,0:0:0:0:
320,192,142680,1,0,0:0:0:0:
192,192,142730,1,0,0:0:0:0:
64,192,142779,1,0,0:0:0:0:
448,192,142829,1,0,0:0:0:0:
320,192,142879,1,0,0:0:0:0:
192,192,142929,1,0,0:0:0:0:
64,192,142978,1,0,0:0:0:0:
320,192,143028,1,0,0:0:0:0:
192,192,143078,1,0,0:0:0:0:
64,192,143126,1,0,0:0:0:0:
320,192,143176,1,0,0:0:0:0:
192,192,143226,1,0,0:0:0:0:
448,192,143275,1,0,0:0:0:0:
64,192,143325,1,0,0:0:0:0:
192,192,143375,1,0,0:0:0:0:
448,192,143424,1,0,0:0:0:0:
320,192,143474,1,0,0:0:0:0:
192,192,143524,1,0,0:0:0:0:
64,192,143572,1,0,0:0:0:0:
320,192,143622,1,0,0:0:0:0:
192,192,143672,1,0,0:0:0:0:
448,192,143721,1,0,0:0:0:0:
320,192,143771,1,0,0:0:0:0:
64,192,143821,1,0,0:0:0:0:
192,192,143821,1,0,0:0:0:0:
448,192,143871,1,0,0:0:0:0:
320,192,143920,1,0,0:0:0:0:
64,192,143970,1,0,0:0:0:0:
192,192,144020,1,0,0:0:0:0:
320,192,144069,1,0,0:0:0:0:
448,192,144119,1,0,0:0:0:0:
64,192,144169,1,0,0:0:0:0:
192,192,144218,1,0,0:0:0:0:
320,192,144268,1,0,0:0:0:0:
64,192,144318,1,0,0:0:0:0:
448,192,144366,1,0,0:0:0:0:
192,192,144416,1,0,0:0:0:0:
64,192,144416,1,0,0:0:0:0:
320,192,144466,1,0,0:0:0:0:
448,192,144515,1,0,0:0:0:0:
192,192,144565,1,0,0:0:0:0:
64,192,144615,1,0,0:0:0:0:
320,192,144664,1,0,0:0:0:0:
448,192,144714,1,0,0:0:0:0:
64,192,144764,1,0,0:0:0:0:
192,192,144812,1,0,0:0:0:0:
320,192,144862,1,0,0:0:0:0:
448,192,144912,1,0,0:0:0:0:
64,192,144962,1,0,0:0:0:0:
320,192,145011,1,0,0:0:0:0:
192,192,145011,1,0,0:0:0:0:
448,192,145061,1,0,0:0:0:0:
64,192,145111,1,0,0:0:0:0:
192,192,145160,1,0,0:0:0:0:
320,192,145210,1,0,0:0:0:0:
448,192,145260,1,0,0:0:0:0:
64,192,145309,1,0,0:0:0:0:
320,192,145359,1,0,0:0:0:0:
192,192,145409,1,0,0:0:0:0:
448,192,145458,1,0,0:0:0:0:
64,192,145508,1,0,0:0:0:0:
320,192,145558,1,0,0:0:0:0:
192,192,145606,1,0,0:0:0:0:
64,192,145606,1,0,0:0:0:0:
448,192,145656,1,0,0:0:0:0:
320,192,145706,1,0,0:0:0:0:
64,192,145755,1,0,0:0:0:0:
192,192,145805,1,0,0:0:0:0:
448,192,145855,1,0,0:0:0:0:
320,192,145904,1,0,0:0:0:0:
192,192,145954,1,0,0:0:0:0:
448,192,146004,1,0,0:0:0:0:
64,192,146054,1,0,0:0:0:0:
192,192,146102,1,0,0:0:0:0:
320,192,146152,1,0,0:0:0:0:
448,192,146202,1,0,0:0:0:0:
64,192,146202,1,0,0:0:0:0:
192,192,146251,1,0,0:0:0:0:
320,192,146301,1,0,0:0:0:0:
64,192,146351,1,0,0:0:0:0:
192,192,146400,1,0,0:0:0:0:
448,192,146450,1,0,0:0:0:0:
320,192,146500,1,0,0:0:0:0:
64,192,146549,1,0,0:0:0:0:
192,192,146599,1,0,0:0:0:0:
448,192,146649,1,0,0:0:0:0:
320,192,146698,1,0,0:0:0:0:
192,192,146748,1,0,0:0:0:0:
64,192,146798,1,0,0:0:0:0:
320,192,146798,1,0,0:0:0:0:
448,192,146846,1,0,0:0:0:0:
192,192,146896,1,0,0:0:0:0:
64,192,146946,1,0,0:0:0:0:
448,192,146996,1,0,0:0:0:0:
320,192,147045,1,0,0:0:0:0:
192,192,147095,1,0,0:0:0:0:
448,192,147392,1,0,0:0:0:0:
64,192,147392,1,0,0:0:0:0:
192,192,147442,1,0,0:0:0:0:
320,192,147491,1,0,0:0:0:0:
448,192,147541,1,0,0:0:0:0:
192,192,147591,1,0,0:0:0:0:
64,192,147640,1,0,0:0:0:0:
320,192,147690,1,0,0:0:0:0:
448,192,147740,1,0,0:0:0:0:
64,192,147789,1,0,0:0:0:0:
192,192,147839,1,0,0:0:0:0:
320,192,147889,1,0,0:0:0:0:
64,192,147938,1,0,0:0:0:0:
192,192,147988,1,0,0:0:0:0:
448,192,147988,1,0,0:0:0:0:
320,192,148038,1,0,0:0:0:0:
64,192,148088,1,0,0:0:0:0:
192,192,148136,1,0,0:0:0:0:
448,192,148186,1,0,0:0:0:0:
320,192,148236,1,0,0:0:0:0:
192,192,148285,1,0,0:0:0:0:
64,192,148335,1,0,0:0:0:0:
448,192,148385,1,0,0:0:0:0:
192,192,148434,1,0,0:0:0:0:
320,192,148484,1,0,0:0:0:0:
64,192,148534,1,0,0:0:0:0:
192,192,148582,1,0,0:0:0:0:
448,192,148582,1,0,0:0:0:0:
320,192,148632,1,0,0:0:0:0:
192,192,148682,1,0,0:0:0:0:
64,192,148731,1,0,0:0:0:0:
448,192,148781,1,0,0:0:0:0:
320,192,148831,1,0,0:0:0:0:
192,192,148880,1,0,0:0:0:0:
448,192,148930,1,0,0:0:0:0:
64,192,148980,1,0,0:0:0:0:
320,192,149029,1,0,0:0:0:0:
192,192,149079,1,0,0:0:0:0:
64,192,149129,1,0,0:0:0:0:
320,192,149179,1,0,0:0:0:0:
448,192,149179,1,0,0:0:0:0:
192,192,149228,1,0,0:0:0:0:
64,192,149278,1,0,0:0:0:0:
320,192,149328,1,0,0:0:0:0:
448,192,149376,1,0,0:0:0:0:
192,192,149426,1,0,0:0:0:0:
64,192,149476,1,0,0:0:0:0:
64,192,149774,1,0,0:0:0:0:
192,192,149774,1,0,0:0:0:0:
320,192,149822,1,0,0:0:0:0:
448,192,149872,1,0,0:0:0:0:
192,192,149922,1,0,0:0:0:0:
320,192,149971,1,0,0:0:0:0:
448,192,150021,1,0,0:0:0:0:
64,192,150071,1,0,0:0:0:0:
320,192,150071,1,0,0:0:0:0:
192,192,150121,1,0,0:0:0:0:
448,192,150170,1,0,0:0:0:0:
64,192,150220,1,0,0:0:0:0:
192,192,150270,1,0,0:0:0:0:
320,192,150319,1,0,0:0:0:0:
448,192,150369,1,0,0:0:0:0:
64,192,150369,1,0,0:0:0:0:
192,192,150419,1,0,0:0:0:0:
320,192,150468,1,0,0:0:0:0:
64,192,150518,1,0,0:0:0:0:
448,192,150568,1,0,0:0:0:0:
192,192,150616,1,0,0:0:0:0:
320,192,150666,1,0,0:0:0:0:
448,192,150666,1,0,0:0:0:0:
64,192,150716,1,0,0:0:0:0:
192,192,150765,1,0,0:0:0:0:
448,192,150815,1,0,0:0:0:0:
320,192,150865,1,0,0:0:0:0:
192,192,150914,1,0,0:0:0:0:
64,192,150964,1,0,0:0:0:0:
448,192,150964,1,0,0:0:0:0:
320,192,151014,1,0,0:0:0:0:
192,192,151062,1,0,0:0:0:0:
448,192,151112,1,0,0:0:0:0:
64,192,151162,1,0,0:0:0:0:
192,192,151212,1,0,0:0:0:0:
448,192,151261,1,0,0:0:0:0:
320,192,151261,1,0,0:0:0:0:
64,192,151311,1,0,0:0:0:0:
192,192,151361,1,0,0:0:0:0:
448,192,151410,1,0,0:0:0:0:
320,192,151460,1,0,0:0:0:0:
64,192,151510,1,0,0:0:0:0:
192,192,151559,1,0,0:0:0:0:
448,192,151559,1,0,0:0:0:0:
320,192,151609,1,0,0:0:0:0:
448,192,151659,1,0,0:0:0:0:
192,192,151708,1,0,0:0:0:0:
64,192,151758,1,0,0:0:0:0:
320,192,151808,1,0,0:0:0:0:
448,192,151856,1,0,0:0:0:0:
192,192,151856,1,0,0:0:0:0:
64,192,151906,1,0,0:0:0:0:
320,192,151956,1,0,0:0:0:0:
192,192,152005,1,0,0:0:0:0:
64,192,152055,1,0,0:0:0:0:
448,192,152105,1,0,0:0:0:0:
320,192,152154,1,0,0:0:0:0:
192,192,152154,1,0,0:0:0:0:
64,192,152204,1,0,0:0:0:0:
448,192,152254,1,0,0:0:0:0:
192,192,152304,1,0,0:0:0:0:
320,192,152352,1,0,0:0:0:0:
448,192,152402,1,0,0:0:0:0:
64,192,152452,1,0,0:0:0:0:
192,192,152452,1,0,0:0:0:0:
320,192,152501,1,0,0:0:0:0:
448,192,152551,1,0,0:0:0:0:
64,192,152601,1,0,0:0:0:0:
192,192,152650,1,0,0:0:0:0:
320,192,152700,1,0,0:0:0:0:
64,192,152750,1,0,0:0:0:0:
448,192,152750,1,0,0:0:0:0:
192,192,152799,1,0,0:0:0:0:
320,192,152849,1,0,0:0:0:0:
64,192,152899,1,0,0:0:0:0:
448,192,152948,1,0,0:0:0:0:
320,192,152998,1,0,0:0:0:0:
192,192,153048,1,0,0:0:0:0:
64,192,153048,1,0,0:0:0:0:
448,192,153096,1,0,0:0:0:0:
320,192,153146,1,0,0:0:0:0:
192,192,153196,1,0,0:0:0:0:
64,192,153246,1,0,0:0:0:0:
448,192,153295,1,0,0:0:0:0:
320,192,153345,1,0,0:0:0:0:
192,192,153345,1,0,0:0:0:0:
64,192,153395,1,0,0:0:0:0:
320,192,153444,1,0,0:0:0:0:
448,192,153494,1,0,0:0:0:0:
192,192,153544,1,0,0:0:0:0:
320,192,153592,1,0,0:0:0:0:
64,192,153642,1,0,0:0:0:0:
448,192,153642,1,0,0:0:0:0:
192,192,153692,1,0,0:0:0:0:
320,192,153741,1,0,0:0:0:0:
448,192,153791,1,0,0:0:0:0:
64,192,153841,1,0,0:0:0:0:
192,192,153890,1,0,0:0:0:0:
448,192,153940,1,0,0:0:0:0:
320,192,153940,1,0,0:0:0:0:
192,192,153990,1,0,0:0:0:0:
64,192,154039,1,0,0:0:0:0:
448,192,154089,1,0,0:0:0:0:
320,192,154139,1,0,0:0:0:0:
192,192,154188,1,0,0:0:0:0:
64,192,154238,1,0,0:0:0:0:
448,192,154238,1,0,0:0:0:0:
320,192,154288,1,0,0:0:0:0:
192,192,154338,1,0,0:0:0:0:
448,192,154386,1,0,0:0:0:0:
320,192,154436,1,0,0:0:0:0:
448,192,154486,1,0,0:0:0:0:
64,192,154535,1,0,0:0:0:0:
192,192,154535,1,0,0:0:0:0:
320,192,154585,1,0,0:0:0:0:
448,192,154635,1,0,0:0:0:0:
64,192,154684,1,0,0:0:0:0:
192,192,154734,1,0,0:0:0:0:
320,192,154784,1,0,0:0:0:0:
448,192,154832,1,0,0:0:0:0:
64,192,154832,1,0,0:0:0:0:
192,192,154882,1,0,0:0:0:0:
320,192,154932,1,0,0:0:0:0:
64,192,154981,1,0,0:0:0:0:
192,192,155031,1,0,0:0:0:0:
448,192,155081,1,0,0:0:0:0:
320,192,155130,1,0,0:0:0:0:
64,192,155130,1,0,0:0:0:0:
192,192,155180,1,0,0:0:0:0:
448,192,155230,1,0,0:0:0:0:
320,192,155279,1,0,0:0:0:0:
64,192,155329,1,0,0:0:0:0:
192,192,155379,1,0,0:0:0:0:
448,192,155429,1,0,0:0:0:0:
320,192,155429,1,0,0:0:0:0:
64,192,155478,1,0,0:0:0:0:
192,192,155528,1,0,0:0:0:0:
448,192,155578,1,0,0:0:0:0:
320,192,155626,1,0,0:0:0:0:
192,192,155676,1,0,0:0:0:0:
64,192,155726,1,0,0:0:0:0:
448,192,155726,1,0,0:0:0:0:
320,192,155775,1,0,0:0:0:0:
192,192,155825,1,0,0:0:0:0:
320,192,155875,1,0,0:0:0:0:
448,192,155924,1,0,0:0:0:0:
64,192,155974,1,0,0:0:0:0:
192,192,156024,1,0,0:0:0:0:
320,192,156024,1,0,0:0:0:0:
448,192,156072,1,0,0:0:0:0:
64,192,156122,1,0,0:0:0:0:
320,192,156172,1,0,0:0:0:0:
192,192,156221,1,0,0:0:0:0:
448,192,156271,1,0,0:0:0:0:
320,192,156321,1,0,0:0:0:0:
64,192,156321,1,0,0:0:0:0:
192,192,156371,1,0,0:0:0:0:
320,192,156420,1,0,0:0:0:0:
448,192,156470,1,0,0:0:0:0:
64,192,156520,1,0,0:0:0:0:
192,192,156569,1,0,0:0:0:0:
320,192,156619,1,0,0:0:0:0:
64,192,156669,1,0,0:0:0:0:
192,192,156718,1,0,0:0:0:0:
448,192,156768,1,0,0:0:0:0:
320,192,156818,1,0,0:0:0:0:
64,192,156866,1,0,0:0:0:0:
192,192,156916,1,0,0:0:0:0:
320,192,156966,1,0,0:0:0:0:
448,192,157015,1,0,0:0:0:0:
192,192,157065,1,0,0:0:0:0:
320,192,157115,1,0,0:0:0:0:
64,192,157164,1,0,0:0:0:0:
192,192,157214,1,0,0:0:0:0:
448,192,157214,1,0,0:0:0:0:
320,192,157264,1,0,0:0:0:0:
64,192,157312,1,0,0:0:0:0:
192,192,157362,1,0,0:0:0:0:
320,192,157412,1,0,0:0:0:0:
448,192,157462,1,0,0:0:0:0:
192,192,157511,1,0,0:0:0:0:
64,192,157511,1,0,0:0:0:0:
320,192,157561,1,0,0:0:0:0:
448,192,157611,1,0,0:0:0:0:
192,192,157660,1,0,0:0:0:0:
64,192,157710,1,0,0:0:0:0:
448,192,157760,1,0,0:0:0:0:
320,192,157809,1,0,0:0:0:0:
192,192,157809,1,0,0:0:0:0:
64,192,157859,1,0,0:0:0:0:
448,192,157909,1,0,0:0:0:0:
192,192,157958,1,0,0:0:0:0:
320,192,158008,1,0,0:0:0:0:
64,192,158058,1,0,0:0:0:0:
448,192,158106,1,0,0:0:0:0:
192,192,158106,1,0,0:0:0:0:
320,192,158156,1,0,0:0:0:0:
448,192,158206,1,0,0:0:0:0:
64,192,158255,1,0,0:0:0:0:
192,192,158305,1,0,0:0:0:0:
320,192,158355,1,0,0:0:0:0:
448,192,158404,1,0,0:0:0:0:
64,192,158404,1,0,0:0:0:0:
192,192,158454,1,0,0:0:0:0:
320,192,158504,1,0,0:0:0:0:
448,192,158554,1,0,0:0:0:0:
64,192,158602,1,0,0:0:0:0:
320,192,158652,1,0,0:0:0:0:
448,192,158702,1,0,0:0:0:0:
192,192,158702,1,0,0:0:0:0:
64,192,158751,1,0,0:0:0:0:
320,192,158801,1,0,0:0:0:0:
192,192,158851,1,0,0:0:0:0:
64,192,158900,1,0,0:0:0:0:
448,192,158950,1,0,0:0:0:0:
320,192,159000,1,0,0:0:0:0:
192,192,159000,1,0,0:0:0:0:
64,192,159049,1,0,0:0:0:0:
448,192,159099,1,0,0:0:0:0:
320,192,159149,1,0,0:0:0:0:
192,192,159198,1,0,0:0:0:0:
448,192,159248,1,0,0:0:0:0:
64,192,159298,1,0,0:0:0:0:
320,192,159346,1,0,0:0:0:0:
448,192,159396,1,0,0:0:0:0:
64,192,159446,1,0,0:0:0:0:
192,192,159496,1,0,0:0:0:0:
320,192,159545,1,0,0:0:0:0:
64,192,159595,1,0,0:0:0:0:
448,192,159595,1,0,0:0:0:0:
192,192,159645,1,0,0:0:0:0:
320,192,159694,1,0,0:0:0:0:
64,192,159744,1,0,0:0:0:0:
192,192,159794,1,0,0:0:0:0:
320,192,159842,1,0,0:0:0:0:
448,192,159892,1,0,0:0:0:0:
64,192,159892,1,0,0:0:0:0:
192,192,159942,1,0,0:0:0:0:
320,192,159991,1,0,0:0:0:0:
64,192,160041,1,0,0:0:0:0:
448,192,160091,1,0,0:0:0:0:
192,192,160140,1,0,0:0:0:0:
320,192,160190,1,0,0:0:0:0:
448,192,160190,1,0,0:0:0:0:
64,192,160240,1,0,0:0:0:0:
192,192,160289,1,0,0:0:0:0:
448,192,160339,1,0,0:0:0:0:
320,192,160389,1,0,0:0:0:0:
192,192,160438,1,0,0:0:0:0:
64,192,160488,1,0,0:0:0:0:
448,192,160488,1,0,0:0:0:0:
320,192,160538,1,0,0:0:0:0:
192,192,160588,1,0,0:0:0:0:
320,192,160636,1,0,0:0:0:0:
64,192,160686,1,0,0:0:0:0:
192,192,160736,1,0,0:0:0:0:
448,192,160785,1,0,0:0:0:0:
320,192,160785,1,0,0:0:0:0:
64,192,160835,1,0,0:0:0:0:
192,192,160885,1,0,0:0:0:0:
448,192,160934,1,0,0:0:0:0:
320,192,160984,1,0,0:0:0:0:
64,192,161034,1,0,0:0:0:0:
192,192,161082,1,0,0:0:0:0:
448,192,161082,1,0,0:0:0:0:
320,192,161132,1,0,0:0:0:0:
64,192,161182,1,0,0:0:0:0:
448,192,161231,1,0,0:0:0:0:
192,192,161281,1,0,0:0:0:0:
64,192,161331,1,0,0:0:0:0:
320,192,161380,1,0,0:0:0:0:
192,192,161380,1,0,0:0:0:0:
448,192,161430,1,0,0:0:0:0:
320,192,161480,1,0,0:0:0:0:
192,192,161529,1,0,0:0:0:0:
64,192,161579,1,0,0:0:0:0:
448,192,161629,1,0,0:0:0:0:
320,192,161679,1,0,0:0:0:0:
192,192,161679,1,0,0:0:0:0:
64,192,161728,1,0,0:0:0:0:
448,192,161778,1,0,0:0:0:0:
192,192,161828,1,0,0:0:0:0:
320,192,161876,1,0,0:0:0:0:
448,192,161926,1,0,0:0:0:0:
64,192,161976,1,0,0:0:0:0:
192,192,161976,1,0,0:0:0:0:
320,192,162025,1,0,0:0:0:0:
448,192,162075,1,0,0:0:0:0:
64,192,162125,1,0,0:0:0:0:
192,192,162174,1,0,0:0:0:0:
320,192,162224,1,0,0:0:0:0:
64,192,162274,1,0,0:0:0:0:
448,192,162274,1,0,0:0:0:0:
192,192,162322,1,0,0:0:0:0:
320,192,162372,1,0,0:0:0:0:
64,192,162422,1,0,0:0:0:0:
448,192,162471,1,0,0:0:0:0:
320,192,162521,1,0,0:0:0:0:
192,192,162571,1,0,0:0:0:0:
64,192,162571,1,0,0:0:0:0:
448,192,162621,1,0,0:0:0:0:
320,192,162670,1,0,0:0:0:0:
192,192,162720,1,0,0:0:0:0:
64,192,162770,1,0,0:0:0:0:
448,192,162819,1,0,0:0:0:0:
320,192,162869,1,0,0:0:0:0:
192,192,162869,1,0,0:0:0:0:
64,192,162919,1,0,0:0:0:0:
320,192,162968,1,0,0:0:0:0:
448,192,163018,1,0,0:0:0:0:
192,192,163068,1,0,0:0:0:0:
320,192,163116,1,0,0:0:0:0:
64,192,163166,1,0,0:0:0:0:
448,192,163166,1,0,0:0:0:0:
192,192,163216,1,0,0:0:0:0:
320,192,163265,1,0,0:0:0:0:
448,192,163315,1,0,0:0:0:0:
64,192,163365,1,0,0:0:0:0:
192,192,163414,1,0,0:0:0:0:
448,192,163464,1,0,0:0:0:0:
320,192,163464,1,0,0:0:0:0:
192,192,163514,1,0,0:0:0:0:
64,192,163562,1,0,0:0:0:0:
448,192,163612,1,0,0:0:0:0:
320,192,163662,1,0,0:0:0:0:
192,192,163712,1,0,0:0:0:0:
64,192,163761,1,0,0:0:0:0:
448,192,163761,1,0,0:0:0:0:
320,192,163811,1,0,0:0:0:0:
192,192,163861,1,0,0:0:0:0:
448,192,163910,1,0,0:0:0:0:
320,192,163960,1,0,0:0:0:0:
192,192,164010,1,0,0:0:0:0:
64,192,164059,1,0,0:0:0:0:
320,192,164109,1,0,0:0:0:0:
448,192,164159,1,0,0:0:0:0:
64,192,164208,1,0,0:0:0:0:
192,192,164258,1,0,0:0:0:0:
320,192,164308,1,0,0:0:0:0:
448,192,164356,1,0,0:0:0:0:
64,192,164356,1,0,0:0:0:0:
192,192,164406,1,0,0:0:0:0:
320,192,164456,1,0,0:0:0:0:
64,192,164505,1,0,0:0:0:0:
192,192,164555,1,0,0:0:0:0:
448,192,164605,1,0,0:0:0:0:
320,192,164654,1,0,0:0:0:0:
64,192,164654,1,0,0:0:0:0:
192,192,164704,1,0,0:0:0:0:
448,192,164754,1,0,0:0:0:0:
320,192,164804,1,0,0:0:0:0:
64,192,164852,1,0,0:0:0:0:
192,192,164902,1,0,0:0:0:0:
448,192,164952,1,0,0:0:0:0:
320,192,164952,1,0,0:0:0:0:
64,192,165001,1,0,0:0:0:0:
192,192,165051,1,0,0:0:0:0:
448,192,165101,1,0,0:0:0:0:
320,192,165150,1,0,0:0:0:0:
192,192,165200,1,0,0:0:0:0:
64,192,165250,1,0,0:0:0:0:
448,192,165250,1,0,0:0:0:0:
320,192,165299,1,0,0:0:0:0:
192,192,165349,1,0,0:0:0:0:
320,192,165399,1,0,0:0:0:0:
448,192,165448,1,0,0:0:0:0:
64,192,165498,1,0,0:0:0:0:
192,192,165548,1,0,0:0:0:0:
320,192,165548,1,0,0:0:0:0:
448,192,165596,1,0,0:0:0:0:
64,192,165646,1,0,0:0:0:0:
320,192,165696,1,0,0:0:0:0:
192,192,165746,1,0,0:0:0:0:
448,192,165795,1,0,0:0:0:0:
320,192,165845,1,0,0:0:0:0:
64,192,165845,1,0,0:0:0:0:
192,192,165895,1,0,0:0:0:0:
320,192,165944,1,0,0:0:0:0:
448,192,165994,1,0,0:0:0:0:
64,192,166044,1,0,0:0:0:0:
192,192,166092,1,0,0:0:0:0:
320,192,166142,1,0,0:0:0:0:
64,192,166192,1,0,0:0:0:0:
192,192,166241,1,0,0:0:0:0:
448,192,166291,1,0,0:0:0:0:
320,192,166341,1,0,0:0:0:0:
64,192,166390,1,0,0:0:0:0:
192,192,166440,1,0,0:0:0:0:
448,192,166440,1,0,0:0:0:0:
320,192,166490,1,0,0:0:0:0:
64,192,166539,1,0,0:0:0:0:
192,192,166589,1,0,0:0:0:0:
320,192,166639,1,0,0:0:0:0:
64,192,166688,1,0,0:0:0:0:
192,192,166738,1,0,0:0:0:0:
448,192,166738,1,0,0:0:0:0:
320,192,166788,1,0,0:0:0:0:
64,192,166838,1,0,0:0:0:0:
192,192,166886,1,0,0:0:0:0:
320,192,166936,1,0,0:0:0:0:
448,192,166986,1,0,0:0:0:0:
192,192,167035,1,0,0:0:0:0:
64,192,167035,1,0,0:0:0:0:
320,192,167085,1,0,0:0:0:0:
448,192,167135,1,0,0:0:0:0:
192,192,167184,1,0,0:0:0:0:
64,192,167234,1,0,0:0:0:0:
448,192,167284,1,0,0:0:0:0:
320,192,167332,1,0,0:0:0:0:
192,192,167332,1,0,0:0:0:0:
64,192,167382,1,0,0:0:0:0:
448,192,167432,1,0,0:0:0:0:
192,192,167481,1,0,0:0:0:0:
320,192,167531,1,0,0:0:0:0:
64,192,167581,1,0,0:0:0:0:
192,192,167630,1,0,0:0:0:0:
320,192,167680,1,0,0:0:0:0:
448,192,167730,1,0,0:0:0:0:
64,192,167779,1,0,0:0:0:0:
192,192,167829,1,0,0:0:0:0:
320,192,167879,1,0,0:0:0:0:
448,192,167929,1,0,0:0:0:0:
64,192,167978,1,0,0:0:0:0:
192,192,168028,1,0,0:0:0:0:
320,192,168126,1,0,0:0:0:0:
448,192,168226,1,0,0:0:0:0:
64,192,168325,1,0,0:0:0:0:
192,192,168424,1,0,0:0:0:0:
320,192,168524,1,0,0:0:0:0:
448,192,168622,1,0,0:0:0:0:
192,192,168672,1,0,0:0:0:0:
64,192,168821,1,0,0:0:0:0:
192,192,169119,1,0,0:0:0:0:
320,192,169416,1,0,0:0:0:0:
