osu file format v14

[General]
AudioFilename: audio85.mp3
AudioLeadIn: 0
PreviewTime: 28844
Countdown: 0
SampleSet: None
StackLeniency: 0.7
Mode: 3
LetterboxInBreaks: 0
SpecialStyle: 0
WidescreenStoryboard: 1

[Editor]
Bookmarks: 2033,10996,28924,46851,64778,82705,100072,118559,123041,132005,140968,158895
DistanceSpacing: 1
BeatDivisor: 12
GridSize: 32
TimelineZoom: 1.8

[Metadata]
Title:perfect nothing
TitleUnicode:perfect nothing
Artist:GHOST
ArtistUnicode:GHOST
Creator:Hlimak
Version:noise [0,85x Rate]
Source:
Tags:dump vocaloid stream
BeatmapID:2959424
BeatmapSetID:989656

[Difficulty]
HPDrainRate:7
CircleSize:4
OverallDifficulty:7
ApproachRate:5
SliderMultiplier:1.4
SliderTickRate:1

[Events]
//Background and Video events
0,0,"bg.jpg",0,0
//Break Periods
//Storyboard Layer 0 (Background)
//Storyboard Layer 1 (Fail)
//Storyboard Layer 2 (Pass)
//Storyboard Layer 3 (Foreground)
//Storyboard Layer 4 (Overlay)
//Storyboard Sound Samples

[TimingPoints]
2033,560.224089635854,4,1,0,50,1,0

[HitObjects]
64,192,2033,5,0,0:0:0:0:
320,192,2033,1,0,0:0:0:0:
448,192,2033,1,0,0:0:0:0:
320,192,2313,1,0,0:0:0:0:
448,192,2313,1,0,0:0:0:0:
64,192,2313,1,0,0:0:0:0:
192,192,2593,1,0,0:0:0:0:
320,192,2593,1,0,0:0:0:0:
64,192,2627,1,0,0:0:0:0:
192,192,2873,1,0,0:0:0:0:
320,192,2873,1,0,0:0:0:0:
64,192,2873,1,0,0:0:0:0:
448,192,3153,1,0,0:0:0:0:
192,192,3153,1,0,0:0:0:0:
64,192,3153,1,0,0:0:0:0:
448,192,3433,1,0,0:0:0:0:
320,192,3433,1,0,0:0:0:0:
192,192,3433,1,0,0:0:0:0:
64,192,3713,1,0,0:0:0:0:
448,192,3713,1,0,0:0:0:0:
320,192,3748,1,0,0:0:0:0:
448,192,3993,1,0,0:0:0:0:
320,192,3993,1,0,0:0:0:0:
192,192,3993,1,0,0:0:0:0:
448,192,4273,1,0,0:0:0:0:
192,192,4273,1,0,0:0:0:0:
64,192,4273,1,0,0:0:0:0:
320,192,4553,1,0,0:0:0:0:
192,192,4553,1,0,0:0:0:0:
448,192,4553,1,0,0:0:0:0:
448,192,4833,1,0,0:0:0:0:
64,192,4833,1,0,0:0:0:0:
192,192,4868,1,0,0:0:0:0:
448,192,5114,1,0,0:0:0:0:
320,192,5114,1,0,0:0:0:0:
192,192,5114,1,0,0:0:0:0:
64,192,5394,1,0,0:0:0:0:
448,192,5394,1,0,0:0:0:0:
192,192,5440,1,0,0:0:0:0:
320,192,5487,1,0,0:0:0:0:
448,192,5627,1,0,0:0:0:0:
320,192,5674,1,0,0:0:0:0:
192,192,5674,1,0,0:0:0:0:
64,192,5720,1,0,0:0:0:0:
448,192,5814,1,0,0:0:0:0:
64,192,5907,1,0,0:0:0:0:
192,192,5907,1,0,0:0:0:0:
320,192,5954,1,0,0:0:0:0:
448,192,6001,1,0,0:0:0:0:
64,192,6047,1,0,0:0:0:0:
192,192,6094,1,0,0:0:0:0:
320,192,6141,1,0,0:0:0:0:
448,192,6187,1,0,0:0:0:0:
192,192,6234,1,0,0:0:0:0:
448,192,6327,1,0,0:0:0:0:
64,192,6374,1,0,0:0:0:0:
192,192,6421,1,0,0:0:0:0:
320,192,6467,1,0,0:0:0:0:
64,192,6514,1,0,0:0:0:0:
320,192,6561,1,0,0:0:0:0:
448,192,6607,1,0,0:0:0:0:
192,192,6654,1,0,0:0:0:0:
320,192,6701,1,0,0:0:0:0:
64,192,6794,1,0,0:0:0:0:
192,192,6794,1,0,0:0:0:0:
448,192,6794,1,0,0:0:0:0:
320,192,7074,1,0,0:0:0:0:
64,192,7074,1,0,0:0:0:0:
192,192,7109,1,0,0:0:0:0:
448,192,7354,1,0,0:0:0:0:
192,192,7354,1,0,0:0:0:0:
320,192,7389,1,0,0:0:0:0:
448,192,7634,1,0,0:0:0:0:
192,192,7634,1,0,0:0:0:0:
64,192,7669,1,0,0:0:0:0:
320,192,7914,1,0,0:0:0:0:
64,192,7914,1,0,0:0:0:0:
448,192,7949,1,0,0:0:0:0:
192,192,8195,1,0,0:0:0:0:
64,192,8195,1,0,0:0:0:0:
320,192,8229,1,0,0:0:0:0:
448,192,8475,1,0,0:0:0:0:
320,192,8475,1,0,0:0:0:0:
192,192,8509,1,0,0:0:0:0:
320,192,8755,1,0,0:0:0:0:
192,192,8755,1,0,0:0:0:0:
64,192,8801,1,0,0:0:0:0:
448,192,8848,1,0,0:0:0:0:
320,192,8895,1,0,0:0:0:0:
64,192,8988,1,0,0:0:0:0:
192,192,9035,1,0,0:0:0:0:
320,192,9082,1,0,0:0:0:0:
448,192,9128,1,0,0:0:0:0:
320,192,9222,1,0,0:0:0:0:
64,192,9315,1,0,0:0:0:0:
192,192,9315,1,0,0:0:0:0:
448,192,9408,1,0,0:0:0:0:
192,192,9455,1,0,0:0:0:0:
64,192,9502,1,0,0:0:0:0:
448,192,9595,1,0,0:0:0:0:
320,192,9631,1,0,0:0:0:0:
64,192,9875,1,0,0:0:0:0:
192,192,9875,1,0,0:0:0:0:
448,192,9922,1,0,0:0:0:0:
320,192,9969,1,0,0:0:0:0:
192,192,10015,1,0,0:0:0:0:
64,192,10062,1,0,0:0:0:0:
448,192,10109,1,0,0:0:0:0:
192,192,10155,1,0,0:0:0:0:
320,192,10155,1,0,0:0:0:0:
64,192,10435,1,0,0:0:0:0:
192,192,10435,1,0,0:0:0:0:
320,192,10482,1,0,0:0:0:0:
448,192,10529,1,0,0:0:0:0:
64,192,10575,1,0,0:0:0:0:
192,192,10622,1,0,0:0:0:0:
320,192,10669,1,0,0:0:0:0:
64,192,10715,1,0,0:0:0:0:
192,192,10762,1,0,0:0:0:0:
320,192,10809,1,0,0:0:0:0:
448,192,10855,1,0,0:0:0:0:
192,192,10902,1,0,0:0:0:0:
320,192,10949,1,0,0:0:0:0:
448,192,10996,1,0,0:0:0:0:
64,192,10996,1,0,0:0:0:0:
448,192,11182,1,0,0:0:0:0:
320,192,11229,1,0,0:0:0:0:
192,192,11276,1,0,0:0:0:0:
448,192,11322,1,0,0:0:0:0:
64,192,11369,1,0,0:0:0:0:
192,192,11416,1,0,0:0:0:0:
320,192,11462,1,0,0:0:0:0:
64,192,11556,1,0,0:0:0:0:
192,192,11556,1,0,0:0:0:0:
448,192,11696,1,0,0:0:0:0:
64,192,11836,1,0,0:0:0:0:
320,192,11884,1,0,0:0:0:0:
192,192,11929,1,0,0:0:0:0:
64,192,11976,1,0,0:0:0:0:
448,192,12024,1,0,0:0:0:0:
320,192,12069,1,0,0:0:0:0:
192,192,12116,1,0,0:0:0:0:
64,192,12116,1,0,0:0:0:0:
320,192,12209,1,0,0:0:0:0:
448,192,12256,1,0,0:0:0:0:
192,192,12396,1,0,0:0:0:0:
320,192,12444,1,0,0:0:0:0:
448,192,12489,1,0,0:0:0:0:
192,192,12536,1,0,0:0:0:0:
64,192,12584,1,0,0:0:0:0:
448,192,12629,1,0,0:0:0:0:
320,192,12676,1,0,0:0:0:0:
192,192,12676,1,0,0:0:0:0:
320,192,12816,1,0,0:0:0:0:
64,192,12956,1,0,0:0:0:0:
192,192,13004,1,0,0:0:0:0:
448,192,13051,1,0,0:0:0:0:
320,192,13096,1,0,0:0:0:0:
192,192,13144,1,0,0:0:0:0:
64,192,13191,1,0,0:0:0:0:
448,192,13236,1,0,0:0:0:0:
320,192,13236,1,0,0:0:0:0:
192,192,13376,1,0,0:0:0:0:
320,192,13516,1,0,0:0:0:0:
448,192,13564,1,0,0:0:0:0:
64,192,13611,1,0,0:0:0:0:
192,192,13656,1,0,0:0:0:0:
320,192,13704,1,0,0:0:0:0:
448,192,13751,1,0,0:0:0:0:
192,192,13796,1,0,0:0:0:0:
64,192,13796,1,0,0:0:0:0:
320,192,13938,1,0,0:0:0:0:
64,192,14078,1,0,0:0:0:0:
448,192,14124,1,0,0:0:0:0:
320,192,14171,1,0,0:0:0:0:
192,192,14218,1,0,0:0:0:0:
64,192,14264,1,0,0:0:0:0:
192,192,14311,1,0,0:0:0:0:
320,192,14358,1,0,0:0:0:0:
448,192,14358,1,0,0:0:0:0:
320,192,14498,1,0,0:0:0:0:
192,192,14638,1,0,0:0:0:0:
64,192,14778,1,0,0:0:0:0:
448,192,14918,1,0,0:0:0:0:
320,192,14965,1,0,0:0:0:0:
64,192,15011,1,0,0:0:0:0:
448,192,15058,1,0,0:0:0:0:
320,192,15105,1,0,0:0:0:0:
192,192,15151,1,0,0:0:0:0:
448,192,15198,1,0,0:0:0:0:
320,192,15245,1,0,0:0:0:0:
64,192,15291,1,0,0:0:0:0:
448,192,15338,1,0,0:0:0:0:
320,192,15385,1,0,0:0:0:0:
192,192,15431,1,0,0:0:0:0:
448,192,15478,1,0,0:0:0:0:
64,192,15478,1,0,0:0:0:0:
64,192,15665,1,0,0:0:0:0:
192,192,15711,1,0,0:0:0:0:
320,192,15758,1,0,0:0:0:0:
64,192,15805,1,0,0:0:0:0:
448,192,15852,1,0,0:0:0:0:
320,192,15898,1,0,0:0:0:0:
192,192,15945,1,0,0:0:0:0:
448,192,16038,1,0,0:0:0:0:
320,192,16038,1,0,0:0:0:0:
64,192,16178,1,0,0:0:0:0:
448,192,16318,1,0,0:0:0:0:
192,192,16365,1,0,0:0:0:0:
320,192,16412,1,0,0:0:0:0:
448,192,16458,1,0,0:0:0:0:
64,192,16505,1,0,0:0:0:0:
192,192,16552,1,0,0:0:0:0:
320,192,16598,1,0,0:0:0:0:
448,192,16598,1,0,0:0:0:0:
192,192,16692,1,0,0:0:0:0:
64,192,16738,1,0,0:0:0:0:
320,192,16879,1,0,0:0:0:0:
192,192,16925,1,0,0:0:0:0:
64,192,16972,1,0,0:0:0:0:
320,192,17019,1,0,0:0:0:0:
448,192,17065,1,0,0:0:0:0:
64,192,17112,1,0,0:0:0:0:
192,192,17159,1,0,0:0:0:0:
320,192,17159,1,0,0:0:0:0:
192,192,17299,1,0,0:0:0:0:
448,192,17439,1,0,0:0:0:0:
320,192,17485,1,0,0:0:0:0:
64,192,17532,1,0,0:0:0:0:
192,192,17579,1,0,0:0:0:0:
320,192,17625,1,0,0:0:0:0:
448,192,17672,1,0,0:0:0:0:
64,192,17719,1,0,0:0:0:0:
192,192,17719,1,0,0:0:0:0:
320,192,17859,1,0,0:0:0:0:
192,192,17999,1,0,0:0:0:0:
64,192,18046,1,0,0:0:0:0:
448,192,18092,1,0,0:0:0:0:
320,192,18139,1,0,0:0:0:0:
192,192,18186,1,0,0:0:0:0:
64,192,18232,1,0,0:0:0:0:
320,192,18279,1,0,0:0:0:0:
448,192,18279,1,0,0:0:0:0:
192,192,18419,1,0,0:0:0:0:
448,192,18559,1,0,0:0:0:0:
64,192,18606,1,0,0:0:0:0:
192,192,18652,1,0,0:0:0:0:
320,192,18699,1,0,0:0:0:0:
448,192,18746,1,0,0:0:0:0:
320,192,18793,1,0,0:0:0:0:
192,192,18839,1,0,0:0:0:0:
64,192,18839,1,0,0:0:0:0:
320,192,18979,1,0,0:0:0:0:
192,192,19119,1,0,0:0:0:0:
448,192,19259,1,0,0:0:0:0:
64,192,19399,1,0,0:0:0:0:
192,192,19446,1,0,0:0:0:0:
448,192,19493,1,0,0:0:0:0:
64,192,19539,1,0,0:0:0:0:
192,192,19586,1,0,0:0:0:0:
320,192,19633,1,0,0:0:0:0:
64,192,19679,1,0,0:0:0:0:
192,192,19726,1,0,0:0:0:0:
448,192,19773,1,0,0:0:0:0:
64,192,19820,1,0,0:0:0:0:
192,192,19866,1,0,0:0:0:0:
320,192,19913,1,0,0:0:0:0:
64,192,19960,1,0,0:0:0:0:
448,192,19960,1,0,0:0:0:0:
448,192,20146,1,0,0:0:0:0:
320,192,20193,1,0,0:0:0:0:
192,192,20240,1,0,0:0:0:0:
448,192,20286,1,0,0:0:0:0:
64,192,20333,1,0,0:0:0:0:
192,192,20380,1,0,0:0:0:0:
320,192,20426,1,0,0:0:0:0:
192,192,20520,1,0,0:0:0:0:
64,192,20520,1,0,0:0:0:0:
448,192,20660,1,0,0:0:0:0:
64,192,20800,1,0,0:0:0:0:
320,192,20847,1,0,0:0:0:0:
192,192,20893,1,0,0:0:0:0:
64,192,20940,1,0,0:0:0:0:
448,192,20987,1,0,0:0:0:0:
320,192,21033,1,0,0:0:0:0:
64,192,21080,1,0,0:0:0:0:
192,192,21080,1,0,0:0:0:0:
320,192,21173,1,0,0:0:0:0:
448,192,21220,1,0,0:0:0:0:
320,192,21267,1,0,0:0:0:0:
64,192,21313,1,0,0:0:0:0:
192,192,21360,1,0,0:0:0:0:
320,192,21407,1,0,0:0:0:0:
448,192,21453,1,0,0:0:0:0:
192,192,21500,1,0,0:0:0:0:
64,192,21547,1,0,0:0:0:0:
448,192,21593,1,0,0:0:0:0:
192,192,21640,1,0,0:0:0:0:
320,192,21640,1,0,0:0:0:0:
448,192,21734,1,0,0:0:0:0:
320,192,21780,1,0,0:0:0:0:
64,192,21827,1,0,0:0:0:0:
192,192,21874,1,0,0:0:0:0:
320,192,21920,1,0,0:0:0:0:
192,192,21967,1,0,0:0:0:0:
448,192,22014,1,0,0:0:0:0:
320,192,22060,1,0,0:0:0:0:
192,192,22107,1,0,0:0:0:0:
64,192,22154,1,0,0:0:0:0:
320,192,22200,1,0,0:0:0:0:
448,192,22200,1,0,0:0:0:0:
192,192,22340,1,0,0:0:0:0:
320,192,22480,1,0,0:0:0:0:
448,192,22527,1,0,0:0:0:0:
64,192,22574,1,0,0:0:0:0:
192,192,22620,1,0,0:0:0:0:
320,192,22667,1,0,0:0:0:0:
448,192,22714,1,0,0:0:0:0:
64,192,22761,1,0,0:0:0:0:
192,192,22761,1,0,0:0:0:0:
320,192,22901,1,0,0:0:0:0:
64,192,23041,1,0,0:0:0:0:
448,192,23087,1,0,0:0:0:0:
320,192,23134,1,0,0:0:0:0:
192,192,23181,1,0,0:0:0:0:
64,192,23227,1,0,0:0:0:0:
192,192,23274,1,0,0:0:0:0:
448,192,23321,1,0,0:0:0:0:
320,192,23321,1,0,0:0:0:0:
64,192,23461,1,0,0:0:0:0:
192,192,23601,1,0,0:0:0:0:
320,192,23741,1,0,0:0:0:0:
448,192,23881,1,0,0:0:0:0:
320,192,23928,1,0,0:0:0:0:
64,192,23974,1,0,0:0:0:0:
448,192,24021,1,0,0:0:0:0:
320,192,24068,1,0,0:0:0:0:
192,192,24114,1,0,0:0:0:0:
448,192,24161,1,0,0:0:0:0:
320,192,24208,1,0,0:0:0:0:
64,192,24254,1,0,0:0:0:0:
448,192,24301,1,0,0:0:0:0:
320,192,24348,1,0,0:0:0:0:
192,192,24394,1,0,0:0:0:0:
64,192,24441,1,0,0:0:0:0:
448,192,24441,1,0,0:0:0:0:
64,192,24628,1,0,0:0:0:0:
192,192,24675,1,0,0:0:0:0:
320,192,24721,1,0,0:0:0:0:
64,192,24768,1,0,0:0:0:0:
448,192,24815,1,0,0:0:0:0:
320,192,24861,1,0,0:0:0:0:
192,192,24908,1,0,0:0:0:0:
448,192,25001,1,0,0:0:0:0:
320,192,25001,1,0,0:0:0:0:
64,192,25141,1,0,0:0:0:0:
448,192,25281,1,0,0:0:0:0:
192,192,25328,1,0,0:0:0:0:
320,192,25375,1,0,0:0:0:0:
448,192,25421,1,0,0:0:0:0:
64,192,25468,1,0,0:0:0:0:
192,192,25515,1,0,0:0:0:0:
320,192,25561,1,0,0:0:0:0:
448,192,25561,1,0,0:0:0:0:
192,192,25655,1,0,0:0:0:0:
64,192,25702,1,0,0:0:0:0:
448,192,25748,1,0,0:0:0:0:
192,192,25795,1,0,0:0:0:0:
320,192,25842,1,0,0:0:0:0:
192,192,25888,1,0,0:0:0:0:
64,192,25935,1,0,0:0:0:0:
320,192,25982,1,0,0:0:0:0:
448,192,26028,1,0,0:0:0:0:
64,192,26075,1,0,0:0:0:0:
192,192,26122,1,0,0:0:0:0:
320,192,26122,1,0,0:0:0:0:
448,192,26215,1,0,0:0:0:0:
192,192,26262,1,0,0:0:0:0:
64,192,26308,1,0,0:0:0:0:
320,192,26355,1,0,0:0:0:0:
448,192,26402,1,0,0:0:0:0:
320,192,26448,1,0,0:0:0:0:
64,192,26495,1,0,0:0:0:0:
192,192,26542,1,0,0:0:0:0:
320,192,26589,1,0,0:0:0:0:
448,192,26635,1,0,0:0:0:0:
64,192,26682,1,0,0:0:0:0:
192,192,26682,1,0,0:0:0:0:
320,192,26822,1,0,0:0:0:0:
192,192,26962,1,0,0:0:0:0:
64,192,27009,1,0,0:0:0:0:
448,192,27055,1,0,0:0:0:0:
320,192,27102,1,0,0:0:0:0:
192,192,27149,1,0,0:0:0:0:
64,192,27195,1,0,0:0:0:0:
320,192,27242,1,0,0:0:0:0:
448,192,27242,1,0,0:0:0:0:
192,192,27382,1,0,0:0:0:0:
448,192,27522,1,0,0:0:0:0:
64,192,27569,1,0,0:0:0:0:
192,192,27616,1,0,0:0:0:0:
320,192,27662,1,0,0:0:0:0:
448,192,27709,1,0,0:0:0:0:
320,192,27756,1,0,0:0:0:0:
192,192,27802,1,0,0:0:0:0:
64,192,27802,1,0,0:0:0:0:
320,192,27942,1,0,0:0:0:0:
192,192,28082,1,0,0:0:0:0:
448,192,28222,1,0,0:0:0:0:
64,192,28362,1,0,0:0:0:0:
192,192,28409,1,0,0:0:0:0:
448,192,28456,1,0,0:0:0:0:
64,192,28502,1,0,0:0:0:0:
192,192,28549,1,0,0:0:0:0:
320,192,28596,1,0,0:0:0:0:
64,192,28644,1,0,0:0:0:0:
192,192,28689,1,0,0:0:0:0:
448,192,28736,1,0,0:0:0:0:
64,192,28784,1,0,0:0:0:0:
192,192,28829,1,0,0:0:0:0:
320,192,28876,1,0,0:0:0:0:
448,192,28924,1,0,0:0:0:0:
64,192,28924,1,0,0:0:0:0:
448,192,29109,1,0,0:0:0:0:
64,192,29156,1,0,0:0:0:0:
192,192,29204,1,0,0:0:0:0:
320,192,29249,1,0,0:0:0:0:
448,192,29296,1,0,0:0:0:0:
192,192,29344,1,0,0:0:0:0:
64,192,29389,1,0,0:0:0:0:
192,192,29484,1,0,0:0:0:0:
320,192,29484,1,0,0:0:0:0:
448,192,29624,1,0,0:0:0:0:
64,192,29764,1,0,0:0:0:0:
192,192,29811,1,0,0:0:0:0:
320,192,29856,1,0,0:0:0:0:
64,192,29904,1,0,0:0:0:0:
192,192,29951,1,0,0:0:0:0:
320,192,29996,1,0,0:0:0:0:
64,192,30044,1,0,0:0:0:0:
448,192,30044,1,0,0:0:0:0:
192,192,30136,1,0,0:0:0:0:
320,192,30184,1,0,0:0:0:0:
448,192,30231,1,0,0:0:0:0:
64,192,30276,1,0,0:0:0:0:
192,192,30324,1,0,0:0:0:0:
320,192,30371,1,0,0:0:0:0:
448,192,30416,1,0,0:0:0:0:
192,192,30464,1,0,0:0:0:0:
64,192,30511,1,0,0:0:0:0:
448,192,30558,1,0,0:0:0:0:
192,192,30604,1,0,0:0:0:0:
320,192,30604,1,0,0:0:0:0:
64,192,30698,1,0,0:0:0:0:
448,192,30744,1,0,0:0:0:0:
320,192,30791,1,0,0:0:0:0:
192,192,30838,1,0,0:0:0:0:
64,192,30884,1,0,0:0:0:0:
448,192,30931,1,0,0:0:0:0:
320,192,30978,1,0,0:0:0:0:
192,192,31024,1,0,0:0:0:0:
64,192,31071,1,0,0:0:0:0:
192,192,31118,1,0,0:0:0:0:
320,192,31164,1,0,0:0:0:0:
448,192,31164,1,0,0:0:0:0:
192,192,31304,1,0,0:0:0:0:
448,192,31444,1,0,0:0:0:0:
320,192,31491,1,0,0:0:0:0:
192,192,31538,1,0,0:0:0:0:
448,192,31585,1,0,0:0:0:0:
64,192,31631,1,0,0:0:0:0:
192,192,31678,1,0,0:0:0:0:
320,192,31725,1,0,0:0:0:0:
448,192,31725,1,0,0:0:0:0:
320,192,31865,1,0,0:0:0:0:
192,192,32005,1,0,0:0:0:0:
320,192,32051,1,0,0:0:0:0:
448,192,32098,1,0,0:0:0:0:
64,192,32145,1,0,0:0:0:0:
192,192,32191,1,0,0:0:0:0:
320,192,32238,1,0,0:0:0:0:
64,192,32285,1,0,0:0:0:0:
448,192,32285,1,0,0:0:0:0:
320,192,32425,1,0,0:0:0:0:
192,192,32565,1,0,0:0:0:0:
64,192,32705,1,0,0:0:0:0:
320,192,32845,1,0,0:0:0:0:
192,192,32892,1,0,0:0:0:0:
64,192,32938,1,0,0:0:0:0:
192,192,32985,1,0,0:0:0:0:
320,192,33032,1,0,0:0:0:0:
448,192,33078,1,0,0:0:0:0:
192,192,33125,1,0,0:0:0:0:
320,192,33172,1,0,0:0:0:0:
64,192,33218,1,0,0:0:0:0:
192,192,33265,1,0,0:0:0:0:
448,192,33312,1,0,0:0:0:0:
320,192,33358,1,0,0:0:0:0:
448,192,33405,1,0,0:0:0:0:
64,192,33405,1,0,0:0:0:0:
64,192,33592,1,0,0:0:0:0:
448,192,33639,1,0,0:0:0:0:
320,192,33685,1,0,0:0:0:0:
192,192,33732,1,0,0:0:0:0:
64,192,33779,1,0,0:0:0:0:
320,192,33825,1,0,0:0:0:0:
448,192,33872,1,0,0:0:0:0:
320,192,33965,1,0,0:0:0:0:
192,192,33965,1,0,0:0:0:0:
64,192,34105,1,0,0:0:0:0:
448,192,34245,1,0,0:0:0:0:
320,192,34292,1,0,0:0:0:0:
192,192,34339,1,0,0:0:0:0:
448,192,34385,1,0,0:0:0:0:
320,192,34432,1,0,0:0:0:0:
192,192,34479,1,0,0:0:0:0:
448,192,34526,1,0,0:0:0:0:
64,192,34526,1,0,0:0:0:0:
320,192,34619,1,0,0:0:0:0:
192,192,34666,1,0,0:0:0:0:
64,192,34712,1,0,0:0:0:0:
448,192,34759,1,0,0:0:0:0:
320,192,34806,1,0,0:0:0:0:
192,192,34852,1,0,0:0:0:0:
64,192,34899,1,0,0:0:0:0:
320,192,34946,1,0,0:0:0:0:
448,192,34992,1,0,0:0:0:0:
64,192,35039,1,0,0:0:0:0:
320,192,35086,1,0,0:0:0:0:
192,192,35086,1,0,0:0:0:0:
448,192,35179,1,0,0:0:0:0:
64,192,35226,1,0,0:0:0:0:
192,192,35272,1,0,0:0:0:0:
320,192,35319,1,0,0:0:0:0:
448,192,35366,1,0,0:0:0:0:
64,192,35413,1,0,0:0:0:0:
192,192,35459,1,0,0:0:0:0:
320,192,35506,1,0,0:0:0:0:
448,192,35553,1,0,0:0:0:0:
320,192,35599,1,0,0:0:0:0:
192,192,35646,1,0,0:0:0:0:
64,192,35646,1,0,0:0:0:0:
320,192,35786,1,0,0:0:0:0:
64,192,35926,1,0,0:0:0:0:
192,192,35973,1,0,0:0:0:0:
320,192,36019,1,0,0:0:0:0:
64,192,36066,1,0,0:0:0:0:
448,192,36113,1,0,0:0:0:0:
320,192,36159,1,0,0:0:0:0:
192,192,36206,1,0,0:0:0:0:
64,192,36206,1,0,0:0:0:0:
192,192,36346,1,0,0:0:0:0:
320,192,36486,1,0,0:0:0:0:
192,192,36533,1,0,0:0:0:0:
64,192,36580,1,0,0:0:0:0:
448,192,36626,1,0,0:0:0:0:
320,192,36673,1,0,0:0:0:0:
192,192,36720,1,0,0:0:0:0:
448,192,36766,1,0,0:0:0:0:
64,192,36766,1,0,0:0:0:0:
192,192,36906,1,0,0:0:0:0:
320,192,37046,1,0,0:0:0:0:
448,192,37186,1,0,0:0:0:0:
192,192,37326,1,0,0:0:0:0:
320,192,37373,1,0,0:0:0:0:
448,192,37420,1,0,0:0:0:0:
320,192,37467,1,0,0:0:0:0:
192,192,37513,1,0,0:0:0:0:
64,192,37560,1,0,0:0:0:0:
320,192,37607,1,0,0:0:0:0:
192,192,37653,1,0,0:0:0:0:
448,192,37700,1,0,0:0:0:0:
320,192,37747,1,0,0:0:0:0:
64,192,37793,1,0,0:0:0:0:
192,192,37840,1,0,0:0:0:0:
64,192,37887,1,0,0:0:0:0:
448,192,37887,1,0,0:0:0:0:
448,192,38073,1,0,0:0:0:0:
64,192,38120,1,0,0:0:0:0:
192,192,38167,1,0,0:0:0:0:
320,192,38213,1,0,0:0:0:0:
448,192,38260,1,0,0:0:0:0:
192,192,38307,1,0,0:0:0:0:
64,192,38354,1,0,0:0:0:0:
320,192,38447,1,0,0:0:0:0:
192,192,38447,1,0,0:0:0:0:
448,192,38587,1,0,0:0:0:0:
64,192,38727,1,0,0:0:0:0:
192,192,38774,1,0,0:0:0:0:
320,192,38820,1,0,0:0:0:0:
64,192,38867,1,0,0:0:0:0:
192,192,38914,1,0,0:0:0:0:
320,192,38960,1,0,0:0:0:0:
448,192,39007,1,0,0:0:0:0:
64,192,39007,1,0,0:0:0:0:
192,192,39100,1,0,0:0:0:0:
320,192,39147,1,0,0:0:0:0:
448,192,39194,1,0,0:0:0:0:
64,192,39240,1,0,0:0:0:0:
192,192,39287,1,0,0:0:0:0:
320,192,39334,1,0,0:0:0:0:
448,192,39381,1,0,0:0:0:0:
192,192,39427,1,0,0:0:0:0:
64,192,39474,1,0,0:0:0:0:
448,192,39521,1,0,0:0:0:0:
320,192,39567,1,0,0:0:0:0:
192,192,39567,1,0,0:0:0:0:
64,192,39661,1,0,0:0:0:0:
448,192,39707,1,0,0:0:0:0:
320,192,39754,1,0,0:0:0:0:
192,192,39801,1,0,0:0:0:0:
64,192,39847,1,0,0:0:0:0:
448,192,39894,1,0,0:0:0:0:
320,192,39941,1,0,0:0:0:0:
192,192,39987,1,0,0:0:0:0:
64,192,40034,1,0,0:0:0:0:
192,192,40081,1,0,0:0:0:0:
448,192,40127,1,0,0:0:0:0:
320,192,40127,1,0,0:0:0:0:
192,192,40267,1,0,0:0:0:0:
448,192,40408,1,0,0:0:0:0:
320,192,40454,1,0,0:0:0:0:
192,192,40501,1,0,0:0:0:0:
448,192,40548,1,0,0:0:0:0:
64,192,40594,1,0,0:0:0:0:
192,192,40641,1,0,0:0:0:0:
448,192,40688,1,0,0:0:0:0:
320,192,40688,1,0,0:0:0:0:
320,192,40828,1,0,0:0:0:0:
192,192,40968,1,0,0:0:0:0:
320,192,41014,1,0,0:0:0:0:
448,192,41061,1,0,0:0:0:0:
64,192,41108,1,0,0:0:0:0:
192,192,41154,1,0,0:0:0:0:
320,192,41201,1,0,0:0:0:0:
448,192,41248,1,0,0:0:0:0:
64,192,41248,1,0,0:0:0:0:
320,192,41388,1,0,0:0:0:0:
192,192,41528,1,0,0:0:0:0:
64,192,41668,1,0,0:0:0:0:
320,192,41808,1,0,0:0:0:0:
448,192,41855,1,0,0:0:0:0:
64,192,41901,1,0,0:0:0:0:
192,192,41948,1,0,0:0:0:0:
320,192,41995,1,0,0:0:0:0:
448,192,42041,1,0,0:0:0:0:
192,192,42088,1,0,0:0:0:0:
320,192,42135,1,0,0:0:0:0:
64,192,42181,1,0,0:0:0:0:
192,192,42228,1,0,0:0:0:0:
320,192,42275,1,0,0:0:0:0:
192,192,42322,1,0,0:0:0:0:
448,192,42368,1,0,0:0:0:0:
64,192,42368,1,0,0:0:0:0:
64,192,42555,1,0,0:0:0:0:
448,192,42602,1,0,0:0:0:0:
320,192,42648,1,0,0:0:0:0:
192,192,42695,1,0,0:0:0:0:
64,192,42742,1,0,0:0:0:0:
320,192,42788,1,0,0:0:0:0:
448,192,42835,1,0,0:0:0:0:
320,192,42928,1,0,0:0:0:0:
192,192,42928,1,0,0:0:0:0:
64,192,43068,1,0,0:0:0:0:
448,192,43208,1,0,0:0:0:0:
320,192,43255,1,0,0:0:0:0:
192,192,43302,1,0,0:0:0:0:
448,192,43349,1,0,0:0:0:0:
320,192,43395,1,0,0:0:0:0:
192,192,43442,1,0,0:0:0:0:
448,192,43489,1,0,0:0:0:0:
64,192,43489,1,0,0:0:0:0:
320,192,43582,1,0,0:0:0:0:
192,192,43629,1,0,0:0:0:0:
64,192,43675,1,0,0:0:0:0:
448,192,43722,1,0,0:0:0:0:
320,192,43769,1,0,0:0:0:0:
192,192,43815,1,0,0:0:0:0:
64,192,43862,1,0,0:0:0:0:
320,192,43909,1,0,0:0:0:0:
448,192,43955,1,0,0:0:0:0:
64,192,44002,1,0,0:0:0:0:
320,192,44049,1,0,0:0:0:0:
192,192,44049,1,0,0:0:0:0:
448,192,44142,1,0,0:0:0:0:
64,192,44189,1,0,0:0:0:0:
192,192,44236,1,0,0:0:0:0:
320,192,44282,1,0,0:0:0:0:
448,192,44329,1,0,0:0:0:0:
64,192,44376,1,0,0:0:0:0:
192,192,44422,1,0,0:0:0:0:
320,192,44469,1,0,0:0:0:0:
448,192,44516,1,0,0:0:0:0:
320,192,44562,1,0,0:0:0:0:
192,192,44609,1,0,0:0:0:0:
64,192,44609,1,0,0:0:0:0:
320,192,44749,1,0,0:0:0:0:
64,192,44889,1,0,0:0:0:0:
192,192,44936,1,0,0:0:0:0:
320,192,44982,1,0,0:0:0:0:
64,192,45029,1,0,0:0:0:0:
448,192,45076,1,0,0:0:0:0:
320,192,45122,1,0,0:0:0:0:
192,192,45169,1,0,0:0:0:0:
64,192,45169,1,0,0:0:0:0:
192,192,45309,1,0,0:0:0:0:
320,192,45449,1,0,0:0:0:0:
192,192,45496,1,0,0:0:0:0:
64,192,45544,1,0,0:0:0:0:
448,192,45589,1,0,0:0:0:0:
320,192,45636,1,0,0:0:0:0:
192,192,45684,1,0,0:0:0:0:
448,192,45729,1,0,0:0:0:0:
64,192,45729,1,0,0:0:0:0:
192,192,45869,1,0,0:0:0:0:
320,192,46009,1,0,0:0:0:0:
448,192,46149,1,0,0:0:0:0:
192,192,46291,1,0,0:0:0:0:
64,192,46336,1,0,0:0:0:0:
448,192,46384,1,0,0:0:0:0:
320,192,46431,1,0,0:0:0:0:
192,192,46476,1,0,0:0:0:0:
64,192,46524,1,0,0:0:0:0:
448,192,46571,1,0,0:0:0:0:
192,192,46616,1,0,0:0:0:0:
320,192,46664,1,0,0:0:0:0:
64,192,46711,1,0,0:0:0:0:
448,192,46756,1,0,0:0:0:0:
320,192,46804,1,0,0:0:0:0:
64,192,46851,1,0,0:0:0:0:
192,192,46896,1,0,0:0:0:0:
320,192,46944,1,0,0:0:0:0:
448,192,46991,1,0,0:0:0:0:
64,192,47036,1,0,0:0:0:0:
192,192,47084,1,0,0:0:0:0:
320,192,47131,1,0,0:0:0:0:
448,192,47178,1,0,0:0:0:0:
64,192,47224,1,0,0:0:0:0:
192,192,47271,1,0,0:0:0:0:
320,192,47318,1,0,0:0:0:0:
448,192,47364,1,0,0:0:0:0:
320,192,47411,1,0,0:0:0:0:
192,192,47458,1,0,0:0:0:0:
64,192,47504,1,0,0:0:0:0:
448,192,47551,1,0,0:0:0:0:
320,192,47598,1,0,0:0:0:0:
192,192,47644,1,0,0:0:0:0:
64,192,47691,1,0,0:0:0:0:
448,192,47738,1,0,0:0:0:0:
320,192,47784,1,0,0:0:0:0:
192,192,47831,1,0,0:0:0:0:
64,192,47878,1,0,0:0:0:0:
448,192,47924,1,0,0:0:0:0:
320,192,47971,1,0,0:0:0:0:
192,192,48018,1,0,0:0:0:0:
64,192,48064,1,0,0:0:0:0:
448,192,48111,1,0,0:0:0:0:
320,192,48158,1,0,0:0:0:0:
192,192,48205,1,0,0:0:0:0:
64,192,48251,1,0,0:0:0:0:
448,192,48251,1,0,0:0:0:0:
320,192,48345,1,0,0:0:0:0:
192,192,48438,1,0,0:0:0:0:
448,192,48531,1,0,0:0:0:0:
320,192,48531,1,0,0:0:0:0:
64,192,48625,1,0,0:0:0:0:
448,192,48718,1,0,0:0:0:0:
320,192,48811,1,0,0:0:0:0:
192,192,48811,1,0,0:0:0:0:
64,192,48905,1,0,0:0:0:0:
448,192,48998,1,0,0:0:0:0:
64,192,49091,1,0,0:0:0:0:
192,192,49138,1,0,0:0:0:0:
320,192,49185,1,0,0:0:0:0:
448,192,49232,1,0,0:0:0:0:
64,192,49278,1,0,0:0:0:0:
192,192,49325,1,0,0:0:0:0:
320,192,49372,1,0,0:0:0:0:
448,192,49418,1,0,0:0:0:0:
64,192,49465,1,0,0:0:0:0:
192,192,49512,1,0,0:0:0:0:
320,192,49558,1,0,0:0:0:0:
448,192,49605,1,0,0:0:0:0:
320,192,49652,1,0,0:0:0:0:
192,192,49698,1,0,0:0:0:0:
64,192,49745,1,0,0:0:0:0:
448,192,49792,1,0,0:0:0:0:
320,192,49838,1,0,0:0:0:0:
192,192,49885,1,0,0:0:0:0:
64,192,49932,1,0,0:0:0:0:
448,192,49978,1,0,0:0:0:0:
320,192,50025,1,0,0:0:0:0:
192,192,50072,1,0,0:0:0:0:
64,192,50119,1,0,0:0:0:0:
448,192,50165,1,0,0:0:0:0:
320,192,50212,1,0,0:0:0:0:
192,192,50259,1,0,0:0:0:0:
64,192,50305,1,0,0:0:0:0:
448,192,50352,1,0,0:0:0:0:
320,192,50399,1,0,0:0:0:0:
192,192,50445,1,0,0:0:0:0:
64,192,50492,1,0,0:0:0:0:
448,192,50492,1,0,0:0:0:0:
192,192,50585,1,0,0:0:0:0:
320,192,50679,1,0,0:0:0:0:
192,192,50772,1,0,0:0:0:0:
448,192,50772,1,0,0:0:0:0:
320,192,50865,1,0,0:0:0:0:
64,192,50959,1,0,0:0:0:0:
320,192,51052,1,0,0:0:0:0:
192,192,51052,1,0,0:0:0:0:
448,192,51146,1,0,0:0:0:0:
320,192,51239,1,0,0:0:0:0:
64,192,51332,1,0,0:0:0:0:
192,192,51379,1,0,0:0:0:0:
320,192,51426,1,0,0:0:0:0:
448,192,51472,1,0,0:0:0:0:
64,192,51519,1,0,0:0:0:0:
192,192,51566,1,0,0:0:0:0:
320,192,51612,1,0,0:0:0:0:
448,192,51659,1,0,0:0:0:0:
64,192,51706,1,0,0:0:0:0:
192,192,51752,1,0,0:0:0:0:
320,192,51799,1,0,0:0:0:0:
448,192,51846,1,0,0:0:0:0:
320,192,51892,1,0,0:0:0:0:
192,192,51939,1,0,0:0:0:0:
64,192,51986,1,0,0:0:0:0:
448,192,52032,1,0,0:0:0:0:
320,192,52079,1,0,0:0:0:0:
192,192,52126,1,0,0:0:0:0:
64,192,52173,1,0,0:0:0:0:
448,192,52219,1,0,0:0:0:0:
320,192,52266,1,0,0:0:0:0:
192,192,52313,1,0,0:0:0:0:
64,192,52359,1,0,0:0:0:0:
448,192,52406,1,0,0:0:0:0:
320,192,52453,1,0,0:0:0:0:
192,192,52499,1,0,0:0:0:0:
64,192,52546,1,0,0:0:0:0:
448,192,52593,1,0,0:0:0:0:
320,192,52639,1,0,0:0:0:0:
192,192,52686,1,0,0:0:0:0:
448,192,52733,1,0,0:0:0:0:
64,192,52733,1,0,0:0:0:0:
320,192,52826,1,0,0:0:0:0:
448,192,52919,1,0,0:0:0:0:
192,192,53013,1,0,0:0:0:0:
64,192,53013,1,0,0:0:0:0:
320,192,53106,1,0,0:0:0:0:
192,192,53200,1,0,0:0:0:0:
320,192,53293,1,0,0:0:0:0:
448,192,53293,1,0,0:0:0:0:
64,192,53386,1,0,0:0:0:0:
192,192,53480,1,0,0:0:0:0:
448,192,53573,1,0,0:0:0:0:
64,192,53573,1,0,0:0:0:0:
320,192,53620,1,0,0:0:0:0:
192,192,53713,1,0,0:0:0:0:
320,192,53853,1,0,0:0:0:0:
64,192,53993,1,0,0:0:0:0:
448,192,53993,1,0,0:0:0:0:
320,192,54040,1,0,0:0:0:0:
192,192,54133,1,0,0:0:0:0:
448,192,54273,1,0,0:0:0:0:
64,192,54413,1,0,0:0:0:0:
320,192,54413,1,0,0:0:0:0:
192,192,54460,1,0,0:0:0:0:
448,192,54484,1,0,0:0:0:0:
448,192,54693,1,0,0:0:0:0:
64,192,54693,1,0,0:0:0:0:
320,192,54740,1,0,0:0:0:0:
192,192,54787,1,0,0:0:0:0:
64,192,54833,1,0,0:0:0:0:
448,192,54880,1,0,0:0:0:0:
320,192,54927,1,0,0:0:0:0:
192,192,54973,1,0,0:0:0:0:
448,192,55020,1,0,0:0:0:0:
320,192,55067,1,0,0:0:0:0:
64,192,55114,1,0,0:0:0:0:
192,192,55160,1,0,0:0:0:0:
320,192,55207,1,0,0:0:0:0:
448,192,55254,1,0,0:0:0:0:
64,192,55300,1,0,0:0:0:0:
192,192,55347,1,0,0:0:0:0:
320,192,55394,1,0,0:0:0:0:
64,192,55440,1,0,0:0:0:0:
192,192,55487,1,0,0:0:0:0:
320,192,55534,1,0,0:0:0:0:
448,192,55580,1,0,0:0:0:0:
192,192,55627,1,0,0:0:0:0:
320,192,55674,1,0,0:0:0:0:
448,192,55720,1,0,0:0:0:0:
64,192,55814,1,0,0:0:0:0:
192,192,55860,1,0,0:0:0:0:
320,192,55907,1,0,0:0:0:0:
448,192,55954,1,0,0:0:0:0:
64,192,56001,1,0,0:0:0:0:
192,192,56047,1,0,0:0:0:0:
320,192,56094,1,0,0:0:0:0:
448,192,56141,1,0,0:0:0:0:
64,192,56187,1,0,0:0:0:0:
192,192,56234,1,0,0:0:0:0:
320,192,56281,1,0,0:0:0:0:
448,192,56327,1,0,0:0:0:0:
320,192,56374,1,0,0:0:0:0:
192,192,56421,1,0,0:0:0:0:
64,192,56467,1,0,0:0:0:0:
448,192,56514,1,0,0:0:0:0:
320,192,56561,1,0,0:0:0:0:
192,192,56607,1,0,0:0:0:0:
64,192,56654,1,0,0:0:0:0:
448,192,56701,1,0,0:0:0:0:
320,192,56747,1,0,0:0:0:0:
192,192,56794,1,0,0:0:0:0:
64,192,56841,1,0,0:0:0:0:
448,192,56887,1,0,0:0:0:0:
320,192,56934,1,0,0:0:0:0:
192,192,56981,1,0,0:0:0:0:
64,192,57028,1,0,0:0:0:0:
448,192,57074,1,0,0:0:0:0:
320,192,57121,1,0,0:0:0:0:
192,192,57168,1,0,0:0:0:0:
64,192,57214,1,0,0:0:0:0:
448,192,57214,1,0,0:0:0:0:
320,192,57308,1,0,0:0:0:0:
192,192,57401,1,0,0:0:0:0:
448,192,57494,1,0,0:0:0:0:
320,192,57494,1,0,0:0:0:0:
64,192,57588,1,0,0:0:0:0:
448,192,57681,1,0,0:0:0:0:
320,192,57774,1,0,0:0:0:0:
192,192,57774,1,0,0:0:0:0:
64,192,57868,1,0,0:0:0:0:
448,192,57961,1,0,0:0:0:0:
64,192,58055,1,0,0:0:0:0:
192,192,58101,1,0,0:0:0:0:
320,192,58148,1,0,0:0:0:0:
448,192,58195,1,0,0:0:0:0:
64,192,58241,1,0,0:0:0:0:
192,192,58288,1,0,0:0:0:0:
320,192,58335,1,0,0:0:0:0:
448,192,58381,1,0,0:0:0:0:
64,192,58428,1,0,0:0:0:0:
192,192,58475,1,0,0:0:0:0:
320,192,58521,1,0,0:0:0:0:
448,192,58568,1,0,0:0:0:0:
320,192,58615,1,0,0:0:0:0:
192,192,58661,1,0,0:0:0:0:
64,192,58708,1,0,0:0:0:0:
448,192,58755,1,0,0:0:0:0:
320,192,58801,1,0,0:0:0:0:
192,192,58848,1,0,0:0:0:0:
64,192,58895,1,0,0:0:0:0:
448,192,58942,1,0,0:0:0:0:
320,192,58988,1,0,0:0:0:0:
192,192,59035,1,0,0:0:0:0:
64,192,59082,1,0,0:0:0:0:
448,192,59128,1,0,0:0:0:0:
320,192,59175,1,0,0:0:0:0:
192,192,59222,1,0,0:0:0:0:
64,192,59268,1,0,0:0:0:0:
448,192,59315,1,0,0:0:0:0:
320,192,59362,1,0,0:0:0:0:
192,192,59408,1,0,0:0:0:0:
64,192,59455,1,0,0:0:0:0:
448,192,59455,1,0,0:0:0:0:
192,192,59548,1,0,0:0:0:0:
320,192,59642,1,0,0:0:0:0:
192,192,59735,1,0,0:0:0:0:
448,192,59735,1,0,0:0:0:0:
320,192,59828,1,0,0:0:0:0:
64,192,59922,1,0,0:0:0:0:
320,192,60015,1,0,0:0:0:0:
192,192,60015,1,0,0:0:0:0:
448,192,60109,1,0,0:0:0:0:
320,192,60202,1,0,0:0:0:0:
64,192,60295,1,0,0:0:0:0:
192,192,60342,1,0,0:0:0:0:
320,192,60389,1,0,0:0:0:0:
448,192,60435,1,0,0:0:0:0:
64,192,60482,1,0,0:0:0:0:
192,192,60529,1,0,0:0:0:0:
320,192,60575,1,0,0:0:0:0:
448,192,60622,1,0,0:0:0:0:
64,192,60669,1,0,0:0:0:0:
192,192,60715,1,0,0:0:0:0:
320,192,60762,1,0,0:0:0:0:
448,192,60809,1,0,0:0:0:0:
320,192,60855,1,0,0:0:0:0:
192,192,60902,1,0,0:0:0:0:
64,192,60949,1,0,0:0:0:0:
448,192,60996,1,0,0:0:0:0:
320,192,61042,1,0,0:0:0:0:
192,192,61089,1,0,0:0:0:0:
64,192,61136,1,0,0:0:0:0:
448,192,61182,1,0,0:0:0:0:
320,192,61229,1,0,0:0:0:0:
192,192,61276,1,0,0:0:0:0:
64,192,61322,1,0,0:0:0:0:
448,192,61369,1,0,0:0:0:0:
320,192,61416,1,0,0:0:0:0:
192,192,61462,1,0,0:0:0:0:
64,192,61509,1,0,0:0:0:0:
448,192,61556,1,0,0:0:0:0:
320,192,61602,1,0,0:0:0:0:
192,192,61649,1,0,0:0:0:0:
448,192,61696,1,0,0:0:0:0:
64,192,61696,1,0,0:0:0:0:
320,192,61789,1,0,0:0:0:0:
448,192,61884,1,0,0:0:0:0:
192,192,61976,1,0,0:0:0:0:
64,192,61976,1,0,0:0:0:0:
320,192,62069,1,0,0:0:0:0:
192,192,62164,1,0,0:0:0:0:
320,192,62256,1,0,0:0:0:0:
448,192,62256,1,0,0:0:0:0:
64,192,62349,1,0,0:0:0:0:
192,192,62444,1,0,0:0:0:0:
448,192,62536,1,0,0:0:0:0:
64,192,62536,1,0,0:0:0:0:
320,192,62584,1,0,0:0:0:0:
192,192,62676,1,0,0:0:0:0:
320,192,62816,1,0,0:0:0:0:
64,192,62956,1,0,0:0:0:0:
448,192,62956,1,0,0:0:0:0:
320,192,63004,1,0,0:0:0:0:
192,192,63096,1,0,0:0:0:0:
448,192,63236,1,0,0:0:0:0:
64,192,63376,1,0,0:0:0:0:
320,192,63376,1,0,0:0:0:0:
192,192,63424,1,0,0:0:0:0:
448,192,63447,1,0,0:0:0:0:
448,192,63656,1,0,0:0:0:0:
64,192,63656,1,0,0:0:0:0:
320,192,63704,1,0,0:0:0:0:
192,192,63751,1,0,0:0:0:0:
64,192,63796,1,0,0:0:0:0:
448,192,63844,1,0,0:0:0:0:
320,192,63891,1,0,0:0:0:0:
192,192,63938,1,0,0:0:0:0:
448,192,63984,1,0,0:0:0:0:
320,192,64031,1,0,0:0:0:0:
64,192,64078,1,0,0:0:0:0:
192,192,64124,1,0,0:0:0:0:
320,192,64171,1,0,0:0:0:0:
448,192,64218,1,0,0:0:0:0:
64,192,64264,1,0,0:0:0:0:
192,192,64311,1,0,0:0:0:0:
320,192,64358,1,0,0:0:0:0:
64,192,64404,1,0,0:0:0:0:
192,192,64451,1,0,0:0:0:0:
320,192,64498,1,0,0:0:0:0:
448,192,64544,1,0,0:0:0:0:
192,192,64591,1,0,0:0:0:0:
320,192,64638,1,0,0:0:0:0:
448,192,64684,1,0,0:0:0:0:
64,192,64778,1,0,0:0:0:0:
192,192,64778,1,0,0:0:0:0:
320,192,64825,1,0,0:0:0:0:
448,192,64871,1,0,0:0:0:0:
192,192,64918,1,0,0:0:0:0:
320,192,64965,1,0,0:0:0:0:
448,192,65011,1,0,0:0:0:0:
192,192,65058,1,0,0:0:0:0:
320,192,65105,1,0,0:0:0:0:
448,192,65151,1,0,0:0:0:0:
192,192,65198,1,0,0:0:0:0:
320,192,65245,1,0,0:0:0:0:
448,192,65291,1,0,0:0:0:0:
320,192,65338,1,0,0:0:0:0:
192,192,65385,1,0,0:0:0:0:
64,192,65431,1,0,0:0:0:0:
320,192,65478,1,0,0:0:0:0:
192,192,65525,1,0,0:0:0:0:
64,192,65571,1,0,0:0:0:0:
320,192,65618,1,0,0:0:0:0:
192,192,65665,1,0,0:0:0:0:
64,192,65711,1,0,0:0:0:0:
320,192,65758,1,0,0:0:0:0:
192,192,65805,1,0,0:0:0:0:
64,192,65852,1,0,0:0:0:0:
320,192,65898,1,0,0:0:0:0:
192,192,65945,1,0,0:0:0:0:
64,192,65992,1,0,0:0:0:0:
320,192,66038,1,0,0:0:0:0:
192,192,66085,1,0,0:0:0:0:
64,192,66132,1,0,0:0:0:0:
192,192,66178,1,0,0:0:0:0:
448,192,66178,1,0,0:0:0:0:
320,192,66272,1,0,0:0:0:0:
192,192,66365,1,0,0:0:0:0:
448,192,66458,1,0,0:0:0:0:
320,192,66458,1,0,0:0:0:0:
64,192,66552,1,0,0:0:0:0:
448,192,66645,1,0,0:0:0:0:
320,192,66738,1,0,0:0:0:0:
192,192,66738,1,0,0:0:0:0:
64,192,66832,1,0,0:0:0:0:
448,192,66925,1,0,0:0:0:0:
192,192,67019,1,0,0:0:0:0:
320,192,67065,1,0,0:0:0:0:
448,192,67112,1,0,0:0:0:0:
192,192,67159,1,0,0:0:0:0:
320,192,67205,1,0,0:0:0:0:
448,192,67252,1,0,0:0:0:0:
192,192,67299,1,0,0:0:0:0:
320,192,67345,1,0,0:0:0:0:
448,192,67392,1,0,0:0:0:0:
192,192,67439,1,0,0:0:0:0:
320,192,67485,1,0,0:0:0:0:
448,192,67532,1,0,0:0:0:0:
320,192,67579,1,0,0:0:0:0:
192,192,67625,1,0,0:0:0:0:
64,192,67672,1,0,0:0:0:0:
320,192,67719,1,0,0:0:0:0:
192,192,67766,1,0,0:0:0:0:
64,192,67812,1,0,0:0:0:0:
320,192,67859,1,0,0:0:0:0:
192,192,67906,1,0,0:0:0:0:
64,192,67952,1,0,0:0:0:0:
320,192,67999,1,0,0:0:0:0:
192,192,68046,1,0,0:0:0:0:
64,192,68092,1,0,0:0:0:0:
320,192,68139,1,0,0:0:0:0:
192,192,68186,1,0,0:0:0:0:
64,192,68232,1,0,0:0:0:0:
320,192,68279,1,0,0:0:0:0:
192,192,68326,1,0,0:0:0:0:
64,192,68372,1,0,0:0:0:0:
320,192,68419,1,0,0:0:0:0:
448,192,68419,1,0,0:0:0:0:
192,192,68512,1,0,0:0:0:0:
320,192,68606,1,0,0:0:0:0:
192,192,68699,1,0,0:0:0:0:
448,192,68699,1,0,0:0:0:0:
320,192,68793,1,0,0:0:0:0:
64,192,68886,1,0,0:0:0:0:
320,192,68979,1,0,0:0:0:0:
192,192,68979,1,0,0:0:0:0:
448,192,69073,1,0,0:0:0:0:
320,192,69166,1,0,0:0:0:0:
192,192,69259,1,0,0:0:0:0:
64,192,69259,1,0,0:0:0:0:
320,192,69306,1,0,0:0:0:0:
448,192,69353,1,0,0:0:0:0:
192,192,69399,1,0,0:0:0:0:
320,192,69446,1,0,0:0:0:0:
448,192,69493,1,0,0:0:0:0:
192,192,69539,1,0,0:0:0:0:
320,192,69586,1,0,0:0:0:0:
448,192,69633,1,0,0:0:0:0:
192,192,69679,1,0,0:0:0:0:
320,192,69726,1,0,0:0:0:0:
448,192,69773,1,0,0:0:0:0:
320,192,69820,1,0,0:0:0:0:
192,192,69866,1,0,0:0:0:0:
64,192,69913,1,0,0:0:0:0:
320,192,69960,1,0,0:0:0:0:
192,192,70006,1,0,0:0:0:0:
64,192,70053,1,0,0:0:0:0:
320,192,70100,1,0,0:0:0:0:
192,192,70146,1,0,0:0:0:0:
64,192,70193,1,0,0:0:0:0:
320,192,70240,1,0,0:0:0:0:
192,192,70286,1,0,0:0:0:0:
64,192,70333,1,0,0:0:0:0:
320,192,70380,1,0,0:0:0:0:
192,192,70426,1,0,0:0:0:0:
64,192,70473,1,0,0:0:0:0:
320,192,70520,1,0,0:0:0:0:
192,192,70566,1,0,0:0:0:0:
64,192,70613,1,0,0:0:0:0:
448,192,70660,1,0,0:0:0:0:
320,192,70660,1,0,0:0:0:0:
192,192,70753,1,0,0:0:0:0:
448,192,70847,1,0,0:0:0:0:
192,192,70940,1,0,0:0:0:0:
64,192,70940,1,0,0:0:0:0:
320,192,71033,1,0,0:0:0:0:
192,192,71127,1,0,0:0:0:0:
320,192,71220,1,0,0:0:0:0:
448,192,71220,1,0,0:0:0:0:
64,192,71313,1,0,0:0:0:0:
192,192,71407,1,0,0:0:0:0:
448,192,71500,1,0,0:0:0:0:
64,192,71500,1,0,0:0:0:0:
320,192,71547,1,0,0:0:0:0:
192,192,71640,1,0,0:0:0:0:
320,192,71780,1,0,0:0:0:0:
64,192,71920,1,0,0:0:0:0:
448,192,71920,1,0,0:0:0:0:
320,192,71967,1,0,0:0:0:0:
192,192,72060,1,0,0:0:0:0:
448,192,72200,1,0,0:0:0:0:
64,192,72340,1,0,0:0:0:0:
320,192,72340,1,0,0:0:0:0:
192,192,72387,1,0,0:0:0:0:
448,192,72411,1,0,0:0:0:0:
448,192,72620,1,0,0:0:0:0:
64,192,72620,1,0,0:0:0:0:
320,192,72667,1,0,0:0:0:0:
192,192,72714,1,0,0:0:0:0:
64,192,72761,1,0,0:0:0:0:
448,192,72807,1,0,0:0:0:0:
320,192,72854,1,0,0:0:0:0:
192,192,72901,1,0,0:0:0:0:
448,192,72947,1,0,0:0:0:0:
320,192,72994,1,0,0:0:0:0:
64,192,73041,1,0,0:0:0:0:
192,192,73087,1,0,0:0:0:0:
320,192,73134,1,0,0:0:0:0:
448,192,73181,1,0,0:0:0:0:
64,192,73227,1,0,0:0:0:0:
192,192,73274,1,0,0:0:0:0:
320,192,73321,1,0,0:0:0:0:
64,192,73367,1,0,0:0:0:0:
192,192,73414,1,0,0:0:0:0:
320,192,73461,1,0,0:0:0:0:
448,192,73507,1,0,0:0:0:0:
192,192,73554,1,0,0:0:0:0:
320,192,73601,1,0,0:0:0:0:
448,192,73648,1,0,0:0:0:0:
64,192,73741,1,0,0:0:0:0:
192,192,73741,1,0,0:0:0:0:
320,192,73788,1,0,0:0:0:0:
448,192,73834,1,0,0:0:0:0:
192,192,73881,1,0,0:0:0:0:
320,192,73928,1,0,0:0:0:0:
448,192,73974,1,0,0:0:0:0:
192,192,74021,1,0,0:0:0:0:
320,192,74068,1,0,0:0:0:0:
448,192,74114,1,0,0:0:0:0:
192,192,74161,1,0,0:0:0:0:
320,192,74208,1,0,0:0:0:0:
448,192,74254,1,0,0:0:0:0:
320,192,74301,1,0,0:0:0:0:
192,192,74348,1,0,0:0:0:0:
64,192,74394,1,0,0:0:0:0:
320,192,74441,1,0,0:0:0:0:
192,192,74488,1,0,0:0:0:0:
64,192,74534,1,0,0:0:0:0:
320,192,74581,1,0,0:0:0:0:
192,192,74628,1,0,0:0:0:0:
64,192,74675,1,0,0:0:0:0:
320,192,74721,1,0,0:0:0:0:
192,192,74768,1,0,0:0:0:0:
64,192,74815,1,0,0:0:0:0:
320,192,74861,1,0,0:0:0:0:
192,192,74908,1,0,0:0:0:0:
64,192,74955,1,0,0:0:0:0:
320,192,75001,1,0,0:0:0:0:
192,192,75048,1,0,0:0:0:0:
64,192,75095,1,0,0:0:0:0:
320,192,75141,1,0,0:0:0:0:
448,192,75141,1,0,0:0:0:0:
192,192,75235,1,0,0:0:0:0:
320,192,75328,1,0,0:0:0:0:
448,192,75421,1,0,0:0:0:0:
192,192,75421,1,0,0:0:0:0:
64,192,75515,1,0,0:0:0:0:
448,192,75608,1,0,0:0:0:0:
320,192,75702,1,0,0:0:0:0:
192,192,75702,1,0,0:0:0:0:
64,192,75795,1,0,0:0:0:0:
448,192,75888,1,0,0:0:0:0:
192,192,75982,1,0,0:0:0:0:
320,192,76028,1,0,0:0:0:0:
448,192,76075,1,0,0:0:0:0:
192,192,76122,1,0,0:0:0:0:
320,192,76168,1,0,0:0:0:0:
448,192,76215,1,0,0:0:0:0:
192,192,76262,1,0,0:0:0:0:
320,192,76308,1,0,0:0:0:0:
448,192,76355,1,0,0:0:0:0:
192,192,76402,1,0,0:0:0:0:
320,192,76448,1,0,0:0:0:0:
448,192,76495,1,0,0:0:0:0:
320,192,76542,1,0,0:0:0:0:
192,192,76589,1,0,0:0:0:0:
64,192,76635,1,0,0:0:0:0:
320,192,76682,1,0,0:0:0:0:
192,192,76729,1,0,0:0:0:0:
64,192,76775,1,0,0:0:0:0:
320,192,76822,1,0,0:0:0:0:
192,192,76869,1,0,0:0:0:0:
64,192,76915,1,0,0:0:0:0:
320,192,76962,1,0,0:0:0:0:
192,192,77009,1,0,0:0:0:0:
64,192,77055,1,0,0:0:0:0:
320,192,77102,1,0,0:0:0:0:
192,192,77149,1,0,0:0:0:0:
64,192,77195,1,0,0:0:0:0:
320,192,77242,1,0,0:0:0:0:
192,192,77289,1,0,0:0:0:0:
64,192,77335,1,0,0:0:0:0:
320,192,77382,1,0,0:0:0:0:
448,192,77382,1,0,0:0:0:0:
192,192,77475,1,0,0:0:0:0:
320,192,77569,1,0,0:0:0:0:
192,192,77662,1,0,0:0:0:0:
448,192,77662,1,0,0:0:0:0:
320,192,77756,1,0,0:0:0:0:
64,192,77849,1,0,0:0:0:0:
320,192,77942,1,0,0:0:0:0:
192,192,77942,1,0,0:0:0:0:
448,192,78036,1,0,0:0:0:0:
320,192,78129,1,0,0:0:0:0:
192,192,78222,1,0,0:0:0:0:
64,192,78222,1,0,0:0:0:0:
320,192,78269,1,0,0:0:0:0:
448,192,78316,1,0,0:0:0:0:
192,192,78362,1,0,0:0:0:0:
320,192,78409,1,0,0:0:0:0:
448,192,78456,1,0,0:0:0:0:
192,192,78502,1,0,0:0:0:0:
320,192,78549,1,0,0:0:0:0:
448,192,78596,1,0,0:0:0:0:
192,192,78644,1,0,0:0:0:0:
320,192,78689,1,0,0:0:0:0:
448,192,78736,1,0,0:0:0:0:
320,192,78784,1,0,0:0:0:0:
192,192,78829,1,0,0:0:0:0:
64,192,78876,1,0,0:0:0:0:
320,192,78924,1,0,0:0:0:0:
192,192,78969,1,0,0:0:0:0:
64,192,79016,1,0,0:0:0:0:
320,192,79064,1,0,0:0:0:0:
192,192,79109,1,0,0:0:0:0:
64,192,79156,1,0,0:0:0:0:
320,192,79204,1,0,0:0:0:0:
192,192,79249,1,0,0:0:0:0:
64,192,79296,1,0,0:0:0:0:
320,192,79344,1,0,0:0:0:0:
192,192,79389,1,0,0:0:0:0:
64,192,79436,1,0,0:0:0:0:
320,192,79484,1,0,0:0:0:0:
192,192,79531,1,0,0:0:0:0:
64,192,79576,1,0,0:0:0:0:
448,192,79624,1,0,0:0:0:0:
192,192,79624,1,0,0:0:0:0:
320,192,79716,1,0,0:0:0:0:
448,192,79811,1,0,0:0:0:0:
192,192,79904,1,0,0:0:0:0:
64,192,79904,1,0,0:0:0:0:
320,192,79996,1,0,0:0:0:0:
192,192,80091,1,0,0:0:0:0:
320,192,80184,1,0,0:0:0:0:
448,192,80184,1,0,0:0:0:0:
64,192,80276,1,0,0:0:0:0:
192,192,80371,1,0,0:0:0:0:
448,192,80464,1,0,0:0:0:0:
64,192,80464,1,0,0:0:0:0:
320,192,80511,1,0,0:0:0:0:
192,192,80604,1,0,0:0:0:0:
320,192,80744,1,0,0:0:0:0:
64,192,80884,1,0,0:0:0:0:
448,192,80884,1,0,0:0:0:0:
320,192,80931,1,0,0:0:0:0:
192,192,81024,1,0,0:0:0:0:
448,192,81164,1,0,0:0:0:0:
64,192,81304,5,0,0:0:0:0:
320,192,81304,1,0,0:0:0:0:
192,192,81351,1,0,0:0:0:0:
448,192,81374,1,0,0:0:0:0:
448,192,81585,1,0,0:0:0:0:
64,192,81585,1,0,0:0:0:0:
192,192,81631,1,0,0:0:0:0:
320,192,81678,1,0,0:0:0:0:
64,192,81725,1,0,0:0:0:0:
448,192,81771,1,0,0:0:0:0:
320,192,81818,1,0,0:0:0:0:
192,192,81865,1,0,0:0:0:0:
448,192,81911,1,0,0:0:0:0:
320,192,81958,1,0,0:0:0:0:
64,192,82005,1,0,0:0:0:0:
192,192,82051,1,0,0:0:0:0:
320,192,82098,1,0,0:0:0:0:
448,192,82145,1,0,0:0:0:0:
64,192,82191,1,0,0:0:0:0:
192,192,82238,1,0,0:0:0:0:
320,192,82285,1,0,0:0:0:0:
64,192,82331,1,0,0:0:0:0:
192,192,82378,1,0,0:0:0:0:
320,192,82425,1,0,0:0:0:0:
448,192,82472,1,0,0:0:0:0:
192,192,82518,1,0,0:0:0:0:
320,192,82565,1,0,0:0:0:0:
64,192,82612,1,0,0:0:0:0:
192,192,82705,5,0,0:0:0:0:
448,192,82705,1,0,0:0:0:0:
320,192,82705,1,0,0:0:0:0:
64,192,82985,1,0,0:0:0:0:
320,192,82985,1,0,0:0:0:0:
448,192,82985,1,0,0:0:0:0:
192,192,83265,1,0,0:0:0:0:
320,192,83265,1,0,0:0:0:0:
64,192,83265,1,0,0:0:0:0:
448,192,83545,1,0,0:0:0:0:
64,192,83545,1,0,0:0:0:0:
192,192,83545,1,0,0:0:0:0:
320,192,83825,1,0,0:0:0:0:
448,192,83825,1,0,0:0:0:0:
64,192,83825,1,0,0:0:0:0:
448,192,84105,1,0,0:0:0:0:
192,192,84105,1,0,0:0:0:0:
320,192,84105,1,0,0:0:0:0:
320,192,84385,1,0,0:0:0:0:
64,192,84385,1,0,0:0:0:0:
192,192,84385,1,0,0:0:0:0:
64,192,84666,1,0,0:0:0:0:
448,192,84666,1,0,0:0:0:0:
64,192,84946,1,0,0:0:0:0:
448,192,84946,1,0,0:0:0:0:
192,192,84946,1,0,0:0:0:0:
320,192,84946,1,0,0:0:0:0:
192,192,85226,1,0,0:0:0:0:
64,192,85226,1,0,0:0:0:0:
64,192,85506,1,0,0:0:0:0:
448,192,85506,1,0,0:0:0:0:
320,192,85506,1,0,0:0:0:0:
192,192,85506,1,0,0:0:0:0:
192,192,85786,1,0,0:0:0:0:
448,192,85786,1,0,0:0:0:0:
192,192,86066,1,0,0:0:0:0:
448,192,86066,1,0,0:0:0:0:
320,192,86066,1,0,0:0:0:0:
64,192,86066,1,0,0:0:0:0:
64,192,86346,1,0,0:0:0:0:
320,192,86346,1,0,0:0:0:0:
192,192,86626,1,0,0:0:0:0:
448,192,86626,1,0,0:0:0:0:
64,192,86626,1,0,0:0:0:0:
320,192,86626,1,0,0:0:0:0:
448,192,86906,1,0,0:0:0:0:
320,192,86906,1,0,0:0:0:0:
192,192,87186,1,0,0:0:0:0:
320,192,87186,1,0,0:0:0:0:
64,192,87186,1,0,0:0:0:0:
64,192,87467,1,0,0:0:0:0:
320,192,87467,1,0,0:0:0:0:
448,192,87467,1,0,0:0:0:0:
64,192,87747,1,0,0:0:0:0:
448,192,87747,1,0,0:0:0:0:
192,192,87747,1,0,0:0:0:0:
64,192,88027,1,0,0:0:0:0:
192,192,88027,1,0,0:0:0:0:
320,192,88027,1,0,0:0:0:0:
448,192,88307,1,0,0:0:0:0:
320,192,88307,1,0,0:0:0:0:
64,192,88307,1,0,0:0:0:0:
192,192,88587,1,0,0:0:0:0:
320,192,88587,1,0,0:0:0:0:
448,192,88587,1,0,0:0:0:0:
320,192,88867,1,0,0:0:0:0:
64,192,88867,1,0,0:0:0:0:
192,192,88867,1,0,0:0:0:0:
448,192,89147,1,0,0:0:0:0:
64,192,89147,1,0,0:0:0:0:
64,192,89427,1,0,0:0:0:0:
192,192,89427,1,0,0:0:0:0:
448,192,89427,1,0,0:0:0:0:
320,192,89427,1,0,0:0:0:0:
192,192,89707,1,0,0:0:0:0:
448,192,89707,1,0,0:0:0:0:
448,192,89987,1,0,0:0:0:0:
320,192,89987,1,0,0:0:0:0:
192,192,89987,1,0,0:0:0:0:
64,192,89987,1,0,0:0:0:0:
320,192,90267,1,0,0:0:0:0:
448,192,90267,1,0,0:0:0:0:
64,192,90548,1,0,0:0:0:0:
192,192,90548,1,0,0:0:0:0:
448,192,90548,1,0,0:0:0:0:
320,192,90548,1,0,0:0:0:0:
320,192,90828,1,0,0:0:0:0:
64,192,90828,1,0,0:0:0:0:
64,192,91108,1,0,0:0:0:0:
192,192,91108,1,0,0:0:0:0:
320,192,91108,1,0,0:0:0:0:
448,192,91108,1,0,0:0:0:0:
64,192,91388,1,0,0:0:0:0:
192,192,91388,1,0,0:0:0:0:
64,192,91668,1,0,0:0:0:0:
192,192,91668,1,0,0:0:0:0:
320,192,91668,1,0,0:0:0:0:
64,192,91948,1,0,0:0:0:0:
448,192,91948,1,0,0:0:0:0:
320,192,91948,1,0,0:0:0:0:
64,192,92228,1,0,0:0:0:0:
192,192,92228,1,0,0:0:0:0:
320,192,92228,1,0,0:0:0:0:
448,192,92508,1,0,0:0:0:0:
64,192,92508,1,0,0:0:0:0:
192,192,92508,1,0,0:0:0:0:
320,192,92788,1,0,0:0:0:0:
64,192,92788,1,0,0:0:0:0:
448,192,92788,1,0,0:0:0:0:
192,192,92835,1,0,0:0:0:0:
64,192,92882,1,0,0:0:0:0:
448,192,92928,1,0,0:0:0:0:
320,192,92975,1,0,0:0:0:0:
64,192,93022,1,0,0:0:0:0:
192,192,93068,1,0,0:0:0:0:
448,192,93068,1,0,0:0:0:0:
320,192,93115,1,0,0:0:0:0:
64,192,93162,1,0,0:0:0:0:
192,192,93208,1,0,0:0:0:0:
448,192,93255,1,0,0:0:0:0:
320,192,93302,1,0,0:0:0:0:
64,192,93349,1,0,0:0:0:0:
192,192,93349,1,0,0:0:0:0:
64,192,93629,1,0,0:0:0:0:
448,192,93629,1,0,0:0:0:0:
64,192,93909,1,0,0:0:0:0:
448,192,93909,1,0,0:0:0:0:
192,192,93909,1,0,0:0:0:0:
320,192,93909,1,0,0:0:0:0:
320,192,94189,1,0,0:0:0:0:
192,192,94189,1,0,0:0:0:0:
64,192,94469,1,0,0:0:0:0:
448,192,94469,1,0,0:0:0:0:
320,192,94469,1,0,0:0:0:0:
192,192,94469,1,0,0:0:0:0:
192,192,94749,1,0,0:0:0:0:
448,192,94749,1,0,0:0:0:0:
192,192,95029,1,0,0:0:0:0:
448,192,95029,1,0,0:0:0:0:
320,192,95029,1,0,0:0:0:0:
64,192,95029,1,0,0:0:0:0:
64,192,95309,1,0,0:0:0:0:
320,192,95309,1,0,0:0:0:0:
192,192,95589,1,0,0:0:0:0:
448,192,95589,1,0,0:0:0:0:
64,192,95589,1,0,0:0:0:0:
320,192,95589,1,0,0:0:0:0:
192,192,95869,1,0,0:0:0:0:
320,192,95869,1,0,0:0:0:0:
192,192,96149,1,0,0:0:0:0:
448,192,96149,1,0,0:0:0:0:
320,192,96149,1,0,0:0:0:0:
64,192,96431,1,0,0:0:0:0:
320,192,96431,1,0,0:0:0:0:
448,192,96431,1,0,0:0:0:0:
64,192,96711,1,0,0:0:0:0:
448,192,96711,1,0,0:0:0:0:
192,192,96711,1,0,0:0:0:0:
64,192,96991,1,0,0:0:0:0:
192,192,96991,1,0,0:0:0:0:
320,192,96991,1,0,0:0:0:0:
192,192,97271,1,0,0:0:0:0:
64,192,97271,1,0,0:0:0:0:
448,192,97271,1,0,0:0:0:0:
320,192,97318,1,0,0:0:0:0:
448,192,97364,1,0,0:0:0:0:
64,192,97411,1,0,0:0:0:0:
192,192,97458,1,0,0:0:0:0:
448,192,97504,1,0,0:0:0:0:
320,192,97551,1,0,0:0:0:0:
64,192,97551,1,0,0:0:0:0:
192,192,97598,1,0,0:0:0:0:
448,192,97644,1,0,0:0:0:0:
320,192,97691,1,0,0:0:0:0:
64,192,97738,1,0,0:0:0:0:
192,192,97784,1,0,0:0:0:0:
448,192,97831,1,0,0:0:0:0:
320,192,97831,1,0,0:0:0:0:
448,192,98111,1,0,0:0:0:0:
64,192,98111,1,0,0:0:0:0:
64,192,98391,1,0,0:0:0:0:
192,192,98391,1,0,0:0:0:0:
448,192,98391,1,0,0:0:0:0:
320,192,98391,1,0,0:0:0:0:
64,192,98671,1,0,0:0:0:0:
192,192,98671,1,0,0:0:0:0:
448,192,98951,1,0,0:0:0:0:
320,192,98951,1,0,0:0:0:0:
192,192,98951,1,0,0:0:0:0:
64,192,98951,1,0,0:0:0:0:
64,192,99232,1,0,0:0:0:0:
320,192,99232,1,0,0:0:0:0:
64,192,99512,1,0,0:0:0:0:
192,192,99512,1,0,0:0:0:0:
448,192,99512,1,0,0:0:0:0:
320,192,99512,1,0,0:0:0:0:
448,192,99792,1,0,0:0:0:0:
192,192,99792,1,0,0:0:0:0:
64,192,100072,1,0,0:0:0:0:
192,192,100072,1,0,0:0:0:0:
320,192,100072,1,0,0:0:0:0:
448,192,100072,1,0,0:0:0:0:
192,192,100212,1,0,0:0:0:0:
448,192,100352,1,0,0:0:0:0:
320,192,100352,1,0,0:0:0:0:
320,192,100492,1,0,0:0:0:0:
64,192,100632,1,0,0:0:0:0:
448,192,100632,1,0,0:0:0:0:
192,192,100632,1,0,0:0:0:0:
192,192,100772,1,0,0:0:0:0:
320,192,100912,1,0,0:0:0:0:
448,192,100912,1,0,0:0:0:0:
64,192,100912,1,0,0:0:0:0:
448,192,101052,1,0,0:0:0:0:
320,192,101192,1,0,0:0:0:0:
192,192,101192,1,0,0:0:0:0:
64,192,101192,1,0,0:0:0:0:
320,192,101332,1,0,0:0:0:0:
192,192,101472,1,0,0:0:0:0:
64,192,101472,1,0,0:0:0:0:
448,192,101472,1,0,0:0:0:0:
192,192,101612,1,0,0:0:0:0:
448,192,101752,1,0,0:0:0:0:
64,192,101752,1,0,0:0:0:0:
320,192,101752,1,0,0:0:0:0:
64,192,101892,1,0,0:0:0:0:
448,192,102032,1,0,0:0:0:0:
320,192,102032,1,0,0:0:0:0:
192,192,102032,1,0,0:0:0:0:
448,192,102173,1,0,0:0:0:0:
320,192,102313,1,0,0:0:0:0:
192,192,102313,1,0,0:0:0:0:
64,192,102313,1,0,0:0:0:0:
192,192,102453,1,0,0:0:0:0:
448,192,102593,1,0,0:0:0:0:
64,192,102593,1,0,0:0:0:0:
192,192,102873,1,0,0:0:0:0:
320,192,102873,1,0,0:0:0:0:
64,192,102873,1,0,0:0:0:0:
448,192,102873,1,0,0:0:0:0:
192,192,103153,1,0,0:0:0:0:
64,192,103153,1,0,0:0:0:0:
320,192,103433,1,0,0:0:0:0:
192,192,103433,1,0,0:0:0:0:
64,192,103433,1,0,0:0:0:0:
448,192,103433,1,0,0:0:0:0:
320,192,103573,1,0,0:0:0:0:
448,192,103713,1,0,0:0:0:0:
192,192,103713,1,0,0:0:0:0:
192,192,103853,1,0,0:0:0:0:
320,192,103993,1,0,0:0:0:0:
64,192,103993,1,0,0:0:0:0:
192,192,103993,1,0,0:0:0:0:
448,192,103993,1,0,0:0:0:0:
448,192,104133,1,0,0:0:0:0:
320,192,104273,1,0,0:0:0:0:
64,192,104273,1,0,0:0:0:0:
320,192,104413,1,0,0:0:0:0:
64,192,104553,1,0,0:0:0:0:
320,192,104553,1,0,0:0:0:0:
192,192,104553,1,0,0:0:0:0:
448,192,104553,1,0,0:0:0:0:
192,192,104693,1,0,0:0:0:0:
320,192,104833,1,0,0:0:0:0:
448,192,104833,1,0,0:0:0:0:
320,192,105114,1,0,0:0:0:0:
448,192,105114,1,0,0:0:0:0:
192,192,105114,1,0,0:0:0:0:
192,192,105254,1,0,0:0:0:0:
448,192,105394,1,0,0:0:0:0:
320,192,105394,1,0,0:0:0:0:
64,192,105394,1,0,0:0:0:0:
192,192,105674,1,0,0:0:0:0:
448,192,105674,1,0,0:0:0:0:
64,192,105674,1,0,0:0:0:0:
448,192,105814,1,0,0:0:0:0:
320,192,105954,1,0,0:0:0:0:
192,192,105954,1,0,0:0:0:0:
64,192,105954,1,0,0:0:0:0:
192,192,106094,1,0,0:0:0:0:
64,192,106234,1,0,0:0:0:0:
320,192,106234,1,0,0:0:0:0:
448,192,106234,1,0,0:0:0:0:
64,192,106374,1,0,0:0:0:0:
448,192,106514,1,0,0:0:0:0:
320,192,106514,1,0,0:0:0:0:
192,192,106514,1,0,0:0:0:0:
448,192,106654,1,0,0:0:0:0:
192,192,106794,1,0,0:0:0:0:
64,192,106794,1,0,0:0:0:0:
320,192,106794,1,0,0:0:0:0:
320,192,106934,1,0,0:0:0:0:
64,192,107074,1,0,0:0:0:0:
448,192,107074,1,0,0:0:0:0:
448,192,107354,1,0,0:0:0:0:
320,192,107354,1,0,0:0:0:0:
64,192,107354,1,0,0:0:0:0:
192,192,107354,1,0,0:0:0:0:
448,192,107634,1,0,0:0:0:0:
320,192,107634,1,0,0:0:0:0:
192,192,107914,1,0,0:0:0:0:
64,192,107914,1,0,0:0:0:0:
448,192,107914,1,0,0:0:0:0:
320,192,107914,1,0,0:0:0:0:
192,192,108055,1,0,0:0:0:0:
320,192,108195,1,0,0:0:0:0:
64,192,108195,1,0,0:0:0:0:
320,192,108335,1,0,0:0:0:0:
448,192,108475,1,0,0:0:0:0:
320,192,108475,1,0,0:0:0:0:
64,192,108475,1,0,0:0:0:0:
192,192,108475,1,0,0:0:0:0:
64,192,108615,1,0,0:0:0:0:
192,192,108755,1,0,0:0:0:0:
448,192,108755,1,0,0:0:0:0:
192,192,108895,1,0,0:0:0:0:
320,192,109035,1,0,0:0:0:0:
448,192,109035,1,0,0:0:0:0:
64,192,109035,1,0,0:0:0:0:
192,192,109035,1,0,0:0:0:0:
320,192,109175,1,0,0:0:0:0:
192,192,109315,1,0,0:0:0:0:
64,192,109315,1,0,0:0:0:0:
64,192,109595,1,0,0:0:0:0:
192,192,109595,1,0,0:0:0:0:
320,192,109595,1,0,0:0:0:0:
448,192,109595,1,0,0:0:0:0:
192,192,109735,1,0,0:0:0:0:
64,192,109875,1,0,0:0:0:0:
448,192,109875,1,0,0:0:0:0:
320,192,109875,1,0,0:0:0:0:
448,192,110015,1,0,0:0:0:0:
64,192,110155,1,0,0:0:0:0:
192,192,110155,1,0,0:0:0:0:
320,192,110155,1,0,0:0:0:0:
320,192,110295,1,0,0:0:0:0:
448,192,110435,1,0,0:0:0:0:
64,192,110435,1,0,0:0:0:0:
192,192,110435,1,0,0:0:0:0:
64,192,110715,1,0,0:0:0:0:
448,192,110715,1,0,0:0:0:0:
192,192,110715,1,0,0:0:0:0:
320,192,110762,1,0,0:0:0:0:
192,192,110809,1,0,0:0:0:0:
448,192,110855,1,0,0:0:0:0:
320,192,110902,1,0,0:0:0:0:
64,192,110949,1,0,0:0:0:0:
448,192,110996,1,0,0:0:0:0:
192,192,110996,1,0,0:0:0:0:
320,192,111042,1,0,0:0:0:0:
64,192,111089,1,0,0:0:0:0:
192,192,111136,1,0,0:0:0:0:
448,192,111182,1,0,0:0:0:0:
320,192,111229,1,0,0:0:0:0:
192,192,111276,1,0,0:0:0:0:
64,192,111276,1,0,0:0:0:0:
64,192,111556,1,0,0:0:0:0:
448,192,111556,1,0,0:0:0:0:
64,192,111836,1,0,0:0:0:0:
448,192,111836,1,0,0:0:0:0:
192,192,111836,1,0,0:0:0:0:
320,192,111836,1,0,0:0:0:0:
320,192,111976,1,0,0:0:0:0:
192,192,112116,1,0,0:0:0:0:
64,192,112116,1,0,0:0:0:0:
192,192,112256,1,0,0:0:0:0:
64,192,112396,1,0,0:0:0:0:
448,192,112396,1,0,0:0:0:0:
320,192,112396,1,0,0:0:0:0:
192,192,112396,1,0,0:0:0:0:
320,192,112536,1,0,0:0:0:0:
192,192,112676,1,0,0:0:0:0:
448,192,112676,1,0,0:0:0:0:
192,192,112956,1,0,0:0:0:0:
448,192,112956,1,0,0:0:0:0:
64,192,112956,1,0,0:0:0:0:
320,192,113004,1,0,0:0:0:0:
192,192,113051,1,0,0:0:0:0:
448,192,113096,1,0,0:0:0:0:
320,192,113144,1,0,0:0:0:0:
192,192,113191,1,0,0:0:0:0:
64,192,113236,1,0,0:0:0:0:
448,192,113236,1,0,0:0:0:0:
192,192,113516,1,0,0:0:0:0:
448,192,113516,1,0,0:0:0:0:
64,192,113516,1,0,0:0:0:0:
320,192,113516,1,0,0:0:0:0:
448,192,113796,1,0,0:0:0:0:
320,192,113796,1,0,0:0:0:0:
192,192,114078,1,0,0:0:0:0:
448,192,114078,1,0,0:0:0:0:
320,192,114078,1,0,0:0:0:0:
192,192,114218,1,0,0:0:0:0:
64,192,114358,1,0,0:0:0:0:
320,192,114358,1,0,0:0:0:0:
448,192,114358,1,0,0:0:0:0:
320,192,114498,1,0,0:0:0:0:
64,192,114638,1,0,0:0:0:0:
448,192,114638,1,0,0:0:0:0:
192,192,114638,1,0,0:0:0:0:
448,192,114778,1,0,0:0:0:0:
64,192,114918,1,0,0:0:0:0:
192,192,114918,1,0,0:0:0:0:
320,192,114918,1,0,0:0:0:0:
320,192,115198,1,0,0:0:0:0:
64,192,115198,1,0,0:0:0:0:
448,192,115198,1,0,0:0:0:0:
192,192,115245,1,0,0:0:0:0:
320,192,115291,1,0,0:0:0:0:
64,192,115338,1,0,0:0:0:0:
192,192,115385,1,0,0:0:0:0:
448,192,115431,1,0,0:0:0:0:
320,192,115478,1,0,0:0:0:0:
64,192,115478,1,0,0:0:0:0:
192,192,115525,1,0,0:0:0:0:
448,192,115571,1,0,0:0:0:0:
320,192,115618,1,0,0:0:0:0:
64,192,115665,1,0,0:0:0:0:
192,192,115711,1,0,0:0:0:0:
448,192,115758,1,0,0:0:0:0:
320,192,115758,1,0,0:0:0:0:
448,192,116038,1,0,0:0:0:0:
64,192,116038,1,0,0:0:0:0:
64,192,116318,1,0,0:0:0:0:
192,192,116318,1,0,0:0:0:0:
448,192,116318,1,0,0:0:0:0:
320,192,116318,1,0,0:0:0:0:
448,192,116458,1,0,0:0:0:0:
192,192,116598,1,0,0:0:0:0:
320,192,116598,1,0,0:0:0:0:
192,192,116738,1,0,0:0:0:0:
448,192,116879,1,0,0:0:0:0:
320,192,116879,1,0,0:0:0:0:
192,192,116879,1,0,0:0:0:0:
64,192,116879,1,0,0:0:0:0:
320,192,117019,1,0,0:0:0:0:
64,192,117159,1,0,0:0:0:0:
448,192,117159,1,0,0:0:0:0:
64,192,117439,1,0,0:0:0:0:
192,192,117439,1,0,0:0:0:0:
448,192,117439,1,0,0:0:0:0:
320,192,117439,1,0,0:0:0:0:
192,192,117719,1,0,0:0:0:0:
320,192,117719,1,0,0:0:0:0:
64,192,117999,1,0,0:0:0:0:
192,192,117999,1,0,0:0:0:0:
320,192,117999,1,0,0:0:0:0:
448,192,117999,1,0,0:0:0:0:
448,192,118279,1,0,0:0:0:0:
320,192,118279,1,0,0:0:0:0:
448,192,118559,1,0,0:0:0:0:
320,192,118559,1,0,0:0:0:0:
192,192,118559,1,0,0:0:0:0:
64,192,118559,1,0,0:0:0:0:
192,192,118699,1,0,0:0:0:0:
64,192,118839,1,0,0:0:0:0:
320,192,118839,1,0,0:0:0:0:
448,192,118839,1,0,0:0:0:0:
320,192,118979,1,0,0:0:0:0:
64,192,119119,1,0,0:0:0:0:
192,192,119119,1,0,0:0:0:0:
448,192,119119,1,0,0:0:0:0:
448,192,119259,1,0,0:0:0:0:
192,192,119399,1,0,0:0:0:0:
64,192,119399,1,0,0:0:0:0:
320,192,119399,1,0,0:0:0:0:
448,192,119679,1,0,0:0:0:0:
320,192,119679,1,0,0:0:0:0:
64,192,119679,1,0,0:0:0:0:
192,192,119960,1,0,0:0:0:0:
64,192,119960,1,0,0:0:0:0:
448,192,119960,1,0,0:0:0:0:
320,192,120240,1,0,0:0:0:0:
192,192,120240,1,0,0:0:0:0:
448,192,120240,1,0,0:0:0:0:
64,192,120520,1,0,0:0:0:0:
320,192,120520,1,0,0:0:0:0:
64,192,120800,1,0,0:0:0:0:
192,192,120800,1,0,0:0:0:0:
320,192,120800,1,0,0:0:0:0:
448,192,120800,1,0,0:0:0:0:
320,192,120940,1,0,0:0:0:0:
64,192,121080,1,0,0:0:0:0:
192,192,121080,1,0,0:0:0:0:
64,192,121220,1,0,0:0:0:0:
448,192,121360,1,0,0:0:0:0:
320,192,121360,1,0,0:0:0:0:
192,192,121360,1,0,0:0:0:0:
64,192,121360,1,0,0:0:0:0:
320,192,121500,1,0,0:0:0:0:
320,192,121640,1,0,0:0:0:0:
448,192,121640,1,0,0:0:0:0:
448,192,121920,1,0,0:0:0:0:
192,192,121920,1,0,0:0:0:0:
320,192,121920,1,0,0:0:0:0:
64,192,121920,1,0,0:0:0:0:
64,192,122200,1,0,0:0:0:0:
320,192,122200,1,0,0:0:0:0:
448,192,122480,1,0,0:0:0:0:
320,192,122480,1,0,0:0:0:0:
64,192,122480,1,0,0:0:0:0:
192,192,122480,1,0,0:0:0:0:
192,192,122761,1,0,0:0:0:0:
448,192,122761,1,0,0:0:0:0:
64,192,123041,1,0,0:0:0:0:
192,192,123041,1,0,0:0:0:0:
320,192,123087,1,0,0:0:0:0:
448,192,123134,1,0,0:0:0:0:
64,192,123181,1,0,0:0:0:0:
192,192,123227,1,0,0:0:0:0:
320,192,123274,1,0,0:0:0:0:
448,192,123321,1,0,0:0:0:0:
192,192,123367,1,0,0:0:0:0:
64,192,123414,1,0,0:0:0:0:
320,192,123461,1,0,0:0:0:0:
192,192,123507,1,0,0:0:0:0:
448,192,123554,1,0,0:0:0:0:
320,192,123601,1,0,0:0:0:0:
64,192,123601,1,0,0:0:0:0:
192,192,123648,1,0,0:0:0:0:
320,192,123694,1,0,0:0:0:0:
448,192,123741,1,0,0:0:0:0:
64,192,123788,1,0,0:0:0:0:
192,192,123834,1,0,0:0:0:0:
320,192,123881,1,0,0:0:0:0:
448,192,123928,1,0,0:0:0:0:
192,192,123974,1,0,0:0:0:0:
320,192,124021,1,0,0:0:0:0:
448,192,124068,1,0,0:0:0:0:
320,192,124114,1,0,0:0:0:0:
192,192,124161,1,0,0:0:0:0:
64,192,124161,1,0,0:0:0:0:
448,192,124208,1,0,0:0:0:0:
320,192,124254,1,0,0:0:0:0:
192,192,124301,1,0,0:0:0:0:
64,192,124348,1,0,0:0:0:0:
320,192,124394,1,0,0:0:0:0:
192,192,124441,1,0,0:0:0:0:
64,192,124488,1,0,0:0:0:0:
448,192,124534,1,0,0:0:0:0:
320,192,124581,1,0,0:0:0:0:
64,192,124628,1,0,0:0:0:0:
192,192,124675,1,0,0:0:0:0:
448,192,124721,1,0,0:0:0:0:
320,192,124721,1,0,0:0:0:0:
192,192,124768,1,0,0:0:0:0:
64,192,124815,1,0,0:0:0:0:
448,192,124861,1,0,0:0:0:0:
320,192,124908,1,0,0:0:0:0:
64,192,124955,1,0,0:0:0:0:
192,192,125001,1,0,0:0:0:0:
320,192,125048,1,0,0:0:0:0:
64,192,125095,1,0,0:0:0:0:
448,192,125141,1,0,0:0:0:0:
320,192,125188,1,0,0:0:0:0:
192,192,125235,1,0,0:0:0:0:
448,192,125281,1,0,0:0:0:0:
64,192,125281,1,0,0:0:0:0:
192,192,125328,1,0,0:0:0:0:
320,192,125375,1,0,0:0:0:0:
448,192,125421,1,0,0:0:0:0:
64,192,125468,1,0,0:0:0:0:
192,192,125515,1,0,0:0:0:0:
320,192,125561,1,0,0:0:0:0:
448,192,125608,1,0,0:0:0:0:
192,192,125655,1,0,0:0:0:0:
320,192,125702,1,0,0:0:0:0:
448,192,125748,1,0,0:0:0:0:
192,192,125795,1,0,0:0:0:0:
320,192,125842,1,0,0:0:0:0:
64,192,125888,1,0,0:0:0:0:
448,192,125935,1,0,0:0:0:0:
320,192,125982,1,0,0:0:0:0:
64,192,126028,1,0,0:0:0:0:
192,192,126075,1,0,0:0:0:0:
320,192,126122,1,0,0:0:0:0:
448,192,126168,1,0,0:0:0:0:
192,192,126215,1,0,0:0:0:0:
320,192,126262,1,0,0:0:0:0:
64,192,126308,1,0,0:0:0:0:
192,192,126355,1,0,0:0:0:0:
448,192,126402,1,0,0:0:0:0:
320,192,126402,1,0,0:0:0:0:
64,192,126448,1,0,0:0:0:0:
192,192,126495,1,0,0:0:0:0:
448,192,126542,1,0,0:0:0:0:
320,192,126589,1,0,0:0:0:0:
192,192,126635,1,0,0:0:0:0:
64,192,126682,1,0,0:0:0:0:
448,192,126729,1,0,0:0:0:0:
320,192,126775,1,0,0:0:0:0:
192,192,126822,1,0,0:0:0:0:
448,192,126869,1,0,0:0:0:0:
64,192,126915,1,0,0:0:0:0:
320,192,126962,1,0,0:0:0:0:
448,192,126962,1,0,0:0:0:0:
192,192,127009,1,0,0:0:0:0:
64,192,127055,1,0,0:0:0:0:
320,192,127102,1,0,0:0:0:0:
448,192,127149,1,0,0:0:0:0:
192,192,127195,1,0,0:0:0:0:
64,192,127242,1,0,0:0:0:0:
448,192,127289,1,0,0:0:0:0:
320,192,127335,1,0,0:0:0:0:
192,192,127382,1,0,0:0:0:0:
64,192,127429,1,0,0:0:0:0:
448,192,127475,1,0,0:0:0:0:
192,192,127522,1,0,0:0:0:0:
320,192,127522,1,0,0:0:0:0:
64,192,127569,1,0,0:0:0:0:
448,192,127616,1,0,0:0:0:0:
320,192,127662,1,0,0:0:0:0:
192,192,127709,1,0,0:0:0:0:
64,192,127756,1,0,0:0:0:0:
448,192,127802,1,0,0:0:0:0:
192,192,127849,1,0,0:0:0:0:
320,192,127896,1,0,0:0:0:0:
64,192,127942,1,0,0:0:0:0:
448,192,127989,1,0,0:0:0:0:
192,192,128036,1,0,0:0:0:0:
320,192,128082,1,0,0:0:0:0:
448,192,128082,1,0,0:0:0:0:
64,192,128129,1,0,0:0:0:0:
192,192,128176,1,0,0:0:0:0:
448,192,128222,1,0,0:0:0:0:
320,192,128269,1,0,0:0:0:0:
64,192,128316,1,0,0:0:0:0:
192,192,128362,1,0,0:0:0:0:
320,192,128409,1,0,0:0:0:0:
64,192,128456,1,0,0:0:0:0:
448,192,128502,1,0,0:0:0:0:
320,192,128549,1,0,0:0:0:0:
192,192,128596,1,0,0:0:0:0:
64,192,128644,1,0,0:0:0:0:
448,192,128644,1,0,0:0:0:0:
320,192,128689,1,0,0:0:0:0:
192,192,128736,1,0,0:0:0:0:
448,192,128784,1,0,0:0:0:0:
320,192,128829,1,0,0:0:0:0:
64,192,128876,1,0,0:0:0:0:
192,192,128924,1,0,0:0:0:0:
448,192,128969,1,0,0:0:0:0:
320,192,129016,1,0,0:0:0:0:
64,192,129064,1,0,0:0:0:0:
192,192,129109,1,0,0:0:0:0:
320,192,129156,1,0,0:0:0:0:
448,192,129204,1,0,0:0:0:0:
192,192,129204,1,0,0:0:0:0:
64,192,129249,1,0,0:0:0:0:
320,192,129296,1,0,0:0:0:0:
448,192,129344,1,0,0:0:0:0:
64,192,129389,1,0,0:0:0:0:
192,192,129436,1,0,0:0:0:0:
320,192,129484,1,0,0:0:0:0:
64,192,129764,1,0,0:0:0:0:
448,192,129764,1,0,0:0:0:0:
320,192,129811,1,0,0:0:0:0:
192,192,129856,1,0,0:0:0:0:
64,192,129904,1,0,0:0:0:0:
320,192,129951,1,0,0:0:0:0:
448,192,129996,1,0,0:0:0:0:
192,192,130044,1,0,0:0:0:0:
64,192,130091,1,0,0:0:0:0:
448,192,130136,1,0,0:0:0:0:
320,192,130184,1,0,0:0:0:0:
192,192,130231,1,0,0:0:0:0:
448,192,130276,1,0,0:0:0:0:
320,192,130324,1,0,0:0:0:0:
64,192,130324,1,0,0:0:0:0:
192,192,130371,1,0,0:0:0:0:
448,192,130416,1,0,0:0:0:0:
320,192,130464,1,0,0:0:0:0:
64,192,130511,1,0,0:0:0:0:
192,192,130558,1,0,0:0:0:0:
320,192,130604,1,0,0:0:0:0:
448,192,130651,1,0,0:0:0:0:
64,192,130698,1,0,0:0:0:0:
320,192,130744,1,0,0:0:0:0:
192,192,130791,1,0,0:0:0:0:
448,192,130838,1,0,0:0:0:0:
320,192,130884,1,0,0:0:0:0:
64,192,130884,1,0,0:0:0:0:
192,192,130931,1,0,0:0:0:0:
320,192,130978,1,0,0:0:0:0:
448,192,131024,1,0,0:0:0:0:
64,192,131071,1,0,0:0:0:0:
192,192,131118,1,0,0:0:0:0:
320,192,131164,1,0,0:0:0:0:
64,192,131211,1,0,0:0:0:0:
448,192,131258,1,0,0:0:0:0:
192,192,131304,1,0,0:0:0:0:
320,192,131351,1,0,0:0:0:0:
448,192,131398,1,0,0:0:0:0:
192,192,131444,1,0,0:0:0:0:
64,192,131444,1,0,0:0:0:0:
320,192,131491,1,0,0:0:0:0:
448,192,131538,1,0,0:0:0:0:
192,192,131585,1,0,0:0:0:0:
64,192,131631,1,0,0:0:0:0:
320,192,131678,1,0,0:0:0:0:
448,192,131725,1,0,0:0:0:0:
64,192,132005,1,0,0:0:0:0:
448,192,132005,1,0,0:0:0:0:
320,192,132005,1,0,0:0:0:0:
192,192,132051,1,0,0:0:0:0:
64,192,132098,1,0,0:0:0:0:
448,192,132145,1,0,0:0:0:0:
320,192,132191,1,0,0:0:0:0:
192,192,132238,1,0,0:0:0:0:
64,192,132285,1,0,0:0:0:0:
320,192,132331,1,0,0:0:0:0:
448,192,132378,1,0,0:0:0:0:
192,192,132425,1,0,0:0:0:0:
320,192,132472,1,0,0:0:0:0:
64,192,132518,1,0,0:0:0:0:
192,192,132565,1,0,0:0:0:0:
448,192,132565,1,0,0:0:0:0:
320,192,132612,1,0,0:0:0:0:
192,192,132658,1,0,0:0:0:0:
64,192,132705,1,0,0:0:0:0:
448,192,132752,1,0,0:0:0:0:
320,192,132798,1,0,0:0:0:0:
192,192,132845,1,0,0:0:0:0:
64,192,132892,1,0,0:0:0:0:
320,192,132938,1,0,0:0:0:0:
192,192,132985,1,0,0:0:0:0:
64,192,133032,1,0,0:0:0:0:
192,192,133078,1,0,0:0:0:0:
320,192,133125,1,0,0:0:0:0:
448,192,133125,1,0,0:0:0:0:
64,192,133172,1,0,0:0:0:0:
192,192,133218,1,0,0:0:0:0:
320,192,133265,1,0,0:0:0:0:
448,192,133312,1,0,0:0:0:0:
192,192,133358,1,0,0:0:0:0:
320,192,133405,1,0,0:0:0:0:
448,192,133452,1,0,0:0:0:0:
64,192,133499,1,0,0:0:0:0:
192,192,133545,1,0,0:0:0:0:
448,192,133592,1,0,0:0:0:0:
320,192,133639,1,0,0:0:0:0:
64,192,133685,1,0,0:0:0:0:
192,192,133685,1,0,0:0:0:0:
320,192,133732,1,0,0:0:0:0:
448,192,133779,1,0,0:0:0:0:
64,192,133825,1,0,0:0:0:0:
192,192,133872,1,0,0:0:0:0:
448,192,133919,1,0,0:0:0:0:
320,192,133965,1,0,0:0:0:0:
192,192,134012,1,0,0:0:0:0:
448,192,134059,1,0,0:0:0:0:
64,192,134105,1,0,0:0:0:0:
192,192,134152,1,0,0:0:0:0:
320,192,134199,1,0,0:0:0:0:
64,192,134245,1,0,0:0:0:0:
448,192,134245,1,0,0:0:0:0:
320,192,134292,1,0,0:0:0:0:
192,192,134339,1,0,0:0:0:0:
64,192,134385,1,0,0:0:0:0:
448,192,134432,1,0,0:0:0:0:
320,192,134479,1,0,0:0:0:0:
192,192,134526,1,0,0:0:0:0:
64,192,134572,1,0,0:0:0:0:
320,192,134619,1,0,0:0:0:0:
192,192,134666,1,0,0:0:0:0:
64,192,134712,1,0,0:0:0:0:
320,192,134759,1,0,0:0:0:0:
192,192,134806,1,0,0:0:0:0:
448,192,134852,1,0,0:0:0:0:
64,192,134899,1,0,0:0:0:0:
192,192,134946,1,0,0:0:0:0:
448,192,134992,1,0,0:0:0:0:
320,192,135039,1,0,0:0:0:0:
192,192,135086,1,0,0:0:0:0:
64,192,135132,1,0,0:0:0:0:
320,192,135179,1,0,0:0:0:0:
192,192,135226,1,0,0:0:0:0:
448,192,135272,1,0,0:0:0:0:
320,192,135319,1,0,0:0:0:0:
64,192,135366,1,0,0:0:0:0:
192,192,135366,1,0,0:0:0:0:
448,192,135413,1,0,0:0:0:0:
320,192,135459,1,0,0:0:0:0:
64,192,135506,1,0,0:0:0:0:
192,192,135553,1,0,0:0:0:0:
320,192,135599,1,0,0:0:0:0:
448,192,135646,1,0,0:0:0:0:
64,192,135693,1,0,0:0:0:0:
192,192,135739,1,0,0:0:0:0:
320,192,135786,1,0,0:0:0:0:
64,192,135833,1,0,0:0:0:0:
448,192,135879,1,0,0:0:0:0:
192,192,135926,1,0,0:0:0:0:
64,192,135926,1,0,0:0:0:0:
320,192,135973,1,0,0:0:0:0:
448,192,136019,1,0,0:0:0:0:
192,192,136066,1,0,0:0:0:0:
64,192,136113,1,0,0:0:0:0:
320,192,136159,1,0,0:0:0:0:
448,192,136206,1,0,0:0:0:0:
64,192,136253,1,0,0:0:0:0:
192,192,136299,1,0,0:0:0:0:
320,192,136346,1,0,0:0:0:0:
448,192,136393,1,0,0:0:0:0:
64,192,136440,1,0,0:0:0:0:
320,192,136486,1,0,0:0:0:0:
192,192,136486,1,0,0:0:0:0:
448,192,136533,1,0,0:0:0:0:
64,192,136580,1,0,0:0:0:0:
192,192,136626,1,0,0:0:0:0:
320,192,136673,1,0,0:0:0:0:
448,192,136720,1,0,0:0:0:0:
64,192,136766,1,0,0:0:0:0:
320,192,136813,1,0,0:0:0:0:
192,192,136860,1,0,0:0:0:0:
448,192,136906,1,0,0:0:0:0:
64,192,136953,1,0,0:0:0:0:
320,192,137000,1,0,0:0:0:0:
192,192,137046,1,0,0:0:0:0:
64,192,137046,1,0,0:0:0:0:
448,192,137093,1,0,0:0:0:0:
320,192,137140,1,0,0:0:0:0:
64,192,137186,1,0,0:0:0:0:
192,192,137233,1,0,0:0:0:0:
448,192,137280,1,0,0:0:0:0:
320,192,137326,1,0,0:0:0:0:
192,192,137373,1,0,0:0:0:0:
448,192,137420,1,0,0:0:0:0:
64,192,137467,1,0,0:0:0:0:
192,192,137513,1,0,0:0:0:0:
320,192,137560,1,0,0:0:0:0:
448,192,137607,1,0,0:0:0:0:
64,192,137607,1,0,0:0:0:0:
192,192,137653,1,0,0:0:0:0:
320,192,137700,1,0,0:0:0:0:
64,192,137747,1,0,0:0:0:0:
192,192,137793,1,0,0:0:0:0:
448,192,137840,1,0,0:0:0:0:
320,192,137887,1,0,0:0:0:0:
64,192,137933,1,0,0:0:0:0:
192,192,137980,1,0,0:0:0:0:
448,192,138027,1,0,0:0:0:0:
320,192,138073,1,0,0:0:0:0:
192,192,138120,1,0,0:0:0:0:
64,192,138167,1,0,0:0:0:0:
320,192,138167,1,0,0:0:0:0:
448,192,138213,1,0,0:0:0:0:
192,192,138260,1,0,0:0:0:0:
64,192,138307,1,0,0:0:0:0:
448,192,138354,1,0,0:0:0:0:
320,192,138400,1,0,0:0:0:0:
192,192,138447,1,0,0:0:0:0:
448,192,138727,1,0,0:0:0:0:
64,192,138727,1,0,0:0:0:0:
192,192,138774,1,0,0:0:0:0:
320,192,138820,1,0,0:0:0:0:
448,192,138867,1,0,0:0:0:0:
192,192,138914,1,0,0:0:0:0:
64,192,138960,1,0,0:0:0:0:
320,192,139007,1,0,0:0:0:0:
448,192,139054,1,0,0:0:0:0:
64,192,139100,1,0,0:0:0:0:
192,192,139147,1,0,0:0:0:0:
320,192,139194,1,0,0:0:0:0:
64,192,139240,1,0,0:0:0:0:
192,192,139287,1,0,0:0:0:0:
448,192,139287,1,0,0:0:0:0:
320,192,139334,1,0,0:0:0:0:
64,192,139381,1,0,0:0:0:0:
192,192,139427,1,0,0:0:0:0:
448,192,139474,1,0,0:0:0:0:
320,192,139521,1,0,0:0:0:0:
192,192,139567,1,0,0:0:0:0:
64,192,139614,1,0,0:0:0:0:
448,192,139661,1,0,0:0:0:0:
192,192,139707,1,0,0:0:0:0:
320,192,139754,1,0,0:0:0:0:
64,192,139801,1,0,0:0:0:0:
192,192,139847,1,0,0:0:0:0:
448,192,139847,1,0,0:0:0:0:
320,192,139894,1,0,0:0:0:0:
192,192,139941,1,0,0:0:0:0:
64,192,139987,1,0,0:0:0:0:
448,192,140034,1,0,0:0:0:0:
320,192,140081,1,0,0:0:0:0:
192,192,140127,1,0,0:0:0:0:
448,192,140174,1,0,0:0:0:0:
64,192,140221,1,0,0:0:0:0:
320,192,140267,1,0,0:0:0:0:
192,192,140314,1,0,0:0:0:0:
64,192,140361,1,0,0:0:0:0:
320,192,140408,1,0,0:0:0:0:
448,192,140408,1,0,0:0:0:0:
192,192,140454,1,0,0:0:0:0:
64,192,140501,1,0,0:0:0:0:
320,192,140548,1,0,0:0:0:0:
448,192,140594,1,0,0:0:0:0:
192,192,140641,1,0,0:0:0:0:
64,192,140688,1,0,0:0:0:0:
64,192,140968,1,0,0:0:0:0:
192,192,140968,1,0,0:0:0:0:
320,192,141014,1,0,0:0:0:0:
448,192,141061,1,0,0:0:0:0:
192,192,141108,1,0,0:0:0:0:
320,192,141154,1,0,0:0:0:0:
448,192,141201,1,0,0:0:0:0:
64,192,141248,1,0,0:0:0:0:
320,192,141248,1,0,0:0:0:0:
192,192,141295,1,0,0:0:0:0:
448,192,141341,1,0,0:0:0:0:
64,192,141388,1,0,0:0:0:0:
192,192,141435,1,0,0:0:0:0:
320,192,141481,1,0,0:0:0:0:
448,192,141528,1,0,0:0:0:0:
64,192,141528,1,0,0:0:0:0:
192,192,141575,1,0,0:0:0:0:
320,192,141621,1,0,0:0:0:0:
64,192,141668,1,0,0:0:0:0:
448,192,141715,1,0,0:0:0:0:
192,192,141761,1,0,0:0:0:0:
320,192,141808,1,0,0:0:0:0:
448,192,141808,1,0,0:0:0:0:
64,192,141855,1,0,0:0:0:0:
192,192,141901,1,0,0:0:0:0:
448,192,141948,1,0,0:0:0:0:
320,192,141995,1,0,0:0:0:0:
192,192,142041,1,0,0:0:0:0:
64,192,142088,1,0,0:0:0:0:
448,192,142088,1,0,0:0:0:0:
320,192,142135,1,0,0:0:0:0:
192,192,142181,1,0,0:0:0:0:
448,192,142228,1,0,0:0:0:0:
64,192,142275,1,0,0:0:0:0:
192,192,142322,1,0,0:0:0:0:
448,192,142368,1,0,0:0:0:0:
320,192,142368,1,0,0:0:0:0:
64,192,142415,1,0,0:0:0:0:
192,192,142462,1,0,0:0:0:0:
448,192,142508,1,0,0:0:0:0:
320,192,142555,1,0,0:0:0:0:
64,192,142602,1,0,0:0:0:0:
192,192,142648,1,0,0:0:0:0:
448,192,142648,1,0,0:0:0:0:
320,192,142695,1,0,0:0:0:0:
448,192,142742,1,0,0:0:0:0:
192,192,142788,1,0,0:0:0:0:
64,192,142835,1,0,0:0:0:0:
320,192,142882,1,0,0:0:0:0:
448,192,142928,1,0,0:0:0:0:
192,192,142928,1,0,0:0:0:0:
64,192,142975,1,0,0:0:0:0:
320,192,143022,1,0,0:0:0:0:
192,192,143068,1,0,0:0:0:0:
64,192,143115,1,0,0:0:0:0:
448,192,143162,1,0,0:0:0:0:
320,192,143208,1,0,0:0:0:0:
192,192,143208,1,0,0:0:0:0:
64,192,143255,1,0,0:0:0:0:
448,192,143302,1,0,0:0:0:0:
192,192,143349,1,0,0:0:0:0:
320,192,143395,1,0,0:0:0:0:
448,192,143442,1,0,0:0:0:0:
64,192,143489,1,0,0:0:0:0:
192,192,143489,1,0,0:0:0:0:
320,192,143535,1,0,0:0:0:0:
448,192,143582,1,0,0:0:0:0:
64,192,143629,1,0,0:0:0:0:
192,192,143675,1,0,0:0:0:0:
320,192,143722,1,0,0:0:0:0:
64,192,143769,1,0,0:0:0:0:
448,192,143769,1,0,0:0:0:0:
192,192,143815,1,0,0:0:0:0:
320,192,143862,1,0,0:0:0:0:
64,192,143909,1,0,0:0:0:0:
448,192,143955,1,0,0:0:0:0:
320,192,144002,1,0,0:0:0:0:
192,192,144049,1,0,0:0:0:0:
64,192,144049,1,0,0:0:0:0:
448,192,144095,1,0,0:0:0:0:
320,192,144142,1,0,0:0:0:0:
192,192,144189,1,0,0:0:0:0:
64,192,144236,1,0,0:0:0:0:
448,192,144282,1,0,0:0:0:0:
320,192,144329,1,0,0:0:0:0:
192,192,144329,1,0,0:0:0:0:
64,192,144376,1,0,0:0:0:0:
320,192,144422,1,0,0:0:0:0:
448,192,144469,1,0,0:0:0:0:
192,192,144516,1,0,0:0:0:0:
320,192,144562,1,0,0:0:0:0:
64,192,144609,1,0,0:0:0:0:
448,192,144609,1,0,0:0:0:0:
192,192,144656,1,0,0:0:0:0:
320,192,144702,1,0,0:0:0:0:
448,192,144749,1,0,0:0:0:0:
64,192,144796,1,0,0:0:0:0:
192,192,144842,1,0,0:0:0:0:
448,192,144889,1,0,0:0:0:0:
320,192,144889,1,0,0:0:0:0:
192,192,144936,1,0,0:0:0:0:
64,192,144982,1,0,0:0:0:0:
448,192,145029,1,0,0:0:0:0:
320,192,145076,1,0,0:0:0:0:
192,192,145122,1,0,0:0:0:0:
64,192,145169,1,0,0:0:0:0:
448,192,145169,1,0,0:0:0:0:
320,192,145216,1,0,0:0:0:0:
192,192,145264,1,0,0:0:0:0:
448,192,145309,1,0,0:0:0:0:
320,192,145356,1,0,0:0:0:0:
448,192,145404,1,0,0:0:0:0:
64,192,145449,1,0,0:0:0:0:
192,192,145449,1,0,0:0:0:0:
320,192,145496,1,0,0:0:0:0:
448,192,145544,1,0,0:0:0:0:
64,192,145589,1,0,0:0:0:0:
192,192,145636,1,0,0:0:0:0:
320,192,145684,1,0,0:0:0:0:
448,192,145729,1,0,0:0:0:0:
64,192,145729,1,0,0:0:0:0:
192,192,145776,1,0,0:0:0:0:
320,192,145824,1,0,0:0:0:0:
64,192,145869,1,0,0:0:0:0:
192,192,145916,1,0,0:0:0:0:
448,192,145964,1,0,0:0:0:0:
320,192,146009,1,0,0:0:0:0:
64,192,146009,1,0,0:0:0:0:
192,192,146056,1,0,0:0:0:0:
448,192,146104,1,0,0:0:0:0:
320,192,146149,1,0,0:0:0:0:
64,192,146196,1,0,0:0:0:0:
192,192,146244,1,0,0:0:0:0:
448,192,146291,1,0,0:0:0:0:
320,192,146291,1,0,0:0:0:0:
64,192,146336,1,0,0:0:0:0:
192,192,146384,1,0,0:0:0:0:
448,192,146431,1,0,0:0:0:0:
320,192,146476,1,0,0:0:0:0:
192,192,146524,1,0,0:0:0:0:
64,192,146571,1,0,0:0:0:0:
448,192,146571,1,0,0:0:0:0:
320,192,146616,1,0,0:0:0:0:
192,192,146664,1,0,0:0:0:0:
320,192,146711,1,0,0:0:0:0:
448,192,146756,1,0,0:0:0:0:
64,192,146804,1,0,0:0:0:0:
192,192,146851,1,0,0:0:0:0:
320,192,146851,1,0,0:0:0:0:
448,192,146896,1,0,0:0:0:0:
64,192,146944,1,0,0:0:0:0:
320,192,146991,1,0,0:0:0:0:
192,192,147036,1,0,0:0:0:0:
448,192,147084,1,0,0:0:0:0:
320,192,147131,1,0,0:0:0:0:
64,192,147131,1,0,0:0:0:0:
192,192,147178,1,0,0:0:0:0:
320,192,147224,1,0,0:0:0:0:
448,192,147271,1,0,0:0:0:0:
64,192,147318,1,0,0:0:0:0:
192,192,147364,1,0,0:0:0:0:
320,192,147411,1,0,0:0:0:0:
64,192,147458,1,0,0:0:0:0:
192,192,147504,1,0,0:0:0:0:
448,192,147551,1,0,0:0:0:0:
320,192,147598,1,0,0:0:0:0:
64,192,147644,1,0,0:0:0:0:
192,192,147691,1,0,0:0:0:0:
320,192,147738,1,0,0:0:0:0:
448,192,147784,1,0,0:0:0:0:
192,192,147831,1,0,0:0:0:0:
320,192,147878,1,0,0:0:0:0:
64,192,147924,1,0,0:0:0:0:
192,192,147971,1,0,0:0:0:0:
448,192,147971,1,0,0:0:0:0:
320,192,148018,1,0,0:0:0:0:
64,192,148064,1,0,0:0:0:0:
192,192,148111,1,0,0:0:0:0:
320,192,148158,1,0,0:0:0:0:
448,192,148205,1,0,0:0:0:0:
192,192,148251,1,0,0:0:0:0:
64,192,148251,1,0,0:0:0:0:
320,192,148298,1,0,0:0:0:0:
448,192,148345,1,0,0:0:0:0:
192,192,148391,1,0,0:0:0:0:
64,192,148438,1,0,0:0:0:0:
448,192,148485,1,0,0:0:0:0:
320,192,148531,1,0,0:0:0:0:
192,192,148531,1,0,0:0:0:0:
64,192,148578,1,0,0:0:0:0:
448,192,148625,1,0,0:0:0:0:
192,192,148671,1,0,0:0:0:0:
320,192,148718,1,0,0:0:0:0:
64,192,148765,1,0,0:0:0:0:
448,192,148811,1,0,0:0:0:0:
192,192,148811,1,0,0:0:0:0:
320,192,148858,1,0,0:0:0:0:
448,192,148905,1,0,0:0:0:0:
64,192,148951,1,0,0:0:0:0:
192,192,148998,1,0,0:0:0:0:
320,192,149045,1,0,0:0:0:0:
448,192,149091,1,0,0:0:0:0:
64,192,149091,1,0,0:0:0:0:
192,192,149138,1,0,0:0:0:0:
320,192,149185,1,0,0:0:0:0:
448,192,149232,1,0,0:0:0:0:
64,192,149278,1,0,0:0:0:0:
320,192,149325,1,0,0:0:0:0:
448,192,149372,1,0,0:0:0:0:
192,192,149372,1,0,0:0:0:0:
64,192,149418,1,0,0:0:0:0:
320,192,149465,1,0,0:0:0:0:
192,192,149512,1,0,0:0:0:0:
64,192,149558,1,0,0:0:0:0:
448,192,149605,1,0,0:0:0:0:
320,192,149652,1,0,0:0:0:0:
192,192,149652,1,0,0:0:0:0:
64,192,149698,1,0,0:0:0:0:
448,192,149745,1,0,0:0:0:0:
320,192,149792,1,0,0:0:0:0:
192,192,149838,1,0,0:0:0:0:
448,192,149885,1,0,0:0:0:0:
64,192,149932,1,0,0:0:0:0:
320,192,149978,1,0,0:0:0:0:
448,192,150025,1,0,0:0:0:0:
64,192,150072,1,0,0:0:0:0:
192,192,150119,1,0,0:0:0:0:
320,192,150165,1,0,0:0:0:0:
64,192,150212,1,0,0:0:0:0:
448,192,150212,1,0,0:0:0:0:
192,192,150259,1,0,0:0:0:0:
320,192,150305,1,0,0:0:0:0:
64,192,150352,1,0,0:0:0:0:
192,192,150399,1,0,0:0:0:0:
320,192,150445,1,0,0:0:0:0:
448,192,150492,1,0,0:0:0:0:
64,192,150492,1,0,0:0:0:0:
192,192,150539,1,0,0:0:0:0:
320,192,150585,1,0,0:0:0:0:
64,192,150632,1,0,0:0:0:0:
448,192,150679,1,0,0:0:0:0:
192,192,150725,1,0,0:0:0:0:
320,192,150772,1,0,0:0:0:0:
448,192,150772,1,0,0:0:0:0:
64,192,150819,1,0,0:0:0:0:
192,192,150865,1,0,0:0:0:0:
448,192,150912,1,0,0:0:0:0:
320,192,150959,1,0,0:0:0:0:
192,192,151005,1,0,0:0:0:0:
64,192,151052,1,0,0:0:0:0:
448,192,151052,1,0,0:0:0:0:
320,192,151099,1,0,0:0:0:0:
192,192,151146,1,0,0:0:0:0:
320,192,151192,1,0,0:0:0:0:
64,192,151239,1,0,0:0:0:0:
192,192,151286,1,0,0:0:0:0:
448,192,151332,1,0,0:0:0:0:
320,192,151332,1,0,0:0:0:0:
64,192,151379,1,0,0:0:0:0:
192,192,151426,1,0,0:0:0:0:
448,192,151472,1,0,0:0:0:0:
320,192,151519,1,0,0:0:0:0:
64,192,151566,1,0,0:0:0:0:
192,192,151612,1,0,0:0:0:0:
448,192,151612,1,0,0:0:0:0:
320,192,151659,1,0,0:0:0:0:
64,192,151706,1,0,0:0:0:0:
448,192,151752,1,0,0:0:0:0:
192,192,151799,1,0,0:0:0:0:
64,192,151846,1,0,0:0:0:0:
320,192,151892,1,0,0:0:0:0:
192,192,151892,1,0,0:0:0:0:
448,192,151939,1,0,0:0:0:0:
320,192,151986,1,0,0:0:0:0:
192,192,152032,1,0,0:0:0:0:
64,192,152079,1,0,0:0:0:0:
448,192,152126,1,0,0:0:0:0:
320,192,152173,1,0,0:0:0:0:
192,192,152173,1,0,0:0:0:0:
64,192,152219,1,0,0:0:0:0:
448,192,152266,1,0,0:0:0:0:
192,192,152313,1,0,0:0:0:0:
320,192,152359,1,0,0:0:0:0:
448,192,152406,1,0,0:0:0:0:
64,192,152453,1,0,0:0:0:0:
192,192,152453,1,0,0:0:0:0:
320,192,152499,1,0,0:0:0:0:
448,192,152546,1,0,0:0:0:0:
64,192,152593,1,0,0:0:0:0:
192,192,152639,1,0,0:0:0:0:
320,192,152686,1,0,0:0:0:0:
64,192,152733,1,0,0:0:0:0:
448,192,152733,1,0,0:0:0:0:
192,192,152779,1,0,0:0:0:0:
320,192,152826,1,0,0:0:0:0:
64,192,152873,1,0,0:0:0:0:
448,192,152919,1,0,0:0:0:0:
320,192,152966,1,0,0:0:0:0:
192,192,153013,1,0,0:0:0:0:
64,192,153013,1,0,0:0:0:0:
448,192,153060,1,0,0:0:0:0:
320,192,153106,1,0,0:0:0:0:
192,192,153153,1,0,0:0:0:0:
64,192,153200,1,0,0:0:0:0:
448,192,153246,1,0,0:0:0:0:
320,192,153293,1,0,0:0:0:0:
192,192,153293,1,0,0:0:0:0:
64,192,153340,1,0,0:0:0:0:
320,192,153386,1,0,0:0:0:0:
448,192,153433,1,0,0:0:0:0:
192,192,153480,1,0,0:0:0:0:
320,192,153526,1,0,0:0:0:0:
64,192,153573,1,0,0:0:0:0:
448,192,153573,1,0,0:0:0:0:
192,192,153620,1,0,0:0:0:0:
320,192,153666,1,0,0:0:0:0:
448,192,153713,1,0,0:0:0:0:
64,192,153760,1,0,0:0:0:0:
192,192,153806,1,0,0:0:0:0:
448,192,153853,1,0,0:0:0:0:
320,192,153853,1,0,0:0:0:0:
192,192,153900,1,0,0:0:0:0:
64,192,153946,1,0,0:0:0:0:
448,192,153993,1,0,0:0:0:0:
320,192,154040,1,0,0:0:0:0:
192,192,154087,1,0,0:0:0:0:
64,192,154133,1,0,0:0:0:0:
448,192,154133,1,0,0:0:0:0:
320,192,154180,1,0,0:0:0:0:
192,192,154227,1,0,0:0:0:0:
448,192,154273,1,0,0:0:0:0:
320,192,154320,1,0,0:0:0:0:
192,192,154367,1,0,0:0:0:0:
64,192,154413,1,0,0:0:0:0:
320,192,154460,1,0,0:0:0:0:
448,192,154507,1,0,0:0:0:0:
64,192,154553,1,0,0:0:0:0:
192,192,154600,1,0,0:0:0:0:
320,192,154647,1,0,0:0:0:0:
448,192,154693,1,0,0:0:0:0:
64,192,154693,1,0,0:0:0:0:
192,192,154740,1,0,0:0:0:0:
320,192,154787,1,0,0:0:0:0:
64,192,154833,1,0,0:0:0:0:
192,192,154880,1,0,0:0:0:0:
448,192,154927,1,0,0:0:0:0:
320,192,154973,1,0,0:0:0:0:
64,192,154973,1,0,0:0:0:0:
192,192,155020,1,0,0:0:0:0:
448,192,155067,1,0,0:0:0:0:
320,192,155114,1,0,0:0:0:0:
64,192,155160,1,0,0:0:0:0:
192,192,155207,1,0,0:0:0:0:
448,192,155254,1,0,0:0:0:0:
320,192,155254,1,0,0:0:0:0:
64,192,155300,1,0,0:0:0:0:
192,192,155347,1,0,0:0:0:0:
448,192,155394,1,0,0:0:0:0:
320,192,155440,1,0,0:0:0:0:
192,192,155487,1,0,0:0:0:0:
64,192,155534,1,0,0:0:0:0:
448,192,155534,1,0,0:0:0:0:
320,192,155580,1,0,0:0:0:0:
192,192,155627,1,0,0:0:0:0:
320,192,155674,1,0,0:0:0:0:
448,192,155720,1,0,0:0:0:0:
64,192,155767,1,0,0:0:0:0:
192,192,155814,1,0,0:0:0:0:
320,192,155814,1,0,0:0:0:0:
448,192,155860,1,0,0:0:0:0:
64,192,155907,1,0,0:0:0:0:
320,192,155954,1,0,0:0:0:0:
192,192,156001,1,0,0:0:0:0:
448,192,156047,1,0,0:0:0:0:
320,192,156094,1,0,0:0:0:0:
64,192,156094,1,0,0:0:0:0:
192,192,156141,1,0,0:0:0:0:
320,192,156187,1,0,0:0:0:0:
448,192,156234,1,0,0:0:0:0:
64,192,156281,1,0,0:0:0:0:
192,192,156327,1,0,0:0:0:0:
320,192,156374,1,0,0:0:0:0:
64,192,156421,1,0,0:0:0:0:
192,192,156467,1,0,0:0:0:0:
448,192,156514,1,0,0:0:0:0:
320,192,156561,1,0,0:0:0:0:
64,192,156607,1,0,0:0:0:0:
192,192,156654,1,0,0:0:0:0:
448,192,156654,1,0,0:0:0:0:
320,192,156701,1,0,0:0:0:0:
64,192,156747,1,0,0:0:0:0:
192,192,156794,1,0,0:0:0:0:
320,192,156841,1,0,0:0:0:0:
64,192,156887,1,0,0:0:0:0:
192,192,156934,1,0,0:0:0:0:
448,192,156934,1,0,0:0:0:0:
320,192,156981,1,0,0:0:0:0:
64,192,157028,1,0,0:0:0:0:
192,192,157074,1,0,0:0:0:0:
320,192,157121,1,0,0:0:0:0:
448,192,157168,1,0,0:0:0:0:
192,192,157214,1,0,0:0:0:0:
64,192,157214,1,0,0:0:0:0:
320,192,157261,1,0,0:0:0:0:
448,192,157308,1,0,0:0:0:0:
192,192,157354,1,0,0:0:0:0:
64,192,157401,1,0,0:0:0:0:
448,192,157448,1,0,0:0:0:0:
320,192,157494,1,0,0:0:0:0:
192,192,157494,1,0,0:0:0:0:
64,192,157541,1,0,0:0:0:0:
448,192,157588,1,0,0:0:0:0:
192,192,157634,1,0,0:0:0:0:
320,192,157681,1,0,0:0:0:0:
64,192,157728,1,0,0:0:0:0:
192,192,157774,1,0,0:0:0:0:
320,192,157821,1,0,0:0:0:0:
448,192,157868,1,0,0:0:0:0:
64,192,157914,1,0,0:0:0:0:
192,192,157961,1,0,0:0:0:0:
320,192,158008,1,0,0:0:0:0:
448,192,158055,1,0,0:0:0:0:
64,192,158101,1,0,0:0:0:0:
192,192,158148,1,0,0:0:0:0:
320,192,158241,1,0,0:0:0:0:
448,192,158335,1,0,0:0:0:0:
64,192,158428,1,0,0:0:0:0:
192,192,158521,1,0,0:0:0:0:
320,192,158615,1,0,0:0:0:0:
448,192,158708,1,0,0:0:0:0:
192,192,158755,1,0,0:0:0:0:
64,192,158895,1,0,0:0:0:0:
192,192,159175,1,0,0:0:0:0:
320,192,159455,1,0,0:0:0:0:
