osu file format v14

[General]
AudioFilename: audio.mp3
AudioLeadIn: 0
PreviewTime: -1
Countdown: 1
SampleSet: None
StackLeniency: 0.7
Mode: 0
LetterboxInBreaks: 0
WidescreenStoryboard: 0

[Editor]
DistanceSpacing: 1.2
BeatDivisor: 4
GridSize: 4
TimelineZoom: 1

[Metadata]
Title:Hyperdontia
TitleUnicode:Hyperdontia
Artist:GHOST
ArtistUnicode:GHOST
Creator:Dream_Boy_Zonna
Version:Easy
Source:
Tags:
BeatmapID:1162963
BeatmapSetID:549182

[Difficulty]
HPDrainRate:6
CircleSize:5
OverallDifficulty:2
ApproachRate:5
SliderMultiplier:1.1
SliderTickRate:1

[Events]
//Background and Video events
0,0,"hey_kid_stop_pulling_out_ur_teeth_by_official_ghost-dant1pa.png",0,0
//Break Periods
2,146932,153246
//Storyboard Layer 0 (Background)
//Storyboard Layer 1 (Fail)
//Storyboard Layer 2 (Pass)
//Storyboard Layer 3 (Foreground)
//Storyboard Sound Samples

[TimingPoints]
0,428.571428571429,4,1,0,100,1,0

[Colours]
Combo1 : 187,141,243
Combo2 : 187,141,243

[HitObjects]
248,160,16500,5,8,0:0:0:0:
248,164,18000,1,8,0:0:0:0:
232,168,19232,1,8,0:0:0:0:
252,168,20625,1,8,0:0:0:0:
160,156,22071,1,8,0:0:0:0:
264,168,22500,1,8,0:0:0:0:
200,184,23625,1,8,0:0:0:0:
364,128,24696,1,8,0:0:0:0:
100,168,25392,1,8,0:0:0:0:
184,160,25821,1,8,0:0:0:0:
280,200,26785,1,8,0:0:0:0:
120,104,27589,1,8,0:0:0:0:
180,124,28339,1,8,0:0:0:0:
120,192,28821,1,8,0:0:0:0:
164,132,29410,2,8,L|284:144,2,110
188,148,31232,1,2,0:0:0:0:
76,100,31928,1,2,0:0:0:0:
228,220,32785,1,8,0:0:0:0:
312,116,33160,1,8,0:0:0:0:
148,144,34178,1,8,0:0:0:0:
264,112,34928,1,8,0:0:0:0:
196,128,36000,1,8,0:0:0:0:
256,136,37071,1,8,0:0:0:0:
96,220,37982,2,2,L|284:120,1,206.25
236,172,40446,1,8,0:0:0:0:
280,176,41625,1,8,0:0:0:0:
200,120,42107,1,8,0:0:0:0:
260,148,42750,1,8,0:0:0:0:
316,184,43714,1,8,0:0:0:0:
280,164,44517,1,8,0:0:0:0:
280,164,45375,1,8,0:0:0:0:
256,192,45803,12,12,48750,0:0:0:0:
196,172,49875,5,8,0:0:0:0:
268,176,50732,1,8,0:0:0:0:
212,232,51535,1,8,0:0:0:0:
256,192,52285,12,4,55392,0:0:0:0:
240,160,56250,5,8,0:0:0:0:
324,56,57160,1,8,0:0:0:0:
304,176,58017,1,8,0:0:0:0:
168,120,59035,1,8,0:0:0:0:
236,176,59571,1,8,0:0:0:0:
236,176,60482,1,8,0:0:0:0:
168,188,61285,1,8,0:0:0:0:
156,120,62089,1,8,0:0:0:0:
352,104,62464,1,8,0:0:0:0:
284,188,62839,1,8,0:0:0:0:
184,104,63803,1,8,0:0:0:0:
300,128,64500,1,8,0:0:0:0:
192,152,65410,1,8,0:0:0:0:
100,120,66267,1,8,0:0:0:0:
112,232,67017,1,8,0:0:0:0:
160,144,67821,1,8,0:0:0:0:
280,140,68196,1,8,0:0:0:0:
208,216,68571,1,8,0:0:0:0:
160,260,69107,1,8,0:0:0:0:
280,168,69910,1,8,0:0:0:0:
164,184,70553,2,10,L|352:132,1,192.5
240,156,72267,1,8,0:0:0:0:
240,156,73125,1,8,0:0:0:0:
136,216,73982,2,2,L|344:168,1,206.25
232,192,75428,1,8,0:0:0:0:
292,184,76553,1,8,0:0:0:0:
220,104,77571,1,8,0:0:0:0:
160,144,78375,1,0,0:0:0:0:
364,116,78857,1,8,0:0:0:0:
364,248,79285,1,8,0:0:0:0:
276,196,79607,1,8,0:0:0:0:
160,216,80625,2,2,L|344:156,1,192.5
232,224,82500,1,8,0:0:0:0:
192,296,83303,1,8,0:0:0:0:
356,132,83946,1,8,0:0:0:0:
152,152,84321,1,8,0:0:0:0:
220,84,84964,1,8,0:0:0:0:
268,200,85767,1,8,0:0:0:0:
216,200,86625,1,8,0:0:0:0:
128,168,87160,2,2,L|284:124,1,151.25
184,116,88232,1,8,0:0:0:0:
112,104,89035,1,8,0:0:0:0:
228,160,89892,1,8,0:0:0:0:
228,232,90375,2,2,P|380:204|380:204,1,151.25
164,156,91392,2,8,L|296:144,2,123.75
192,248,93053,1,8,0:0:0:0:
196,176,93589,1,8,0:0:0:0:
88,140,93910,2,2,L|260:96,1,165
220,136,95785,1,8,0:0:0:0:
232,196,96803,1,8,0:0:0:0:
144,128,98035,1,8,0:0:0:0:
244,152,99000,1,8,0:0:0:0:
236,240,99750,1,8,0:0:0:0:
140,204,100392,2,2,L|332:132,1,192.5
216,180,101946,1,8,0:0:0:0:
216,180,102910,1,8,0:0:0:0:
184,200,103446,2,2,L|352:140,1,178.75
212,136,104892,1,8,0:0:0:0:
292,164,105910,1,8,0:0:0:0:
144,140,106553,2,2,L|336:172,1,192.5
248,108,108000,1,8,0:0:0:0:
232,156,108964,1,8,0:0:0:0:
128,84,110142,1,8,0:0:0:0:
232,152,111267,1,8,0:0:0:0:
128,172,112232,2,8,L|244:160,3,110
176,112,114482,1,8,0:0:0:0:
136,168,115178,1,8,0:0:0:0:
260,156,116571,1,8,0:0:0:0:
168,144,117910,1,8,0:0:0:0:
304,260,118982,1,8,0:0:0:0:
136,168,119839,2,2,L|428:124,1,288.75
248,112,122839,1,8,0:0:0:0:
288,256,123375,1,8,0:0:0:0:
168,192,123750,1,8,0:0:0:0:
168,164,125571,1,8,0:0:0:0:
140,200,126428,2,2,L|292:148,1,151.25
152,196,128250,1,8,0:0:0:0:
300,136,129214,1,8,0:0:0:0:
136,104,130232,1,8,0:0:0:0:
332,228,131196,1,8,0:0:0:0:
140,164,131839,2,2,L|440:80,1,302.5
184,172,134517,1,8,0:0:0:0:
208,260,135482,1,12,0:0:0:0:
168,160,136232,2,2,L|388:140,1,220
216,152,138000,1,8,0:0:0:0:
128,132,139017,1,8,0:0:0:0:
144,276,139553,1,8,0:0:0:0:
64,200,139928,2,2,L|236:180,1,165
96,208,142071,1,8,0:0:0:0:
144,144,142767,2,2,L|344:160,1,192.5
216,192,144375,1,8,0:0:0:0:
216,192,145178,1,8,0:0:0:0:
216,192,145928,1,8,0:0:0:0:
216,192,146732,1,8,0:0:0:0:
248,184,154446,5,8,0:0:0:0:
312,136,156000,1,8,0:0:0:0:
248,184,156750,1,8,0:0:0:0:
140,128,160071,1,8,0:0:0:0:
184,204,160821,1,8,0:0:0:0:
112,116,161678,1,8,0:0:0:0:
268,132,162267,1,8,0:0:0:0:
184,204,162642,1,8,0:0:0:0:
216,240,163392,1,8,0:0:0:0:
208,148,164517,1,8,0:0:0:0:
204,184,165375,1,8,0:0:0:0:
112,120,166553,1,8,0:0:0:0:
180,184,167839,1,8,0:0:0:0:
100,136,168857,2,2,L|264:116,1,165
124,100,170357,1,8,0:0:0:0:
224,136,171428,1,8,0:0:0:0:
136,168,172392,2,2,L|280:160,1,137.5
168,96,173517,1,8,0:0:0:0:
240,168,174535,1,8,0:0:0:0:
200,264,175392,1,8,0:0:0:0:
160,140,176357,1,8,0:0:0:0:
256,160,177375,1,8,0:0:0:0:
148,184,178178,1,8,0:0:0:0:
256,160,178982,1,8,0:0:0:0:
304,224,180000,1,8,0:0:0:0:
272,88,180750,1,8,0:0:0:0:
180,176,181714,1,8,0:0:0:0:
128,124,182464,1,8,0:0:0:0:
232,212,183535,1,8,0:0:0:0:
152,228,184392,1,8,0:0:0:0:
304,180,185089,1,8,0:0:0:0:
140,124,185732,1,8,0:0:0:0:
132,192,186589,1,8,0:0:0:0:
280,136,187982,1,8,0:0:0:0:
136,192,188625,1,8,0:0:0:0:
344,120,189482,1,8,0:0:0:0:
276,140,190285,1,8,0:0:0:0:
232,228,191250,1,8,0:0:0:0:
320,88,191946,1,8,0:0:0:0:
136,192,192267,1,8,0:0:0:0:
272,124,193446,1,8,0:0:0:0:
44,196,194410,1,8,0:0:0:0:
136,192,195214,1,8,0:0:0:0:
232,108,195642,1,8,0:0:0:0:
136,104,196446,1,8,0:0:0:0:
136,192,197142,1,8,0:0:0:0:
324,224,197785,1,8,0:0:0:0:
192,260,198428,1,8,0:0:0:0:
136,192,198803,1,8,0:0:0:0:
188,160,199928,1,8,0:0:0:0:
128,112,200839,1,8,0:0:0:0:
188,160,201696,1,8,0:0:0:0:
284,96,202500,1,8,0:0:0:0:
160,128,203625,1,8,0:0:0:0:
288,192,204910,1,8,0:0:0:0:
188,160,205714,1,8,0:0:0:0:
300,156,206517,1,8,0:0:0:0:
188,160,207642,1,8,0:0:0:0:
168,252,208232,1,8,0:0:0:0:
188,160,208553,1,8,0:0:0:0:
152,32,209410,1,8,0:0:0:0:
256,140,210214,1,8,0:0:0:0:
188,160,211071,1,8,0:0:0:0:
320,96,211500,1,8,0:0:0:0:
220,220,211767,1,8,0:0:0:0:
224,168,214178,1,8,0:0:0:0:
224,168,215517,1,8,0:0:0:0:
116,180,216321,1,8,0:0:0:0:
224,168,217446,1,8,0:0:0:0:
224,168,218357,1,8,0:0:0:0:
224,216,219642,1,8,0:0:0:0:
228,80,220821,1,8,0:0:0:0:
224,216,221303,1,8,0:0:0:0:
224,216,222214,1,8,0:0:0:0:
160,104,223232,1,8,0:0:0:0:
292,108,224142,1,4,0:0:0:0:
224,216,224946,1,4,0:0:0:0:
228,184,229392,1,8,0:0:0:0:
124,156,230410,2,2,L|272:160,1,137.5
228,184,232607,1,8,0:0:0:0:
112,124,233625,1,8,0:0:0:0:
172,172,234214,2,2,L|316:132,1,137.5
116,80,235982,1,8,0:0:0:0:
260,136,236785,1,8,0:0:0:0:
184,168,237321,2,2,L|396:124,1,206.25
128,184,238928,1,8,0:0:0:0:
252,264,240000,1,8,0:0:0:0:
104,196,240750,2,2,L|308:144,1,206.25
92,176,243964,2,4,L|192:176,2,96.25
184,192,247553,1,4,0:0:0:0:
216,200,250660,2,4,L|324:208,2,96.25
208,252,253607,2,4,L|364:156,1,178.75
264,136,255160,1,8,0:0:0:0:
152,152,256392,1,8,0:0:0:0:
264,136,257196,1,8,0:0:0:0:
128,180,257571,1,8,0:0:0:0:
260,176,258642,1,8,0:0:0:0:
160,104,259607,1,8,0:0:0:0:
328,60,260303,1,8,0:0:0:0:
124,224,260732,2,2,L|276:176,1,151.25
132,176,262928,1,8,0:0:0:0:
204,244,263732,2,2,L|348:224,1,137.5
136,184,265500,1,8,0:0:0:0:
244,212,266196,1,8,0:0:0:0:
120,168,267107,2,2,L|232:176,1,110
224,160,268178,1,4,0:0:0:0:
144,112,269357,1,4,0:0:0:0:
164,152,270160,2,4,L|320:132,1,151.25
164,112,271285,1,4,0:0:0:0:
244,200,272089,1,4,0:0:0:0:
244,256,272946,1,4,0:0:0:0:
112,172,273589,2,4,L|292:160,1,178.75
148,184,274875,1,4,0:0:0:0:
288,148,275946,1,4,0:0:0:0:
132,244,276696,2,4,L|288:216,1,151.25
232,236,278250,1,4,0:0:0:0:
344,248,279214,1,4,0:0:0:0:
168,152,280125,2,2,L|320:160,1,151.25
256,192,281196,12,0,283714,0:0:0:0:
