osu file format v14

[General]
AudioFilename: audio.mp3
AudioLeadIn: 0
PreviewTime: 21027
Countdown: 0
SampleSet: Soft
StackLeniency: 0.7
Mode: 3
LetterboxInBreaks: 0
SpecialStyle: 0
WidescreenStoryboard: 0

[Editor]
DistanceSpacing: 1.3
BeatDivisor: 4
GridSize: 4
TimelineZoom: 3.999998

[Metadata]
Title:Energetic Shine
TitleUnicode:Energetic Shine
Artist:GGN-
ArtistUnicode:GGN-
Creator:Angki
Version:Sunshine
Source:
Tags:Happy Hardcore Happycore Chiptune GoGon- Electronic Instrumental Keksikosu Flade Sarahkuai Syadow-
BeatmapID:4492618
BeatmapSetID:2135137

[Difficulty]
HPDrainRate:8.5
CircleSize:4
OverallDifficulty:8.5
ApproachRate:5
SliderMultiplier:1.4
SliderTickRate:1

[Events]
//Background and Video events
0,0,"Background.jpg",0,0
//Break Periods
//Storyboard Layer 0 (Background)
//Storyboard Layer 1 (Fail)
//Storyboard Layer 2 (Pass)
//Storyboard Layer 3 (Foreground)
//Storyboard Layer 4 (Overlay)
//Storyboard Sound Samples

[TimingPoints]
1234,309.278350515464,4,2,1,50,1,0
22264,-100,4,2,1,50,0,1
42058,-100,4,2,1,50,0,0

[HitObjects]
64,192,1234,5,0,0:0:0:0:
448,192,1234,128,0,1388:0:0:0:0:
320,192,1388,1,0,0:0:0:0:
192,192,1543,128,0,1620:0:0:0:0:
320,192,1697,128,0,1775:0:0:0:0:
64,192,1775,128,0,1852:0:0:0:0:
448,192,1852,128,0,1929:0:0:0:0:
192,192,2007,128,0,2084:0:0:0:0:
320,192,2161,128,0,2239:0:0:0:0:
64,192,2316,1,0,0:0:0:0:
448,192,2316,128,0,2471:0:0:0:0:
192,192,2471,1,0,0:0:0:0:
64,192,2625,1,0,0:0:0:0:
320,192,2625,128,0,2780:0:0:0:0:
448,192,2780,1,0,0:0:0:0:
192,192,2935,128,0,3089:0:0:0:0:
320,192,2935,1,0,0:0:0:0:
64,192,3089,1,0,0:0:0:0:
448,192,3244,128,0,3321:0:0:0:0:
64,192,3398,128,0,3553:0:0:0:0:
320,192,3398,1,0,0:0:0:0:
192,192,3553,128,0,3630:0:0:0:0:
320,192,3630,128,0,3708:0:0:0:0:
64,192,3708,1,0,0:0:0:0:
448,192,3708,128,0,3785:0:0:0:0:
192,192,3862,128,0,4017:0:0:0:0:
320,192,4017,1,0,0:0:0:0:
64,192,4172,128,0,4326:0:0:0:0:
448,192,4326,128,0,4404:0:0:0:0:
192,192,4481,128,0,4558:0:0:0:0:
320,192,4636,128,0,4713:0:0:0:0:
64,192,4790,128,0,4945:0:0:0:0:
448,192,4790,1,0,0:0:0:0:
320,192,4945,1,0,0:0:0:0:
64,192,5099,1,0,0:0:0:0:
192,192,5099,128,0,5254:0:0:0:0:
448,192,5254,1,0,0:0:0:0:
192,192,5409,1,0,0:0:0:0:
320,192,5409,128,0,5563:0:0:0:0:
64,192,5563,1,0,0:0:0:0:
448,192,5718,128,0,5873:0:0:0:0:
64,192,5873,128,0,5950:0:0:0:0:
320,192,5873,1,0,0:0:0:0:
192,192,6027,128,0,6105:0:0:0:0:
320,192,6182,128,0,6337:0:0:0:0:
448,192,6182,1,0,0:0:0:0:
64,192,6337,1,0,0:0:0:0:
192,192,6491,1,0,0:0:0:0:
64,192,6646,128,0,6801:0:0:0:0:
320,192,6801,128,0,6878:0:0:0:0:
448,192,6955,128,0,7032:0:0:0:0:
192,192,7110,128,0,7187:0:0:0:0:
64,192,7264,1,0,0:0:0:0:
320,192,7264,128,0,7419:0:0:0:0:
448,192,7419,1,0,0:0:0:0:
64,192,7574,128,0,7728:0:0:0:0:
320,192,7574,1,0,0:0:0:0:
192,192,7728,1,0,0:0:0:0:
64,192,7883,1,0,0:0:0:0:
448,192,7883,128,0,8038:0:0:0:0:
320,192,8038,1,0,0:0:0:0:
192,192,8192,128,0,8347:0:0:0:0:
64,192,8347,1,0,0:0:0:0:
448,192,8347,1,0,0:0:0:0:
320,192,8502,128,0,8579:0:0:0:0:
64,192,8579,128,0,8656:0:0:0:0:
320,192,8656,1,0,0:0:0:0:
448,192,8656,128,0,8811:0:0:0:0:
192,192,8811,1,0,0:0:0:0:
64,192,8965,128,0,9120:0:0:0:0:
320,192,9120,1,0,0:0:0:0:
192,192,9275,128,0,9429:0:0:0:0:
448,192,9429,128,0,9584:0:0:0:0:
192,192,9584,1,0,0:0:0:0:
64,192,9739,1,0,0:0:0:0:
320,192,9739,128,0,9893:0:0:0:0:
448,192,9893,1,0,0:0:0:0:
192,192,10048,1,0,0:0:0:0:
320,192,10048,1,0,0:0:0:0:
64,192,10203,128,0,10357:0:0:0:0:
192,192,10357,1,0,0:0:0:0:
448,192,10357,1,0,0:0:0:0:
320,192,10512,128,0,10589:0:0:0:0:
192,192,10666,128,0,10744:0:0:0:0:
448,192,10744,128,0,10821:0:0:0:0:
64,192,10821,128,0,10976:0:0:0:0:
192,192,10821,1,0,0:0:0:0:
320,192,10976,1,0,0:0:0:0:
64,192,11130,1,2,0:0:0:10:
448,192,11130,128,8,11285:0:0:0:10:
192,192,11285,1,0,0:0:0:0:
320,192,11440,128,2,11517:0:0:0:10:
448,192,11440,1,8,0:0:0:10:
64,192,11594,128,0,11672:0:0:0:0:
192,192,11672,128,0,11749:0:0:0:0:
320,192,11749,128,2,11826:0:0:0:15:
448,192,11749,1,8,0:0:0:15:
64,192,11904,128,0,11981:0:0:0:0:
192,192,12058,1,2,0:0:0:15:
448,192,12058,128,8,12136:0:0:0:15:
320,192,12213,128,0,12368:0:0:0:0:
64,192,12368,1,2,0:0:0:20:
192,192,12368,1,8,0:0:0:20:
64,192,12522,128,0,12677:0:0:0:0:
320,192,12677,1,2,0:0:0:20:
448,192,12677,1,8,0:0:0:20:
448,192,12831,128,0,12986:0:0:0:0:
64,192,12986,1,2,0:0:0:25:
192,192,12986,1,8,0:0:0:25:
192,192,13141,128,0,13295:0:0:0:0:
320,192,13295,128,2,13373:0:0:0:25:
448,192,13295,1,8,0:0:0:25:
64,192,13450,1,0,0:0:0:0:
192,192,13605,1,2,0:0:0:30:
448,192,13605,128,8,13682:0:0:0:30:
320,192,13759,1,0,0:0:0:0:
64,192,13914,1,2,0:0:0:30:
192,192,13914,128,8,14069:0:0:0:30:
448,192,14069,128,0,14223:0:0:0:0:
192,192,14223,1,2,0:0:0:35:
320,192,14223,1,8,0:0:0:35:
320,192,14378,128,0,14532:0:0:0:0:
64,192,14532,1,2,0:0:0:35:
192,192,14532,1,8,0:0:0:35:
64,192,14687,128,0,14842:0:0:0:0:
320,192,14842,1,2,0:0:0:40:
448,192,14842,1,8,0:0:0:40:
448,192,14996,128,0,15151:0:0:0:0:
64,192,15151,1,2,0:0:0:40:
192,192,15151,128,8,15306:0:0:0:40:
320,192,15306,128,0,15460:0:0:0:0:
192,192,15460,1,2,0:0:0:45:
448,192,15460,1,8,0:0:0:45:
64,192,15615,128,0,15770:0:0:0:0:
192,192,15770,128,2,15924:0:0:0:45:
448,192,15770,1,8,0:0:0:45:
320,192,15924,1,8,0:0:0:0:
448,192,15924,1,0,0:0:0:0:
192,192,16002,1,8,0:0:0:0:
64,192,16079,1,2,0:0:0:0:
320,192,16079,1,8,0:0:0:0:
448,192,16079,1,0,0:0:0:0:
192,192,16234,1,2,0:0:0:0:
320,192,16234,1,8,0:0:0:0:
64,192,16388,1,2,0:0:0:0:
192,192,16388,1,8,0:0:0:0:
448,192,16388,1,0,0:0:0:0:
64,192,16543,1,2,0:0:0:0:
320,192,16543,1,8,0:0:0:0:
192,192,16697,1,2,0:0:0:0:
320,192,16697,1,8,0:0:0:0:
448,192,16697,1,0,0:0:0:0:
64,192,16852,1,2,0:0:0:0:
448,192,16852,1,8,0:0:0:0:
64,192,17007,1,2,0:0:0:0:
192,192,17007,1,8,0:0:0:0:
320,192,17007,1,0,0:0:0:0:
320,192,17161,1,2,0:0:0:0:
448,192,17161,1,8,0:0:0:0:
64,192,17316,1,2,0:0:0:0:
192,192,17316,1,8,0:0:0:0:
448,192,17316,1,0,0:0:0:0:
64,192,17471,1,2,0:0:0:0:
320,192,17471,1,8,0:0:0:0:
192,192,17625,1,2,0:0:0:0:
320,192,17625,1,8,0:0:0:0:
448,192,17625,1,0,0:0:0:0:
64,192,17780,1,2,0:0:0:0:
192,192,17780,1,8,0:0:0:0:
64,192,17935,1,2,0:0:0:0:
320,192,17935,1,8,0:0:0:0:
448,192,17935,1,0,0:0:0:0:
192,192,18089,1,2,0:0:0:0:
320,192,18089,1,8,0:0:0:0:
64,192,18244,1,2,0:0:0:0:
192,192,18244,1,8,0:0:0:0:
448,192,18244,1,0,0:0:0:0:
320,192,18398,1,2,0:0:0:0:
448,192,18398,1,8,0:0:0:0:
192,192,18476,1,8,0:0:0:0:
64,192,18553,1,2,0:0:0:0:
448,192,18553,1,8,0:0:0:0:
320,192,18630,1,10,0:0:0:0:
64,192,18708,1,2,0:0:0:0:
192,192,18708,1,8,0:0:0:0:
448,192,18785,1,10,0:0:0:0:
192,192,18862,1,2,0:0:0:0:
320,192,18862,1,8,0:0:0:0:
64,192,18940,1,10,0:0:0:0:
320,192,19017,1,2,0:0:0:0:
448,192,19017,1,8,0:0:0:0:
192,192,19094,1,10,0:0:0:0:
64,192,19172,1,2,0:0:0:0:
448,192,19172,1,8,0:0:0:0:
192,192,19249,1,10,0:0:0:0:
320,192,19326,1,2,0:0:0:0:
448,192,19326,1,8,0:0:0:0:
64,192,19404,1,10,0:0:0:0:
192,192,19481,1,2,0:0:0:0:
320,192,19481,1,8,0:0:0:0:
448,192,19558,1,10,0:0:0:0:
64,192,19636,1,10,0:0:0:0:
192,192,19674,1,2,0:0:0:0:
320,192,19713,1,10,0:0:0:0:
448,192,19752,1,2,0:0:0:0:
64,192,19790,1,2,0:0:0:0:
192,192,19790,1,8,0:0:0:0:
320,192,19868,1,10,0:0:0:0:
64,192,19945,1,2,0:0:0:0:
448,192,19945,1,8,0:0:0:0:
192,192,20022,1,10,0:0:0:0:
320,192,20099,1,2,0:0:0:0:
448,192,20099,1,8,0:0:0:0:
64,192,20177,1,10,0:0:0:0:
192,192,20254,1,2,0:0:0:0:
320,192,20254,1,8,0:0:0:0:
448,192,20331,1,10,0:0:0:0:
64,192,20409,1,10,0:0:0:0:
192,192,20447,1,2,0:0:0:0:
320,192,20486,1,10,0:0:0:0:
448,192,20525,1,2,0:0:0:0:
64,192,20563,1,10,0:0:0:0:
192,192,20641,1,10,0:0:0:0:
448,192,20718,1,10,0:0:0:0:
320,192,20757,1,2,0:0:0:0:
192,192,20795,1,10,0:0:0:0:
64,192,20834,1,2,0:0:0:0:
448,192,20873,1,10,0:0:0:0:
320,192,20950,1,8,0:0:0:0:
64,192,21027,1,2,0:0:0:0:
192,192,21027,1,8,0:0:0:0:
448,192,21027,1,0,0:0:0:50:LR3_BassDropSSG.wav
64,192,21337,128,0,21453:0:0:0:70:beep.wav
192,192,21453,1,0,0:0:0:0:
448,192,21646,1,0,0:0:0:50:tom1.wav
320,192,21801,1,0,0:0:0:50:tom1.wav
192,192,21878,1,0,0:0:0:50:Tom2.wav
64,192,21955,1,0,0:0:0:50:tom3.wav
448,192,21955,128,0,22110:0:0:0:70:boop.wav
320,192,22032,128,0,22110:0:0:0:0:
64,192,22264,128,2,22419:0:0:0:0:
192,192,22264,1,4,0:0:0:0:
320,192,22264,1,0,0:0:0:0:
448,192,22264,128,0,22419:0:0:0:0:
320,192,22419,1,0,0:0:0:0:
64,192,22574,1,8,0:0:0:0:
192,192,22574,128,2,22651:0:0:0:0:
448,192,22574,1,0,0:0:0:0:
320,192,22728,128,0,22883:0:0:0:0:
448,192,22806,128,0,22883:0:0:0:0:
64,192,22883,128,2,23038:0:0:0:0:
192,192,22883,1,0,0:0:0:0:
192,192,23038,128,0,23192:0:0:0:0:
64,192,23192,1,8,0:0:0:0:
320,192,23192,128,2,23347:0:0:0:0:
448,192,23192,1,0,0:0:0:0:
448,192,23347,128,0,23502:0:0:0:0:
64,192,23502,1,2,0:0:0:0:
192,192,23502,1,0,0:0:0:0:
64,192,23656,128,0,23811:0:0:0:0:
192,192,23811,1,2,0:0:0:0:
320,192,23811,1,8,0:0:0:0:
448,192,23811,1,0,0:0:0:0:
320,192,23965,128,0,24120:0:0:0:0:
64,192,24120,1,2,0:0:0:0:
448,192,24120,1,0,0:0:0:0:
192,192,24275,128,0,24352:0:0:0:0:
64,192,24429,128,8,24584:0:0:0:0:
192,192,24429,1,2,0:0:0:0:
448,192,24429,128,0,24584:0:0:0:0:
320,192,24584,128,0,24739:0:0:0:0:
192,192,24661,128,0,24739:0:0:0:0:
64,192,24739,1,2,0:0:0:0:
448,192,24739,128,0,24971:0:0:0:0:
320,192,24893,128,0,24971:0:0:0:0:
64,192,25048,1,2,0:0:0:0:
192,192,25048,1,8,0:0:0:0:
448,192,25048,1,0,0:0:0:0:
64,192,25203,128,0,25512:0:0:0:0:
192,192,25357,128,2,25666:0:0:0:0:
320,192,25357,1,0,0:0:0:0:
320,192,25512,128,0,25821:0:0:0:0:
64,192,25666,1,8,0:0:0:0:
448,192,25666,128,2,25821:0:0:0:0:
64,192,25821,128,0,25976:0:0:0:0:
192,192,25976,1,2,0:0:0:0:
320,192,25976,1,0,0:0:0:0:
320,192,26130,128,0,26285:0:0:0:0:
64,192,26285,1,2,0:0:0:0:
192,192,26285,1,8,0:0:0:0:
448,192,26285,1,0,0:0:0:0:
192,192,26440,128,0,26594:0:0:0:0:
64,192,26594,1,2,0:0:0:0:
448,192,26594,1,0,0:0:0:0:
448,192,26749,128,0,26981:0:0:0:0:
64,192,26904,1,8,0:0:0:0:
192,192,26904,128,2,26981:0:0:0:0:
320,192,26904,1,0,0:0:0:0:
64,192,27058,128,0,27213:0:0:0:0:
320,192,27213,128,2,27368:0:0:0:0:
448,192,27213,128,0,27368:0:0:0:0:
64,192,27368,1,0,0:0:0:0:
192,192,27522,1,2,0:0:0:0:
320,192,27522,1,8,0:0:0:0:
448,192,27522,1,0,0:0:0:0:
64,192,27677,128,0,27831:0:0:0:0:
320,192,27831,128,2,28063:0:0:0:0:
448,192,27831,1,0,0:0:0:0:
448,192,27986,128,0,28063:0:0:0:0:
64,192,28141,1,8,0:0:0:0:
192,192,28141,128,2,28450:0:0:0:0:
320,192,28141,1,0,0:0:0:0:
64,192,28295,128,0,28450:0:0:0:0:
320,192,28450,1,2,0:0:0:0:
448,192,28450,1,0,0:0:0:0:
192,192,28605,128,0,28759:0:0:0:0:
64,192,28759,1,2,0:0:0:0:
320,192,28759,1,8,0:0:0:0:
448,192,28759,1,0,0:0:0:0:
320,192,28914,128,0,29069:0:0:0:0:
64,192,29069,1,2,0:0:0:0:
192,192,29069,1,0,0:0:0:0:
448,192,29223,128,0,29378:0:0:0:0:
64,192,29378,1,8,0:0:0:0:
192,192,29378,1,2,0:0:0:0:
320,192,29378,1,0,0:0:0:0:
192,192,29532,128,0,29687:0:0:0:0:
64,192,29610,128,0,29687:0:0:0:0:
320,192,29687,128,2,29842:0:0:0:0:
448,192,29687,1,0,0:0:0:0:
192,192,29842,1,0,0:0:0:0:
64,192,29996,128,2,30151:0:0:0:0:
320,192,29996,1,8,0:0:0:0:
448,192,29996,128,0,30151:0:0:0:0:
192,192,30151,1,0,0:0:0:0:
320,192,30306,128,2,30460:0:0:0:0:
448,192,30306,1,0,0:0:0:0:
192,192,30460,128,0,30615:0:0:0:0:
64,192,30615,1,8,0:0:0:0:
320,192,30615,1,2,0:0:0:0:
448,192,30615,1,0,0:0:0:0:
64,192,30770,128,0,30924:0:0:0:0:
320,192,30924,1,2,0:0:0:0:
448,192,30924,1,0,0:0:0:0:
192,192,31079,1,0,0:0:0:0:
64,192,31234,1,2,0:0:0:0:
320,192,31234,128,8,31388:0:0:0:0:
448,192,31234,128,0,31388:0:0:0:0:
192,192,31388,1,0,0:0:0:0:
64,192,31543,128,2,31620:0:0:0:0:
448,192,31543,1,0,0:0:0:0:
192,192,31697,128,0,31852:0:0:0:0:
320,192,31775,128,0,31852:0:0:0:0:
64,192,31852,128,8,32007:0:0:0:0:
448,192,31852,128,2,32007:0:0:0:0:
192,192,32007,1,0,0:0:0:0:
64,192,32161,128,2,32316:0:0:0:0:
320,192,32161,128,4,32316:0:0:0:0:
448,192,32161,1,0,0:0:0:0:
192,192,32316,1,0,0:0:0:0:
64,192,32471,1,2,0:0:0:0:
320,192,32471,1,8,0:0:0:0:
448,192,32471,128,0,32548:0:0:0:0:
192,192,32625,128,0,32780:0:0:0:0:
64,192,32703,128,0,32780:0:0:0:0:
320,192,32780,128,2,32935:0:0:0:0:
448,192,32780,1,0,0:0:0:0:
64,192,32935,128,0,33089:0:0:0:0:
192,192,33089,1,8,0:0:0:0:
320,192,33089,1,2,0:0:0:0:
448,192,33089,128,0,33244:0:0:0:0:
192,192,33244,128,0,33398:0:0:0:0:
64,192,33398,1,2,0:0:0:0:
320,192,33398,1,0,0:0:0:0:
64,192,33553,128,0,33708:0:0:0:0:
192,192,33708,1,2,0:0:0:0:
320,192,33708,1,8,0:0:0:0:
448,192,33708,1,0,0:0:0:0:
448,192,33862,128,0,34017:0:0:0:0:
192,192,34017,1,2,0:0:0:0:
320,192,34017,1,0,0:0:0:0:
64,192,34172,128,0,34249:0:0:0:0:
64,192,34326,1,8,0:0:0:0:
320,192,34326,128,2,34481:0:0:0:0:
448,192,34326,128,0,34481:0:0:0:0:
192,192,34481,1,0,0:0:0:0:
64,192,34636,128,2,34790:0:0:0:0:
448,192,34636,128,0,34790:0:0:0:0:
320,192,34790,1,0,0:0:0:0:
64,192,34945,128,2,35099:0:0:0:0:
192,192,34945,128,8,35254:0:0:0:0:
448,192,34945,1,0,0:0:0:0:
320,192,35099,128,0,35254:0:0:0:0:
64,192,35254,1,2,0:0:0:0:
448,192,35254,1,0,0:0:0:0:
448,192,35409,128,0,35563:0:0:0:0:
64,192,35563,1,8,0:0:0:0:
192,192,35563,1,2,0:0:0:0:
320,192,35563,1,0,0:0:0:0:
64,192,35718,128,2,35873:0:0:0:0:
192,192,35718,128,4,35873:0:0:0:0:
448,192,35718,1,0,0:0:0:0:
64,192,36027,1,8,0:0:0:0:
192,192,36027,1,0,0:0:0:0:
448,192,36027,128,0,36182:0:0:0:0:
64,192,36182,1,8,0:0:0:0:
192,192,36182,128,0,36337:0:0:0:0:
320,192,36182,1,0,0:0:0:0:
64,192,36337,1,2,0:0:0:0:
320,192,36337,128,4,36491:0:0:0:0:
448,192,36337,128,0,36491:0:0:0:0:
64,192,36646,128,8,36801:0:0:0:0:
448,192,36646,1,0,0:0:0:0:
320,192,36723,1,8,0:0:0:0:
192,192,36801,128,8,36955:0:0:0:0:
448,192,36801,1,0,0:0:0:0:
64,192,36955,1,8,0:0:0:0:
320,192,36955,128,0,37110:0:0:0:0:
64,192,37110,1,2,0:0:0:0:
192,192,37110,1,8,0:0:0:0:
448,192,37110,1,4,0:0:0:0:
192,192,37264,1,8,0:0:0:0:
320,192,37264,1,0,0:0:0:0:
64,192,37419,1,2,0:0:0:0:
320,192,37419,1,8,0:0:0:0:
448,192,37419,1,0,0:0:0:0:
64,192,37574,1,8,0:0:0:0:
192,192,37574,1,0,0:0:0:0:
192,192,37728,1,2,0:0:0:0:
320,192,37728,1,8,0:0:0:0:
448,192,37728,1,0,0:0:0:0:
64,192,37883,1,8,0:0:0:0:
320,192,37883,1,0,0:0:0:0:
448,192,37883,1,0,0:0:0:0:
64,192,38038,1,2,0:0:0:0:
192,192,38038,1,8,0:0:0:0:
448,192,38038,1,0,0:0:0:0:
64,192,38192,1,8,0:0:0:0:
192,192,38192,1,0,0:0:0:0:
320,192,38192,1,0,0:0:0:0:
64,192,38347,1,2,0:0:0:0:
192,192,38347,1,8,0:0:0:0:
320,192,38347,1,4,0:0:0:0:
448,192,38347,1,0,0:0:0:0:
192,192,38502,1,8,0:0:0:0:
320,192,38502,1,0,0:0:0:0:
448,192,38502,1,0,0:0:0:0:
64,192,38656,1,2,0:0:0:0:
320,192,38656,1,8,0:0:0:0:
448,192,38656,1,0,0:0:0:0:
64,192,38811,1,8,0:0:0:0:
192,192,38811,1,0,0:0:0:0:
320,192,38811,1,0,0:0:0:0:
64,192,38965,1,2,0:0:0:0:
192,192,38965,1,8,0:0:0:0:
448,192,38965,1,0,0:0:0:0:
64,192,39120,1,8,0:0:0:0:
320,192,39120,1,0,0:0:0:0:
448,192,39120,1,0,0:0:0:0:
192,192,39275,1,2,0:0:0:0:
320,192,39275,1,8,0:0:0:0:
448,192,39275,1,0,0:0:0:0:
64,192,39429,1,8,0:0:0:0:
192,192,39429,1,0,0:0:0:0:
320,192,39507,1,8,0:0:0:0:
64,192,39584,1,10,0:0:0:0:
448,192,39584,1,4,0:0:0:0:
192,192,39661,1,8,0:0:0:0:
320,192,39739,1,2,0:0:0:0:
448,192,39739,1,8,0:0:0:0:
192,192,39816,1,8,0:0:0:0:
64,192,39893,1,2,0:0:0:0:
448,192,39893,1,8,0:0:0:0:
320,192,39971,1,8,0:0:0:0:
64,192,40048,1,2,0:0:0:0:
192,192,40048,1,8,0:0:0:0:
320,192,40125,1,8,0:0:0:0:
64,192,40203,1,8,0:0:0:0:
448,192,40203,1,2,0:0:0:0:
192,192,40280,1,8,0:0:0:0:
320,192,40357,1,8,0:0:0:0:
448,192,40357,1,2,0:0:0:0:
192,192,40435,1,8,0:0:0:0:
64,192,40512,1,2,0:0:0:0:
448,192,40512,1,8,0:0:0:0:
320,192,40589,1,8,0:0:0:0:
64,192,40666,1,10,0:0:0:0:
192,192,40705,1,2,0:0:0:0:
320,192,40744,1,10,0:0:0:0:
448,192,40782,1,2,0:0:0:0:
64,192,40821,1,8,0:0:0:0:
192,192,40821,1,2,0:0:0:0:
320,192,40898,1,10,0:0:0:0:
64,192,40976,1,8,0:0:0:0:
448,192,40976,1,2,0:0:0:0:
192,192,41053,1,10,0:0:0:0:
320,192,41130,1,2,0:0:0:0:
448,192,41130,1,8,0:0:0:0:
64,192,41208,1,10,0:0:0:0:
448,192,41285,1,10,0:0:0:0:
320,192,41324,1,2,0:0:0:0:
192,192,41362,1,10,0:0:0:0:
64,192,41401,1,2,0:0:0:0:
320,192,41440,1,2,0:0:0:0:
448,192,41440,1,8,0:0:0:0:
192,192,41517,1,10,0:0:0:0:
64,192,41594,1,8,0:0:0:0:
448,192,41594,1,2,0:0:0:0:
320,192,41672,1,10,0:0:0:0:
64,192,41749,1,10,0:0:0:0:
192,192,41788,1,2,0:0:0:0:
320,192,41826,1,10,0:0:0:0:
448,192,41865,1,2,0:0:0:0:
64,192,41904,1,10,0:0:0:0:
192,192,41942,1,2,0:0:0:0:
320,192,41981,1,10,0:0:0:0:
448,192,42020,1,2,0:0:0:0:
64,192,42058,1,2,0:0:0:0:
192,192,42058,1,4,0:0:0:0:
