osu file format v14

[General]
AudioFilename: audio.mp3
AudioLeadIn: 0
PreviewTime: 21027
Countdown: 0
SampleSet: Soft
StackLeniency: 0.7
Mode: 3
LetterboxInBreaks: 0
SpecialStyle: 0
WidescreenStoryboard: 1

[Editor]
DistanceSpacing: 1.3
BeatDivisor: 2
GridSize: 4
TimelineZoom: 1.199999

[Metadata]
Title:Energetic Shine
TitleUnicode:Energetic Shine
Artist:GGN-
ArtistUnicode:GGN-
Creator:Angki
Version:Sarahkuai's Easy
Source:
Tags:Happy Hardcore Happycore Chiptune GoGon- Electronic Instrumental Keksikosu Flade Sarahkuai Syadow-
BeatmapID:4492617
BeatmapSetID:2135137

[Difficulty]
HPDrainRate:6.5
CircleSize:4
OverallDifficulty:6.5
ApproachRate:5
SliderMultiplier:1.4
SliderTickRate:1

[Events]
//Background and Video events
0,0,"Background.jpg",0,0
//Break Periods
//Storyboard Layer 0 (Background)
//Storyboard Layer 1 (Fail)
//Storyboard Layer 2 (Pass)
//Storyboard Layer 3 (Foreground)
//Storyboard Layer 4 (Overlay)
//Storyboard Sound Samples
Sample,21027,0,"LR3_BassDropSSG.wav",50

[TimingPoints]
1234,309.278350515464,4,2,1,50,1,0
22264,-100.0,4,2,1,50,0,1
42058,-100.0,4,2,1,50,0,0

[HitObjects]
448,192,1234,1,0,0:0:0:0:
320,192,2316,1,0,0:0:0:0:
192,192,2625,1,0,0:0:0:0:
320,192,2935,1,0,0:0:0:0:
64,192,3398,1,0,0:0:0:0:
448,192,3708,1,0,0:0:0:0:
448,192,4790,1,0,0:0:0:0:
192,192,5099,1,0,0:0:0:0:
448,192,5409,1,0,0:0:0:0:
320,192,5873,1,0,0:0:0:0:
64,192,6182,1,0,0:0:0:0:
192,192,7264,1,0,0:0:0:0:
448,192,7574,1,0,0:0:0:0:
192,192,7883,1,0,0:0:0:0:
64,192,8347,1,0,0:0:0:0:
320,192,8656,1,0,0:0:0:0:
448,192,9584,1,0,0:0:0:0:
64,192,9739,1,0,0:0:0:0:
192,192,10048,1,0,0:0:0:0:
320,192,10357,1,0,0:0:0:0:
448,192,10821,1,0,0:0:0:0:
64,192,11130,128,10,11749:0:0:0:10:
320,192,11749,128,10,12368:0:0:0:15:
192,192,12368,128,10,12986:0:0:0:20:
448,192,12986,128,10,13605:0:0:0:25:
320,192,13605,128,10,14223:0:0:0:30:
192,192,14223,128,10,14842:0:0:0:35:
448,192,14842,128,10,15460:0:0:0:40:
64,192,15460,128,10,15770:0:0:0:45:
192,192,15770,128,10,16079:0:0:0:45:
448,192,16079,1,10,0:0:0:0:
320,192,16388,1,10,0:0:0:0:
64,192,16697,1,10,0:0:0:0:
192,192,17007,1,10,0:0:0:0:
448,192,17316,1,10,0:0:0:0:
320,192,17625,1,10,0:0:0:0:
192,192,17935,1,10,0:0:0:0:
320,192,18244,1,10,0:0:0:0:
64,192,18553,128,10,21027:0:0:0:0:
448,192,19790,128,10,21027:0:0:0:0:
320,192,21027,1,10,0:0:0:0:
320,192,21646,1,0,0:0:0:50:tom1.wav
64,192,22264,1,2,0:0:0:0:
448,192,22264,1,4,0:0:0:0:
192,192,22574,1,10,0:0:0:0:
320,192,22883,1,2,0:0:0:0:
192,192,23192,1,10,0:0:0:0:
448,192,23502,1,2,0:0:0:0:
320,192,23811,1,10,0:0:0:0:
192,192,24120,1,2,0:0:0:0:
64,192,24429,1,10,0:0:0:0:
448,192,24739,1,2,0:0:0:0:
320,192,25048,1,10,0:0:0:0:
64,192,25357,1,2,0:0:0:0:
192,192,25666,1,10,0:0:0:0:
448,192,25976,1,2,0:0:0:0:
320,192,26285,1,10,0:0:0:0:
192,192,26594,1,2,0:0:0:0:
320,192,26904,1,10,0:0:0:0:
64,192,27213,1,2,0:0:0:0:
192,192,27522,1,10,0:0:0:0:
448,192,27831,1,2,0:0:0:0:
320,192,28141,1,10,0:0:0:0:
192,192,28450,1,2,0:0:0:0:
320,192,28759,1,10,0:0:0:0:
448,192,29069,1,2,0:0:0:0:
64,192,29378,1,10,0:0:0:0:
192,192,29687,1,2,0:0:0:0:
320,192,29996,1,10,0:0:0:0:
192,192,30306,1,2,0:0:0:0:
64,192,30615,1,10,0:0:0:0:
448,192,30924,1,2,0:0:0:0:
320,192,31234,1,10,0:0:0:0:
64,192,31543,128,2,31852:0:0:0:0:
320,192,31852,1,10,0:0:0:0:
64,192,32161,1,2,0:0:0:0:
448,192,32161,1,4,0:0:0:0:
320,192,32471,1,10,0:0:0:0:
192,192,32780,1,2,0:0:0:0:
320,192,33089,1,10,0:0:0:0:
64,192,33398,1,2,0:0:0:0:
192,192,33708,1,10,0:0:0:0:
320,192,34017,1,2,0:0:0:0:
448,192,34326,1,10,0:0:0:0:
64,192,34636,1,2,0:0:0:0:
192,192,34945,1,10,0:0:0:0:
448,192,35254,1,2,0:0:0:0:
320,192,35563,1,10,0:0:0:0:
192,192,35718,1,6,0:0:0:0:
64,192,36027,128,8,36337:0:0:0:0:
320,192,36337,1,2,0:0:0:0:
448,192,36337,1,4,0:0:0:0:
192,192,36646,128,8,37110:0:0:0:0:
64,192,37110,1,10,0:0:0:0:
448,192,37110,1,4,0:0:0:0:
320,192,37419,1,10,0:0:0:0:
64,192,37728,1,10,0:0:0:0:
192,192,38038,1,10,0:0:0:0:
320,192,38347,1,10,0:0:0:0:
448,192,38347,1,4,0:0:0:0:
64,192,38656,1,10,0:0:0:0:
192,192,38965,1,10,0:0:0:0:
320,192,39275,1,10,0:0:0:0:
64,192,39584,128,10,42058:0:0:0:0:
448,192,39584,1,4,0:0:0:0:
192,192,40821,128,10,42058:0:0:0:0:
320,192,42058,1,2,0:0:0:0:
448,192,42058,1,4,0:0:0:0:
