osu file format v14

[General]
AudioFilename: audio.mp3
AudioLeadIn: 0
PreviewTime: 21027
Countdown: 0
SampleSet: Soft
StackLeniency: 0.7
Mode: 3
LetterboxInBreaks: 0
SpecialStyle: 0
WidescreenStoryboard: 1

[Editor]
DistanceSpacing: 1.3
BeatDivisor: 2
GridSize: 4
TimelineZoom: 3.699998

[Metadata]
Title:Energetic Shine
TitleUnicode:Energetic Shine
Artist:GGN-
ArtistUnicode:GGN-
Creator:Angki
Version:Normal
Source:
Tags:Happy Hardcore Happycore Chiptune GoGon- Electronic Instrumental Keksikosu Flade Sarahkuai Syadow-
BeatmapID:4492615
BeatmapSetID:2135137

[Difficulty]
HPDrainRate:7
CircleSize:4
OverallDifficulty:7
ApproachRate:5
SliderMultiplier:1.4
SliderTickRate:1

[Events]
//Background and Video events
0,0,"Background.jpg",0,0
//Break Periods
//Storyboard Layer 0 (Background)
//Storyboard Layer 1 (Fail)
//Storyboard Layer 2 (Pass)
//Storyboard Layer 3 (Foreground)
//Storyboard Layer 4 (Overlay)
//Storyboard Sound Samples
Sample,21955,0,"boop.wav",70

[TimingPoints]
1234,309.278350515464,4,2,1,50,1,0
22264,-100.0,4,2,1,50,0,1
42058,-100.0,4,2,1,50,0,0

[HitObjects]
448,192,1234,1,0,0:0:0:0:
320,192,1543,1,0,0:0:0:0:
64,192,1852,1,0,0:0:0:0:
192,192,2007,1,0,0:0:0:0:
320,192,2161,1,0,0:0:0:0:
448,192,2316,1,0,0:0:0:0:
64,192,2625,1,0,0:0:0:0:
320,192,2935,1,0,0:0:0:0:
192,192,3244,1,0,0:0:0:0:
448,192,3398,1,0,0:0:0:0:
64,192,3708,1,0,0:0:0:0:
320,192,3862,1,0,0:0:0:0:
192,192,4172,1,0,0:0:0:0:
64,192,4326,1,0,0:0:0:0:
448,192,4481,1,0,0:0:0:0:
320,192,4636,1,0,0:0:0:0:
192,192,4790,1,0,0:0:0:0:
448,192,5099,1,0,0:0:0:0:
64,192,5409,1,0,0:0:0:0:
192,192,5718,1,0,0:0:0:0:
448,192,5873,1,0,0:0:0:0:
320,192,6027,1,0,0:0:0:0:
64,192,6182,1,0,0:0:0:0:
320,192,6646,1,0,0:0:0:0:
448,192,6801,1,0,0:0:0:0:
64,192,6955,1,0,0:0:0:0:
192,192,7110,1,0,0:0:0:0:
320,192,7264,1,0,0:0:0:0:
64,192,7574,1,0,0:0:0:0:
448,192,7883,1,0,0:0:0:0:
192,192,8192,1,0,0:0:0:0:
320,192,8502,1,0,0:0:0:0:
448,192,8656,1,0,0:0:0:0:
64,192,8965,1,0,0:0:0:0:
192,192,9275,1,0,0:0:0:0:
320,192,9429,1,0,0:0:0:0:
448,192,9739,1,0,0:0:0:0:
192,192,10203,1,0,0:0:0:0:
64,192,10512,1,0,0:0:0:0:
320,192,10666,1,0,0:0:0:0:
448,192,10821,1,0,0:0:0:0:
192,192,11130,1,10,0:0:0:10:
448,192,11440,1,10,0:0:0:10:
320,192,11749,1,10,0:0:0:15:
192,192,11904,1,0,0:0:0:0:
64,192,12058,1,10,0:0:0:15:
448,192,12213,1,0,0:0:0:0:
192,192,12522,1,0,0:0:0:0:
320,192,12831,1,0,0:0:0:0:
64,192,13141,1,0,0:0:0:0:
192,192,13295,1,10,0:0:0:25:
448,192,13605,1,10,0:0:0:30:
192,192,13914,1,10,0:0:0:30:
320,192,14069,1,0,0:0:0:0:
64,192,14378,1,0,0:0:0:0:
448,192,14687,1,0,0:0:0:0:
320,192,14996,1,0,0:0:0:0:
192,192,15151,1,10,0:0:0:40:
64,192,15306,1,0,0:0:0:0:
448,192,15615,1,0,0:0:0:0:
320,192,15770,1,10,0:0:0:45:
64,192,15924,1,8,0:0:0:0:
448,192,16079,1,10,0:0:0:0:
192,192,16388,1,10,0:0:0:0:
320,192,16697,1,10,0:0:0:0:
448,192,16852,1,10,0:0:0:0:
64,192,17007,1,10,0:0:0:0:
192,192,17161,1,10,0:0:0:0:
320,192,17471,1,10,0:0:0:0:
64,192,17780,1,10,0:0:0:0:
448,192,17935,1,10,0:0:0:0:
192,192,18089,1,10,0:0:0:0:
320,192,18244,1,10,0:0:0:0:
448,192,18398,1,10,0:0:0:0:
64,192,18553,128,10,19790:0:0:0:0:
192,192,18862,1,10,0:0:0:0:
448,192,19172,1,10,0:0:0:0:
320,192,19481,1,10,0:0:0:0:
192,192,19790,128,10,20409:0:0:0:0:
448,192,20099,1,10,0:0:0:0:
320,192,20409,128,10,20718:0:0:0:0:
448,192,20718,128,10,21027:0:0:0:0:
64,192,21027,1,10,0:0:0:0:
192,192,21027,1,0,0:0:0:50:LR3_BassDropSSG.wav
320,192,21646,1,0,0:0:0:50:tom1.wav
192,192,21801,1,0,0:0:0:50:tom1.wav
64,192,21955,1,0,0:0:0:50:tom3.wav
320,192,22264,1,2,0:0:0:0:
448,192,22264,1,4,0:0:0:0:
64,192,22574,1,8,0:0:0:0:
192,192,22574,1,2,0:0:0:0:
320,192,22728,1,0,0:0:0:0:
448,192,22883,1,2,0:0:0:0:
192,192,23038,1,0,0:0:0:0:
64,192,23192,1,10,0:0:0:0:
320,192,23347,1,0,0:0:0:0:
448,192,23656,1,0,0:0:0:0:
64,192,23965,1,0,0:0:0:0:
320,192,24275,1,0,0:0:0:0:
192,192,24429,1,8,0:0:0:0:
448,192,24429,1,2,0:0:0:0:
64,192,24739,1,2,0:0:0:0:
192,192,24893,1,0,0:0:0:0:
448,192,25203,1,0,0:0:0:0:
320,192,25357,1,2,0:0:0:0:
192,192,25512,1,0,0:0:0:0:
448,192,25666,1,10,0:0:0:0:
64,192,25821,1,0,0:0:0:0:
192,192,26130,1,0,0:0:0:0:
448,192,26440,1,0,0:0:0:0:
64,192,26749,1,0,0:0:0:0:
320,192,26904,1,10,0:0:0:0:
192,192,27058,1,0,0:0:0:0:
448,192,27213,1,2,0:0:0:0:
320,192,27677,1,0,0:0:0:0:
64,192,27831,1,2,0:0:0:0:
448,192,27986,1,0,0:0:0:0:
192,192,28141,1,10,0:0:0:0:
320,192,28295,1,0,0:0:0:0:
448,192,28605,1,0,0:0:0:0:
64,192,28914,1,0,0:0:0:0:
192,192,29223,1,0,0:0:0:0:
448,192,29532,1,0,0:0:0:0:
64,192,29687,1,2,0:0:0:0:
192,192,29996,1,2,0:0:0:0:
448,192,29996,1,8,0:0:0:0:
320,192,30306,1,2,0:0:0:0:
192,192,30460,1,0,0:0:0:0:
64,192,30770,1,0,0:0:0:0:
192,192,31234,1,2,0:0:0:0:
320,192,31234,1,8,0:0:0:0:
448,192,31543,1,2,0:0:0:0:
320,192,31697,1,0,0:0:0:0:
64,192,31852,1,8,0:0:0:0:
192,192,31852,1,2,0:0:0:0:
320,192,32161,1,2,0:0:0:0:
448,192,32161,1,4,0:0:0:0:
64,192,32471,1,2,0:0:0:0:
192,192,32471,1,8,0:0:0:0:
448,192,32625,1,0,0:0:0:0:
320,192,32780,1,2,0:0:0:0:
192,192,32935,1,0,0:0:0:0:
448,192,33089,1,10,0:0:0:0:
64,192,33244,1,0,0:0:0:0:
320,192,33553,1,0,0:0:0:0:
192,192,33862,1,0,0:0:0:0:
448,192,34172,1,0,0:0:0:0:
64,192,34326,1,8,0:0:0:0:
320,192,34326,1,2,0:0:0:0:
192,192,34636,1,2,0:0:0:0:
320,192,34945,1,2,0:0:0:0:
448,192,34945,1,8,0:0:0:0:
64,192,35099,1,0,0:0:0:0:
192,192,35409,1,0,0:0:0:0:
320,192,35718,1,2,0:0:0:0:
448,192,35718,1,4,0:0:0:0:
192,192,36027,1,8,0:0:0:0:
320,192,36182,1,8,0:0:0:0:
64,192,36337,1,2,0:0:0:0:
448,192,36337,1,4,0:0:0:0:
320,192,36646,1,8,0:0:0:0:
192,192,36801,1,8,0:0:0:0:
64,192,36955,1,8,0:0:0:0:
320,192,37110,1,10,0:0:0:0:
448,192,37110,1,4,0:0:0:0:
192,192,37419,1,10,0:0:0:0:
448,192,37728,1,10,0:0:0:0:
64,192,37883,1,8,0:0:0:0:
192,192,38038,1,10,0:0:0:0:
320,192,38192,1,8,0:0:0:0:
64,192,38347,1,10,0:0:0:0:
448,192,38347,1,4,0:0:0:0:
192,192,38502,1,8,0:0:0:0:
448,192,38811,1,8,0:0:0:0:
192,192,38965,1,10,0:0:0:0:
320,192,39120,1,8,0:0:0:0:
64,192,39275,1,10,0:0:0:0:
192,192,39429,1,8,0:0:0:0:
320,192,39584,1,10,0:0:0:0:
448,192,39584,128,4,40821:0:0:0:0:
192,192,39893,1,10,0:0:0:0:
64,192,40203,1,10,0:0:0:0:
192,192,40512,1,10,0:0:0:0:
320,192,40821,128,10,41440:0:0:0:0:
64,192,41130,1,10,0:0:0:0:
192,192,41440,128,10,41749:0:0:0:0:
64,192,41749,128,10,42058:0:0:0:0:
320,192,42058,1,2,0:0:0:0:
448,192,42058,1,4,0:0:0:0:
