osu file format v14

[General]
AudioFilename: audio.mp3
AudioLeadIn: 0
PreviewTime: 46779
Countdown: 0
SampleSet: Normal
StackLeniency: 0.7
Mode: 0
LetterboxInBreaks: 0
WidescreenStoryboard: 0

[Editor]
DistanceSpacing: 1.4
BeatDivisor: 4
GridSize: 8
TimelineZoom: 0.8

[Metadata]
Title:Sunrise
TitleUnicode:해야
Artist:GFriend
ArtistUnicode:여자친구
Creator:Annihilatron
Version:Hard
Source:
Tags:kpop gfriend source music sowon yerin eunha yuju sinb umji sunrise time for us
BeatmapID:1919219
BeatmapSetID:919140

[Difficulty]
HPDrainRate:5
CircleSize:5
OverallDifficulty:6
ApproachRate:8
SliderMultiplier:1.4
SliderTickRate:1

[Events]
//Background and Video events
0,0,"bg.jpg",0,0
//Break Periods
2,80772,82581
//Storyboard Layer 0 (Background)
//Storyboard Layer 1 (Fail)
//Storyboard Layer 2 (Pass)
//Storyboard Layer 3 (Foreground)
//Storyboard Sound Samples

[TimingPoints]
1480,402.684563758389,4,1,0,100,1,0
14366,344.827586206897,4,1,0,100,1,0
47469,-100,4,1,0,100,0,1
58503,-100,4,1,0,100,0,0
69538,-100,4,1,0,100,0,0
80572,-100,4,1,0,100,0,0
116434,-100,4,1,0,100,0,1
127469,-100,4,1,0,100,0,0
138503,-100,4,1,0,100,0,0
149538,-100,4,1,0,100,0,0
175745,-100,4,1,0,100,0,1
203331,-100,4,1,0,100,0,0

[Colours]
Combo1 : 103,243,173
Combo2 : 255,214,158
Combo3 : 173,168,200
Combo4 : 229,176,180
Combo5 : 198,217,211

[HitObjects]
59,206,674,5,0,0:0:0:0:
56,124,1077,1,0,0:0:0:0:
101,57,1480,2,0,B|183:40|254:40|263:40,1,140
351,51,2084,1,0,0:0:0:0:
411,326,3090,2,0,B|329:343|263:340,1,140
161,333,3694,1,0,0:0:0:0:
84,202,4500,5,0,0:0:0:0:
86,167,4600,1,0,0:0:0:0:
111,141,4701,2,0,B|184:121|256:111|277:113,1,140
389,124,5305,1,0,0:0:0:0:
401,243,6312,2,0,B|328:263|256:273|196:267,1,175
123,260,7016,1,0,0:0:0:0:
54,111,7721,1,0,0:0:0:0:
72,58,7922,6,0,B|151:46|220:38|286:37|364:37|438:52|499:64,1,420
472,172,9533,2,0,B|393:184|324:192|258:193|180:193|106:178|45:166,1,420
72,326,11144,6,0,B|151:338|220:346|286:347|364:347|438:332|499:320,1,420
472,212,12755,2,0,B|393:200|324:192|258:191|180:191|106:206|45:218,1,420
37,189,14365,5,0,0:0:0:0:
42,78,14710,6,0,P|72:52|125:37,1,70
176,43,15055,1,0,0:0:0:0:
217,108,15228,1,0,0:0:0:0:
364,65,15572,2,0,P|412:67|443:93,1,70
484,132,15917,2,0,P|498:198|488:211,1,70
464,264,16262,1,0,0:0:0:0:
324,329,16607,1,0,0:0:0:0:
260,285,16779,5,0,0:0:0:0:
129,203,17124,1,0,0:0:0:0:
11,302,17469,6,0,P|41:328|94:343,1,70
145,337,17814,1,0,0:0:0:0:
198,282,17986,1,0,0:0:0:0:
349,310,18331,2,0,P|397:308|432:289,1,70
472,245,18676,2,0,P|489:176|479:163,1,70
453,117,19021,1,0,0:0:0:0:
312,53,19366,1,0,0:0:0:0:
235,53,19538,5,0,0:0:0:0:
172,146,19883,1,0,0:0:0:0:
66,107,20228,5,0,0:0:0:0:
161,48,20572,1,0,0:0:0:0:
273,48,20917,1,0,0:0:0:0:
427,92,21262,2,0,B|424:186|393:231,1,140
352,263,21779,1,0,0:0:0:0:
240,255,22124,2,0,P|185:221|152:135,1,140
145,90,22641,2,0,B|180:49|396:66|465:127|516:241,1,420
449,288,24021,6,0,B|437:222|402:188|355:164,1,140
263,157,24710,2,0,B|201:168|155:185|110:226,1,140
37,195,25400,5,0,0:0:0:0:
42,306,25745,6,0,P|72:332|125:347,1,70
167,324,26090,1,0,0:0:0:0:
205,265,26262,1,0,0:0:0:0:
339,303,26607,2,0,P|387:301|422:282,1,70
453,239,26952,2,0,P|475:176|465:163,1,70
458,112,27297,1,0,0:0:0:0:
331,52,27641,1,0,0:0:0:0:
275,94,27814,5,0,0:0:0:0:
150,159,28159,5,0,0:0:0:0:
51,106,28503,2,0,P|70:66|123:51,1,70
160,46,28848,1,0,0:0:0:0:
264,56,29107,1,0,0:0:0:0:
298,53,29193,2,0,P|346:55|415:131,1,140
449,173,29710,1,0,0:0:0:0:
485,308,30055,1,0,0:0:0:0:
348,275,30400,1,0,0:0:0:0:
278,273,30572,5,0,0:0:0:0:
181,216,30917,1,0,0:0:0:0:
77,258,31262,6,0,P|110:324|176:344,1,140
272,345,32124,2,0,P|343:332|392:277,1,140
435,220,32814,1,0,0:0:0:0:
392,173,32986,1,0,0:0:0:0:
439,131,33159,1,0,0:0:0:0:
394,87,33331,1,0,0:0:0:0:
349,42,33503,2,0,P|294:29|271:36,1,70
223,56,33848,2,0,B|112:14|-5:65|0:233,1,350
256,192,35055,12,0,36090,0:0:0:0:
59,63,36434,5,0,0:0:0:0:
63,124,36607,1,0,0:0:0:0:
100,229,36952,1,0,0:0:0:0:
207,261,37297,1,0,0:0:0:0:
286,182,37641,2,0,P|367:154|431:203,1,140
487,259,38331,1,0,0:0:0:0:
457,107,39193,5,0,0:0:0:0:
456,163,39366,1,0,0:0:0:0:
399,259,39710,1,0,0:0:0:0:
289,284,40055,1,0,0:0:0:0:
176,285,40400,2,0,P|54:195|197:94,1,350
221,82,41434,1,0,0:0:0:0:
389,75,41952,6,0,P|448:104|472:188,1,140
477,282,42641,2,0,P|412:328|342:339,1,140
241,335,43331,2,0,P|166:330|84:291,1,140
66,266,43848,1,0,0:0:0:0:
31,159,44193,1,0,0:0:0:0:
73,67,44710,6,0,P|143:60|221:59,1,140
269,59,45228,1,0,0:0:0:0:
380,64,45572,1,0,0:0:0:0:
463,139,45917,2,0,P|470:234|423:260,1,140
368,183,46779,6,0,P|297:166|265:222,1,140
253,303,47469,6,0,B|137:284|137:284|68:223|139:105,1,280
221,187,48503,2,0,B|267:206|343:194|343:194|412:133|349:28,1,280
250,68,49538,1,0,0:0:0:0:
161,141,49883,1,0,0:0:0:0:
128,178,50055,1,0,0:0:0:0:
112,231,50228,6,0,B|185:284|185:284|308:243|307:156,1,280
415,184,51262,2,0,B|342:237|342:237|219:196|220:109,1,280
309,41,52297,1,0,0:0:0:0:
360,63,52469,1,0,0:0:0:0:
393,107,52641,1,0,0:0:0:0:
416,216,52986,5,0,0:0:0:0:
437,325,53331,1,0,0:0:0:0:
325,334,53676,2,0,P|276:306|265:278,1,70
274,183,54193,2,0,P|240:115|168:101,1,140
76,136,54883,1,0,0:0:0:0:
53,245,55228,1,0,0:0:0:0:
180,337,55745,6,0,P|278:344|322:316,1,140
345,279,56262,2,0,P|411:296|487:263,1,140
503,171,56952,1,0,0:0:0:0:
450,88,57297,1,0,0:0:0:0:
361,47,57641,1,0,0:0:0:0:
263,40,57986,1,0,0:0:0:0:
80,76,58848,5,0,0:0:0:0:
171,140,59193,1,0,0:0:0:0:
76,200,59538,1,0,0:0:0:0:
163,270,59883,2,0,P|257:292|315:286,1,140
355,286,60400,1,0,0:0:0:0:
443,321,61090,6,0,P|457:252|397:211,1,140
357,185,61607,1,0,0:0:0:0:
454,128,61952,1,0,0:0:0:0:
352,80,62297,1,0,0:0:0:0:
248,103,62641,2,0,P|154:84|111:113,1,140
78,140,63159,1,0,0:0:0:0:
74,296,64366,5,0,0:0:0:0:
185,296,64710,1,0,0:0:0:0:
300,276,65228,5,0,0:0:0:0:
354,218,65572,1,0,0:0:0:0:
402,183,65745,1,0,0:0:0:0:
384,127,65917,1,0,0:0:0:0:
325,127,66090,1,0,0:0:0:0:
299,184,66262,2,0,P|274:233|252:249,1,70
212,276,66607,5,0,0:0:0:0:
208,183,66952,1,0,0:0:0:0:
189,127,67124,1,0,0:0:0:0:
130,127,67297,1,0,0:0:0:0:
112,183,67469,1,0,0:0:0:0:
160,227,67641,2,0,P|132:275|161:298,1,70
187,316,67986,2,0,P|413:192|165:57,1,630
158,166,69883,5,0,0:0:0:0:
110,201,70055,1,0,0:0:0:0:
128,257,70228,1,0,0:0:0:0:
187,257,70400,1,0,0:0:0:0:
213,200,70572,2,0,B|207:131|255:84|291:140,1,140
304,201,71262,5,0,0:0:0:0:
323,257,71434,1,0,0:0:0:0:
382,257,71607,1,0,0:0:0:0:
400,201,71779,1,0,0:0:0:0:
352,157,71952,2,0,B|441:160|421:62|367:79,1,140
304,88,72641,5,0,0:0:0:0:
286,31,72814,1,0,0:0:0:0:
226,31,72986,1,0,0:0:0:0:
208,88,73159,1,0,0:0:0:0:
256,123,73331,1,0,0:0:0:0:
311,152,73503,2,0,P|314:223|261:275,1,140
143,279,74193,2,0,P|65:238|66:123,1,210
188,146,75055,5,0,0:0:0:0:
325,49,75572,2,0,P|390:79|438:151,1,140
450,242,76262,2,0,B|415:361|263:358|229:255,1,280
233,178,77814,5,0,0:0:0:0:
386,247,78331,2,0,P|415:196|394:119,1,140
310,47,79021,2,0,B|265:16|198:32|133:40|86:146|132:313|276:232|365:288|340:142|340:142|250:140,1,630
475,189,83331,5,0,0:0:0:0:
470,78,83676,6,0,P|440:52|387:37,1,70
336,43,84021,1,0,0:0:0:0:
295,108,84193,1,0,0:0:0:0:
148,65,84538,2,0,P|100:67|69:93,1,70
28,132,84883,2,0,P|14:198|24:211,1,70
48,264,85228,1,0,0:0:0:0:
188,329,85572,1,0,0:0:0:0:
252,285,85745,5,0,0:0:0:0:
383,203,86090,1,0,0:0:0:0:
501,302,86434,6,0,P|471:328|418:343,1,70
367,337,86779,1,0,0:0:0:0:
314,282,86952,1,0,0:0:0:0:
163,310,87297,2,0,P|115:308|80:289,1,70
40,245,87641,2,0,P|23:176|33:163,1,70
59,117,87986,1,0,0:0:0:0:
200,53,88331,1,0,0:0:0:0:
277,53,88503,5,0,0:0:0:0:
340,146,88848,1,0,0:0:0:0:
446,107,89193,5,0,0:0:0:0:
351,48,89538,1,0,0:0:0:0:
239,48,89883,1,0,0:0:0:0:
85,92,90228,2,0,B|88:186|119:231,1,140
202,297,90917,2,0,P|265:314|337:258,1,140
367,90,91607,2,0,B|272:32|181:83|160:154,1,245
146,232,92469,1,0,0:0:0:0:
142,312,92641,2,0,B|285:337|449:312|502:29|287:42|65:86,1,700
68,184,94710,5,0,0:0:0:0:
163,286,95055,2,0,B|249:361|249:361|342:286,1,210
379,258,95745,1,0,0:0:0:0:
431,212,95917,1,0,0:0:0:0:
357,136,96262,2,0,B|276:65|276:65|176:155,1,210
100,231,97124,5,0,0:0:0:0:
199,330,97469,1,0,0:0:0:0:
297,230,97814,1,0,0:0:0:0:
346,279,97986,1,0,0:0:0:0:
477,278,98331,2,0,P|414:135|275:123,1,280
181,81,99366,5,0,0:0:0:0:
124,107,99538,1,0,0:0:0:0:
92,161,99710,1,0,0:0:0:0:
88,224,99883,2,0,P|102:285|182:314,1,140
293,323,100572,2,0,L|365:323,1,70
481,278,101090,5,0,0:0:0:0:
363,234,101434,1,0,0:0:0:0:
477,181,101779,1,0,0:0:0:0:
359,134,102124,1,0,0:0:0:0:
246,76,102469,2,0,P|76:192|259:285,1,490
256,192,104021,12,0,105055,0:0:0:0:
452,320,105400,5,0,0:0:0:0:
448,259,105572,1,0,0:0:0:0:
411,154,105917,1,0,0:0:0:0:
304,122,106262,1,0,0:0:0:0:
225,201,106607,2,0,P|144:229|80:180,1,140
24,124,107297,1,0,0:0:0:0:
54,276,108159,5,0,0:0:0:0:
55,220,108331,1,0,0:0:0:0:
112,124,108676,1,0,0:0:0:0:
222,99,109021,1,0,0:0:0:0:
335,98,109366,2,0,P|457:188|314:289,1,350
122,308,110917,6,0,P|63:279|39:195,1,140
34,101,111607,2,0,P|99:55|169:44,1,140
270,48,112297,2,0,P|345:53|427:92,1,140
445,117,112814,1,0,0:0:0:0:
480,224,113159,1,0,0:0:0:0:
438,316,113676,6,0,P|368:323|290:324,1,140
242,324,114193,1,0,0:0:0:0:
131,319,114538,1,0,0:0:0:0:
48,244,114883,2,0,P|41:149|81:108,1,140
205,70,115745,6,0,P|258:146|236:195,1,140
259,303,116434,6,0,B|375:284|375:284|444:223|373:105,1,280
291,187,117469,2,0,B|245:206|169:194|169:194|100:133|163:28,1,280
262,68,118503,1,0,0:0:0:0:
351,141,118848,1,0,0:0:0:0:
384,178,119021,1,0,0:0:0:0:
400,231,119193,6,0,B|327:284|327:284|204:243|205:156,1,280
97,184,120228,2,0,B|170:237|170:237|293:196|292:109,1,280
203,41,121262,1,0,0:0:0:0:
152,63,121434,1,0,0:0:0:0:
119,107,121607,1,0,0:0:0:0:
96,216,121952,5,0,0:0:0:0:
75,325,122297,1,0,0:0:0:0:
187,334,122641,2,0,P|236:306|247:278,1,70
238,183,123159,2,0,P|272:115|344:101,1,140
436,136,123848,1,0,0:0:0:0:
459,245,124193,1,0,0:0:0:0:
332,337,124710,6,0,P|234:344|190:316,1,140
167,279,125228,2,0,P|101:296|25:263,1,140
9,171,125917,1,0,0:0:0:0:
62,88,126262,1,0,0:0:0:0:
151,47,126607,1,0,0:0:0:0:
249,40,126952,1,0,0:0:0:0:
432,76,127814,5,0,0:0:0:0:
341,140,128159,1,0,0:0:0:0:
436,200,128503,1,0,0:0:0:0:
349,270,128848,2,0,P|255:292|197:286,1,140
157,286,129366,1,0,0:0:0:0:
69,321,130055,6,0,P|55:252|115:211,1,140
155,185,130572,1,0,0:0:0:0:
58,128,130917,1,0,0:0:0:0:
160,80,131262,1,0,0:0:0:0:
264,103,131607,2,0,P|358:84|401:113,1,140
434,140,132124,1,0,0:0:0:0:
438,296,133331,5,0,0:0:0:0:
327,296,133676,1,0,0:0:0:0:
212,276,134193,5,0,0:0:0:0:
158,218,134538,1,0,0:0:0:0:
110,183,134710,1,0,0:0:0:0:
128,127,134883,1,0,0:0:0:0:
187,127,135055,1,0,0:0:0:0:
213,184,135228,2,0,P|238:233|260:249,1,70
300,276,135572,5,0,0:0:0:0:
304,183,135917,1,0,0:0:0:0:
323,127,136090,1,0,0:0:0:0:
382,127,136262,1,0,0:0:0:0:
400,183,136434,1,0,0:0:0:0:
352,227,136607,2,0,P|380:275|351:298,1,70
325,316,136952,2,0,P|99:192|347:57,1,630
354,166,138848,5,0,0:0:0:0:
402,201,139021,1,0,0:0:0:0:
384,257,139193,1,0,0:0:0:0:
325,257,139366,1,0,0:0:0:0:
299,200,139538,2,0,B|305:131|257:84|221:140,1,140
208,201,140228,5,0,0:0:0:0:
189,257,140400,1,0,0:0:0:0:
130,257,140572,1,0,0:0:0:0:
112,201,140745,1,0,0:0:0:0:
160,157,140917,2,0,B|71:160|91:62|145:79,1,140
208,88,141607,5,0,0:0:0:0:
226,31,141779,1,0,0:0:0:0:
286,31,141952,1,0,0:0:0:0:
304,88,142124,1,0,0:0:0:0:
256,123,142297,1,0,0:0:0:0:
201,152,142469,2,0,P|198:223|251:275,1,140
369,279,143159,2,0,P|447:238|446:123,1,210
324,146,144021,5,0,0:0:0:0:
187,49,144538,2,0,P|122:79|74:151,1,140
62,242,145228,2,0,B|97:361|249:358|283:255,1,280
336,139,146779,5,0,0:0:0:0:
176,240,147297,2,0,P|147:189|168:112,1,140
286,73,147986,2,0,B|439:111|393:351|248:342|102:313|81:114|228:73,1,630
373,88,150228,5,0,0:0:0:0:
449,188,150572,1,0,0:0:0:0:
399,304,150917,2,0,P|292:340|196:309,1,210
146,282,151607,5,0,0:0:0:0:
58,191,151952,1,0,0:0:0:0:
129,87,152297,2,0,P|228:48|411:112,1,280
484,176,153331,5,0,0:0:0:0:
484,238,153503,1,0,0:0:0:0:
444,287,153676,2,0,P|354:318|218:314,1,210
239,224,154538,6,0,P|220:191|183:202,1,70
56,225,155055,6,0,P|61:85|183:37,1,280
246,67,155917,1,0,0:0:0:0:
310,109,156090,1,0,0:0:0:0:
377,146,156262,2,0,P|426:193|374:232,1,140
310,256,156779,5,0,0:0:0:0:
174,330,157124,1,0,0:0:0:0:
38,256,157469,1,0,0:0:0:0:
42,114,157814,2,0,B|44:5|245:7|241:114,1,280
243,260,158848,1,0,0:0:0:0:
393,293,159193,2,0,P|524:182|365:58,1,420
216,48,160572,6,0,P|127:61|93:232,1,280
270,298,161607,2,0,L|341:298,1,70
429,293,161952,2,0,P|413:215|349:196,1,140
194,194,162641,5,0,0:0:0:0:
43,119,162986,1,0,0:0:0:0:
192,42,163331,2,0,P|352:54|435:161,1,280
440,305,164366,1,0,0:0:0:0:
360,330,164538,2,0,B|113:397|-58:277|71:106,1,490
192,38,166434,6,0,P|295:54|336:89,1,140
460,251,167124,2,0,P|420:312|356:328,1,140
23,185,167814,1,0,0:0:0:0:
66,97,167986,2,0,P|110:55|196:41,1,140
437,263,168848,6,0,P|411:308|321:334,1,140
218,331,169366,1,0,0:0:0:0:
28,212,169710,2,0,P|49:131|108:95,1,140
198,63,170228,6,0,P|313:44|408:62,1,210
427,170,170917,2,0,P|341:197|220:187,1,210
123,135,171607,2,0,B|28:233|121:324|250:302|252:93|393:39|496:170|375:265,1,560
460,317,173331,5,0,0:0:0:0:
342,159,173676,1,0,0:0:0:0:
161,83,174021,1,0,0:0:0:0:
52,317,174710,5,0,0:0:0:0:
169,159,175055,1,0,0:0:0:0:
371,136,175400,1,0,0:0:0:0:
253,303,175745,6,0,B|137:284|137:284|68:223|139:105,1,280
221,187,176779,2,0,B|267:206|343:194|343:194|412:133|349:28,1,280
250,68,177814,1,0,0:0:0:0:
154,150,178159,5,0,0:0:0:0:
110,194,178331,1,0,0:0:0:0:
82,248,178503,2,0,B|155:301|155:301|278:260|277:173,1,280
440,213,179538,2,0,B|367:266|367:266|244:225|245:138,1,280
309,41,180572,5,0,0:0:0:0:
364,71,180745,1,0,0:0:0:0:
406,117,180917,1,0,0:0:0:0:
447,236,181262,1,0,0:0:0:0:
368,334,181607,1,0,0:0:0:0:
246,299,181952,2,0,P|197:271|186:243,1,70
176,135,182469,2,0,P|152:61|105:77,1,140
36,179,183159,1,0,0:0:0:0:
83,296,183503,1,0,0:0:0:0:
299,293,184366,5,0,0:0:0:0:
452,290,184710,1,0,0:0:0:0:
452,212,184883,1,0,0:0:0:0:
449,124,185228,2,0,L|281:85,1,140
214,69,185917,1,0,0:0:0:0:
224,134,186090,2,0,P|180:189|67:126,1,210
56,72,186779,1,0,0:0:0:0:
161,70,187124,5,0,0:0:0:0:
208,260,187469,1,0,0:0:0:0:
270,72,187814,1,0,0:0:0:0:
322,261,188159,2,0,P|393:219|436:158,1,140
428,75,188676,1,0,0:0:0:0:
79,254,189366,6,0,P|130:313|175:273,1,140
211,125,189883,1,0,0:0:0:0:
270,312,190228,1,0,0:0:0:0:
322,124,190572,2,0,B|395:-2|502:132|436:254,1,280
416,322,191434,1,0,0:0:0:0:
66,304,192297,5,0,0:0:0:0:
66,107,192641,1,0,0:0:0:0:
144,47,192814,1,0,0:0:0:0:
340,45,193159,2,0,P|416:84|430:162,1,140
439,311,193848,1,0,0:0:0:0:
153,314,194538,5,0,0:0:0:0:
116,141,194883,1,0,0:0:0:0:
261,43,195228,1,0,0:0:0:0:
399,150,195572,1,0,0:0:0:0:
339,315,195917,1,0,0:0:0:0:
156,349,196262,2,0,P|79:328|69:277,1,140
69,103,196952,2,0,P|104:43|182:34,1,140
463,35,197814,6,0,B|468:125|476:366|191:349,1,490
93,344,199193,2,0,B|-63:146|118:21|229:54,1,420
350,185,200572,6,0,P|327:287|166:298,1,280
45,250,201434,1,0,0:0:0:0:
45,152,201607,1,0,0:0:0:0:
99,71,201779,2,0,P|328:207|92:287,1,630
