osu file format v14

[General]
AudioFilename: audio.mp3
AudioLeadIn: 0
PreviewTime: -1
Countdown: 1
SampleSet: Normal
StackLeniency: 0.7
Mode: 0
LetterboxInBreaks: 0
WidescreenStoryboard: 0

[Editor]
DistanceSpacing: 0.9
BeatDivisor: 4
GridSize: 4
TimelineZoom: 1.6

[Metadata]
Title:Distance
TitleUnicode:한 뼘
Artist:GFriend
ArtistUnicode:여자친구
Creator:Thaisthetic
Version:Distance
Source:
Tags:
BeatmapID:1850980
BeatmapSetID:885620

[Difficulty]
HPDrainRate:6
CircleSize:4.7
OverallDifficulty:8
ApproachRate:8.6
SliderMultiplier:1.4
SliderTickRate:1

[Events]
//Background and Video events
0,0,"GFRIEND-800x450.png",0,0
//Break Periods
//Storyboard Layer 0 (Background)
//Storyboard Layer 1 (Fail)
//Storyboard Layer 2 (Pass)
//Storyboard Layer 3 (Foreground)
//Storyboard Sound Samples

[TimingPoints]
526,348.837209302326,4,1,0,100,1,0

[HitObjects]
50,112,526,6,0,L|74:185,1,70
133,80,874,1,0,0:0:0:0:
149,193,1049,1,0,0:0:0:0:
224,94,1223,2,0,L|213:191,1,70
281,208,1572,1,0,0:0:0:0:
322,101,1746,1,0,0:0:0:0:
413,135,1921,2,0,L|371:195,1,70
352,232,2270,2,0,P|314:232|278:243,1,70
310,287,2619,2,0,P|254:298|243:294,1,70
213,326,2967,2,0,P|156:318|149:305,1,70
52,238,3316,6,0,L|190:207,1,140
219,255,3839,2,0,B|258:247|258:247|253:243|253:243|259:249|259:249|256:242|256:242|262:250|262:250|259:241|259:241|263:248|263:248|261:241|261:241|265:247|265:247|263:241|263:241|266:246|266:246|265:241|265:241|267:245|267:245|267:241|267:241|269:244|269:244|269:241|269:241|271:245|271:245|270:241|270:241|272:244|272:244|272:241|272:241|274:245|274:245|274:239|274:239|274:240|275:244|275:244|275:240|275:240|277:245|277:245|277:241|277:241|277:243|278:243|278:243|278:239|278:239|279:243|279:243|279:239|279:239|279:240|280:244|280:244|281:239|281:239|282:243|282:243|284:238|284:238|284:242|284:242|286:239|286:239|286:241|286:241|288:237|288:237|289:240|289:241|289:241|290:236|290:236|292:239|292:240|292:240|292:236|292:236|294:241|294:242|294:242|294:237|294:237|294:240|294:240|295:235|295:235|296:241|296:241|296:236|296:236|298:239|298:239|298:235|298:235|299:239|299:239|299:236|299:235|299:235|300:238|301:238|301:238|301:234|301:234|302:238|302:239|303:239|303:234|303:234|304:237|304:237|305:233|305:233|306:240|306:240|306:239|306:234|306:234|307:236|307:236|307:232|307:232|309:237|309:237|309:232|309:232|308:237|308:237|309:238|309:233|309:233|310:233|310:233|310:237|311:237|311:237|310:236|310:236|311:236|311:236|313:232|313:232|313:235|313:235|313:236|314:233|314:233|313:237|313:237,1,350
219,98,5409,6,0,P|262:79|291:95,1,70
285,181,5758,2,0,P|342:165|347:149,1,70
298,78,6107,2,0,P|209:91|174:129,1,140
147,202,6630,2,0,B|162:210|162:210|166:205|166:205|164:213|164:213|167:206|167:206|167:214|167:214|171:208|171:208|169:216|169:216|174:210|174:210|172:216|172:216|176:211|176:211|176:218|176:218|180:212|180:212|178:219|178:220|178:220|182:215|183:215|183:215|182:222|182:222|187:215|187:215|185:221|185:221|189:217|189:217|187:224|187:224|191:218|191:218|189:225|189:225|195:219|195:219|192:227|192:228|192:228|196:222|196:222|193:229|193:229|198:223|198:223|195:230|195:230|200:224|200:224|198:231|198:231|203:225|203:225|202:232|202:231|202:231|205:225|205:225|204:234|204:234|208:225|208:225|207:234|207:234|210:229|210:229|209:232|209:232|212:229|212:229|210:234|210:234|213:230|213:230|212:235|212:235|214:230|214:230|214:235|214:235|216:232|216:232|215:235|215:235|217:233|217:233|217:238|217:238|218:235|218:234|218:234|218:237|218:238|218:238|219:234|219:234|219:238|219:238|221:235|221:235|221:239|221:240|221:240,1,350
274,171,8026,5,0,0:0:0:0:
274,171,8113,1,0,0:0:0:0:
274,171,8200,1,0,0:0:0:0:
274,240,8549,1,0,0:0:0:0:
176,220,8898,2,0,P|195:288|204:297,1,70
265,302,9246,1,0,0:0:0:0:
276,246,9421,1,0,0:0:0:0:
329,233,9595,5,0,0:0:0:0:
355,281,9770,1,0,0:0:0:0:
421,262,9944,2,0,P|426:186|420:170,1,70
256,192,10293,12,0,11688,0:0:0:0:
82,104,12037,5,0,0:0:0:0:
144,234,12212,1,0,0:0:0:0:
205,95,12386,2,0,L|234:174,1,70
274,249,12735,5,0,0:0:0:0:
388,271,12909,2,0,P|442:230|454:152,1,140
405,62,13432,5,0,0:0:0:0:
485,117,13607,2,0,P|459:185|391:191,1,140
334,234,14130,2,0,L|404:278,1,70
419,327,14479,6,0,L|340:278,1,70
301,184,14828,1,0,0:0:0:0:
272,253,15002,2,0,L|176:283,1,70
206,327,15351,2,0,L|109:317,1,70
59,190,15700,2,0,P|129:172|183:222,1,140
203,60,16223,6,0,P|199:124|205:136,1,70
264,94,16572,2,0,P|264:167|254:175,1,70
207,193,16921,6,0,P|215:258|225:270,1,70
296,327,17270,2,0,B|348:349|348:349|374:316,1,70
345,260,17619,1,0,0:0:0:0:
301,200,17793,1,0,0:0:0:0:
276,137,17967,2,0,P|284:91|276:51,1,70
228,29,18316,1,0,0:0:0:0:
57,144,18491,2,0,P|58:202|80:238,1,70
136,221,18839,1,0,0:0:0:0:
186,264,19014,1,0,0:0:0:0:
219,319,19188,2,0,P|283:303|293:295,1,70
251,249,19537,2,0,P|311:245|328:259,1,70
362,306,19886,6,0,P|427:274|428:272,1,70
375,243,20235,1,0,0:0:0:0:
318,265,20409,1,0,0:0:0:0:
252,268,20584,2,0,P|280:219|307:207,1,70
440,196,20932,6,0,L|346:170,1,70
347,94,21281,1,0,0:0:0:0:
240,164,21456,1,0,0:0:0:0:
211,110,21630,1,0,0:0:0:0:
155,136,21804,1,0,0:0:0:0:
106,170,21979,1,0,0:0:0:0:
141,219,22153,1,0,0:0:0:0:
219,212,22502,6,0,L|224:250,1,35
158,334,22677,2,0,L|157:295,1,35
152,134,22851,2,0,L|154:208,1,70
233,333,23200,1,0,0:0:0:0:
229,59,23374,6,0,P|222:115|228:125,1,70
298,108,23723,2,0,P|295:156|286:175,1,70
295,228,24072,6,0,P|252:249|203:239,1,70
165,291,24421,2,0,P|250:325|306:304,1,140
377,286,24944,1,0,0:0:0:0:
375,229,25119,1,0,0:0:0:0:
377,171,25293,1,0,0:0:0:0:
442,135,25642,6,0,P|391:103|373:98,1,70
337,53,25991,1,0,0:0:0:0:
279,77,26165,2,0,L|203:66,1,70
119,96,26514,2,0,L|196:120,1,70
98,162,26863,2,0,L|319:197,1,210
208,261,27735,6,0,L|262:183,1,70
282,219,28084,2,0,L|322:148,1,70
384,129,28432,2,0,L|340:210,1,70
363,264,28781,5,0,0:0:0:0:
412,183,28956,1,0,0:0:0:0:
455,261,29130,2,0,L|421:335,1,70
392,352,29479,1,0,0:0:0:0:
299,352,29653,1,0,0:0:0:0:
251,276,29828,1,0,0:0:0:0:
164,275,30002,2,0,L|96:255,1,70
79,238,30351,6,0,L|160:175,1,70
146,97,30700,2,0,L|94:152,1,70
184,156,31049,1,0,0:0:0:0:
208,237,31223,2,0,B|133:320|133:320|247:289,1,210
322,317,32095,2,0,P|313:247|319:236,1,70
398,236,32444,1,0,0:0:0:0:
469,180,32619,6,0,B|370:135|370:135|313:183|313:183|273:172,1,210
240,188,33316,1,0,0:0:0:0:
214,245,33491,5,0,0:0:0:0:
150,270,33665,1,0,0:0:0:0:
90,244,33839,1,0,0:0:0:0:
80,276,34014,2,0,L|157:308,1,70
221,291,34363,1,0,0:0:0:0:
75,186,34537,2,0,L|144:157,1,70
161,232,34886,2,0,L|231:195,1,70
197,113,35235,2,0,L|271:156,1,70
323,75,35584,2,0,L|378:153,1,70
303,138,35932,2,0,L|340:212,1,70
389,204,36281,5,0,0:0:0:0:
389,321,36456,2,0,L|331:281,1,70
333,194,36805,2,0,B|306:258|309:261|311:247,1,70
235,276,37153,1,0,0:0:0:0:
192,201,37328,2,0,L|213:131,1,70
99,170,37851,5,0,0:0:0:0:
164,240,38026,1,0,0:0:0:0:
253,212,38200,2,0,P|284:235|304:273,1,70
264,328,38549,1,0,0:0:0:0:
331,325,38723,2,0,P|379:285|393:262,1,70
421,223,39246,5,0,0:0:0:0:
443,157,39420,1,0,0:0:0:0:
424,89,39595,2,0,L|345:140,1,70
286,143,39944,1,0,0:0:0:0:
210,145,40119,2,0,L|163:93,1,70
92,87,40467,2,0,P|72:134|69:167,1,70
62,245,40816,6,0,P|52:303|57:314,1,70
110,356,41165,2,0,L|203:353,1,70
116,279,41514,1,0,0:0:0:0:
170,182,41688,2,0,P|167:240|183:268,1,70
286,175,42037,2,0,P|292:233|289:261,1,70
310,336,42386,5,0,0:0:0:0:
349,284,42560,1,0,0:0:0:0:
389,232,42735,1,0,0:0:0:0:
376,155,42909,2,0,L|321:226,1,70
375,49,43258,5,0,0:0:0:0:
347,71,43345,1,0,0:0:0:0:
320,93,43432,1,0,0:0:0:0:
111,77,43607,1,0,0:0:0:0:
153,144,43782,2,0,L|213:178,1,70
28,112,44130,2,0,P|40:180|47:196,1,70
182,235,44479,2,0,L|149:172,1,70
92,236,44828,2,0,L|134:305,1,70
215,345,45177,6,0,L|248:252,1,70
269,218,45526,1,0,0:0:0:0:
331,213,45700,1,0,0:0:0:0:
394,209,45874,1,0,0:0:0:0:
466,95,46049,2,0,L|430:175,1,70
394,253,46398,2,0,P|311:222|344:300,1,210
488,287,47270,5,0,0:0:0:0:
493,224,47444,1,0,0:0:0:0:
451,158,47619,6,0,P|401:116|383:104,1,70
314,157,47967,2,0,P|359:210|386:219,1,70
435,168,48316,1,0,0:0:0:0:
368,110,48491,1,0,0:0:0:0:
304,58,48665,1,0,0:0:0:0:
257,145,48839,2,0,L|208:91,1,70
181,35,49188,6,0,P|124:86|117:101,1,70
171,144,49537,1,0,0:0:0:0:
129,198,49711,1,0,0:0:0:0:
71,265,49886,2,0,B|103:336|103:336|177:368|177:368|182:313|216:296,1,210
228,299,50758,1,0,0:0:0:0:
253,241,50932,1,0,0:0:0:0:
278,183,51106,1,0,0:0:0:0:
303,125,51281,1,0,0:0:0:0:
367,150,51456,2,0,L|337:241,1,70
357,233,52153,5,0,0:0:0:0:
295,298,52328,1,0,0:0:0:0:
220,250,52502,1,0,0:0:0:0:
245,168,52677,1,0,0:0:0:0:
328,160,52851,2,0,P|406:152|423:141,1,70
427,78,53200,5,0,0:0:0:0:
397,185,53374,2,0,P|345:200|323:190,1,70
265,103,53723,2,0,B|202:30|202:30|191:109|191:109|151:118|137:144|135:165|160:193|160:193|94:246|94:246|207:270,1,490
241,170,55119,5,0,0:0:0:0:
241,170,55293,2,0,L|312:202,1,70
377,151,55642,2,0,P|379:199|370:231,1,70
419,286,55991,2,0,P|436:230|434:207,1,70
419,137,56339,2,0,B|356:175|314:134|314:134|272:193|272:193|379:220|438:250|438:250|337:225|316:274,1,490
230,191,57735,6,0,L|239:120,1,70
307,120,58084,2,0,P|271:60|246:61,1,70
200,54,58432,1,0,0:0:0:0:
139,68,58606,1,0,0:0:0:0:
95,112,58780,1,0,0:0:0:0:
82,173,58955,1,0,0:0:0:0:
89,236,59130,2,0,P|102:296|118:318,1,70
151,338,59479,1,0,0:0:0:0:
209,351,59653,2,0,P|258:351|287:341,1,70
275,263,60177,5,0,0:0:0:0:
319,306,60351,1,0,0:0:0:0:
364,347,60526,1,0,0:0:0:0:
397,297,60700,2,0,L|334:251,1,70
364,212,61049,1,0,0:0:0:0:
312,180,61223,1,0,0:0:0:0:
243,90,61398,6,0,L|306:133,1,70
342,118,61746,2,0,L|414:163,1,70
469,206,62095,2,0,L|415:154,1,70
469,127,62444,2,0,L|386:69,1,70
348,55,62793,5,0,0:0:0:0:
280,61,62967,1,0,0:0:0:0:
241,117,63141,1,0,0:0:0:0:
272,179,63316,1,0,0:0:0:0:
210,235,63491,2,0,L|167:155,1,70
143,86,63839,1,0,0:0:0:0:
115,142,64013,1,0,0:0:0:0:
88,199,64187,1,0,0:0:0:0:
95,273,64363,6,0,P|138:304|169:305,1,70
109,329,64712,2,0,P|146:348|195:352,1,70
209,292,65060,2,0,P|262:300|275:314,1,70
190,354,65409,2,0,B|289:344|289:344|250:261|291:223|291:223|236:235,1,280
179,261,66281,6,0,L|125:202,1,70
82,154,66630,1,0,0:0:0:0:
118,97,66804,1,0,0:0:0:0:
192,152,67153,2,0,L|230:220,1,70
283,291,67502,6,0,B|316:213|301:142|301:142|359:155|369:94|369:94|374:213|374:213|415:149,1,420
363,235,68898,6,0,P|459:216|484:188,1,140
401,155,69421,1,0,0:0:0:0:
462,94,69595,2,0,L|390:73,1,70
314,117,69944,1,0,0:0:0:0:
256,65,70119,1,0,0:0:0:0:
175,78,70293,6,0,P|156:157|156:158,1,70
233,201,70642,1,0,0:0:0:0:
110,269,70816,2,0,L|117:185,1,70
126,112,71165,1,0,0:0:0:0:
104,47,71339,1,0,0:0:0:0:
61,100,71513,1,0,0:0:0:0:
49,177,71688,2,0,L|46:253,1,70
70,339,72037,6,0,P|124:262|128:257,1,70
136,323,72386,2,0,L|184:245,1,70
239,262,72735,2,0,P|250:307|293:326,1,70
334,332,73084,1,0,0:0:0:0:
396,332,73258,1,0,0:0:0:0:
459,332,73432,1,0,0:0:0:0:
481,250,73607,6,0,P|415:250|343:188,1,140
428,151,74130,1,0,0:0:0:0:
407,91,74305,1,0,0:0:0:0:
345,70,74479,1,0,0:0:0:0:
284,83,74653,1,0,0:0:0:0:
250,163,74828,6,0,L|204:217,1,70
114,221,75177,2,0,L|161:167,1,70
267,115,75526,1,0,0:0:0:0:
209,75,75700,1,0,0:0:0:0:
160,142,75874,2,0,P|118:182|99:212,1,70
181,208,76223,2,0,P|153:246|131:259,1,70
51,164,76572,6,0,B|62:224|62:224|63:224|107:169|155:160|155:160|112:129|112:129|146:79,1,280
225,118,77619,5,0,0:0:0:0:
103,310,77967,1,0,0:0:0:0:
339,325,78316,1,0,0:0:0:0:
448,81,78665,6,0,B|382:159|382:159|360:78|304:74,1,210
231,135,79363,2,0,B|279:150|279:150|280:215|306:253|306:253|234:229,1,210
122,297,80060,2,0,B|192:247|192:247|171:310|226:320|226:320|273:292,1,210
221,156,80758,2,0,B|259:200|259:200|289:153|364:179|364:179|362:245,1,210
459,318,81456,2,0,B|424:317|424:317|411:225|411:225|432:190,1,140
469,128,82153,6,0,B|411:102|411:102|398:132|390:142|390:142|369:150,1,105
317,78,82502,2,0,B|249:57|249:57|248:59|243:154|191:153|191:153|147:102|147:102|99:178|72:190,1,350
60,333,84246,2,0,B|113:305|113:305|156:242|156:242|169:310|170:310|170:310|226:321,1,245
247,262,84944,2,0,B|159:182|159:182|240:200|221:131,1,210
157,113,85642,2,0,B|228:102|271:124|271:124|270:182|270:182|326:183,1,210
330,130,86339,2,0,B|342:55|342:55|384:90|434:90|434:90|433:132,1,210
433,324,87037,6,0,P|432:253|417:232,1,70
346,184,87386,6,0,P|356:262|362:270,1,70
434,180,87735,6,0,P|431:119|424:98,1,70
363,47,88084,6,0,P|352:119|352:126,1,70
232,281,88432,6,0,B|251:209|289:144|289:144|215:170|188:133|188:133|196:205|128:228|128:228|102:235|102:235|127:181|128:181|134:171|116:132,1,490
85,109,89828,6,0,L|159:61,1,70
188,110,90177,1,0,0:0:0:0:
209,171,90293,1,0,0:0:0:0:
134,196,90526,2,0,P|140:265|146:280,1,70
209,240,90874,2,0,P|212:295|212:314,1,70
248,335,91223,1,0,0:0:0:0:
307,330,91398,1,0,0:0:0:0:
306,292,91572,2,0,L|393:291,1,70
356,237,91921,1,0,0:0:0:0:
421,238,92095,1,0,0:0:0:0:
479,157,92619,5,0,0:0:0:0:
445,101,92793,1,0,0:0:0:0:
378,99,92967,1,0,0:0:0:0:
311,107,93142,2,0,L|229:109,1,70
209,52,93491,2,0,P|178:118|189:135,1,70
95,191,93839,2,0,B|129:130|129:130|145:166|153:200,1,140
186,188,94363,6,0,P|176:145|186:119,1,70
295,114,94711,2,0,P|302:167|294:196,1,70
184,115,95060,2,0,P|169:172|176:193,1,70
258,246,95409,2,0,P|319:241|349:222,1,70
418,174,95758,1,0,0:0:0:0:
468,139,95932,1,0,0:0:0:0:
479,79,96106,1,0,0:0:0:0:
409,49,96281,6,0,L|330:96,1,70
316,107,96630,1,0,0:0:0:0:
267,147,96804,1,0,0:0:0:0:
218,187,96978,1,0,0:0:0:0:
171,199,97153,6,0,L|106:157,1,70
67,40,97502,2,0,L|64:140,1,70
64,176,97851,1,0,0:0:0:0:
64,242,98026,1,0,0:0:0:0:
77,309,98200,2,0,P|114:353|189:316,1,140
244,60,99072,6,0,L|240:146,1,70
154,303,99421,2,0,L|184:210,1,70
228,271,99770,2,0,B|250:215|250:205|250:205|250:204|282:236|356:233|356:233|291:189|280:160,1,280
219,137,100642,5,0,0:0:0:0:
266,98,100816,1,0,0:0:0:0:
271,37,100991,2,0,P|313:58|322:85,1,70
376,132,101339,1,0,0:0:0:0:
318,161,101514,2,0,P|357:194|397:201,1,70
428,162,101863,2,0,P|441:224|422:252,1,70
383,264,102212,1,0,0:0:0:0:
329,230,102386,2,0,L|276:176,1,70
222,161,102735,1,0,0:0:0:0:
229,222,102909,2,0,L|306:290,1,70
337,239,103258,2,0,P|328:304|315:318,1,70
243,313,103781,6,0,L|195:246,1,70
116,229,104130,1,0,0:0:0:0:
142,150,104305,2,0,L|104:84,1,70
54,37,104653,6,0,P|31:95|31:119,1,70
30,192,105002,2,0,B|50:262|50:262|51:262|90:202|151:222|151:222|131:179,1,210
133,137,105874,1,0,0:0:0:0:
186,152,106048,1,0,0:0:0:0:
240,168,106222,1,0,0:0:0:0:
283,140,106485,2,0,B|301:96|285:45|285:45|322:78|374:83,1,175
455,114,107095,5,0,0:0:0:0:
355,141,107270,2,0,P|403:152|432:174,1,70
455,114,107619,1,0,0:0:0:0:
414,222,107793,2,0,P|351:202|320:186,1,70
312,128,108142,2,0,L|268:68,1,70
215,50,108491,6,0,P|196:113|197:128,1,70
267,112,108840,2,0,P|260:173|246:198,1,70
141,193,109189,2,0,B|188:264|188:264|199:187|259:169|259:169|262:268,1,280
276,299,110235,2,0,B|312:249|312:248|312:248|259:249|244:155|244:155|304:173|320:116|320:116|347:168|376:207|376:207|426:228,1,420
455,158,111805,5,0,0:0:0:0:
400,120,111979,1,0,0:0:0:0:
338,63,112153,2,0,P|338:124|322:143,1,70
274,173,112502,5,0,0:0:0:0:
214,219,112677,2,0,P|220:277|236:310,1,70
280,336,113026,1,0,0:0:0:0:
321,290,113200,1,0,0:0:0:0:
382,275,113374,1,0,0:0:0:0:
473,318,113549,2,0,P|418:344|388:327,1,70
356,300,113898,6,0,L|274:299,1,70
220,314,114246,1,0,0:0:0:0:
171,322,114420,1,0,0:0:0:0:
123,330,114595,2,0,L|47:340,1,70
42,283,114944,1,0,0:0:0:0:
42,283,115119,2,0,L|46:180,1,70
78,202,115467,2,0,L|82:103,1,70
125,73,115991,5,0,0:0:0:0:
176,148,116339,2,0,P|196:190|217:207,1,70
292,151,116688,1,0,0:0:0:0:
282,217,116863,2,0,P|247:263|217:268,1,70
152,220,117386,5,0,0:0:0:0:
91,212,117560,2,0,P|113:270|123:278,1,70
176,279,117909,1,0,0:0:0:0:
236,280,118084,2,0,P|278:328|311:331,1,70
339,314,118432,1,0,0:0:0:0:
383,294,118606,1,0,0:0:0:0:
428,274,118780,1,0,0:0:0:0:
462,217,118956,6,0,L|462:124,1,70
441,35,119305,2,0,L|406:129,1,70
349,150,119653,1,0,0:0:0:0:
281,38,119828,2,0,L|283:137,1,70
199,54,120177,1,0,0:0:0:0:
158,101,120351,1,0,0:0:0:0:
85,90,120526,6,0,P|80:160|79:178,1,70
134,280,120874,2,0,L|145:200,1,70
80,156,121223,2,0,L|66:252,1,70
24,284,121572,6,0,P|46:348|65:358,1,70
133,278,121921,2,0,P|116:219|103:202,1,70
27,178,122270,2,0,P|31:233|40:250,1,70
110,191,122619,2,0,P|111:123|101:102,1,70
50,69,122967,5,0,0:0:0:0:
50,69,123316,2,0,L|195:59,1,140
188,135,123839,1,0,0:0:0:0:
138,147,124014,1,0,0:0:0:0:
88,159,124188,1,0,0:0:0:0:
36,222,124363,2,0,L|132:252,1,70
111,177,124712,2,0,P|161:217|145:300,1,140
85,302,125235,5,0,0:0:0:0:
123,341,125409,1,0,0:0:0:0:
177,350,125583,1,0,0:0:0:0:
215,300,125758,6,0,P|268:279|293:266,1,70
267,309,126107,2,0,L|342:306,1,70
311,262,126456,2,0,P|365:252|381:243,1,70
380,292,126805,1,0,0:0:0:0:
431,272,126979,1,0,0:0:0:0:
465,228,127153,1,0,0:0:0:0:
454,167,127328,6,0,B|385:232|385:231|385:231|362:181|362:180|293:161|293:161|390:153|390:153|344:107,1,350
321,93,128374,5,0,0:0:0:0:
270,57,128548,1,0,0:0:0:0:
208,59,128722,1,0,0:0:0:0:
144,84,128898,6,0,P|190:117|219:122,1,70
250,105,129246,1,0,0:0:0:0:
300,129,129420,1,0,0:0:0:0:
341,167,129595,2,0,P|390:183|428:163,1,70
407,95,130293,5,0,0:0:0:0:
464,209,130467,1,0,0:0:0:0:
334,116,130642,5,0,0:0:0:0:
446,201,130816,1,0,0:0:0:0:
468,292,130991,6,0,P|438:331|419:334,1,70
401,275,131339,2,0,P|366:315|347:319,1,70
251,330,131688,6,0,B|269:260|269:260|309:257|309:257|265:214|329:169|329:169|248:174|248:174|233:207|179:229|179:229|212:274|185:331|185:331|150:287|123:275|123:275,1,560
44,193,133258,6,0,P|63:137|78:111,1,70
123,57,133607,1,0,0:0:0:0:
141,144,133781,2,0,L|115:214,1,70
131,271,134130,1,0,0:0:0:0:
131,271,134479,6,0,B|142:318|133:349|133:349|186:316|229:333|229:333|228:333|181:279|235:241|235:241|172:226|172:226|243:180|216:142|216:142|161:162|130:127|129:127|129:127|151:109,1,560
256,50,136049,6,0,P|276:111|276:132,1,70
309,104,136398,1,0,0:0:0:0:
256,185,136572,2,0,P|255:261|261:275,1,70
320,308,136921,2,0,P|322:236|329:224,1,70
439,214,137270,5,0,0:0:0:0:
450,272,137444,1,0,0:0:0:0:
400,305,137618,1,0,0:0:0:0:
366,344,137793,2,0,L|283:350,1,70
246,330,138142,1,0,0:0:0:0:
190,329,138316,1,0,0:0:0:0:
134,329,138490,1,0,0:0:0:0:
184,248,138665,6,0,P|245:220|250:210,1,70
197,157,139014,2,0,P|251:130|273:129,1,70
317,183,139363,2,0,P|353:152|371:128,1,70
313,81,139712,2,0,P|359:65|382:64,1,70
456,96,140060,6,0,P|414:151|410:169,1,70
473,185,140409,2,0,P|441:223|421:230,1,70
360,183,140758,5,0,0:0:0:0:
221,68,141107,1,0,0:0:0:0:
155,219,141456,1,0,0:0:0:0:
144,325,141630,5,0,0:0:0:0:
195,302,141804,1,0,0:0:0:0:
246,280,141978,1,0,0:0:0:0:
204,230,142153,6,0,P|252:211|276:212,1,70
263,342,142502,6,0,P|312:307|320:291,1,70
330,237,142851,2,0,B|344:154|344:154|370:191|444:136|444:136|409:216|409:216|458:182|514:202|513:202|513:202|448:249|503:299|503:299|441:287,1,560
400,267,144421,5,0,0:0:0:0:
427,325,144595,2,0,P|368:320|356:298,1,70
338,255,144944,6,0,L|266:293,1,70
215,269,145293,2,0,L|267:207,1,70
322,190,145642,2,0,B|266:170|248:143|248:143|311:141|311:141|252:102|293:61|293:61|201:78|201:78|196:127|155:151|155:151|211:185|216:221|216:221|183:214,1,560
60,63,147212,6,0,P|95:95|101:118,1,70
34,134,147560,1,0,0:0:0:0:
65,171,147734,1,0,0:0:0:0:
96,209,147908,1,0,0:0:0:0:
27,231,148084,6,0,L|76:292,1,70
29,333,148432,6,0,P|101:350|119:341,1,70
115,280,148781,2,0,P|171:306|182:312,1,70
179,363,149130,2,0,L|256:340,1,70
236,279,149479,5,0,0:0:0:0:
290,292,149653,1,0,0:0:0:0:
346,298,149827,1,0,0:0:0:0:
395,344,150002,6,0,P|426:297|425:278,1,70
377,253,150351,1,0,0:0:0:0:
433,222,150526,2,0,P|468:177|461:145,1,70
436,54,150874,2,0,P|428:125|422:133,1,70
390,172,151223,5,0,0:0:0:0:
383,117,151397,1,0,0:0:0:0:
346,76,151571,1,0,0:0:0:0:
292,58,151746,2,0,P|225:65|127:51,1,140
36,75,152270,5,0,0:0:0:0:
82,91,152444,1,0,0:0:0:0:
128,108,152618,1,0,0:0:0:0:
198,94,152793,6,0,P|221:130|228:163,1,70
162,160,153142,1,0,0:0:0:0:
195,204,153316,1,0,0:0:0:0:
244,230,153490,1,0,0:0:0:0:
196,268,153665,6,0,P|255:287|285:284,1,70
244,162,154014,2,0,B|269:112|264:52|264:52|303:93|380:62|380:61|381:61|381:61|366:121|384:178|384:178|324:127|295:166|295:166|297:206|297:212|366:217,1,560
436,230,155758,6,0,P|433:292|424:314,1,70
388,348,156107,2,0,P|341:314|338:298,1,70
385,275,156456,2,0,P|355:248|320:247,1,70
288,295,156805,2,0,P|291:196|333:182,1,140
372,205,157328,2,0,P|358:145|341:132,1,70
309,67,157851,5,0,0:0:0:0:
241,139,158026,1,0,0:0:0:0:
302,152,158200,6,0,P|336:117|359:116,1,70
371,177,158723,1,0,0:0:0:0:
419,210,159246,5,0,0:0:0:0:
378,248,159420,1,0,0:0:0:0:
325,263,159594,1,0,0:0:0:0:
280,294,159770,2,0,L|201:267,1,70
126,183,160119,2,0,L|216:209,1,70
110,247,160467,2,0,L|32:200,1,70
40,75,160816,6,0,L|46:151,1,70
115,196,161165,2,0,L|107:125,1,70
47,269,161514,5,0,0:0:0:0:
47,269,161688,2,0,P|82:327|107:338,1,70
111,274,162037,2,0,P|149:303|174:312,1,70
174,252,162386,2,0,B|229:291|234:308|234:308|301:303|301:303|254:240,1,210
219,206,163084,6,0,B|166:173|166:173|211:137|204:89|204:89|247:135,1,210
268,172,163781,2,0,P|301:127|358:170,1,140
318,214,164305,2,0,P|361:250|412:194,1,140
423,81,165002,6,0,P|425:153|420:165,1,70
349,197,165351,2,0,P|354:139|366:127,1,70
426,148,165700,2,0,P|427:209|415:229,1,70
364,296,166049,2,0,P|371:240|383:216,1,70
256,192,166398,12,0,167444,0:0:0:0:
55,315,167619,5,0,0:0:0:0:
57,222,167793,2,0,P|64:186|106:166,1,70
117,222,168142,1,0,0:0:0:0:
92,268,168316,2,0,P|136:270|156:255,1,70
144,153,168665,6,0,P|164:195|183:208,1,70
199,151,169014,2,0,P|197:102|221:88,1,70
251,46,169363,5,0,0:0:0:0:
281,100,169537,1,0,0:0:0:0:
335,130,169711,1,0,0:0:0:0:
338,70,169886,6,0,P|381:94|387:128,1,70
311,192,170235,6,0,P|375:180|392:156,1,70
402,126,170584,5,0,0:0:0:0:
433,140,170758,1,0,0:0:0:0:
450,170,170932,2,0,P|458:224|448:246,1,70
452,301,171281,5,0,0:0:0:0:
389,311,171455,1,0,0:0:0:0:
327,321,171629,1,0,0:0:0:0:
260,319,171805,6,0,B|295:271|361:244|361:244|273:243|273:243|251:191|213:184|213:184|321:179|364:137|364:137|373:172|433:205,1,560
439,131,173374,5,0,0:0:0:0:
381,71,173549,1,0,0:0:0:0:
313,124,173723,1,0,0:0:0:0:
241,132,173898,6,0,P|223:77|206:66,1,70
178,126,174246,2,0,P|196:180|222:189,1,70
270,187,174595,6,0,P|306:218|316:245,1,70
261,244,174944,2,0,P|286:286|312:298,1,70
357,260,175293,2,0,P|378:197|450:195,1,140
419,251,175816,1,0,0:0:0:0:
385,313,175991,6,0,B|432:311|477:330|477:330|473:261|481:215|481:215|441:215|411:184|411:184|382:225|359:225|359:225|400:238|421:264,1,420
323,279,177212,2,0,B|292:226|309:195|309:195|341:167|354:138|354:138|385:147|425:111|425:111|440:69|358:45|344:60,1,350
301,96,178258,5,0,0:0:0:0:
271,143,178432,1,0,0:0:0:0:
240,195,178607,2,0,B|258:242|266:289|266:289|303:250,1,140
305,195,179130,6,0,B|343:224|356:254|356:254|391:189|417:172|417:172|358:155|328:110|328:110|307:150|256:152|256:152|226:94,1,420
211,57,180526,6,0,P|180:103|145:132,1,70
275,59,180874,2,0,P|286:113|304:136,1,70
219,123,181223,6,0,P|181:164|160:182,1,70
264,137,181572,2,0,P|279:186|294:204,1,70
215,166,181921,6,0,P|183:216|171:224,1,70
246,210,182270,2,0,P|263:255|282:273,1,70
96,278,182619,6,0,P|130:303|170:301,1,70
102,254,182968,2,0,P|146:231|177:246,1,70
188,266,183316,2,0,L|268:271,1,70
185,163,183665,5,0,0:0:0:0:
281,211,183839,1,0,0:0:0:0:
187,238,184014,2,0,P|231:256|244:287,1,70
184,301,184363,2,0,P|219:331|244:332,1,70
292,321,184712,5,0,0:0:0:0:
351,338,184886,1,0,0:0:0:0:
409,316,185060,1,0,0:0:0:0:
416,232,185235,6,0,P|359:254|354:260,1,70
403,304,185584,2,0,P|464:285|472:262,1,70
477,212,185932,2,0,P|460:169|430:156,1,70
415,209,186281,5,0,0:0:0:0:
334,145,186456,1,0,0:0:0:0:
425,136,186630,5,0,0:0:0:0:
335,70,186805,2,0,L|256:56,1,70
222,117,187153,5,0,0:0:0:0:
166,115,187327,1,0,0:0:0:0:
110,113,187501,1,0,0:0:0:0:
62,168,187677,2,0,B|115:189|137:213|137:213|163:173|228:170|228:170|234:237|234:237|187:253|144:295|144:295|91:260|91:260|89:259|79:252,1,420
29,258,189246,5,0,0:0:0:0:
77,286,189420,1,0,0:0:0:0:
125,314,189594,1,0,0:0:0:0:
176,353,189770,6,0,P|196:313|226:293,1,70
211,206,190293,2,0,B|231:252|226:290|226:290|279:255|316:264|316:264|287:227|301:177|301:177|344:210|385:184|385:184|362:132,1,420
290,135,191688,6,0,P|332:99|359:104,1,70
378,150,192037,6,0,P|382:196|390:223,1,70
447,202,192386,2,0,P|450:243|439:278,1,70
377,303,192734,1,0,0:0:0:0:
321,311,192908,1,0,0:0:0:0:
324,246,193084,6,0,P|266:250|240:259,1,70
252,326,193432,6,0,P|203:319|176:305,1,70
203,243,193781,2,0,P|142:237|119:239,1,70
44,291,194130,5,0,0:0:0:0:
152,139,194479,1,0,0:0:0:0:
181,242,194828,1,0,0:0:0:0:
224,277,195002,1,0,0:0:0:0:
267,313,195177,2,0,L|332:264,1,70
339,185,195526,6,0,L|275:224,1,70
208,191,195874,6,0,L|270:123,1,70
296,91,196223,1,0,0:0:0:0:
340,124,196397,1,0,0:0:0:0:
385,158,196572,2,0,P|431:233|432:246,1,70
437,280,196921,5,0,0:0:0:0:
409,334,197095,1,0,0:0:0:0:
349,348,197269,1,0,0:0:0:0:
324,285,197444,6,0,L|237:289,1,70
250,323,197793,2,0,L|157:321,1,70
91,325,198142,5,0,0:0:0:0:
68,274,198316,1,0,0:0:0:0:
80,220,198490,1,0,0:0:0:0:
53,106,198665,6,0,B|76:68|76:28|76:28|135:68|191:68|190:68|190:68|138:156|151:187|151:187|195:164|276:197|276:197|231:126|236:99,1,560
246,47,200235,5,0,0:0:0:0:
290,93,200409,1,0,0:0:0:0:
430,193,200758,5,0,0:0:0:0:
255,296,201107,1,0,0:0:0:0:
75,193,201456,1,0,0:0:0:0:
256,192,201630,12,0,203723,0:0:0:0:
218,57,203898,5,0,0:0:0:0:
176,94,204072,1,0,0:0:0:0:
135,132,204246,2,0,L|60:157,1,70
139,137,204595,2,0,L|157:216,1,70
68,149,204944,2,0,L|54:236,1,70
150,202,205293,2,0,B|94:218|52:249|52:249|112:277|214:356,1,280
109,221,206514,5,0,0:0:0:0:
196,305,206688,1,0,0:0:0:0:
182,212,206863,6,0,L|247:256,1,70
233,299,207560,2,0,L|313:294,1,70
363,254,208432,2,0,L|276:232,1,70
366,193,209130,6,0,P|304:192|275:187,1,70
264,135,209479,2,0,L|348:136,1,70
327,79,209828,2,0,B|277:88|195:86|195:86|194:175|176:206|176:206|228:204,1,280
246,167,210700,2,0,P|277:192|305:203,1,70
205,213,211049,2,0,P|266:237|289:265,1,70
256,192,211398,12,0,214014,0:0:0:0:
