osu file format v14

[General]
AudioFilename: audio.mp3
AudioLeadIn: 0
PreviewTime: 71156
Countdown: 0
SampleSet: Soft
StackLeniency: 0.7
Mode: 0
LetterboxInBreaks: 0
WidescreenStoryboard: 1

[Editor]
DistanceSpacing: 1.4
BeatDivisor: 4
GridSize: 32
TimelineZoom: 1.8

[Metadata]
Title:Time for the moon night
TitleUnicode:밤
Artist:GFRIEND
ArtistUnicode:여자친구
Creator:Sotarks
Version:Pepekcz's Hard
Source:
Tags:pepekcz shizuku- kazato asa shikibe mayu yeojachingu yeo ja chin gu yeochin 노주환 Funk Uchino 이원종 소원 예린 은하 유주 신비 엄지 kpop k-pop korean pop sowon yerin eunha yuju sinbi sinb umji viviz Memoria 夜 female vocals vocalists vocalist
BeatmapID:3491875
BeatmapSetID:1708885

[Difficulty]
HPDrainRate:4
CircleSize:4
OverallDifficulty:6.5
ApproachRate:8
SliderMultiplier:1.4
SliderTickRate:1

[Events]
//Background and Video events
0,0,"bg.jpg",0,0
//Break Periods
//Storyboard Layer 0 (Background)
//Storyboard Layer 1 (Fail)
//Storyboard Layer 2 (Pass)
//Storyboard Layer 3 (Foreground)
//Storyboard Layer 4 (Overlay)
//Storyboard Sound Samples

[TimingPoints]
-201,352.941176470588,4,2,0,42,1,0
681,-166.666666666667,4,2,0,42,0,0
6857,-125,4,2,0,52,0,0
11068,352.941176470588,4,2,0,62,1,0
11068,-125,4,2,0,62,0,0
12479,-100,4,2,0,62,0,0
12832,-100,4,2,0,72,0,0
13185,-100,4,2,0,72,0,0
24303,-125,4,2,0,72,0,0
25891,-125,4,2,0,62,0,0
26244,-111.111111111111,4,2,0,62,0,0
26597,-125,4,2,0,52,0,0
37891,-111.111111111111,4,2,0,52,0,0
49185,-111.111111111111,4,2,0,62,0,0
60479,-100,4,2,0,72,0,0
71067,-100,4,2,0,42,0,0
71244,-100,4,2,0,52,0,0
71332,-100,4,2,0,5,0,0
71420,-100,4,2,0,52,0,0
71508,-100,4,2,0,5,0,0
71597,-100,4,2,0,52,0,0
71685,-100,4,2,0,5,0,0
71773,-100,4,2,0,82,0,1
83332,-100,4,2,0,5,0,1
83420,-100,4,2,0,82,0,1
94362,-100,4,2,0,72,0,0
105656,-111.111111111111,4,2,0,72,0,0
108479,-125,4,2,0,62,0,0
119773,-99.9999999999999,4,2,0,72,0,0
131067,-99.9999999999999,4,2,0,82,0,1
153656,-111.111111111111,4,2,0,72,0,0
159215,-111.111111111111,4,2,0,5,0,0
159303,-125,4,2,0,62,0,0
164950,-111.111111111111,4,2,0,62,0,0
170067,-111.111111111111,4,2,0,72,0,0
170597,-99.9999999999999,4,2,0,72,0,0
174832,-99.9999999999999,4,2,0,82,0,0
177832,-99.9999999999999,4,2,0,92,0,0
178923,335.195530726257,4,2,0,52,1,0
178923,-99.9999999999999,4,2,0,52,0,0
179426,352.941176470588,4,2,0,92,1,0
179426,-100,4,2,0,92,0,0
179514,-100,4,2,0,82,0,1
190720,-100,4,2,0,72,0,0
191073,-100,4,2,0,92,0,1
191337,-100,4,2,0,5,0,1
191426,-100,4,2,0,82,0,1
202014,-100,4,2,0,72,0,0
223190,-100,4,2,0,82,0,0
224425,-100,4,2,0,92,0,0

[Colours]
Combo1 : 62,79,162
Combo2 : 118,169,231
Combo3 : 223,244,255

[HitObjects]
448,296,11068,6,0,L|440:332,2,28,2|4|0,0:0|0:3|1:2,0:0:0:0:
400,236,11420,2,0,P|395:208|391:180,1,56,0|4,1:2|0:3,0:0:0:0:
388,168,11685,1,4,0:3:0:0:
384,156,11773,1,0,1:2:0:0:
412,84,11950,1,0,1:2:0:0:
348,40,12126,2,0,L|308:48,3,28,0|8|4|4,1:2|0:3|0:3|0:3,0:0:0:0:
303,52,12479,6,0,P|251:40|200:30,1,105,4|0,0:3|0:2,0:2:0:0:
188,20,12832,2,0,P|224:56|196:136,1,140,4|4,1:2|0:3,0:2:0:0:
116,180,13362,1,0,3:2:0:0:
116,180,13538,2,0,P|110:214|104:249,1,70,0|2,1:2|0:3,0:0:0:0:
64,340,13891,6,0,P|131:321|199:304,1,140,4|0,0:3|1:2,0:2:0:0:
292,336,14420,2,0,P|359:353|427:371,1,140,4|0,0:3|3:2,0:2:0:0:
496,304,14950,2,0,P|490:269|484:234,1,70,0|2,1:2|0:3,0:0:0:0:
464,140,15303,6,0,B|388:132|416:196|336:188,1,140,4|0,0:3|1:2,0:2:0:0:
256,136,15832,1,2,0:3:0:0:
256,136,16009,2,0,P|220:140|188:156,1,70,4|0,0:3|3:2,0:0:0:0:
136,236,16362,2,0,P|100:232|68:216,1,70,0|0,1:2|3:2,0:2:0:0:
8,140,16715,6,0,P|4:68|52:16,1,140,4|0,0:3|1:2,0:2:0:0:
144,20,17244,2,0,B|220:12|196:68|276:60,1,140,4|0,0:3|3:2,0:2:0:0:
368,32,17773,2,0,P|408:32|452:56,1,70,0|2,1:2|0:3,0:0:0:0:
496,120,18126,6,0,P|483:188|472:258,2,140,4|0|4,0:3|1:2|0:3,0:2:0:0:
304,84,19185,2,0,L|298:118,3,35,2|2|2|2,1:3|0:3|0:3|0:3,0:0:0:0:
304,135,19538,6,0,P|317:204|330:273,1,140,4|0,0:3|1:2,0:2:0:0:
260,340,20067,2,0,P|180:360|116:320,1,140,4|0,0:3|0:0,0:2:0:0:
76,252,20597,2,0,L|70:217,3,35,2|2|2|2,1:3|0:3|0:3|0:3,0:0:0:0:
64,204,20950,6,0,P|76:135|90:66,1,140,4|0,0:3|1:2,0:2:0:0:
184,36,21479,1,0,3:2:0:0:
184,36,21656,2,0,P|216:24|256:24,1,70,4|0,0:3|0:2,0:2:0:0:
332,76,22009,2,0,P|364:88|404:88,1,70,0|4,1:2|0:3,0:0:0:0:
508,16,22362,6,0,P|494:84|482:153,1,140,4|0,1:2|1:2,0:2:0:0:
357,213,22891,2,0,P|345:144|331:75,1,140,4|4,1:2|0:3,0:2:0:0:
248,24,23420,1,0,1:0:0:0:
143,189,23773,2,0,B|219:181|195:237|275:229,1,140,8|8,0:3|0:3,0:0:0:0:
364,152,24303,6,0,B|444:109|471:2|471:2|444:111|555:152|571:243|501:323|421:280,1,560,4|0,1:2|0:0,0:0:0:0:
361,340,26244,6,0,P|314:330|268:320,1,94.499997116089,8|0,0:1|0:0,0:0:0:0:
257,328,26597,6,0,P|222:334|177:344,1,56,6|0,1:2|0:0,0:0:0:0:
128,365,26950,2,0,P|90:329|108:225,1,168,0|4,3:0|0:3,0:0:0:0:
176,184,27656,2,0,P|184:156|176:124,1,56,0|2,3:0|0:0,0:0:0:0:
128,68,28009,5,4,0:3:0:0:
276,20,28362,2,0,P|357:38|439:57,1,168,0|4,3:0|0:3,0:0:0:0:
496,120,29067,1,0,3:0:0:0:
496,120,29244,1,2,0:0:0:0:
436,168,29420,6,0,P|394:176|354:186,1,84,4|0,0:3|0:0,0:0:0:0:
336,180,29773,2,0,P|302:169|268:160,1,56,2|0,3:2|0:0,0:0:0:0:
220,124,30126,1,0,0:0:0:0:
220,124,30303,1,4,0:3:0:0:
156,168,30479,2,0,P|132:208|144:256,1,84,2|0,3:2|0:0,0:0:0:0:
148,252,30832,6,0,P|202:264|256:278,1,112,4|2,0:3|3:3,0:0:0:0:
320,324,31362,1,2,0:3:0:0:
320,324,31538,2,0,P|347:317|374:312,1,56,2|6,0:3|0:3,0:0:0:0:
436,264,31891,2,0,P|430:236|424:209,1,56,2|2,3:3|0:3,0:0:0:0:
460,140,32244,5,6,1:2:0:0:
332,48,32597,2,0,B|288:32|248:52|260:72|212:104|168:80,1,168,0|4,3:0|0:3,0:0:0:0:
120,44,33303,1,0,3:0:0:0:
120,44,33479,1,2,0:0:0:0:
60,96,33656,6,0,P|49:150|39:206,1,112,4|0,0:3|3:0,0:0:0:0:
100,352,34362,2,0,P|124:364|156:364,1,56,0|4,0:0|0:3,0:0:0:0:
216,320,34715,2,0,P|240:308|272:308,1,56,0|0,3:0|0:0,0:0:0:0:
340,340,35067,6,0,P|376:344|420:316,1,84,4|0,0:3|0:0,0:0:0:0:
424,308,35420,2,0,P|429:280|436:253,1,56,6|0,3:2|0:0,0:0:0:0:
480,188,35773,1,0,0:0:0:0:
480,188,35950,1,4,0:3:0:0:
436,124,36126,2,0,P|397:113|348:100,1,84,6|0,3:2|0:0,0:0:0:0:
344,108,36479,6,0,P|288:115|233:124,1,112,4|2,0:3|3:3,0:0:0:0:
164,96,37009,1,2,0:3:0:0:
164,96,37185,2,0,P|136:88|100:92,1,56,2|6,0:3|0:3,0:0:0:0:
52,144,37538,2,0,P|44:172|48:208,1,56,2|2,3:3|0:3,0:0:0:0:
84,276,37891,6,0,L|160:292,1,62.9999980773926,6|0,1:2|0:0,0:0:0:0:
212,348,38244,2,0,B|260:368|308:340|288:316|336:288|392:312,1,188.999994232178,0|4,3:0|0:3,0:0:0:0:
468,336,38950,2,0,P|463:304|457:273,1,62.9999980773926,0|0,3:0|0:0,0:0:0:0:
412,196,39303,5,4,0:3:0:0:
412,196,39479,2,0,P|349:206|288:218,1,125.999996154785
212,264,40009,2,0,P|178:257|144:252,1,62.9999980773926,0|4,0:0|0:3,0:0:0:0:
88,188,40362,2,0,P|92:156|98:125,1,62.9999980773926,0|0,3:0|0:0,0:0:0:0:
148,52,40715,6,0,P|88:16|28:28,2,125.999996154785,4|0|0,0:3|3:0|0:0,0:0:0:0:
256,192,41773,2,0,L|320:176,1,62.9999980773926,0|0,3:0|0:0,0:0:0:0:
380,112,42126,6,0,P|426:122|472:132,1,94.499997116089,4|0,0:3|0:0,0:0:0:0:
488,128,42479,2,0,P|448:148|456:232,1,125.999996154785,6|0,3:2|0:0,0:0:0:0:
508,292,43009,1,4,0:3:0:0:
508,292,43185,2,0,P|477:301|448:311,1,62.9999980773926,0|0,3:0|0:0,0:0:0:0:
372,264,43538,6,0,P|310:250|248:237,2,125.999996154785,6|0|0,1:2|3:0|0:0,0:0:0:0:
392,356,44420,1,4,0:3:0:0:
392,356,44597,2,0,P|358:363|328:372,1,62.9999980773926,0|0,3:0|0:0,0:0:0:0:
256,320,44950,6,0,B|188:312|204:356|132:348,1,125.999996154785,4|0,0:3|3:0,0:0:0:0:
56,316,45479,2,0,P|51:284|45:253,1,62.9999980773926
116,200,45832,2,0,P|120:168|126:137,1,62.9999980773926,4|0,0:3|3:0,0:0:0:0:
88,60,46185,2,0,P|116:40|148:40,1,62.9999980773926,0|4,0:0|0:3,0:0:0:0:
235,48,46538,5,0,0:0:0:0:
235,48,46715,2,0,P|263:92|243:172,1,125.999996154785,0|0,3:0|0:0,0:0:0:0:
166,173,47244,1,4,0:3:0:0:
166,173,47420,2,0,P|162:141|156:110,1,62.9999980773926,0|0,3:0|3:0,0:0:0:0:
85,58,47773,6,0,P|74:103|61:166,1,94.499997116089,4|0,0:3|0:0,0:0:0:0:
72,165,48126,2,0,P|79:196|84:227,1,62.9999980773926,0|8,3:0|0:3,0:0:0:0:
27,295,48479,1,4,0:3:0:0:
27,295,48656,1,8,0:3:0:0:
88,365,48832,1,4,0:3:0:0:
88,365,49009,1,4,0:3:0:0:
156,280,49185,6,0,B|224:268|208:320|280:308,2,125.999996154785,4|0|8,1:2|0:0|0:1,0:0:0:0:
72,248,50067,2,0,P|60:192|104:144,1,125.999996154785,0|4,0:0|0:3,0:0:0:0:
192,168,50597,1,4,0:3:0:0:
192,168,50773,2,0,P|253:181|314:196,1,125.999996154785,8|0,0:1|0:0,0:0:0:0:
391,239,51303,2,0,P|423:239|449:223,1,62.9999980773926,8|0,0:1|0:0,0:0:0:0:
500,152,51656,1,0,0:0:0:0:
500,152,51832,1,0,0:0:0:0:
440,88,52009,6,0,P|316:63|192:41,1,251.999992309571,4|8,0:3|0:1,0:0:0:0:
32,112,53067,2,0,P|39:142|45:173,1,62.9999980773926,0|4,0:0|0:3,0:0:0:0:
20,260,53420,1,4,0:3:0:0:
20,260,53597,2,0,P|80:276|141:293,1,125.999996154785,8|0,0:1|0:0,0:0:0:0:
224,256,54126,2,0,P|255:245|288:236,1,62.9999980773926,8|2,0:1|0:3,0:0:0:0:
360,284,54479,2,0,P|390:293|420:302,1,62.9999980773926,2|2,0:3|0:3,0:0:0:0:
487,244,54832,6,0,P|516:189|493:132,2,125.999996154785,4|0|8,0:3|0:0|0:1,0:0:0:0:
332,324,55891,2,0,P|301:333|271:342,1,62.9999980773926,0|4,0:0|0:3,0:0:0:0:
188,364,56244,5,4,0:3:0:0:
188,364,56420,2,0,P|124:349|56:336,1,125.999996154785,8|0,0:1|0:0,0:0:0:0:
16,264,56950,1,8,0:1:0:0:
16,264,57126,2,0,P|0:208|32:144,1,125.999996154785
104,100,57656,6,0,B|152:80|200:108|184:128|232:164|288:136,1,188.999994232178,4|0,0:3|0:0,0:0:0:0:
352,92,58362,2,0,P|412:88|452:144,1,125.999996154785,8|0,0:1|0:0,0:0:0:0:
392,304,59067,5,4,0:3:0:0:
392,304,59244,2,0,P|330:289|269:276,1,125.999996154785,8|4,0:1|0:3,0:0:0:0:
184,256,59773,2,0,P|176:220|184:188,1,62.9999980773926,8|4,0:1|0:3,0:0:0:0:
236,124,60126,2,0,P|252:84|220:36,1,94.499997116089,8|0,0:1|3:0,0:0:0:0:
212,32,60479,6,0,P|143:46|75:61,1,140,4|0,1:2|1:0,0:0:0:0:
16,140,61009,2,0,P|25:172|34:207,1,70,2|4,0:3|0:3,0:0:0:0:
24,304,61362,2,0,P|57:312|91:320,1,70,2|0,0:3|1:0,0:0:0:0:
184,284,61715,2,0,P|217:275|251:267,1,70,0|4,3:0|0:3,0:0:0:0:
340,312,62067,5,0,0:0:0:0:
339,312,62244,2,0,P|408:326|476:342,2,140,0|4|0,1:0|0:3|1:0,0:0:0:0:
228,152,63303,6,0,P|208:104|264:44,1,140,4|0,0:3|1:0,0:0:0:0:
360,36,63832,2,0,P|391:43|440:56,1,70,2|4,0:3|0:3,0:0:0:0:
464,144,64185,2,0,P|432:151|384:164,1,70,0|0,3:0|1:0,0:0:0:0:
295,169,64538,2,0,P|261:160|227:152,1,70,0|4,0:0|0:3,0:0:0:0:
136,172,64891,5,2,0:3:0:0:
136,171,65067,2,0,P|150:239|165:307,2,140,0|4|0,1:0|0:3|1:0,0:0:0:0:
72,68,65950,5,0,3:0:0:0:
72,68,66126,2,0,B|148:76|124:20|204:28,1,140,4|0,0:3|1:0,0:0:0:0:
288,88,66656,1,2,0:3:0:0:
288,88,66832,2,0,P|332:80|356:60,1,70,4|0,0:3|0:0,0:0:0:0:
432,8,67185,2,0,P|476:16|500:36,1,70,0|0,1:0|0:0,0:0:0:0:
504,128,67538,5,4,0:3:0:0:
504,128,67715,2,0,P|490:196|478:265,1,140,2|2,0:3|0:3,0:0:0:0:
408,332,68244,1,4,0:3:0:0:
408,332,68420,1,2,0:3:0:0:
324,284,68597,2,0,P|288:272|252:272,1,70,0|0,1:0|0:0,0:0:0:0:
168,316,68950,6,0,P|136:336|56:308,1,105,4|0,1:2|0:0,0:0:0:0:
64,312,69303,2,0,P|59:277|54:242,1,70,0|4,1:0|0:3,0:0:0:0:
60,144,69656,2,0,P|112:136|164:130,1,105,0|0,1:0|0:0,0:0:0:0:
179,136,70009,2,0,P|214:141|248:148,1,70,0|4,1:0|0:3,0:0:0:0:
364,88,70362,5,4,0:3:0:0:
364,88,71773,6,0,P|416:88|464:112,1,105,4|0,1:2|0:0,0:0:0:0:
476,124,72126,2,0,P|482:158|487:193,1,70,0|0,1:0|0:0,0:0:0:0:
456,284,72479,2,0,P|422:274|388:266,1,70,4|0,0:3|0:0,0:0:0:0:
300,308,72832,2,0,P|266:316|232:325,1,70,0|0,1:0|0:0,0:0:0:0:
136,340,73185,6,0,P|88:328|68:272,1,105,4|0,0:3|0:0,0:0:0:0:
68,264,73538,1,0,1:0:0:0:
140,196,73715,2,0,B|216:188|192:244|272:236,1,140,4|4,0:3|0:3,0:0:0:0:
336,164,74244,1,0,1:0:0:0:
336,164,74420,1,0,3:0:0:0:
256,104,74597,6,0,P|204:93|152:85,1,105,4|0,0:3|0:0,0:0:0:0:
136,76,74950,2,0,P|101:81|67:88,1,70,0|0,1:0|0:0,0:0:0:0:
24,176,75303,2,0,P|16:216|24:248,1,70,4|2,0:3|0:3,0:0:0:0:
68,332,75656,2,0,P|108:340|140:332,1,70,0|0,1:0|0:0,0:0:0:0:
228,296,76009,6,0,P|278:308|329:322,1,105,4|0,0:3|0:0,0:0:0:0:
344,328,76362,1,0,1:0:0:0:
432,368,76538,2,0,P|448:300|468:232,1,140,4|4,0:3|0:3,0:0:0:0:
424,152,77067,1,0,1:0:0:0:
424,152,77244,1,0,3:0:0:0:
480,72,77420,6,0,P|448:48|384:48,1,105,4|0,0:3|0:0,0:0:0:0:
372,56,77773,2,0,P|344:72|300:68,1,70,0|0,1:0|0:0,0:0:0:0:
220,24,78126,1,4,0:3:0:0:
132,64,78303,2,0,P|125:98|118:132,1,70,2|0,0:3|1:0,0:0:0:0:
168,216,78656,2,0,P|174:250|181:284,1,70,0|4,0:0|0:3,0:0:0:0:
116,356,79009,6,0,P|81:362|47:370,1,70,0|0,0:0|1:0,0:0:0:0:
16,276,79362,2,0,P|0:236|32:136,1,140,4|4,0:3|0:3,0:0:0:0:
96,80,79891,2,0,P|130:72|164:65,1,70,0|0,1:0|0:0,0:0:0:0:
252,112,80244,6,0,P|286:118|320:126,1,70,4|4,1:2|0:3,0:0:0:0:
412,84,80597,1,0,1:0:0:0:
412,84,80773,1,4,0:3:0:0:
484,152,80950,1,0,1:0:0:0:
464,248,81126,2,0,P|454:281|445:315,1,70,4|0,0:3|1:0,0:0:0:0:
360,364,81479,6,0,P|325:359|294:343,1,70,4|4,0:3|0:3,0:0:0:0:
224,284,81832,1,4,0:3:0:0:
224,284,82009,1,0,1:0:0:0:
128,308,82185,1,4,0:3:0:0:
112,308,82273,1,4,0:3:0:0:
96,304,82362,2,0,P|89:268|80:224,1,70,0|4,1:0|0:3,0:0:0:0:
36,148,82715,2,0,L|40:108,3,35,8|8|8|8,0:3|0:3|0:3|0:3,0:0:0:0:
36,104,83067,6,0,P|92:100|120:60,1,105,4|0,0:3|0:0,0:0:0:0:
123,52,83420,2,0,P|157:44|191:37,1,70,4|0,1:2|0:0,0:0:0:0:
276,88,83773,2,0,P|310:94|344:102,1,70,4|2,0:3|0:3,0:0:0:0:
440,72,84126,1,0,1:0:0:0:
484,160,84303,6,0,P|433:172|382:186,1,105,0|0,3:0|0:0,0:0:0:0:
368,192,84656,1,0,0:0:0:0:
272,168,84832,2,0,B|196:160|220:216|140:208,1,140,0|0,1:0|0:0,0:0:0:0:
56,160,85362,1,4,0:3:0:0:
4,244,85538,1,0,1:0:0:0:
4,244,85715,1,2,0:3:0:0:
76,312,85891,6,0,P|107:326|142:326,1,70,4|0,0:3|0:0,0:0:0:0:
228,280,86244,1,0,1:0:0:0:
312,332,86420,2,0,P|380:316|448:303,1,140,0|0,3:0|0:0,0:0:0:0:
500,220,86950,1,0,1:0:0:0:
500,124,87126,6,0,P|491:89|484:56,1,70,0|4,3:0|0:3,0:0:0:0:
392,20,87479,2,0,P|357:28|324:36,1,70,0|0,0:0|1:0,0:0:0:0:
236,76,87832,2,0,B|160:84|184:28|104:36,1,140,4|4,0:3|0:3,0:0:0:0:
24,92,88362,2,0,P|16:136|24:160,1,70,0|4,1:0|0:3,0:0:0:0:
84,236,88715,6,0,P|108:300|68:376,2,140,4|0|4,0:3|1:0|0:3,0:0:0:0:
148,160,89597,1,0,0:0:0:0:
148,160,89773,2,0,P|181:168|216:176,1,70,0|2,1:0|0:3,0:0:0:0:
300,228,90126,6,0,P|372:232|416:172,1,140,4|0,0:3|1:0,0:0:0:0:
444,92,90656,2,0,P|377:71|310:51,1,140,4|4,0:3|0:3,0:0:0:0:
216,24,91185,1,0,1:0:0:0:
216,24,91362,1,2,0:3:0:0:
148,91,91538,6,0,P|155:126|162:160,1,70,4|4,1:2|0:3,0:0:0:0:
224,240,91891,2,0,P|216:274|209:308,1,70,0|4,1:0|0:3,0:0:0:0:
128,364,92244,1,0,1:0:0:0:
52,300,92420,2,0,P|45:265|37:231,1,70,4|0,0:3|1:0,0:0:0:0:
8,140,92773,5,4,0:3:0:0:
12,124,92862,1,4,0:3:0:0:
16,108,92950,2,0,P|22:73|30:39,1,70,12|12,0:3|0:3,0:0:0:0:
132,28,93303,1,0,1:0:0:0:
132,28,93479,1,4,0:3:0:0:
212,84,93656,2,0,L|264:72,3,35,0|8|8|8,1:0|0:3|0:3|0:3,0:0:0:0:
264,72,94009,1,4,0:3:0:0:
456,28,94362,6,0,P|440:96|426:164,1,140,6|8,1:2|0:1,0:0:0:0:
336,340,95067,2,0,P|288:336|268:320,1,70,4|0,0:3|0:0,0:0:0:0:
192,264,95420,2,0,P|144:268|124:284,1,70,8|0,0:1|0:0,0:0:0:0:
40,324,95773,6,0,P|30:272|21:220,1,105,4|0,0:3|0:0,0:0:0:0:
16,204,96126,1,8,0:1:0:0:
56,116,96303,2,0,B|132:108|108:164|188:156,1,140,0|2,3:0|0:3,0:0:0:0:
280,136,96832,2,0,P|328:144|348:160,1,70,8|0,0:1|3:0,0:0:0:0:
400,236,97185,6,0,P|332:254|265:273,1,140,4|8,0:3|0:1,0:0:0:0:
168,296,97715,2,0,P|156:252|164:224,1,70,0|4,0:0|0:3,0:0:0:0:
216,148,98067,2,0,P|228:104|220:76,1,70,2|8,0:3|0:1,0:0:0:0:
144,24,98420,6,0,P|68:16|20:56,1,140,0|2,3:0|0:3,0:0:0:0:
12,152,98950,2,0,P|21:203|31:255,1,105,8|0,0:1|0:0,0:0:0:0:
36,272,99303,2,0,P|70:278|104:286,1,70,4|2,0:3|0:3,0:0:0:0:
188,340,99656,2,0,P|222:332|256:325,1,70,8|0,0:1|0:0,0:0:0:0:
344,276,100009,6,0,B|420:268|396:324|476:316,1,140,4|8,0:3|0:1,0:0:0:0:
496,220,100538,2,0,P|490:185|484:151,1,70,0|4,0:0|0:3,0:0:0:0:
428,76,100891,1,2,0:3:0:0:
428,76,101067,1,8,0:1:0:0:
332,100,101244,2,0,P|284:96|264:80,1,70,0|4,0:0|0:3,0:0:0:0:
192,20,101597,5,2,0:3:0:0:
192,20,101773,2,0,P|140:8|64:64,2,140,8|4|8,0:1|0:3|0:1,0:0:0:0:
267,83,102656,5,0,3:0:0:0:
267,83,102832,2,0,P|301:75|335:69,1,70,4|0,0:3|0:0,0:0:0:0:
416,12,103185,2,0,P|450:18|484:25,1,70,8|0,0:1|0:0,0:0:0:0:
500,124,103538,2,0,P|492:158|486:192,1,70,4|0,0:3|0:0,0:0:0:0:
452,284,103891,5,8,0:1:0:0:
456,284,104067,2,0,P|387:298|318:312,1,140,0|0,3:0|0:0,0:0:0:0:
232,360,104597,1,8,0:1:0:0:
144,312,104773,1,8,0:3:0:0:
128,308,104862,1,8,0:3:0:0:
112,304,104950,2,0,P|105:269|98:235,1,70,4|4,0:3|0:3,0:0:0:0:
36,168,105303,1,8,0:3:0:0:
36,168,105479,1,4,0:3:0:0:
116,80,105656,6,0,P|172:48|244:64,1,125.999996154785,6|0,1:2|0:0,0:0:0:0:
296,116,106185,2,0,P|352:148|424:132,1,125.999996154785,4|8,1:2|0:3,0:0:0:0:
472,44,106715,5,8,0:1:0:0:
472,43,106891,2,0,P|452:135|433:228,1,188.999994232178,6|4,1:2|0:3,0:0:0:0:
372,292,107597,1,8,0:3:0:0:
372,292,107773,1,8,0:1:0:0:
304,232,107950,2,0,P|295:172|284:100,1,125.999996154785,4|0,1:2|0:0,0:0:0:0:
212,40,108479,6,0,P|168:24|100:60,1,112,6|0,1:2|0:0,0:0:0:0:
28,184,109185,1,8,0:1:0:0:
28,184,109362,2,0,P|40:238|52:293,1,112,0|4,0:0|0:3,0:0:0:0:
96,360,109891,5,4,0:3:0:0:
96,360,110067,2,0,P|128:336|212:344,1,112,8|0,0:1|0:0,0:0:0:0:
272,364,110597,1,8,0:1:0:0:
408,284,110950,2,0,P|412:256|418:228,1,56
476,176,111303,6,0,P|480:104|392:64,1,168,4|4,0:3|0:3,0:0:0:0:
328,84,112009,1,8,0:1:0:0:
180,32,112362,1,0,0:0:0:0:
180,32,112538,2,0,P|168:68|168:96,1,56,4|4,0:3|0:3,0:0:0:0:
216,148,112891,2,0,P|236:200|220:272,1,112,8|0,0:1|0:0,0:0:0:0:
175,312,113420,6,0,P|123:298|67:283,1,112,8|2,0:1|0:3,0:0:0:0:
8,140,114126,1,4,0:3:0:0:
132,43,114479,2,0,P|159:44|186:52,1,56,0|4,0:0|0:3,0:0:0:0:
252,96,114832,2,0,P|279:95|306:87,1,56,8|0,0:1|0:0,0:0:0:0:
372,44,115185,2,0,P|399:44|426:52,1,56,0|4,0:0|0:3,0:0:0:0:
496,100,115538,5,4,0:3:0:0:
496,100,115715,1,8,0:1:0:0:
464,172,115891,2,0,P|409:184|355:199,1,112,0|8,0:0|0:1,0:0:0:0:
227,108,116597,2,0,P|200:100|173:94,1,56
96,76,116950,6,0,P|60:116|72:188,1,112,4|0,0:3|0:0,0:0:0:0:
112,232,117479,1,4,0:3:0:0:
112,232,117656,2,0,P|104:273|97:314,2,84,8|0|4,0:1|0:0|0:3,0:0:0:0:
188,208,118362,5,4,0:3:0:0:
188,208,118538,2,0,P|228:200|292:248,1,112,8|4,0:1|0:3,0:0:0:0:
332,304,119067,1,8,0:1:0:0:
332,304,119244,1,4,0:3:0:0:
388,360,119420,2,0,P|428:350|470:342,1,84,2|0,0:3|3:0,0:0:0:0:
488,348,119773,6,0,P|452:296|488:224,1,140,4|0,1:2|1:0,0:0:0:0:
500,132,120303,2,0,P|492:95|484:60,1,70,2|4,0:3|0:3,0:0:0:0:
392,36,120656,2,0,P|356:22|321:22,1,70,2|0,0:3|1:0,0:0:0:0:
240,68,121009,2,0,P|204:81|169:81,1,70,0|4,3:0|0:3,0:0:0:0:
88,40,121362,1,0,0:0:0:0:
88,40,121538,2,0,P|56:84|80:176,2,140,0|4|0,1:0|0:3|1:0,0:0:0:0:
284,20,122597,6,0,P|353:33|421:50,1,140,4|0,0:3|1:0,0:0:0:0:
508,96,123126,2,0,P|516:128|504:164,1,70,2|4,0:3|0:3,0:0:0:0:
412,192,123479,2,0,P|404:224|416:260,1,70,0|0,3:0|1:0,0:0:0:0:
496,316,123832,2,0,P|504:348|492:384,1,70,0|4,0:0|0:3,0:0:0:0:
404,348,124185,1,2,0:3:0:0:
404,348,124362,2,0,B|328:356|352:300|272:308,2,140,0|4|0,1:0|0:3|1:0,0:0:0:0:
496,316,125244,5,0,3:0:0:0:
496,316,125420,2,0,P|485:246|474:177,1,140,4|0,0:3|1:0,0:0:0:0:
424,92,125950,1,2,0:3:0:0:
424,92,126126,2,0,P|392:76|352:76,1,70,4|0,0:3|0:0,0:0:0:0:
276,124,126479,1,0,1:0:0:0:
276,124,126655,2,0,P|244:140|204:140,1,70,0|4,0:0|0:3,0:0:0:0:
116,108,127009,6,0,P|106:177|98:246,1,140,2|2,0:3|0:3,0:0:0:0:
128,344,127538,1,4,0:3:0:0:
128,344,127715,1,2,0:3:0:0:
208,288,127891,2,0,P|242:295|276:304,1,70,0|0,1:0|0:0,0:0:0:0:
340,380,128244,6,0,P|393:369|444:360,1,105,4|0,1:2|0:0,0:0:0:0:
456,348,128597,2,0,P|448:313|441:279,1,70,0|4,1:0|0:3,0:0:0:0:
360,228,128950,2,0,P|348:180|368:128,1,105,0|0,1:0|0:0,0:0:0:0:
376,116,129303,2,0,P|392:80|384:48,1,70,0|4,1:0|0:3,0:0:0:0:
264,16,129656,5,4,0:3:0:0:
264,16,131067,6,0,P|276:67|287:118,1,105,4|0,1:2|0:0,0:0:0:0:
280,136,131420,2,0,P|274:170|269:205,1,70,4|0,1:2|0:0,0:0:0:0:
248,300,131773,2,0,P|212:316|172:308,1,70,4|0,0:3|0:0,0:0:0:0:
96,268,132126,2,0,P|80:231|88:191,1,70,0|0,1:2|0:0,0:0:0:0:
131,116,132479,6,0,P|183:105|235:97,1,105,4|0,0:3|0:0,0:0:0:0:
252,96,132832,1,0,1:0:0:0:
336,44,133009,2,0,P|408:40|460:104,1,140,4|4,0:3|0:3,0:0:0:0:
480,184,133538,1,0,1:0:0:0:
480,184,133715,1,0,3:0:0:0:
448,276,133891,6,0,P|396:288|346:301,1,105,4|0,0:3|0:0,0:0:0:0:
332,292,134244,2,0,P|297:284|263:278,1,70,0|0,1:0|0:0,0:0:0:0:
180,328,134597,2,0,P|145:334|111:341,1,70,4|2,0:3|0:3,0:0:0:0:
32,284,134950,2,0,P|25:249|18:215,1,70,0|0,1:0|0:0,0:0:0:0:
64,128,135303,6,0,P|120:128|165:154,1,105,4|0,0:3|0:0,0:0:0:0:
172,164,135656,1,0,1:0:0:0:
220,248,135832,2,0,B|296:240|272:296|352:288,1,140,4|4,0:3|0:3,0:0:0:0:
436,240,136362,1,0,1:0:0:0:
436,240,136538,1,0,3:0:0:0:
496,160,136715,6,0,P|504:104|480:64,1,105,4|0,0:3|0:0,0:0:0:0:
468,52,137067,2,0,P|433:45|398:40,1,70,0|0,1:0|0:0,0:0:0:0:
312,84,137420,1,4,0:3:0:0:
232,24,137597,2,0,P|197:29|162:35,1,70,2|0,0:3|1:0,0:0:0:0:
84,92,137950,2,0,P|80:124|88:160,1,70,0|4,0:0|0:3,0:0:0:0:
156,232,138303,6,0,P|160:264|152:300,1,70,0|0,0:0|1:0,0:0:0:0:
80,368,138656,2,0,P|148:352|216:338,1,140,4|4,0:3|0:3,0:0:0:0:
316,352,139185,2,0,P|350:359|384:367,1,70,0|0,1:0|0:0,0:0:0:0:
468,316,139538,6,0,P|480:272|472:240,1,70,4|4,1:2|0:3,0:0:0:0:
408,184,139891,1,0,1:0:0:0:
408,184,140067,1,4,0:3:0:0:
468,104,140244,1,0,1:0:0:0:
392,40,140420,2,0,P|348:28|316:36,1,70,4|0,0:3|1:0,0:0:0:0:
244,84,140773,6,0,P|200:96|168:88,1,70,4|4,0:3|0:3,0:0:0:0:
100,40,141126,1,4,0:3:0:0:
100,40,141303,1,0,1:0:0:0:
39,113,141479,1,4,0:3:0:0:
44,132,141567,1,4,0:3:0:0:
48,148,141656,2,0,P|54:182|61:216,1,70,0|4,1:0|0:3,0:0:0:0:
152,252,142009,2,0,L|160:200,3,35,8|8|8|8,0:3|0:3|0:3|0:3,0:0:0:0:
156,200,142362,6,0,P|212:196|240:156,1,105,4|0,0:3|0:0,0:0:0:0:
244,144,142715,2,0,P|276:120|308:120,1,70,4|0,1:2|0:0,0:0:0:0:
388,168,143067,2,0,P|395:202|402:236,1,70,4|2,0:3|0:3,0:0:0:0:
468,312,143420,1,0,1:0:0:0:
384,364,143597,6,0,P|333:350|282:338,1,105,0|0,3:0|0:0,0:0:0:0:
268,332,143950,1,0,0:0:0:0:
184,280,144126,2,0,B|108:272|132:328|52:320,1,140,0|0,1:0|0:0,0:0:0:0:
4,236,144656,1,4,0:3:0:0:
68,160,144832,1,0,1:0:0:0:
68,160,145009,1,2,0:3:0:0:
36,68,145185,6,0,P|70:59|104:52,1,70,4|0,0:3|0:0,0:0:0:0:
200,24,145538,1,0,1:0:0:0:
288,68,145715,2,0,B|364:76|340:20|420:28,1,140,0|0,3:0|0:0,0:0:0:0:
496,84,146244,1,0,1:0:0:0:
476,180,146420,6,0,P|448:200|412:204,1,70,0|4,3:0|0:3,0:0:0:0:
324,164,146773,2,0,P|296:144|260:140,1,70,0|0,0:0|1:0,0:0:0:0:
163,159,147126,2,0,P|179:228|194:296,1,140,4|4,0:3|0:3,0:0:0:0:
120,364,147656,2,0,P|86:355|51:348,1,70,0|4,1:0|0:3,0:0:0:0:
8,260,148009,6,0,P|23:191|38:123,2,140,4|0|4,0:3|1:0|0:3,0:0:0:0:
51,348,148891,1,0,0:0:0:0:
51,348,149067,2,0,P|86:355|119:364,1,70,0|2,1:0|0:3,0:0:0:0:
200,312,149420,6,0,P|268:298|337:285,1,140,4|0,0:3|1:0,0:0:0:0:
424,328,149950,2,0,P|452:272|428:188,1,140,4|4,0:3|0:3,0:0:0:0:
376,128,150479,1,0,1:0:0:0:
376,128,150656,1,2,0:3:0:0:
428,44,150832,6,0,P|392:24|360:24,1,70,4|4,1:2|0:3,0:0:0:0:
276,72,151185,2,0,P|240:92|208:92,1,70,0|4,1:0|0:3,0:0:0:0:
128,44,151538,1,0,1:0:0:0:
52,108,151715,2,0,P|44:141|37:176,1,70,4|0,0:3|1:0,0:0:0:0:
20,272,152067,1,4,0:3:0:0:
116,296,152244,6,0,P|150:288|184:282,1,70,12|12,0:3|0:3,0:0:0:0:
260,216,152597,1,0,1:0:0:0:
260,216,152773,1,4,0:3:0:0:
356,244,152950,2,0,L|390:251,3,35,0|8|8|8,1:0|0:3|0:3|0:3,0:0:0:0:
408,256,153303,1,4,0:3:0:0:
479,96,153656,6,0,P|417:105|355:116,1,125.999996154785,4|0,1:2|0:0,0:0:0:0:
284,68,154185,2,0,P|221:57|159:47,1,125.999996154785,0|8,1:0|0:3,0:0:0:0:
44,40,154715,5,8,0:3:0:0:
44,40,154891,2,0,P|16:92|36:160,1,125.999996154785,4|4,1:2|0:3,0:0:0:0:
104,212,155420,1,4,0:3:0:0:
104,212,155597,2,0,P|112:244|108:276,1,62.9999980773926,8|0,0:3|0:0,0:0:0:0:
88,360,155950,2,0,B|156:372|140:320|212:332,1,125.999996154785,8|4,0:3|0:3,0:0:0:0:
320,356,156479,6,0,P|380:368|440:324,1,125.999996154785,4|0,1:2|0:0,0:0:0:0:
480,260,157009,2,0,P|492:199|448:139,1,125.999996154785,0|8,1:2|0:3,0:0:0:0:
348,120,157538,5,8,0:3:0:0:
348,120,157715,2,0,B|280:108|296:160|224:148,1,125.999996154785,4|8,1:2|0:3,0:0:0:0:
144,128,158244,1,4,0:3:0:0:
144,128,158420,2,0,L|132:176,2,31.4999990386963,4|4|4,0:3|0:3|0:3,0:0:0:0:
180,48,158773,2,0,P|241:36|303:25,1,125.999996154785,4|0,1:2|0:0,0:0:0:0:
404,36,159303,6,0,P|436:80|432:136,1,112,4|4,0:3|0:3,0:0:0:0:
320,248,160009,1,0,0:0:0:0:
320,248,160185,2,0,P|265:234|211:221,2,112,4|4|0,0:3|0:3|0:0,0:0:0:0:
460,176,161244,1,0,0:0:0:0:
508,324,161597,2,0,P|467:333|426:344,1,84,4|0,0:3|0:0,0:0:0:0:
412,348,161950,6,0,B|368:364|328:344|340:324|292:292|248:316,1,168,4|0,0:3|0:0,0:0:0:0:
108,356,162832,1,0,0:0:0:0:
108,355,163009,2,0,P|101:326|95:301,1,56,4|0,0:3|0:0,0:0:0:0:
40,248,163362,6,0,P|54:165|69:82,1,168,4|0,0:3|0:0,0:0:0:0:
132,36,164067,1,4,0:3:0:0:
268,116,164420,2,0,P|312:124|376:84,1,112,8|4,0:3|0:3,0:0:0:0:
456,16,164950,6,0,P|470:109|483:202,1,188.999994232178,4|0,1:2|0:0,0:0:0:0:
476,296,165656,1,8,0:1:0:0:
476,296,165832,2,0,P|432:332|360:332,1,125.999996154785,0|4,0:0|0:3,0:0:0:0:
296,284,166362,5,4,0:3:0:0:
296,284,166538,2,0,P|252:248|180:248,1,125.999996154785,8|0,0:1|0:0,0:0:0:0:
112,292,167067,1,8,0:1:0:0:
24,140,167420,2,0,P|55:144|86:149,1,62.9999980773926,4|4,0:3|0:3,0:0:0:0:
179,81,167773,6,0,P|271:64|365:47,1,188.999994232178,4|4,1:2|0:3,0:0:0:0:
472,88,168479,2,0,P|496:144|464:208,1,125.999996154785,4|0,1:2|0:0,0:0:0:0:
408,264,169009,5,4,0:3:0:0:
408,264,169185,2,0,B|360:284|312:256|332:232|284:204|228:228,1,188.999994232178,4|8,1:2|0:3,0:0:0:0:
128,264,169891,1,8,0:1:0:0:
128,264,170067,2,0,P|96:316|132:376,1,125.999996154785,4|0,1:2|0:0,0:0:0:0:
244,324,170597,6,0,B|320:316|296:372|376:364,1,140,4|0,1:2|1:0,0:0:0:0:
480,200,171303,2,0,P|488:156|480:128,1,70,4|0,0:3|0:0,0:0:0:0:
420,56,171656,2,0,P|376:48|348:56,1,70,0|0,1:0|0:0,0:0:0:0:
264,100,172009,6,0,P|213:87|161:75,1,105,4|0,0:3|0:0,0:0:0:0:
148,68,172362,2,0,P|96:80|45:92,1,105,0|0,1:0|0:0,0:0:0:0:
28,88,172715,2,0,P|80:108|64:196,1,140,4|0,0:3|1:0,0:0:0:0:
24,372,173420,6,0,P|58:363|91:355,1,70,4|0,0:3|0:0,0:0:0:0:
176,308,173773,1,0,1:0:0:0:
176,308,173950,1,4,0:3:0:0:
268,344,174126,2,0,P|301:352|335:360,1,70,0|4,0:0|0:3,0:0:0:0:
404,292,174479,2,0,P|395:257|387:224,1,70,0|0,1:0|3:0,0:0:0:0:
424,100,174832,5,6,1:2:0:0:
424,100,175009,1,2,1:2:0:0:
260,208,175362,1,2,1:2:0:0:
260,208,175538,1,2,1:2:0:0:
108,96,175891,5,2,1:2:0:0:
108,96,176067,2,0,P|64:136|80:216,1,140,2|0,1:2|0:2,0:2:0:0:
176,296,176597,1,2,1:2:0:0:
176,296,176773,1,2,1:2:0:0:
312,156,177126,1,2,1:2:0:0:
312,156,177302,1,2,1:2:0:0:
429,199,177479,5,4,0:3:0:0:
433,215,177567,1,4,0:3:0:0:
437,231,177656,2,0,P|443:263|453:307,1,70,2|6,1:2|1:2,0:0:0:0:
452,300,179426,6,0,P|420:272|352:272,1,105,4|0,1:2|0:0,0:0:0:0:
348,276,179778,2,0,P|316:292|280:296,1,70,0|0,1:0|0:0,0:0:0:0:
192,332,180131,2,0,P|157:322|124:314,1,70,4|0,0:3|0:0,0:0:0:0:
60,240,180484,2,0,P|68:206|77:172,1,70,0|0,1:0|0:0,0:0:0:0:
108,80,180837,6,0,P|152:56|212:72,1,105,4|0,0:3|0:0,0:0:0:0:
220,76,181190,1,0,1:0:0:0:
296,136,181367,2,0,B|372:144|348:88|428:96,1,140,4|4,0:3|0:3,0:0:0:0:
492,172,181896,1,0,1:0:0:0:
492,172,182073,1,0,3:0:0:0:
455,264,182249,6,0,P|404:275|353:287,1,105,4|0,0:3|0:0,0:0:0:0:
335,280,182602,2,0,P|302:271|268:262,1,70,0|0,1:0|0:0,0:0:0:0:
180,304,182955,2,0,P|144:316|104:308,1,70,4|2,0:3|0:3,0:0:0:0:
40,248,183308,2,0,P|28:212|36:172,1,70,0|0,1:0|0:0,0:0:0:0:
108,120,183661,6,0,P|158:132|209:146,1,105,4|0,0:3|0:0,0:0:0:0:
228,152,184014,1,0,1:0:0:0:
303,216,184190,2,0,P|371:198|439:180,1,140,4|4,0:3|0:3,0:0:0:0:
508,112,184720,1,0,1:0:0:0:
508,112,184896,1,0,3:0:0:0:
428,56,185073,6,0,P|396:32|332:32,1,105,4|0,0:3|0:0,0:0:0:0:
320,40,185425,2,0,P|292:56|248:52,1,70,0|0,1:0|0:0,0:0:0:0:
164,16,185778,1,4,0:3:0:0:
80,64,185955,2,0,P|73:98|66:132,1,70,2|0,0:3|1:0,0:0:0:0:
136,200,186308,2,0,P|142:234|149:268,1,70,0|4,0:0|0:3,0:0:0:0:
147,368,186661,6,0,P|182:362|217:356,1,70,0|0,0:0|1:0,0:0:0:0:
292,296,187014,2,0,P|360:309|429:323,1,140,4|4,0:3|0:3,0:0:0:0:
500,256,187543,2,0,P|494:222|487:188,1,70,0|0,1:0|0:0,0:0:0:0:
443,83,187896,6,0,P|408:68|374:68,1,70,4|4,1:2|0:3,0:0:0:0:
276,116,188249,1,0,1:0:0:0:
276,116,188426,1,4,0:3:0:0:
184,52,188602,1,0,1:0:0:0:
108,116,188778,2,0,P|98:149|90:183,1,70,4|0,0:3|1:0,0:0:0:0:
32,264,189131,6,0,P|41:297|49:331,1,70,4|4,0:3|0:3,0:0:0:0:
148,364,189484,1,4,0:3:0:0:
148,364,189661,1,0,1:0:0:0:
224,300,189837,1,4,0:3:0:0:
240,304,189926,1,4,0:3:0:0:
255,308,190014,2,0,P|290:313|324:320,1,70,0|8,1:0|0:3,0:0:0:0:
416,356,190367,2,0,L|460:344,3,35,4|4|4|4,0:3|0:3|0:3|0:3,0:0:0:0:
468,340,190720,5,2,0:3:0:0:
504,148,191073,6,0,P|504:112|488:76,1,70,6|0,1:2|0:0,0:0:0:0:
400,40,191426,2,0,P|364:40|328:56,1,70,4|8,0:3|0:3,0:0:0:0:
248,104,191778,2,0,P|212:104|176:88,1,70,0|0,1:0|0:0,0:0:0:0:
96,44,192131,6,0,P|86:95|76:147,1,105,4|0,0:3|0:0,0:0:0:0:
76,164,192484,1,0,1:0:0:0:
144,236,192661,2,0,B|220:244|196:188|276:196,1,140,4|4,0:3|0:3,0:0:0:0:
368,232,193190,1,0,1:0:0:0:
368,232,193367,1,0,3:0:0:0:
332,324,193543,6,0,P|293:332|248:344,1,70,4|0,0:3|0:0,0:0:0:0:
172,372,193896,2,0,P|138:363|103:356,1,70,4|0,1:2|0:0,0:0:0:0:
32,288,194249,1,4,0:3:0:0:
8,192,194426,2,0,P|4:152|24:112,1,70,0|0,3:0|1:0,0:0:0:0:
92,68,194778,1,0,3:0:0:0:
172,123,194955,6,0,P|179:158|185:192,2,70,4|0|0,0:3|3:0|1:0,0:0:0:0:
244,60,195484,2,0,B|320:68|296:12|376:20,1,140,0|4,0:3|0:3,0:0:0:0:
456,72,196014,2,0,P|463:107|472:152,1,70,0|0,1:0|3:0,0:0:0:0:
404,212,196367,6,0,P|396:247|388:292,1,70,4|0,1:2|0:0,0:0:0:0:
348,372,196720,1,0,1:0:0:0:
348,372,196896,1,0,0:0:0:0:
276,308,197073,1,4,0:3:0:0:
196,368,197249,2,0,P|156:366|127:353,1,70,0|0,0:0|1:0,0:0:0:0:
56,288,197602,6,0,P|32:236|72:152,1,140
140,108,198131,1,0,1:0:0:0:
216,168,198308,2,0,P|283:147|350:127,1,140,4|4,0:3|0:3,0:0:0:0:
440,84,198837,1,0,1:0:0:0:
440,84,199014,1,0,0:0:0:0:
488,168,199190,6,0,P|481:203|474:237,1,70,4|4,1:0|0:3,0:0:0:0:
432,328,199543,2,0,P|397:321|363:314,1,70,0|0,1:0|0:0,0:0:0:0:
272,280,199896,1,0,1:0:0:0:
184,328,200073,2,0,P|149:335|115:341,1,70,4|0,0:3|1:0,0:0:0:0:
24,304,200426,5,4,0:3:0:0:
16,208,200602,2,0,P|22:174|30:139,1,70,4|4,1:2|0:3,0:0:0:0:
124,100,200955,1,0,1:0:0:0:
124,100,201131,1,4,0:3:0:0:
200,164,201308,2,0,L|212:216,3,35,0|8|4|4,1:0|0:3|0:3|1:3,0:0:0:0:
212,216,201661,1,2,0:3:0:0:
352,356,202014,6,0,P|424:364|472:320,1,140,6|8,1:2|0:1,0:0:0:0:
496,128,202720,2,0,P|466:110|432:112,1,70,4|0,0:3|0:0,0:0:0:0:
348,164,203073,2,0,P|318:181|284:180,1,70,8|0,0:1|0:0,0:0:0:0:
207,119,203426,6,0,P|163:93|112:99,1,105,4|0,0:3|0:0,0:0:0:0:
96,108,203778,1,8,0:1:0:0:
28,180,203955,2,0,P|41:248|54:317,1,140,0|2,3:0|0:3,0:0:0:0:
144,360,204484,2,0,P|181:351|216:344,1,70,8|0,0:1|3:0,0:0:0:0:
300,296,204837,6,0,B|376:288|352:344|432:336,1,140,4|8,0:3|0:1,0:0:0:0:
488,256,205367,2,0,P|500:212|492:184,1,70,0|4,0:0|0:3,0:0:0:0:
440,108,205720,2,0,P|396:96|368:104,1,70,2|8,0:3|0:1,0:0:0:0:
292,156,206073,6,0,P|236:168|168:108,1,140,0|2,3:0|0:3,0:0:0:0:
132,32,206602,2,0,P|88:16|20:32,1,105,8|0,0:1|0:0,0:0:0:0:
20,39,206955,2,0,P|27:74|34:108,1,70,4|2,0:3|0:3,0:0:0:0:
104,180,207308,2,0,P|96:214|89:248,1,70,8|0,0:1|0:0,0:0:0:0:
52,340,207661,6,0,P|120:324|188:310,1,140,4|8,0:3|0:1,0:0:0:0:
280,344,208190,2,0,P|314:351|356:360,1,70,0|4,0:0|0:3,0:0:0:0:
440,316,208543,1,2,0:3:0:0:
440,316,208720,1,8,0:1:0:0:
504,240,208896,2,0,P|508:196|496:168,1,70,0|4,0:0|0:3,0:0:0:0:
412,136,209249,5,2,0:3:0:0:
412,136,209425,2,0,B|336:128|360:184|280:176,2,140,8|4|8,0:1|0:3|0:1,0:0:0:0:
498,172,210308,5,0,3:0:0:0:
498,172,210484,2,0,P|508:205|503:239,1,70,4|0,0:3|0:0,0:0:0:0:
452,324,210837,2,0,P|418:334|384:329,1,70,8|0,0:1|0:0,0:0:0:0:
296,284,211190,2,0,P|262:273|228:278,1,70,4|0,0:3|0:0,0:0:0:0:
144,332,211543,5,8,0:1:0:0:
144,331,211720,2,0,P|129:263|115:194,1,140,0|0,3:0|1:0,0:0:0:0:
84,108,212249,1,4,0:3:0:0:
84,108,212425,1,8,0:3:0:0:
160,44,212602,2,0,P|194:49|229:54,1,70,4|4,0:3|0:3,0:0:0:0:
328,28,212955,1,0,1:0:0:0:
328,28,213131,1,0,0:0:0:0:
432,104,213308,6,0,P|456:152|444:212,1,105,4|0,1:2|0:0,0:0:0:0:
440,216,213661,2,0,P|371:231|303:248,1,140,4|4,1:2|0:3,0:0:0:0:
224,308,214190,1,0,0:0:0:0:
223,308,214367,2,0,P|188:298|156:291,1,70,0|2,1:0|0:3,0:0:0:0:
80,232,214720,6,0,P|52:284|76:368,2,140,4|0|4,0:3|1:0|0:3,0:0:0:0:
156,168,215602,1,0,0:0:0:0:
156,168,215778,2,0,P|160:128|152:96,1,70,0|2,1:0|0:3,0:0:0:0:
100,16,216131,6,0,P|168:27|238:37,1,140,4|0,0:3|1:0,0:0:0:0:
320,92,216661,1,0,3:0:0:0:
320,92,216837,2,0,P|354:84|388:76,1,70,4|0,0:3|0:0,0:0:0:0:
472,128,217190,2,0,P|464:162|456:196,1,70,0|2,1:0|0:3,0:0:0:0:
424,288,217543,6,0,B|348:296|372:240|292:248,1,140,4|0,0:3|1:0,0:0:0:0:
216,304,218073,2,0,P|184:320|136:312,1,70,2|4,0:0|0:3,0:0:0:0:
72,268,218425,1,2,0:0:0:0:
72,268,218602,2,0,P|56:236|64:188,1,70,0|2,1:0|0:3,0:0:0:0:
120,128,218955,6,0,P|152:112|200:120,1,70,4|0,0:3|0:0,0:0:0:0:
271,164,219308,2,0,P|337:179|408:196,2,140,0|4|0,1:0|0:3|1:0,0:0:0:0:
107,59,220367,6,0,P|113:93|119:127,1,70,4|0,0:3|0:0,0:0:0:0:
44,188,220720,2,0,P|37:222|31:256,1,70,0|0,1:0|0:0,0:0:0:0:
96,328,221073,2,0,P|130:321|164:315,1,70,4|0,0:3|0:0,0:0:0:0:
252,272,221425,2,0,P|303:283|354:294,1,105,0|2,1:0|0:3,0:0:0:0:
372,300,221778,6,0,P|348:272|384:176,1,140,4|0,0:3|1:0,0:0:0:0:
448,116,222308,1,0,0:0:0:0:
448,116,222485,2,0,P|411:107|376:100,1,70,4|0,0:3|0:0,0:0:0:0:
296,52,222837,2,0,P|261:59|227:67,1,70,0|0,1:0|0:0,0:0:0:0:
104,112,223190,5,6,1:2:0:0:
104,112,223367,1,2,1:0:0:0:
244,256,223720,1,2,1:2:0:0:
244,256,223896,1,2,1:2:0:0:
348,176,224073,5,4,0:3:0:0:
364,168,224161,1,4,0:3:0:0:
380,168,224249,2,0,P|416:172|460:200,1,70,2|6,1:2|1:2,0:0:0:0:
