osu file format v14

[General]
AudioFilename: audio.mp3
AudioLeadIn: 0
PreviewTime: 46695
Countdown: 1
SampleSet: Soft
StackLeniency: 0.7
Mode: 0
LetterboxInBreaks: 0
WidescreenStoryboard: 1

[Editor]
Bookmarks: 149454,149799,150144,150488,150833,151178,151523,151868,152213,152557,152902,153247,153592,153937,154282,154626,154971,155316,155661,156006,156350,156695,157040,157385,157730,158075,158419,158764,159109,159454,159799,160144,160488
DistanceSpacing: 1.1
BeatDivisor: 4
GridSize: 16
TimelineZoom: 1.6

[Metadata]
Title:Sunrise
TitleUnicode:해야
Artist:GFRIEND
ArtistUnicode:여자친구
Creator:Hokichi
Version:Cosmiccc's Light Insane
Source:
Tags:haeya
BeatmapID:1906297
BeatmapSetID:909126

[Difficulty]
HPDrainRate:6
CircleSize:4
OverallDifficulty:7
ApproachRate:8
SliderMultiplier:1.5
SliderTickRate:1

[Events]
//Background and Video events
0,0,"bg.jpg",0,0
//Break Periods
2,149653,159307
//Storyboard Layer 0 (Background)
//Storyboard Layer 1 (Fail)
//Storyboard Layer 2 (Pass)
//Storyboard Layer 3 (Foreground)
//Storyboard Sound Samples

[TimingPoints]
1482,800,4,2,13,30,1,0
1482,-166.666666666667,4,2,13,30,0,0
2082,-166.666666666667,4,2,14,30,0,0
3082,-166.666666666667,4,2,13,30,0,0
3682,-166.666666666667,4,2,14,30,0,0
4482,-166.666666666667,4,2,13,30,0,0
4582,-166.666666666667,4,2,15,30,0,0
4682,-166.666666666667,4,2,12,30,0,0
5282,-166.666666666667,4,2,14,30,0,0
6282,-166.666666666667,4,2,12,30,0,0
6882,-166.666666666667,4,2,14,30,0,0
7682,-166.666666666667,4,2,16,30,0,0
7882,-166.666666666667,4,2,11,30,0,0
8282,-166.666666666667,4,2,17,30,0,0
9382,-166.666666666667,4,2,17,5,0,0
9482,-166.666666666667,4,2,15,30,0,0
10282,-166.666666666667,4,2,18,30,0,0
10982,-166.666666666667,4,2,18,5,0,0
11082,-166.666666666667,4,2,19,30,0,0
12582,-166.666666666667,4,2,19,5,0,0
12682,-166.666666666667,4,2,20,30,0,0
14182,-166.666666666667,4,2,20,5,0,0
14282,344.827586206897,4,2,1,50,1,0
14282,-125,4,2,1,50,0,0
16954,-125,4,2,1,50,0,0
17040,-125,4,2,1,50,0,0
19713,-125,4,2,1,50,0,0
19799,-125,4,2,1,50,0,0
24195,-125,4,2,1,50,0,0
24282,-125,4,2,1,50,0,0
24540,-125,4,2,1,50,0,0
24626,-125,4,2,1,50,0,0
24885,-125,4,2,1,50,0,0
24971,-125,4,2,1,50,0,0
25230,-125,4,2,1,50,0,0
25316,-125,4,2,1,50,0,0
36350,-166.666666666667,4,2,1,50,0,0
41868,-100,4,2,1,50,0,0
46954,-100,4,2,1,5,0,0
47040,-100,4,2,1,50,0,0
47299,-100,4,2,1,5,0,0
47385,-100,4,2,1,50,0,1
49713,-100,4,2,1,50,0,1
49799,-100,4,2,1,50,0,1
50057,-100,4,2,1,50,0,1
50144,-100,4,2,1,50,0,1
69454,-166.666666666667,4,2,1,50,0,0
74971,-100,4,2,1,50,0,0
83247,-166.666666666667,4,2,1,50,0,0
84540,-166.666666666667,4,2,1,50,0,0
84626,-166.666666666667,4,2,1,50,0,0
85919,-166.666666666667,4,2,1,50,0,0
86006,-166.666666666667,4,2,1,50,0,0
87299,-166.666666666667,4,2,1,50,0,0
87385,-166.666666666667,4,2,1,50,0,0
88764,-125,4,2,1,50,0,0
94368,-125,4,2,1,50,0,0
94454,-125,4,2,1,50,0,0
94540,-125,4,2,1,50,0,0
94626,-125,4,2,1,50,0,0
94885,-125,4,2,1,50,0,0
94971,-71.4285714285714,4,2,1,50,0,0
95661,-100,4,2,1,50,0,0
110316,-166.666666666667,4,2,1,50,0,0
110747,-166.666666666667,4,2,1,50,0,0
110833,-100,4,2,1,50,0,0
116350,-100,4,2,1,50,0,1
118678,-100,4,2,1,50,0,1
118764,-100,4,2,1,50,0,1
119023,-100,4,2,1,50,0,1
119109,-100,4,2,1,50,0,1
138419,-166.666666666667,4,2,1,50,0,0
143936,-100,4,2,1,50,0,0
159971,-71.4285714285714,4,2,1,50,0,0
160488,-125,4,2,1,50,0,0
166006,-100,4,2,1,50,0,0
173247,-83.3333333333333,4,2,1,50,0,0
173506,-83.3333333333333,4,2,1,50,0,0
173592,-166.666666666667,4,2,1,50,0,0
173850,-166.666666666667,4,2,1,50,0,0
173937,-83.3333333333333,4,2,1,50,0,0
174195,-83.3333333333333,4,2,1,50,0,0
174282,-83.3333333333333,4,2,1,50,0,0
174626,-83.3333333333333,4,2,1,50,0,0
174885,-83.3333333333333,4,2,1,50,0,0
174971,-166.666666666667,4,2,1,50,0,0
175230,-166.666666666667,4,2,1,50,0,0
175316,-83.3333333333333,4,2,1,50,0,0
175575,-83.3333333333333,4,2,1,50,0,0
175661,-83.3333333333333,4,2,1,50,0,1
177988,-83.3333333333333,4,2,1,50,0,1
178075,-83.3333333333333,4,2,1,50,0,1
178333,-83.3333333333333,4,2,1,50,0,1
178419,-83.3333333333333,4,2,1,50,0,1
187040,-166.666666666667,4,2,1,50,0,0
187299,-166.666666666667,4,2,1,50,0,0
187385,-166.666666666667,4,2,1,50,0,0
187644,-166.666666666667,4,2,1,50,0,0
187730,-166.666666666667,4,2,1,50,0,0
187988,-166.666666666667,4,2,1,50,0,0
188419,-55.5555555555556,4,2,1,50,0,1
188764,-71.4285714285714,4,2,1,50,0,1
190747,-71.4285714285714,4,2,1,50,0,1
190833,-71.4285714285714,4,2,1,50,0,1
197213,-71.4285714285714,4,2,1,50,0,0
197730,-71.4285714285714,4,2,1,50,0,1
200057,-71.4285714285714,4,2,1,50,0,1
200144,-71.4285714285714,4,2,1,50,0,1
200402,-71.4285714285714,4,2,1,50,0,1
200488,-71.4285714285714,4,2,1,50,0,1
201695,-100,4,2,1,50,0,1
202385,-71.4285714285714,4,2,1,50,0,1
202902,-71.4285714285714,4,2,1,50,0,0
203247,-71.4285714285714,4,2,1,50,0,1
203419,-71.4285714285714,4,2,1,50,0,0
205575,-71.4285714285714,4,2,1,50,0,0
205661,-71.4285714285714,4,2,1,50,0,0
205919,-71.4285714285714,4,2,1,50,0,0
206006,-125,4,2,1,50,0,0
208592,-83.3333333333333,4,2,1,50,0,1
208764,-83.3333333333333,4,2,1,50,0,0
209282,-474.4,4,2,1,50,0,0
209368,-474.4,4,2,1,50,0,0
214971,-474.4,4,2,1,50,0,0

[Colours]
Combo1 : 192,147,116
Combo2 : 219,216,89
Combo3 : 117,209,112
Combo4 : 223,97,94

[HitObjects]
244,122,682,6,0,L|207:191,1,75,2|2,0:0|0:0,0:0:0:0:
69,138,1482,6,0,L|143:134,1,67.4999979400635,2|2,0:0|0:0,0:0:0:0:
246,228,3082,6,0,L|172:224,1,67.4999979400635,2|2,0:0|0:0,0:0:0:0:
259,80,4482,2,0,L|278:87,1,11.2499996566773,2|2,0:0|0:0,0:0:0:0:
282,105,4682,6,0,L|356:101,1,67.4999979400635,2|2,0:0|0:0,0:0:0:0:
431,214,6282,6,0,L|357:210,1,67.4999979400635,2|2,0:0|0:0,0:0:0:0:
150,138,7682,1,2,0:0:0:0:
150,138,7882,6,0,P|221:136|191:206,1,168.749994850159,2|0,0:0|0:0,0:0:0:0:
178,214,9482,6,0,B|129:234|92:207|92:207|103:248|84:285|84:285,1,168.749994850159,2|0,0:0|0:0,0:0:0:0:
79,306,11082,6,0,B|156:344|157:264|246:315,1,168.749994850159,2|0,0:0|0:0,0:0:0:0:
256,315,12682,6,0,B|313:335|366:319|366:319|336:313|321:283,1,168.749994850159,2|0,0:0|0:0,0:0:0:0:
299,206,14282,6,0,P|293:158|300:135,1,60,4|0,0:2|0:0,0:0:0:0:
325,71,14626,1,8,0:2:0:0:
508,139,14971,2,0,L|502:222,1,60,0|0,0:0|0:0,0:0:0:0:
499,287,15316,1,8,0:2:0:0:
380,317,15488,2,0,P|342:325|303:310,1,60,0|0,0:0|0:0,0:0:0:0:
266,212,15833,2,0,P|295:207|324:215,1,60,0|8,0:0|0:2,0:0:0:0:
214,291,16178,2,0,P|159:307|98:280,1,120,0|0,0:0|0:0,0:0:0:0:
47,193,16695,2,0,L|143:187,1,90,8|0,3:2|0:0,0:0:0:0:
170,165,17040,6,0,L|159:250,1,60,0|0,3:2|0:0,0:0:0:0:
79,98,17385,1,8,0:2:0:0:
265,40,17730,6,0,L|257:110,1,60,0|0,0:0|0:0,0:0:0:0:
243,204,18075,1,8,0:2:0:0:
165,150,18247,2,0,L|163:73,1,60,0|0,0:0|0:0,0:0:0:0:
337,122,18592,2,0,L|322:261,1,120,0|0,0:0|0:0,0:0:0:0:
44,305,19282,1,0,0:0:0:0:
44,305,19454,2,0,L|153:308,1,90,8|0,3:2|0:0,0:0:0:0:
159,313,19799,6,0,L|153:237,1,60,0|0,3:2|0:0,0:0:0:0:
241,203,20144,2,0,B|235:243|235:243|246:275|246:275|241:321,2,120,8|0|8,0:2|0:0|0:2,0:0:0:0:
355,126,21178,1,0,0:0:0:0:
355,126,21350,2,0,B|398:116|398:116|485:136,1,120,0|0,0:0|0:0,0:0:0:0:
373,221,22040,2,0,B|330:231|330:231|243:211,1,120,0|0,0:0|3:2,0:0:0:0:
211,136,22557,5,0,3:2:0:0:
373,221,22902,2,0,L|362:296,1,60,8|0,0:2|0:0,0:0:0:0:
284,65,23419,1,0,0:0:0:0:
284,65,23592,2,0,L|359:69,1,60,8|0,0:2|0:0,0:0:0:0:
498,78,23937,6,0,L|487:169,1,90,2|0,0:2|0:0,0:0:0:0:
454,190,24282,2,0,L|443:100,1,90,10|0,0:2|0:0,0:0:0:0:
412,112,24626,2,0,L|401:203,1,90,2|0,0:2|0:0,0:0:0:0:
368,224,24971,2,0,L|357:134,1,90,10|0,3:2|0:0,0:0:0:0:
341,100,25316,6,0,L|280:97,1,60,4|0,3:2|0:0,0:0:0:0:
204,184,25661,2,0,L|274:187,1,60,8|0,0:2|0:0,0:0:0:0:
177,105,26006,2,0,L|116:102,1,60,0|0,0:0|0:0,0:0:0:0:
26,99,26350,1,8,0:2:0:0:
0,221,26523,2,0,P|-5:259|2:289,1,60,0|0,0:0|0:0,0:0:0:0:
64,334,26868,2,0,P|134:342|186:303,2,120,0|0|0,0:0|0:0|0:0,0:0:0:0:
107,246,27730,1,8,3:2:0:0:
107,246,27902,1,0,3:2:0:0:
245,279,28075,6,0,L|369:288,1,120,0|8,3:2|0:2,0:0:0:0:
490,183,28764,6,0,L|396:175,1,80,0|0,0:0|0:0,0:0:0:0:
388,175,29109,1,8,0:2:0:0:
303,205,29282,2,0,P|294:172|300:144,1,60,0|0,0:0|0:0,0:0:0:0:
271,68,29626,2,0,P|304:59|332:65,1,60,0|8,0:0|0:2,0:0:0:0:
413,35,29971,2,0,P|406:114|377:139,1,120,0|0,0:0|0:0,0:0:0:0:
288,154,30488,1,8,3:2:0:0:
288,154,30661,1,0,3:2:0:0:
166,106,30833,6,0,B|148:144|148:144|155:227,1,120,0|8,3:2|0:2,0:0:0:0:
219,283,31350,1,0,0:0:0:0:
291,354,31523,2,0,B|309:316|309:316|302:233,1,120,0|8,0:0|0:2,0:0:0:0:
288,154,32040,1,0,0:0:0:0:
154,217,32213,2,0,L|34:208,1,120,0|8,0:0|0:2,0:0:0:0:
0,115,32730,1,0,0:0:0:0:
0,115,32902,2,0,L|62:119,1,60,0|0,0:0|0:0,0:0:0:0:
130,37,33247,1,8,3:2:0:0:
212,108,33419,2,0,P|274:129|337:105,1,120,0|0,3:2|0:0,0:0:0:0:
270,41,33937,1,8,0:2:0:0:
392,159,34626,5,8,0:2:0:0:
405,154,34971,2,0,L|397:281,1,120,0|8,0:0|0:2,0:0:0:0:
253,333,35488,1,0,0:0:0:0:
312,250,35661,2,0,L|334:327,1,60,0|0,3:2|3:2,0:0:0:0:
232,249,36006,1,0,3:2:0:0:
397,273,36178,1,0,3:2:0:0:
232,249,36350,6,0,L|168:245,1,44.999998626709,4|0,3:2|0:0,0:0:0:0:
10,151,36868,1,0,0:0:0:0:
10,151,37040,2,0,L|73:146,1,44.999998626709,8|0,0:2|0:0,0:0:0:0:
316,97,37557,6,0,L|255:103,1,44.999998626709,0|0,3:2|3:2,0:0:0:0:
149,25,37902,2,0,L|252:29,2,89.9999972534181,0|0|0,0:0|0:0|0:0,0:0:0:0:
57,83,38764,1,0,0:0:0:0:
311,178,39109,6,0,L|307:238,1,44.999998626709,0|0,3:2|0:0,0:0:0:0:
279,298,39454,1,0,0:0:0:0:
214,202,39626,2,0,L|218:111,2,89.9999972534181,0|0|0,0:0|0:0|3:2,0:0:0:0:
113,254,40488,2,0,L|116:205,1,44.999998626709,0|0,3:2|0:0,0:0:0:0:
199,284,40833,2,0,L|197:333,1,44.999998626709,0|0,0:0|3:2,0:0:0:0:
85,357,41178,1,8,0:2:0:0:
17,263,41350,2,0,B|11:220|11:220|22:169,1,89.9999972534181,2|0,0:2|3:2,0:0:0:0:
76,63,41868,6,0,P|155:36|221:72,1,150,4|0,3:2|3:2,0:0:0:0:
312,117,42385,1,0,0:0:0:0:
437,66,42557,2,0,L|428:140,1,75,0|0,3:2|0:0,0:0:0:0:
320,191,42902,2,0,L|311:114,1,75,0|0,3:2|0:0,0:0:0:0:
461,256,43247,6,0,B|436:267|436:267|404:265|404:265|379:275,1,75,0|0,3:0|3:0,0:0:0:0:
248,205,43592,2,0,B|273:194|273:194|305:196|305:196|330:186,1,75,0|0,3:0|0:0,0:0:0:0:
236,305,43937,2,0,P|169:290|149:268,1,75,0|0,3:0|0:0,0:0:0:0:
121,138,44282,2,0,P|141:203|132:231,1,75,0|0,3:0|3:0,0:0:0:0:
19,323,44626,6,0,P|65:272|94:266,1,75,0|0,3:0|3:0,0:0:0:0:
140,207,44971,1,0,3:0:0:0:
105,341,45144,1,0,3:0:0:0:
56,198,45316,6,0,L|17:194,3,37.5,0|0|0|0,3:0|0:0|3:0|3:0,0:0:0:0:
50,175,45661,1,0,3:0:0:0:
47,160,45747,1,0,3:0:0:0:
44,143,45833,1,0,3:0:0:0:
42,129,45919,1,0,3:0:0:0:
38,112,46006,1,0,3:0:0:0:
226,63,47385,6,0,P|155:62|197:110,1,150,4|8,0:0|0:0,0:0:0:0:
307,87,47902,2,0,P|304:39|278:6,1,75,0|0,0:0|0:0,0:0:0:0:
235,153,48247,1,0,3:0:0:0:
385,123,48419,6,0,P|386:194|338:152,1,150,8|0,0:0|3:0,0:0:0:0:
377,47,48936,2,0,P|423:57|456:82,1,75,0|8,0:0|0:0,0:0:0:0:
493,152,49281,1,0,0:0:0:0:
340,172,49454,6,0,L|209:175,1,112.5,0|0,0:0|0:0,0:0:0:0:
163,216,49799,2,0,L|275:214,1,112.5,8|0,0:0|0:0,0:0:0:0:
355,251,50144,6,0,P|381:293|305:300,1,150,0|8,3:0|0:0,0:0:0:0:
259,366,50661,2,0,P|236:331|233:294,1,75,0|0,0:0|0:0,0:0:0:0:
275,214,51006,1,0,3:0:0:0:
105,270,51178,6,0,P|94:332|155:315,1,150,8|0,0:0|3:0,0:0:0:0:
78,195,51695,2,0,P|41:215|16:247,1,75,0|8,0:0|0:0,0:0:0:0:
166,205,52040,1,0,0:0:0:0:
38,120,52213,2,0,B|87:112|87:112|131:126|131:126|184:115,1,150,0|8,0:0|0:0,0:0:0:0:
278,92,52730,1,0,3:0:0:0:
319,175,52902,6,0,P|268:184|221:166,1,75,2|0,3:2|0:0,0:0:0:0:
371,109,53247,2,0,P|404:148|412:198,1,75,8|0,0:0|0:0,0:0:0:0:
343,246,53592,1,0,0:0:0:0:
278,92,53764,2,0,P|295:43|334:11,1,75,0|8,3:0|0:0,0:0:0:0:
481,96,54109,6,0,B|494:147|494:147|471:262,1,150,0|0,0:0|0:0,0:0:0:0:
472,325,54626,1,8,0:0:0:0:
337,280,54799,2,0,P|292:275|245:287,1,75,0|0,0:0|0:0,0:0:0:0:
307,366,55144,1,0,3:0:0:0:
307,366,55316,1,8,0:0:0:0:
93,245,55661,6,0,L|100:164,1,75,0|0,3:0|0:0,0:0:0:0:
182,215,56006,1,8,0:0:0:0:
17,277,56178,2,0,L|10:196,1,75,0|0,0:0|0:0,0:0:0:0:
107,94,56523,2,0,L|98:169,1,75,0|8,3:0|0:0,0:0:0:0:
51,38,56868,2,0,P|85:18|132:16,1,75,0|0,0:0|3:0,0:0:0:0:
197,41,57213,2,0,P|232:53|269:49,1,75,0|8,0:0|0:0,0:0:0:0:
371,9,57557,1,0,3:0:0:0:
340,117,57730,6,0,L|333:204,1,75,0|0,0:0|3:0,0:0:0:0:
276,40,58075,1,8,0:0:0:0:
426,85,58247,1,0,3:0:0:0:
264,131,58419,2,0,L|167:122,1,75,4|0,0:0|0:0,0:0:0:0:
111,85,58764,6,0,P|101:128|113:169,1,75,8|0,0:0|0:0,0:0:0:0:
193,281,59109,2,0,L|175:191,1,75,0|0,0:0|3:0,0:0:0:0:
60,271,59454,1,8,0:0:0:0:
304,300,59799,6,0,P|340:303|376:291,1,75,0|0,3:0|0:0,0:0:0:0:
392,204,60144,1,8,0:0:0:0:
228,269,60316,2,0,P|221:305|230:341,1,75,0|0,0:0|0:0,0:0:0:0:
262,182,60661,1,0,3:0:0:0:
262,182,60833,1,8,0:0:0:0:
141,238,61006,6,0,P|85:186|137:174,1,150,0|0,0:0|0:0,0:0:0:0:
208,85,61523,2,0,L|132:91,1,75,8|0,0:0|0:0,0:0:0:0:
88,12,61868,2,0,L|162:17,1,75,0|0,0:0|3:0,0:0:0:0:
305,50,62213,1,8,0:0:0:0:
208,85,62385,1,0,0:0:0:0:
389,20,62557,2,0,P|411:84|385:172,1,150,0|8,3:0|0:0,0:0:0:0:
432,240,63075,1,0,0:0:0:0:
432,240,63247,2,0,P|392:247|346:234,1,75,0|0,0:0|3:0,0:0:0:0:
248,161,63592,1,8,0:0:0:0:
233,289,63764,1,0,3:0:0:0:
346,245,63937,5,2,0:0:0:0:
53,203,64282,2,0,B|56:152|56:152|38:112|38:112|46:51,1,150,8|0,0:0|0:0,0:0:0:0:
167,108,64799,1,0,3:0:0:0:
45,57,64971,1,8,0:0:0:0:
215,36,65144,2,0,P|258:25|301:35,1,75,0|0,0:0|3:0,0:0:0:0:
368,82,65488,1,0,0:0:0:0:
250,178,65661,2,0,L|361:184,1,75,8|0,0:0|0:0,0:0:0:0:
410,271,66006,2,0,L|311:266,1,75,0|0,0:0|3:0,0:0:0:0:
437,353,66350,1,8,0:0:0:0:
263,317,66523,6,0,P|178:300|116:323,1,150,0|0,0:0|0:0,0:0:0:0:
23,353,67040,2,0,L|10:274,1,75,8|0,0:0|0:0,0:0:0:0:
132,246,67385,2,0,L|119:320,1,75,0|0,0:0|3:0,0:0:0:0:
35,195,67730,1,8,0:0:0:0:
155,135,67902,6,0,P|197:129|235:139,1,75,0|2,0:0|0:0,0:0:0:0:
340,184,68247,1,2,0:0:0:0:
189,208,68419,1,10,3:2:0:0:
253,68,68592,1,2,0:0:0:0:
340,184,68764,2,0,B|349:218|349:218|336:269,1,75,2|2,3:2|3:2,0:0:0:0:
239,331,69109,2,0,B|230:297|230:297|243:246,1,75,10|2,3:2|3:2,0:0:0:0:
432,306,69454,5,4,3:2:0:0:
449,316,69799,2,0,L|452:253,1,44.999998626709,0|0,3:0|0:0,0:0:0:0:
402,205,70144,2,0,L|400:160,1,44.999998626709,0|0,0:0|3:0,0:0:0:0:
468,110,70488,1,0,0:0:0:0:
403,56,70661,2,0,P|358:46|310:55,1,89.9999972534181,0|0,3:0|0:0,0:0:0:0:
239,93,71178,6,0,L|179:89,1,44.999998626709,0|0,3:0|0:0,0:0:0:0:
134,33,71523,1,0,0:0:0:0:
134,33,71695,1,0,3:0:0:0:
69,86,71868,2,0,P|63:115|70:145,1,44.999998626709,0|0,0:0|3:0,0:0:0:0:
105,198,72213,1,2,0:0:0:0:
277,324,72557,6,0,L|219:321,1,44.999998626709,0|0,3:0|0:0,0:0:0:0:
157,348,72902,2,0,P|153:322|155:301,1,44.999998626709,0|0,0:0|3:0,0:0:0:0:
193,235,73247,1,0,0:0:0:0:
295,243,73419,2,0,L|406:249,1,89.9999972534181,0|0,3:0|0:0,0:0:0:0:
473,269,73937,1,0,3:0:0:0:
473,269,74109,2,0,B|462:231|462:231|464:204|464:204|455:172,1,89.9999972534181,0|0,0:0|3:0,0:0:0:0:
381,112,74626,2,0,L|374:174,1,44.999998626709,2|0,0:0|3:0,0:0:0:0:
277,109,74971,6,0,L|176:116,1,75,4|0,0:0|0:0,0:0:0:0:
119,132,75316,1,8,0:0:0:0:
13,65,75488,2,0,B|-8:118|-8:118|15:222,1,150,0|0,0:0|3:0,0:0:0:0:
45,289,76006,1,8,0:0:0:0:
160,254,76178,6,0,L|234:259,1,75,0|0,0:0|3:0,0:0:0:0:
187,179,76523,1,0,0:0:0:0:
209,338,76695,1,8,0:0:0:0:
310,231,76868,1,0,0:0:0:0:
310,231,76954,1,0,0:0:0:0:
310,231,77040,2,0,P|318:276|306:313,1,75,0|0,0:0|3:0,0:0:0:0:
160,254,77385,1,8,0:0:0:0:
317,71,77730,6,0,P|251:37|168:73,1,150,0|8,3:0|0:0,0:0:0:0:
284,199,78247,2,0,L|358:201,1,75,0|0,0:0|0:0,0:0:0:0:
238,132,78592,2,0,L|163:134,1,75,0|8,3:0|0:0,0:0:0:0:
392,57,78937,2,0,P|358:12|332:87,1,150,0|0,0:0|0:0,0:0:0:0:
382,171,79454,1,8,0:0:0:0:
320,76,79626,1,0,0:0:0:0:
320,76,79713,1,0,0:0:0:0:
320,76,79799,1,0,0:0:0:0:
292,188,79971,1,0,3:0:0:0:
409,83,80144,5,8,0:0:0:0:
381,192,83247,5,4,3:2:0:0:
376,327,84282,6,0,L|398:257,1,67.4999979400635,0|0,3:0|0:0,0:0:0:0:
381,192,84626,1,0,3:0:0:0:
501,129,85661,6,0,L|429:144,1,67.4999979400635,0|0,3:0|0:0,0:0:0:0:
381,192,86005,1,0,3:0:0:0:
267,120,87040,6,0,L|316:174,1,67.4999979400635,0|0,3:0|0:0,0:0:0:0:
381,192,87384,1,0,3:0:0:0:
187,188,88419,5,0,3:0:0:0:
47,131,88592,1,0,3:0:0:0:
47,131,88678,1,0,0:0:0:0:
47,131,88764,6,0,L|128:128,1,60,4|0,0:2|0:0,0:0:0:0:
182,73,89109,2,0,P|199:132|185:194,1,120,8|0,0:2|0:0,0:0:0:0:
46,352,89799,2,0,P|29:293|43:231,1,120,8|0,0:2|0:0,0:0:0:0:
227,253,90488,1,8,0:2:0:0:
433,270,90833,6,0,L|427:342,1,60,0|0,0:0|0:0,0:0:0:0:
329,262,91178,2,0,L|324:202,1,60,0|0,3:2|3:2,0:0:0:0:
447,197,91523,6,0,P|524:250|432:269,1,240,2|0,3:2|0:0,0:0:0:0:
419,122,92385,2,0,P|458:111|499:113,1,60,0|8,0:0|0:2,0:0:0:0:
329,217,92730,2,0,P|290:228|249:226,1,60,0|0,0:0|0:0,0:0:0:0:
271,105,93075,1,0,0:0:0:0:
271,105,93247,1,2,0:2:0:0:
350,200,93419,1,0,0:2:0:0:
210,163,93592,2,0,L|149:166,1,60,0|0,0:2|3:2,0:0:0:0:
361,119,93937,1,8,0:2:0:0:
264,230,94109,1,0,3:2:0:0:
435,126,94282,6,0,L|458:168,1,30,4|0,3:2|0:0,0:0:0:0:
475,133,94454,2,0,L|482:181,1,30,0|0,3:2|0:0,0:0:0:0:
512,159,94626,2,0,L|506:262,1,90,0|0,0:0|0:0,0:0:0:0:
370,303,94971,2,0,P|289:303|358:224,1,209.999993591309,8|0,0:2|0:0,0:0:0:0:
223,357,95488,1,0,3:2:0:0:
152,272,95661,2,0,L|157:175,1,75,0|8,3:2|3:2,0:0:0:0:
372,56,96178,5,0,3:2:0:0:
287,127,96351,2,0,L|190:122,1,75,8|0,0:2|0:0,0:0:0:0:
128,92,96695,1,0,0:0:0:0:
224,45,96868,1,0,0:0:0:0:
75,168,97040,6,0,P|43:95|69:30,1,150,0|0,3:2|0:0,0:0:0:0:
242,200,97730,2,0,L|242:293,1,75,8|0,0:2|0:0,0:0:0:0:
157,201,98075,1,0,0:0:0:0:
317,157,98247,2,0,P|327:200|317:245,1,75,0|0,0:0|3:2,0:0:0:0:
242,200,98592,1,8,3:2:0:0:
407,163,98764,2,0,L|505:168,1,75,0|0,0:0|3:2,0:0:0:0:
398,256,99109,2,0,L|323:259,1,75,8|0,0:2|0:0,0:0:0:0:
512,240,99454,5,0,3:2:0:0:
512,240,99626,1,0,3:2:0:0:
482,351,99799,1,4,3:2:0:0:
256,244,100144,5,8,0:2:0:0:
152,346,100316,1,0,0:0:0:0:
152,346,100402,1,0,0:0:0:0:
152,346,100488,2,0,L|150:257,1,75,0|0,0:0|0:0,0:0:0:0:
245,324,100833,1,8,0:2:0:0:
75,272,101006,6,0,L|166:270,1,75,0|0,0:0|0:0,0:0:0:0:
248,163,101351,2,0,L|157:166,1,75,0|8,0:0|0:2,0:0:0:0:
88,80,101695,1,0,0:0:0:0:
88,80,101868,1,0,0:0:0:0:
202,47,102040,1,0,0:0:0:0:
173,165,102213,2,0,L|161:261,1,75,0|0,3:2|3:2,0:0:0:0:
28,124,102557,2,0,P|45:52|89:85,1,150,0|8,3:2|0:2,0:0:0:0:
384,246,103591,5,8,0:2:0:0:
384,246,103678,1,0,0:0:0:0:
384,246,103764,2,0,L|292:252,1,75,0|0,0:0|0:0,0:0:0:0:
374,110,104109,1,8,3:2:0:0:
374,110,104282,1,0,3:2:0:0:
448,208,104454,1,0,0:0:0:0:
285,171,104626,2,0,B|276:118|276:118|292:80|292:80|283:25,1,150,0|0,3:2|3:2,0:0:0:0:
283,25,105316,5,4,3:2:0:0:
194,320,109626,5,0,0:0:0:0:
194,320,109713,1,0,0:0:0:0:
194,320,109799,6,0,P|153:324|119:314,1,75,0|0,3:2|3:2,0:0:0:0:
36,276,110144,1,8,0:2:0:0:
164,239,110316,2,0,L|288:239,1,112.499996566773,2|0,3:2|0:0,0:0:0:0:
360,202,110833,6,0,P|372:239|364:283,1,75,4|0,0:2|0:0,0:0:0:0:
276,239,111178,2,0,P|264:202|272:158,1,75,0|0,3:2|0:0,0:0:0:0:
347,95,111523,2,0,L|429:98,1,75,0|0,3:2|0:0,0:0:0:0:
268,166,111868,2,0,L|186:169,1,75,0|0,3:2|0:0,0:0:0:0:
86,137,112213,5,0,3:2:0:0:
86,137,112385,1,0,0:0:0:0:
190,95,112557,2,0,B|199:133|199:133|192:169|192:169,1,75,0|0,3:2|0:0,0:0:0:0:
115,274,112902,2,0,P|185:305|253:278,1,150,0|0,3:2|3:2,0:0:0:0:
341,226,113419,1,0,3:2:0:0:
341,226,113506,1,0,3:2:0:0:
341,226,113592,6,0,L|340:307,1,75,0|0,3:2|3:2,0:0:0:0:
245,179,113937,1,0,3:2:0:0:
400,141,114109,1,0,3:2:0:0:
217,187,114282,2,0,L|214:141,3,37.5,0|0|0|0,3:2|0:0|3:2|3:2,0:0:0:0:
202,191,114627,1,0,3:2:0:0:
188,194,114713,1,0,3:2:0:0:
173,199,114799,1,0,3:2:0:0:
160,203,114885,1,0,3:2:0:0:
146,207,114971,5,0,3:2:0:0:
289,83,116350,6,0,B|340:76|340:76|387:90|387:90|449:81,1,150,4|8,0:0|0:0,0:0:0:0:
404,241,116868,2,0,L|391:167,1,75,0|0,0:0|0:0,0:0:0:0:
494,219,117212,1,0,3:0:0:0:
325,258,117385,6,0,B|274:251|274:251|227:265|227:265|165:256,1,150,8|0,0:0|3:0,0:0:0:0:
30,123,117902,2,0,L|103:135,1,75,0|8,0:0|0:0,0:0:0:0:
23,214,118246,1,0,0:0:0:0:
180,145,118419,6,0,L|177:276,1,112.5,0|0,0:0|0:0,0:0:0:0:
138,319,118764,2,0,L|140:207,1,112.5,8|0,0:0|0:0,0:0:0:0:
264,139,119109,6,0,B|315:132|315:132|362:146|362:146|424:137,1,150,0|8,3:0|0:0,0:0:0:0:
488,65,119626,2,0,L|413:56,1,75,0|0,0:0|0:0,0:0:0:0:
305,40,119971,1,0,3:0:0:0:
410,138,120144,6,0,B|417:189|417:189|403:236|403:236|412:298,1,150,8|0,0:0|3:0,0:0:0:0:
315,331,120661,2,0,L|324:253,1,75,0|8,0:0|0:0,0:0:0:0:
486,295,121005,1,0,0:0:0:0:
315,331,121178,2,0,B|266:323|266:323|222:337|222:337|169:326,1,150,0|8,0:0|0:0,0:0:0:0:
39,349,121695,1,0,3:0:0:0:
164,253,121867,6,0,P|173:304|155:351,1,75,2|0,3:2|0:0,0:0:0:0:
90,201,122212,2,0,P|129:168|179:160,1,75,8|0,0:0|0:0,0:0:0:0:
249,215,122557,1,0,0:0:0:0:
95,290,122730,2,0,P|46:272|14:233,1,75,0|8,3:0|0:0,0:0:0:0:
263,203,123074,6,0,B|429:213,1,150,0|0,0:0|0:0,0:0:0:0:
501,237,123591,1,8,0:0:0:0:
382,298,123764,2,0,L|290:302,1,75,0|0,0:0|0:0,0:0:0:0:
227,332,124109,1,0,3:0:0:0:
227,332,124281,1,8,0:0:0:0:
278,121,124626,6,0,P|285:159|271:202,1,75,0|0,3:0|0:0,0:0:0:0:
177,177,124971,1,8,0:0:0:0:
249,40,125143,2,0,P|286:38|321:49,1,75,0|0,0:0|0:0,0:0:0:0:
438,143,125488,2,0,L|363:134,1,75,0|8,3:0|0:0,0:0:0:0:
438,54,125833,2,0,L|527:61,1,75,0|0,0:0|3:0,0:0:0:0:
430,215,126178,2,0,P|425:178|437:142,1,75,0|8,0:0|0:0,0:0:0:0:
512,186,126522,1,0,3:0:0:0:
353,235,126695,6,0,L|266:228,1,75,0|0,0:0|3:0,0:0:0:0:
221,134,127040,1,8,0:0:0:0:
344,122,127212,1,0,3:0:0:0:
192,137,127385,2,0,L|117:144,1,75,4|0,0:0|0:0,0:0:0:0:
32,194,127729,6,0,B|22:151|22:151|34:110,1,75,8|0,0:0|0:0,0:0:0:0:
136,220,128075,2,0,B|146:263|146:263|134:304,1,75,0|0,0:0|3:0,0:0:0:0:
15,343,128419,1,8,0:0:0:0:
287,223,128765,6,0,P|322:210|359:213,1,75,0|0,3:0|0:0,0:0:0:0:
444,254,129110,1,8,0:0:0:0:
334,361,129282,2,0,P|324:324|331:288,1,75,0|0,0:0|0:0,0:0:0:0:
437,362,129626,1,0,3:0:0:0:
437,362,129798,1,8,0:0:0:0:
279,220,129971,6,0,B|254:244|247:287|247:287|223:251|179:246,1,150,0|0,0:0|0:0,0:0:0:0:
284,145,130488,2,0,L|278:221,1,75,8|0,0:0|0:0,0:0:0:0:
166,142,130833,2,0,L|161:68,1,75,0|0,0:0|3:0,0:0:0:0:
64,101,131178,1,8,0:0:0:0:
64,101,131350,1,0,0:0:0:0:
232,34,131522,2,0,P|296:12|384:38,1,150,0|8,3:0|0:0,0:0:0:0:
439,106,132040,1,0,0:0:0:0:
301,177,132212,2,0,L|307:91,1,75,0|0,0:0|3:0,0:0:0:0:
418,197,132557,1,8,0:0:0:0:
313,265,132729,1,0,3:0:0:0:
436,184,132902,5,2,0:0:0:0:
75,242,133247,2,0,B|126:246|126:246|171:234|171:234|222:239,1,150,8|0,0:0|0:0,0:0:0:0:
121,347,133764,1,0,3:0:0:0:
121,347,133936,1,8,0:0:0:0:
71,226,134109,2,0,P|66:184|81:142,1,75,0|0,0:0|3:0,0:0:0:0:
140,68,134453,1,0,0:0:0:0:
271,152,134626,2,0,B|233:161|233:161|197:153,1,75,8|0,0:0|0:0,0:0:0:0:
277,41,134971,2,0,B|315:32|315:32|351:40,1,75,0|0,0:0|3:0,0:0:0:0:
457,93,135315,1,8,0:0:0:0:
479,228,135488,6,0,P|407:239|433:191,1,150,0|0,0:0|0:0,0:0:0:0:
490,338,136005,2,0,P|455:347|410:342,1,75,8|0,0:0|0:0,0:0:0:0:
258,265,136350,2,0,P|293:256|338:261,1,75,0|0,0:0|3:0,0:0:0:0:
230,349,136695,1,8,0:0:0:0:
180,214,136867,6,0,L|184:134,1,75,0|2,0:0|0:0,0:0:0:0:
266,171,137212,1,10,0:0:0:0:
100,109,137384,1,2,3:2:0:0:
100,109,137557,1,2,0:0:0:0:
218,70,137729,2,0,B|254:55|303:74,1,75,2|2,3:2|3:2,0:0:0:0:
340,171,138075,2,0,B|304:186|255:167,1,75,10|2,3:2|3:2,0:0:0:0:
440,103,138419,5,4,3:2:0:0:
447,115,138764,2,0,L|444:159,1,44.999998626709,0|0,3:0|0:0,0:0:0:0:
366,200,139109,2,0,L|368:155,1,44.999998626709,0|0,0:0|3:0,0:0:0:0:
436,246,139453,1,0,0:0:0:0:
398,318,139626,2,0,P|351:330|302:315,1,89.9999972534181,0|0,3:0|0:0,0:0:0:0:
245,278,140143,6,0,L|243:234,1,44.999998626709,0|0,3:0|0:0,0:0:0:0:
293,163,140488,1,0,0:0:0:0:
293,163,140660,1,0,3:0:0:0:
330,246,140833,2,0,P|334:267|333:290,1,44.999998626709,0|0,0:0|3:0,0:0:0:0:
275,352,141178,1,2,0:0:0:0:
173,151,141522,6,0,P|172:123|181:93,1,44.999998626709,0|0,3:0|0:0,0:0:0:0:
157,29,141868,2,0,P|184:27|214:37,1,44.999998626709,0|0,0:0|3:0,0:0:0:0:
284,62,142212,1,0,0:0:0:0:
365,93,142384,2,0,L|354:196,1,89.9999972534181,0|0,3:0|0:0,0:0:0:0:
317,260,142902,1,0,3:0:0:0:
408,250,143074,2,0,B|404:273|404:273|408:299|408:299|401:338,1,89.9999972534181,0|0,0:0|3:0,0:0:0:0:
315,354,143591,2,0,L|253:347,1,44.999998626709,2|0,0:0|3:0,0:0:0:0:
155,201,143936,6,0,P|167:238|156:290,1,75,4|0,0:0|0:0,0:0:0:0:
108,359,144281,1,8,0:0:0:0:
61,244,144453,2,0,B|47:206|64:171|64:171|54:139|54:139|63:87,1,150,0|0,0:0|3:0,0:0:0:0:
1,32,144971,1,8,0:0:0:0:
170,21,145144,6,0,L|165:95,1,75,0|0,0:0|0:0,0:0:0:0:
154,181,145488,1,0,0:0:0:0:
77,77,145660,1,8,0:0:0:0:
246,111,145833,1,0,0:0:0:0:
246,111,145919,1,0,0:0:0:0:
246,111,146005,2,0,L|328:115,1,75,0|0,0:0|3:0,0:0:0:0:
461,81,146350,1,8,0:0:0:0:
477,89,146695,6,0,B|472:133|472:133|487:182|487:182|482:239,1,150,0|8,3:0|0:0,0:0:0:0:
368,272,147212,2,0,L|376:198,1,75,0|0,0:0|0:0,0:0:0:0:
397,348,147557,2,0,P|359:351|324:339,1,75,0|8,3:0|0:0,0:0:0:0:
183,268,147902,2,0,P|220:264|255:276,1,75,0|0,0:0|3:0,0:0:0:0:
209,344,148247,1,0,3:0:0:0:
173,197,148419,1,8,0:0:0:0:
270,276,148591,1,0,0:0:0:0:
270,276,148678,1,0,0:0:0:0:
270,276,148764,5,0,3:0:0:0:
112,253,148936,1,0,3:0:0:0:
272,205,149109,2,0,P|323:241|269:275,1,150,8|2,0:0|0:0,0:0:0:0:
195,122,160057,6,0,L|185:204,4,52.4999983978272,0|0|0|0|0,0:0|0:0|0:0|0:0|0:0,0:0:0:0:
243,226,160488,6,0,P|187:252|128:225,1,120,0|0,3:0|3:0,0:0:0:0:
78,179,161006,2,0,L|74:106,1,60,0|0,0:0|3:0,0:0:0:0:
47,49,161350,2,0,P|76:44|106:51,1,60,0|0,0:0|3:0,0:0:0:0:
181,76,161695,1,0,0:0:0:0:
181,76,161868,1,0,3:0:0:0:
298,147,162213,1,0,3:0:0:0:
419,45,162557,6,0,L|421:166,1,120,0|0,3:0|3:0,0:0:0:0:
465,266,163247,6,0,P|362:307|428:168,1,360,0|0,3:0|3:0,0:0:0:0:
393,238,164454,2,0,P|296:275|232:235,1,180,0|0,3:0|3:0,0:0:0:0:
315,102,165316,1,0,3:0:0:0:
393,238,165661,1,0,3:0:0:0:
234,239,166006,6,0,L|148:241,1,75,4|0,3:2|0:0,0:0:0:0:
70,219,166350,1,8,3:0:0:0:
135,163,166523,1,0,0:0:0:0:
77,294,166695,2,0,L|70:213,1,75,0|0,3:0|0:0,0:0:0:0:
141,88,167040,2,0,L|134:162,1,75,8|0,3:0|0:0,0:0:0:0:
72,42,167385,6,0,P|127:11|218:43,1,150,0|8,3:0|3:0,0:0:0:0:
290,95,167902,2,0,L|130:87,1,150,0|0,0:0|0:0,0:0:0:0:
39,119,168419,1,8,3:0:0:0:
147,186,168592,1,0,3:0:0:0:
147,186,168678,1,0,3:0:0:0:
147,186,168764,6,0,P|157:149|141:104,1,75,0|0,3:0|3:0,0:0:0:0:
40,205,169109,1,8,3:0:0:0:
259,185,169282,2,0,L|253:272,1,75,0|0,3:0|3:0,0:0:0:0:
160,336,169626,2,0,L|154:261,1,75,0|8,3:0|3:0,0:0:0:0:
350,290,169971,1,0,3:0:0:0:
248,334,170144,6,0,L|253:259,1,75,0|0,3:0|3:0,0:0:0:0:
421,150,170488,2,0,L|469:141,3,37.5,0|0|0|0,3:0|3:0|3:0|3:0,0:0:0:0:
381,136,170833,2,0,L|429:127,3,37.5,0|0|0|0,3:0|3:0|3:0|3:0,0:0:0:0:
357,129,171177,1,0,3:0:0:0:
341,125,171264,1,0,3:0:0:0:
324,121,171350,1,0,3:0:0:0:
304,115,171437,1,0,3:0:0:0:
33,47,173247,6,0,L|187:53,1,134.999995880127,2|0,0:0|0:0,0:0:0:0:
211,144,173592,2,0,L|135:141,1,67.4999979400635,2|0,0:0|0:0,0:0:0:0:
274,84,173937,2,0,P|300:136|274:209,1,134.999995880127,2|0,0:0|0:0,0:0:0:0:
211,144,174282,1,2,3:2:0:0:
374,207,174454,1,0,3:2:0:0:
270,340,174626,6,0,L|278:177,1,134.999995880127,2|0,0:2|0:0,0:0:0:0:
375,139,174971,2,0,L|373:212,1,67.4999979400635,2|0,3:2|0:0,0:0:0:0:
311,78,175316,2,0,P|369:57|436:78,1,134.999995880127,0|0,3:0|0:0,0:0:0:0:
401,273,175661,6,0,P|344:284|394:215,1,179.999994506836,4|8,0:0|0:0,0:0:0:0:
282,339,176178,2,0,P|255:303|245:259,1,89.9999972534181,0|0,0:0|0:0,0:0:0:0:
422,275,176523,1,0,3:0:0:0:
178,287,176695,6,0,P|166:230|235:280,1,179.999994506836,8|0,0:0|3:0,0:0:0:0:
93,311,177212,2,0,P|78:269|82:224,1,89.9999972534181,0|8,0:0|0:0,0:0:0:0:
253,282,177557,1,0,0:0:0:0:
70,218,177730,6,0,L|72:84,1,134.999995880127,0|0,0:0|0:0,0:0:0:0:
119,25,178075,2,0,L|118:160,1,134.999995880127,8|0,0:0|0:0,0:0:0:0:
291,158,178419,6,0,B|236:169|236:169|176:147|176:147|110:161,1,179.999994506836,0|8,3:0|0:0,0:0:0:0:
268,72,178937,2,0,L|360:58,1,89.9999972534181,0|0,0:0|0:0,0:0:0:0:
204,24,179282,1,0,3:0:0:0:
442,68,179454,6,0,B|431:123|431:123|453:183|453:183|439:249,1,179.999994506836,8|0,0:0|3:0,0:0:0:0:
344,323,179972,2,0,L|330:234,1,89.9999972534181,0|8,0:0|0:0,0:0:0:0:
425,317,180316,1,0,0:0:0:0:
229,342,180488,2,0,P|186:281|269:288,1,179.999994506836,0|8,0:0|0:0,0:0:0:0:
344,323,181006,1,0,3:0:0:0:
229,342,181178,6,0,L|131:333,1,89.9999972534181,2|0,3:2|0:0,0:0:0:0:
19,234,181523,2,0,L|108:242,1,89.9999972534181,8|0,0:0|0:0,0:0:0:0:
167,184,181868,1,0,0:0:0:0:
11,321,182041,2,0,P|6:271|19:233,1,89.9999972534181,0|8,3:0|0:0,0:0:0:0:
167,184,182385,6,0,B|206:168|240:184|240:184|272:170|272:170|311:192|357:174,1,179.999994506836,0|0,0:0|0:0,0:0:0:0:
456,162,182902,1,8,0:0:0:0:
311,99,183075,2,0,P|342:89|399:104,1,89.9999972534181,0|0,0:0|0:0,0:0:0:0:
360,191,183420,1,0,3:0:0:0:
360,191,183592,5,8,0:0:0:0:
63,35,183937,5,0,3:0:0:0:
74,49,184282,2,0,L|163:56,1,89.9999972534181,8|0,0:0|0:0,0:0:0:0:
240,15,184626,1,0,0:0:0:0:
257,114,184799,2,0,P|265:151|249:203,1,89.9999972534181,0|8,3:0|0:0,0:0:0:0:
161,239,185144,2,0,P|153:202|168:149,1,89.9999972534181,0|0,0:0|3:0,0:0:0:0:
196,320,185489,2,0,P|159:325|108:304,1,89.9999972534181,0|0,3:0|3:0,0:0:0:0:
251,200,185833,1,0,3:0:0:0:
355,325,186006,5,0,3:0:0:0:
363,342,186350,5,0,3:0:0:0:
352,358,186695,5,2,0:0:0:0:
345,162,187040,6,0,P|374:139|410:130,1,67.4999979400635,4|0,0:0|0:0,0:0:0:0:
485,100,187385,6,0,P|490:136|480:172,1,67.4999979400635,4|0,0:0|0:0,0:0:0:0:
468,253,187730,6,0,P|435:239|409:212,1,67.4999979400635,4|0,0:0|0:0,0:0:0:0:
484,31,188419,6,0,L|482:172,1,134.999995880127,12|0,0:0|0:0,0:0:0:0:
340,74,188764,1,0,0:0:0:0:
476,40,188937,1,0,3:0:0:0:
476,40,189023,1,0,0:0:0:0:
476,40,189109,1,8,0:0:0:0:
315,91,189282,6,0,P|270:106|212:84,1,104.999996795654,0|2,3:0|0:0,0:0:0:0:
266,22,189626,1,0,0:0:0:0:
356,156,189799,2,0,L|349:261,1,104.999996795654,8|0,0:0|0:0,0:0:0:0:
256,311,190144,2,0,L|249:206,1,104.999996795654,0|0,0:0|3:0,0:0:0:0:
428,275,190488,2,0,P|452:344|392:330,1,157.499995193482,8|0,0:0|0:0,0:0:0:0:
371,330,190833,6,0,P|312:316|258:335,1,104.999996795654,0|0,3:0|0:0,0:0:0:0:
193,365,191178,1,8,0:0:0:0:
149,220,191350,2,0,L|153:115,1,104.999996795654,0|0,0:0|0:0,0:0:0:0:
234,64,191695,1,0,3:0:0:0:
234,64,191868,1,8,0:0:0:0:
83,289,192213,6,0,B|58:260|45:237|45:237|56:83,1,209.999993591309,4|8,3:2|0:0,0:0:0:0:
238,207,192730,2,0,P|181:220|123:195,1,104.999996795654,0|0,0:0|0:0,0:0:0:0:
259,90,193075,2,0,P|316:77|374:102,1,104.999996795654,0|8,3:0|0:0,0:0:0:0:
256,307,193419,6,0,B|241:270|241:270|247:236|247:236|236:202,1,104.999996795654,0|0,0:0|3:2,0:0:0:0:
408,145,193764,2,0,B|398:174|398:174|404:208|404:208|389:245,1,104.999996795654,0|8,0:0|0:0,0:0:0:0:
309,166,194109,1,0,0:0:0:0:
309,166,194282,1,0,0:0:0:0:
440,312,194454,6,0,P|386:326|329:308,1,104.999996795654,0|8,3:0|0:0,0:0:0:0:
137,206,194799,6,0,L|241:209,1,104.999996795654,0|4,0:0|3:2,0:0:0:0:
151,309,195144,2,0,L|46:305,1,104.999996795654,0|8,0:0|0:0,0:0:0:0:
249,111,195488,2,0,P|260:162|231:219,1,104.999996795654,0|0,0:0|0:0,0:0:0:0:
78,132,195833,2,0,P|66:80|95:23,1,104.999996795654,0|8,3:0|0:0,0:0:0:0:
166,92,196178,1,0,3:0:0:0:
166,92,196350,5,8,3:2:0:0:
135,198,196523,1,0,3:2:0:0:
249,111,196695,5,8,3:2:0:0:
48,243,196868,2,0,L|47:122,1,104.999996795654,0|8,3:2|3:2,0:0:0:0:
292,262,197213,2,0,P|212:290|239:210,1,209.999993591309,0|0,3:2|3:2,0:0:0:0:
474,172,197730,6,0,B|497:209|468:255|468:255|493:291|493:291|468:332|495:377,1,209.999993591309,12|8,0:2|0:2,0:0:0:0:
353,124,198419,5,0,3:2:0:0:
353,124,198592,1,0,3:2:0:0:
271,105,198764,1,8,0:2:0:0:
424,74,198937,2,0,P|502:106|428:148,1,209.999993591309,0|0,0:0|0:0,0:0:0:0:
333,33,199454,1,8,0:2:0:0:
262,137,199626,1,0,0:0:0:0:
262,137,199713,1,0,0:0:0:0:
262,137,199799,2,0,P|194:165|115:124,1,157.499995193482,0|0,3:2|0:0,0:0:0:0:
48,75,200144,2,0,P|116:47|195:88,1,157.499995193482,8|0,0:2|0:0,0:0:0:0:
67,291,200488,6,0,P|2:229|87:215,1,209.999993591309,0|8,3:2|0:2,0:0:0:0:
282,252,201178,6,0,L|269:357,1,104.999996795654,0|0,3:2|3:2,0:0:0:0:
183,281,201523,1,8,0:2:0:0:
343,191,201695,6,0,B|381:223|378:294|378:294|392:224|449:206,1,225,0|8,0:0|0:2,0:0:0:0:
238,164,202385,2,0,P|241:51|364:138,1,314.999990386963,0|8,0:0|0:2,0:0:0:0:
295,112,203075,1,0,0:0:0:0:
295,112,203161,1,0,0:0:0:0:
295,112,203247,6,0,L|171:108,1,104.999996795654,4|0,3:2|0:0,0:0:0:0:
108,47,203592,1,8,0:2:0:0:
79,318,203937,5,0,3:2:0:0:
151,193,204109,1,0,3:2:0:0:
151,193,204195,1,0,0:0:0:0:
151,193,204282,1,8,0:2:0:0:
250,278,204454,2,0,L|145:281,1,104.999996795654,0|0,0:0|3:2,0:0:0:0:
336,220,204799,1,0,0:0:0:0:
253,380,204971,2,0,B|257:342|257:342|246:316|246:316|249:275,1,104.999996795654,8|0,0:2|0:0,0:0:0:0:
287,163,205316,6,0,P|385:161|409:213,1,157.499995193482,0|0,3:2|0:0,0:0:0:0:
457,260,205661,2,0,P|359:262|335:210,1,157.499995193482,8|0,0:2|0:0,0:0:0:0:
408,203,206006,6,0,L|403:338,1,120,0|8,3:2|0:2,0:0:0:0:
286,162,206523,2,0,L|291:43,1,120,0|0,0:0|3:2,0:0:0:0:
429,107,207040,5,8,0:2:0:0:
185,183,207385,6,0,P|120:143|195:115,1,180,4|0,0:2|0:0,0:0:0:0:
418,140,208075,5,2,3:2:0:0:
287,164,208247,1,2,3:2:0:0:
361,73,208419,5,2,3:2:0:0:
353,222,208592,2,0,L|347:278,1,44.999998626709,2|0,3:2|0:0,0:0:0:0:
175,121,209282,6,0,B|98:85|10:154|19:251|83:325|210:327|228:200|228:200|144:200,1,521.711642462637,4|0,0:2|0:0,0:0:0:0:
