osu file format v14

[General]
AudioFilename: audio.mp3
AudioLeadIn: 0
PreviewTime: 56029
Countdown: 0
SampleSet: Soft
StackLeniency: 0.7
Mode: 0
LetterboxInBreaks: 0
WidescreenStoryboard: 0

[Editor]
Bookmarks: 40020
DistanceSpacing: 1.3
BeatDivisor: 4
GridSize: 16
TimelineZoom: 1

[Metadata]
Title:Summer Rain
TitleUnicode:여름비
Artist:GFRIEND
ArtistUnicode:여자친구
Creator:Hokichi
Version:Rainbow
Source:
Tags:yeo ja chin gu
BeatmapID:1777860
BeatmapSetID:850346

[Difficulty]
HPDrainRate:6
CircleSize:4
OverallDifficulty:6.5
ApproachRate:8
SliderMultiplier:1.6
SliderTickRate:1

[Events]
//Background and Video events
0,0,"bg.png",0,0
//Break Periods
//Storyboard Layer 0 (Background)
//Storyboard Layer 1 (Fail)
//Storyboard Layer 2 (Pass)
//Storyboard Layer 3 (Foreground)
//Storyboard Sound Samples

[TimingPoints]
809,659.340659340659,4,2,0,30,1,0
12328,576.923076923077,4,2,0,30,1,0
12328,-125,4,2,0,30,0,0
21558,-100,4,2,0,30,0,0
58481,566.037735849057,4,2,0,30,1,1
76594,-100,4,2,0,30,0,0
85650,576.923076923077,4,2,0,30,1,0
122573,566.037735849057,4,2,0,30,1,0
149742,576.923076923077,4,2,0,30,1,0
168203,566.037735849057,4,2,0,30,1,0

[HitObjects]
264,168,12328,6,0,P|216:144|128:184,1,128
346,197,13385,1,0,0:0:0:0:
346,197,13481,2,0,P|351:166|345:135,1,64
214,45,14058,2,0,L|203:137,1,64
173,322,14635,6,0,B|193:273|193:273|166:191,1,128
64,86,15693,1,0,0:0:0:0:
64,86,15789,2,0,P|94:102|131:105,1,64
259,36,16366,2,0,P|289:20|326:17,1,64
307,235,16943,6,0,L|311:102,1,128
189,217,18001,1,0,0:0:0:0:
189,217,18097,2,0,L|192:285,1,64
310,172,18674,2,0,L|307:240,1,64
289,65,19251,5,0,0:0:0:0:
401,106,19539,2,0,L|356:106,1,32
289,65,19828,5,0,0:0:0:0:
366,157,20116,2,0,L|327:134,1,32
289,65,20405,5,0,0:0:0:0:
310,184,20693,2,0,L|287:145,1,32
289,65,20981,6,0,P|243:64|232:66,1,32
149,163,21270,2,0,P|195:164|206:162,1,32
92,102,21558,6,0,P|64:162|77:204,1,80
101,283,22135,1,0,0:0:0:0:
232,301,22424,1,0,0:0:0:0:
232,301,22568,1,0,0:0:0:0:
232,301,22712,2,0,L|241:247,1,40
331,189,23001,2,0,L|322:135,1,40
216,71,23289,2,0,P|290:82|307:77,1,80
134,31,23866,6,0,B|122:75|122:75|134:139,1,80
176,229,24443,1,0,0:0:0:0:
254,143,24731,1,0,0:0:0:0:
254,143,24876,1,0,0:0:0:0:
254,143,25020,2,0,P|296:136|316:143,1,40
387,98,25308,2,0,P|386:117|379:136,1,40
286,213,25597,2,0,P|282:173|292:135,1,80
459,135,26174,6,0,L|348:137,1,80
262,77,26751,1,0,0:0:0:0:
109,169,27039,1,0,0:0:0:0:
109,169,27183,1,0,0:0:0:0:
109,169,27328,2,0,L|98:218,1,40
225,151,27616,2,0,L|214:102,1,40
184,229,27904,2,0,P|237:239|292:213,1,80
451,150,28481,6,0,L|349:166,1,80
212,117,29058,2,0,L|119:109,1,80
229,240,29635,2,0,P|271:250|343:241,1,80
378,201,30068,2,0,P|386:175|385:155,1,40
331,37,30356,2,0,P|319:83|333:142,1,80
378,201,30789,6,0,P|328:189|280:202,1,80
196,316,31366,1,0,0:0:0:0:
82,214,31654,1,0,0:0:0:0:
82,214,31799,1,0,0:0:0:0:
82,214,31943,2,0,P|69:171|81:123,1,80
279,107,32520,2,0,P|292:150|280:198,1,80
139,296,33097,5,0,0:0:0:0:
153,156,33385,1,0,0:0:0:0:
253,236,33674,1,0,0:0:0:0:
139,173,33962,1,0,0:0:0:0:
251,108,34251,2,0,P|301:95|355:96,1,80
448,162,34828,1,0,0:0:0:0:
384,253,35116,1,0,0:0:0:0:
251,191,35404,6,0,L|256:103,1,80
134,41,35981,1,0,0:0:0:0:
139,193,36270,2,0,L|137:248,1,40
136,317,36558,2,0,P|185:304|234:309,1,80
295,341,36991,2,0,P|335:346|369:342,1,40
414,320,37279,2,0,P|432:265|427:215,1,80
374,159,37712,6,0,L|371:123,3,26.6666666666667
254,262,38289,1,0,0:0:0:0:
122,184,38578,2,0,L|118:124,1,40
151,46,38866,1,0,0:0:0:0:
189,34,39010,1,0,0:0:0:0:
229,31,39154,1,0,0:0:0:0:
268,36,39298,1,0,0:0:0:0:
306,49,39443,2,0,L|317:-1,2,40
248,182,40020,6,0,L|256:295,1,80
129,214,40597,2,0,P|117:174|131:127,1,80
268,51,41174,1,0,0:0:0:0:
325,197,41462,1,0,0:0:0:0:
421,82,41751,1,0,0:0:0:0:
343,113,42040,1,0,0:0:0:0:
378,271,42328,6,0,L|278:275,1,80
216,190,42760,2,0,L|222:143,1,40
151,300,43193,2,0,L|157:347,2,40
87,122,43770,1,0,0:0:0:0:
63,262,44058,1,0,0:0:0:0:
184,168,44347,1,0,0:0:0:0:
241,287,44635,6,0,P|292:303|336:295,1,80
293,139,45212,2,0,L|292:241,1,80
343,68,45789,2,0,P|292:52|248:60,1,80
168,122,46222,2,0,L|170:178,1,40
121,248,46510,2,0,P|188:243|219:260,1,80
262,339,46943,6,0,L|315:344,1,40
434,292,47231,2,0,L|381:297,1,40
279,223,47520,2,0,L|332:228,1,40
451,176,47808,2,0,L|398:181,1,40
287,86,48097,5,0,0:0:0:0:
287,86,48241,1,0,0:0:0:0:
287,86,48385,2,0,L|282:31,1,40
355,157,48674,2,0,L|405:180,1,40
254,178,48962,2,0,L|208:209,1,40
59,234,49251,6,0,L|153:232,1,80
217,278,49683,1,0,0:0:0:0:
217,278,49828,2,0,P|226:219|205:175,1,80
155,118,50260,1,0,0:0:0:0:
145,132,50404,2,0,L|243:125,1,80
389,68,50981,1,0,0:0:0:0:
307,225,51270,2,0,L|299:297,1,40
274,358,51558,6,0,L|261:266,1,80
234,118,52135,1,0,0:0:0:0:
110,246,52424,2,0,L|103:194,1,40
95,119,52712,1,0,0:0:0:0:
285,258,53001,1,0,0:0:0:0:
159,317,53289,1,0,0:0:0:0:
234,184,53578,2,0,P|223:226|223:251,1,40
241,335,53866,5,0,0:0:0:0:
359,229,54154,1,0,0:0:0:0:
223,222,54443,2,0,L|130:221,1,80
61,161,54876,1,0,0:0:0:0:
61,161,55020,2,0,P|43:103|62:57,1,80
204,101,55597,1,0,0:0:0:0:
143,266,55885,1,0,0:0:0:0:
119,52,56174,5,0,0:0:0:0:
121,91,56751,1,0,0:0:0:0:
124,131,57328,1,0,0:0:0:0:
187,218,57616,2,0,L|248:218,1,40
326,158,57904,2,0,L|368:159,5,26.6666666666667
278,91,58481,6,0,P|212:85|175:106,1,80
