osu file format v14

[General]
AudioFilename: audio.mp3
AudioLeadIn: 0
PreviewTime: 194383
Countdown: 0
SampleSet: Soft
StackLeniency: 0.4
Mode: 0
LetterboxInBreaks: 0
WidescreenStoryboard: 1

[Editor]
DistanceSpacing: 2.3
BeatDivisor: 4
GridSize: 8
TimelineZoom: 1

[Metadata]
Title:MEMORIA
TitleUnicode:MEMORIA
Artist:GFRIEND
ArtistUnicode:ジーフレンド
Creator:Hokichi
Version:Memories
Source:
Tags:여자친구 yeojachingu yeo ja chin gu yeochin sowon yerin eunha yuju sinbi sinb umji 소원 예린 은하 유주 신비 엄지 메모리아 girlfriend g-friend korean kpop source music bighit ibighit soumu
BeatmapID:1779438
BeatmapSetID:848112

[Difficulty]
HPDrainRate:6
CircleSize:4
OverallDifficulty:7
ApproachRate:8
SliderMultiplier:1.6
SliderTickRate:1

[Events]
//Background and Video events
0,0,"bg.png",0,0
//Break Periods
2,160661,173487
//Storyboard Layer 0 (Background)
//Storyboard Layer 1 (Fail)
//Storyboard Layer 2 (Pass)
//Storyboard Layer 3 (Foreground)
//Storyboard Layer 4 (Overlay)
//Storyboard Sound Samples

[TimingPoints]
1245,437.956204379562,4,2,1,50,1,0
1245,-200,4,2,1,50,0,0
11317,-133.333333333333,4,2,1,50,0,0
11755,-100,4,2,1,50,0,0
15259,-142.857142857143,4,2,1,50,0,0
29164,-142.857142857143,4,2,1,5,0,0
29274,-142.857142857143,4,2,1,50,0,0
43288,-125,4,2,1,50,0,0
55551,-142.857142857143,4,2,1,50,0,0
57084,-142.857142857143,4,2,1,5,0,0
57303,-142.857142857143,4,2,1,50,0,0
57741,-117.647058823529,4,2,1,50,0,0
59055,-100,4,2,1,60,0,1
86974,-100,4,2,1,60,0,0
87084,-100,4,2,1,60,0,1
89164,-100,4,2,1,5,0,1
89274,-100,4,2,1,60,0,1
89602,-100,4,2,1,5,0,1
89712,-100,4,2,1,60,0,1
96172,-100,4,2,1,5,0,1
96281,-100,4,2,1,60,0,1
96609,-100,4,2,1,5,0,1
96719,-100,4,2,1,60,0,1
101099,-125,4,2,1,50,0,0
115113,-111.111111111111,4,2,1,50,0,0
129566,-142.857142857143,4,2,1,50,0,0
130880,-100,4,2,1,60,0,1
160661,-100,4,2,1,5,0,0
174237,-100,4,2,1,50,0,0
174675,-125,4,2,1,50,0,0
181682,-111.111111111111,4,2,1,50,0,0
195697,-100,4,2,1,50,0,1
223617,-100,4,2,1,50,0,0
223726,-100,4,2,1,50,0,1
237741,-100,4,2,1,50,0,0

[Colours]
Combo1 : 176,153,145
Combo2 : 255,213,115
Combo3 : 217,179,179
Combo4 : 91,173,255
Combo5 : 53,53,140
Combo6 : 77,74,104
SliderBorder : 252,207,250
SliderTrackOverride : 78,35,85

[HitObjects]
74,89,1026,5,0,0:0:0:0:
143,159,1245,2,0,P|207:137|237:135,1,80,2|0,0:0|0:0,0:0:0:0:
298,195,1901,1,0,0:0:0:0:
298,195,2120,2,0,P|362:217|392:219,1,80
455,258,2777,1,0,0:0:0:0:
469,172,2996,6,0,L|459:88,1,80,2|0,0:0|0:0,0:0:0:0:
386,36,3653,1,0,0:0:0:0:
312,108,3872,2,0,P|275:124|259:127,1,40,2|0,0:0|0:0,0:0:0:0:
231,205,4310,2,0,P|194:189|178:186,1,40,2|0,0:0|0:0,0:0:0:0:
82,242,4748,6,0,B|86:195|86:195|72:157,1,80,2|0,0:0|0:0,0:0:0:0:
157,120,5405,2,0,P|200:121|243:99,1,80,2|0,0:0|0:0,0:0:0:0:
259,20,6062,1,2,0:0:0:0:
184,43,6281,1,0,0:0:0:0:
242,189,6500,6,0,L|326:175,1,80,2|0,0:0|0:0,0:0:0:0:
386,97,7157,2,0,L|470:111,1,80,2|0,0:0|0:0,0:0:0:0:
479,200,7814,1,2,0:0:0:0:
450,278,8033,1,0,0:0:0:0:
382,176,8252,6,0,P|380:136|387:90,1,80,2|0,0:0|0:0,0:0:0:0:
309,36,8909,1,0,0:0:0:0:
309,36,9128,2,0,B|268:49|268:49|213:40,1,80
141,75,9785,1,0,0:0:0:0:
217,152,10004,6,0,P|228:195|216:236,1,80,2|0,0:0|0:0,0:0:0:0:
138,284,10661,1,0,0:0:0:0:
109,190,10880,2,0,P|103:164|108:140,1,40
166,86,11208,1,0,0:0:0:0:
166,86,11317,6,0,L|230:80,1,60.0000022888184
246,116,11645,1,0,0:0:0:0:
246,116,11755,6,0,P|281:129|326:119,1,80,4|0,0:0|0:0,0:0:0:0:
396,61,12084,1,0,0:0:0:0:
396,61,12193,2,0,L|477:66,1,80,8|0,0:0|0:0,0:0:0:0:
497,160,12522,1,0,3:2:0:0:
497,160,12631,1,0,3:2:0:0:
366,200,12850,1,0,0:0:0:0:
396,61,13069,2,0,L|497:51,1,80,8|0,0:0|0:0,0:0:0:0:
446,220,13507,6,0,P|387:227|359:216,1,80,4|0,0:0|0:0,0:0:0:0:
295,174,13836,1,0,0:0:0:0:
295,174,13945,2,0,P|256:165|217:174,1,80,12|0,0:0|0:0,0:0:0:0:
157,242,14274,1,0,0:0:0:0:
157,242,14383,2,0,L|67:235,1,80,4|0,0:0|0:0,0:0:0:0:
131,100,14821,1,12,0:0:0:0:
159,89,14931,1,8,0:0:0:0:
188,86,15040,1,8,0:0:0:0:
218,89,15150,1,8,0:0:0:0:
246,100,15259,5,4,0:0:0:0:
234,197,15478,1,0,0:0:0:0:
222,294,15697,1,8,0:1:0:0:
323,165,15916,1,0,0:0:0:0:
323,165,16026,1,0,0:0:0:0:
323,165,16135,2,0,P|366:166|395:157,1,55.9999982910157
377,58,16573,2,0,P|334:57|305:66,1,55.9999982910157,8|0,0:1|0:0,0:0:0:0:
231,117,17011,5,0,0:0:0:0:
323,165,17230,1,0,0:0:0:0:
321,59,17449,1,8,0:1:0:0:
235,220,17668,2,0,L|164:206,1,55.9999982910157
79,130,18106,1,0,0:0:0:0:
169,119,18325,1,8,0:1:0:0:
92,225,18544,2,0,P|87:251|89:273,1,27.9999991455078
148,317,18763,5,0,0:0:0:0:
244,297,18982,1,0,0:0:0:0:
340,277,19201,1,8,0:1:0:0:
148,317,19420,1,0,0:0:0:0:
148,317,19529,1,0,0:0:0:0:
148,317,19639,2,0,P|141:277|141:248,1,55.9999982910157
223,202,20077,2,0,P|230:162|230:133,1,55.9999982910157,8|0,0:1|0:0,0:0:0:0:
155,49,20515,6,0,B|108:38|108:38|23:66,1,111.999996582031,0|8,0:0|0:1,0:0:0:0:
118,155,21172,2,0,L|254:144,1,111.999996582031
314,77,21828,1,8,0:1:0:0:
314,77,22266,6,0,P|276:63|197:70,1,111.999996582031,0|8,0:0|0:1,0:0:0:0:
129,131,22923,1,0,0:0:0:0:
46,78,23142,2,0,L|41:13,2,55.9999982910157,0|0|8,0:0|0:0|0:1,0:0:0:0:
52,188,23799,1,0,0:0:0:0:
193,171,24018,6,0,P|250:157|310:173,1,111.999996582031,0|8,0:0|0:1,0:0:0:0:
302,265,24675,2,0,P|245:279|185:263,1,111.999996582031,0|0,0:0|0:1,0:0:0:0:
121,216,25332,2,0,L|119:148,1,55.9999982910157,8|0,0:1|0:0,0:0:0:0:
197,70,25770,6,0,P|242:52|311:53,1,111.999996582031,0|8,0:0|0:1,0:0:0:0:
365,118,26427,1,0,0:0:0:0:
411,194,26646,2,0,L|471:187,2,55.9999982910157,0|0|8,0:0|0:0|0:1,0:0:0:0:
311,263,27303,1,0,0:0:0:0:
151,212,27522,6,0,B|137:168|137:168|166:83,1,111.999996582031,0|8,0:0|0:1,0:0:0:0:
233,29,28179,1,0,0:0:0:0:
307,106,28398,2,0,P|352:118|379:110,1,55.9999982910157
433,69,28836,2,0,P|446:124|429:171,1,83.9999974365235,8|0,0:1|0:0,0:0:0:0:
389,212,29274,5,0,0:0:0:0:
360,116,29493,1,0,0:0:0:0:
263,93,29712,1,8,0:1:0:0:
389,212,29931,1,0,0:0:0:0:
320,284,30150,2,0,P|281:290|254:279,1,55.9999982910157
200,220,30588,2,0,P|172:214|145:221,1,55.9999982910157,8|0,0:1|0:0,0:0:0:0:
39,287,31026,6,0,B|21:243|21:243|32:171,1,111.999996582031,0|8,0:0|0:1,0:0:0:0:
57,90,31682,1,0,0:0:0:0:
57,90,31901,2,0,P|82:101|102:120,1,55.9999982910157
215,136,32339,2,0,P|237:119|264:112,1,55.9999982910157,8|0,0:1|0:0,0:0:0:0:
350,212,32777,5,0,0:0:0:0:
336,109,32996,1,0,0:0:0:0:
267,187,33215,1,8,0:1:0:0:
174,86,33434,1,0,0:0:0:0:
174,86,33544,1,0,0:0:0:0:
174,86,33653,2,0,L|117:82,1,55.9999982910157
66,182,34091,2,0,L|123:178,1,55.9999982910157,8|0,0:1|0:0,0:0:0:0:
254,238,34529,6,0,P|299:240|354:199,1,111.999996582031,0|8,0:0|0:1,0:0:0:0:
289,97,35186,2,0,B|270:77|270:77|282:159,1,111.999996582031
351,202,35843,2,0,L|429:191,1,55.9999982910157,8|0,0:1|0:0,0:0:0:0:
377,305,36281,6,0,P|328:322|263:300,1,111.999996582031,0|8,0:0|0:1,0:0:0:0:
198,230,36938,1,0,0:0:0:0:
198,230,37157,2,0,L|203:168,2,55.9999982910157,0|0|8,0:0|0:0|0:1,0:0:0:0:
114,295,37814,1,0,0:0:0:0:
45,217,38033,6,0,P|39:181|54:95,1,111.999996582031,0|8,0:0|0:1,0:0:0:0:
126,64,38690,2,0,P|112:44|80:24,2,55.9999982910157
181,148,39347,2,0,L|239:142,1,55.9999982910157,8|0,0:1|0:0,0:0:0:0:
334,78,39785,6,0,P|366:73|437:127,1,111.999996582031,0|8,0:0|0:1,0:0:0:0:
483,196,40442,1,0,0:0:0:0:
402,246,40661,2,0,B|367:215|367:215|363:147,1,111.999996582031,0|8,0:0|0:1,0:0:0:0:
268,117,41317,1,0,0:0:0:0:
300,258,41536,5,4,0:0:0:0:
121,29,41974,1,4,0:0:0:0:
135,303,42412,1,4,0:0:0:0:
265,70,42850,1,12,0:0:0:0:
285,67,42960,1,8,0:1:0:0:
306,65,43069,1,8,0:1:0:0:
327,63,43179,1,8,0:1:0:0:
348,61,43288,5,4,0:0:0:0:
439,151,43507,1,0,0:0:0:0:
315,184,43726,1,8,0:0:0:0:
286,199,43836,2,0,L|206:208,1,64
166,260,44164,2,0,L|86:251,1,64
54,106,44602,1,8,0:0:0:0:
54,106,45040,5,0,0:0:0:0:
157,156,45259,1,0,0:0:0:0:
252,92,45478,1,8,0:0:0:0:
272,83,45588,2,0,P|308:75|355:80,1,64
386,134,45916,2,0,L|375:215,1,64
314,294,46354,1,8,0:0:0:0:
314,294,46792,5,0,0:0:0:0:
237,189,47011,1,0,0:0:0:0:
127,265,47230,1,8,0:0:0:0:
109,256,47339,2,0,P|93:208|100:180,1,64
159,104,47668,1,0,0:0:0:0:
169,208,47887,1,0,0:0:0:0:
68,131,48106,1,8,0:0:0:0:
116,279,48325,1,0,0:0:0:0:
262,211,48544,6,0,P|312:197|382:199,1,96
435,215,48982,2,0,L|504:207,1,64,8|0,0:0|0:0,0:0:0:0:
409,65,49420,1,0,0:0:0:0:
409,65,49529,2,0,P|369:72|323:73,1,64,8|0,0:0|0:0,0:0:0:0:
263,23,49858,1,8,0:0:0:0:
173,128,50077,1,8,0:0:0:0:
169,143,50186,1,8,0:0:0:0:
166,159,50296,6,0,L|252:146,1,64,4|0,0:0|0:0,0:0:0:0:
272,230,50734,1,8,0:0:0:0:
386,167,50953,2,0,L|300:154,1,64,4|0,0:0|0:0,0:0:0:0:
229,149,51390,1,0,0:0:0:0:
151,266,51609,2,0,L|64:261,1,64,8|0,0:0|0:0,0:0:0:0:
229,149,52047,6,0,P|273:139|299:142,1,64,4|0,0:0|0:0,0:0:0:0:
364,210,52485,1,8,0:0:0:0:
389,52,52704,2,0,L|378:135,1,64,4|0,0:0|0:0,0:0:0:0:
441,181,53142,1,0,0:0:0:0:
317,164,53361,1,8,0:0:0:0:
333,257,53580,1,0,0:0:0:0:
215,180,53799,6,0,P|179:196|132:189,1,64,4|0,0:0|0:0,0:0:0:0:
247,103,54237,2,0,P|277:124|296:169,1,64,8|0,0:0|0:0,0:0:0:0:
164,113,54675,2,0,P|167:74|229:20,1,96
283,33,55113,2,0,L|374:24,1,64,8|0,0:0|0:0,0:0:0:0:
237,186,55551,6,0,B|194:198|194:198|143:185,2,83.9999974365235,2|2|2,0:0|0:0|0:0,0:0:0:0:
328,120,56427,2,0,P|371:127|312:148,1,167.999994873047,2|0,0:0|0:0,0:0:0:0:
243,115,57303,5,0,0:0:0:0:
229,111,57412,1,0,0:0:0:0:
215,109,57522,1,0,0:0:0:0:
201,108,57631,1,0,0:0:0:0:
187,108,57741,5,0,0:0:0:0:
162,115,57850,1,0,0:0:0:0:
137,115,57960,1,0,0:0:0:0:
112,107,58069,1,0,0:0:0:0:
91,94,58179,5,0,0:0:0:0:
120,78,58288,1,0,0:0:0:0:
153,80,58398,1,0,0:0:0:0:
180,100,58507,1,0,0:0:0:0:
192,132,58617,5,8,0:0:0:0:
99,240,58836,1,2,0:0:0:0:
314,189,59055,6,0,P|373:186|435:198,1,120,6|0,3:2|0:0,0:0:0:0:
450,298,59493,1,8,3:2:0:0:
277,322,59712,1,0,0:0:0:0:
165,193,59931,2,0,P|157:126|175:92,1,80,0|0,3:2|0:0,0:0:0:0:
281,212,60369,1,8,3:2:0:0:
165,193,60588,1,0,0:0:0:0:
301,89,60807,6,0,P|381:78|420:108,1,120,2|0,3:2|0:0,0:0:0:0:
443,192,61244,1,8,3:2:0:0:
289,231,61463,1,0,3:2:0:0:
289,231,61573,1,0,3:2:0:0:
289,231,61682,2,0,P|231:227|177:227,1,80,0|0,3:2|0:0,0:0:0:0:
120,138,62120,1,8,3:2:0:0:
108,233,62339,1,0,0:0:0:0:
231,123,62558,6,0,B|268:106|268:106|351:135,1,120,2|0,3:2|0:0,0:0:0:0:
387,223,62996,1,8,3:2:0:0:
231,123,63215,1,0,0:0:0:0:
255,267,63434,2,0,B|210:274|210:274|155:262,1,80,0|0,3:2|0:0,0:0:0:0:
92,133,63872,1,8,3:2:0:0:
81,248,64091,1,0,0:0:0:0:
207,166,64310,6,0,P|256:153|312:158,1,80,0|0,3:2|0:0,0:0:0:0:
367,217,64639,1,0,0:0:0:0:
367,217,64748,2,0,L|446:217,1,80,8|0,3:2|0:0,0:0:0:0:
510,280,65077,1,0,0:0:0:0:
510,280,65186,1,0,3:2:0:0:
427,346,65405,1,2,0:0:0:0:
367,217,65624,1,10,3:2:0:0:
46,136,66062,6,0,P|117:118|143:121,1,80,4|0,3:2|0:0,0:0:0:0:
210,215,66500,2,0,P|268:217|310:208,1,80,8|0,3:2|0:0,0:0:0:0:
345,129,66828,1,0,0:0:0:0:
345,129,66938,2,0,L|330:38,1,80,0|0,3:2|0:0,0:0:0:0:
222,114,67376,1,8,3:2:0:0:
266,277,67595,1,0,0:0:0:0:
345,129,67814,6,0,P|417:119|471:135,1,120,2|0,3:2|0:0,0:0:0:0:
410,217,68252,2,0,L|301:207,1,80,10|0,3:2|0:0,0:0:0:0:
190,93,68690,2,0,L|299:83,1,80,2|0,3:2|0:0,0:0:0:0:
371,215,69128,1,8,3:2:0:0:
202,255,69347,1,0,0:0:0:0:
57,217,69566,6,0,P|33:169|38:131,1,80,2|0,3:2|0:0,0:0:0:0:
116,85,69894,2,0,L|112:133,1,40,2|8,0:0|3:2,0:0:0:0:
227,260,70223,1,0,0:0:0:0:
345,175,70442,2,0,B|357:133|357:133|345:90,1,80,2|0,3:2|0:0,0:0:0:0:
260,50,70770,2,0,L|195:44,1,40,2|8,0:0|3:2,0:0:0:0:
112,158,71099,1,0,0:0:0:0:
238,269,71317,6,0,P|315:251|337:256,1,80,2|0,3:2|0:0,0:0:0:0:
394,324,71646,2,0,L|349:319,1,40,2|8,0:0|3:2,0:0:0:0:
238,269,71974,2,0,L|236:220,1,40
250,126,72193,1,0,3:2:0:0:
384,210,72412,1,0,0:0:0:0:
169,185,72631,1,8,3:2:0:0:
149,182,72741,1,0,3:2:0:0:
129,180,72850,1,0,3:2:0:0:
109,178,72960,1,0,3:2:0:0:
89,176,73069,6,0,P|84:122|125:74,1,120,6|0,3:2|0:0,0:0:0:0:
222,48,73507,1,8,3:2:0:0:
160,143,73726,1,0,0:0:0:0:
190,256,73945,2,0,P|230:235|279:235,1,80,0|0,3:2|0:0,0:0:0:0:
363,283,74383,1,8,3:2:0:0:
357,155,74602,1,0,0:0:0:0:
249,314,74821,6,0,P|187:335|133:313,1,120,2|0,3:2|0:0,0:0:0:0:
79,237,75259,1,8,3:2:0:0:
219,151,75478,1,0,0:0:0:0:
219,151,75588,1,0,0:0:0:0:
219,151,75697,2,0,L|309:146,1,80,0|0,3:2|0:0,0:0:0:0:
409,228,76135,1,8,3:2:0:0:
386,127,76354,1,0,0:0:0:0:
279,247,76573,6,0,P|229:197|221:128,1,120,2|0,3:2|0:0,0:0:0:0:
274,65,77011,1,8,3:2:0:0:
325,153,77230,1,0,0:0:0:0:
279,247,77449,2,0,L|186:241,1,80,0|0,3:2|0:0,0:0:0:0:
100,169,77887,1,8,3:2:0:0:
91,278,78106,1,0,0:0:0:0:
216,160,78325,6,0,P|201:111|122:58,1,120,0|0,3:2|0:0,0:0:0:0:
62,114,78763,2,0,L|57:197,1,80,8|0,3:2|0:0,0:0:0:0:
143,276,79091,1,0,0:0:0:0:
143,276,79201,1,0,3:2:0:0:
239,144,79420,1,0,0:0:0:0:
256,262,79639,1,8,3:2:0:0:
131,168,79858,1,8,0:0:0:0:
131,168,79967,1,8,0:0:0:0:
131,168,80077,6,0,P|123:117|138:80,1,80,4|0,3:2|0:0,0:0:0:0:
296,199,80515,2,0,L|281:281,1,80,8|0,3:2|0:0,0:0:0:0:
193,324,80843,1,0,0:0:0:0:
193,324,80953,2,0,P|150:315|114:314,1,80,0|0,3:2|0:0,0:0:0:0:
43,177,81390,1,8,3:2:0:0:
114,313,81609,1,0,0:0:0:0:
197,184,81828,6,0,P|260:166|308:171,1,80,0|0,3:2|0:0,0:0:0:0:
225,316,82266,2,0,P|177:270|158:226,1,80,8|0,3:2|0:2,0:2:0:0:
326,226,82704,2,0,P|310:289|281:328,1,80,0|0,3:0|0:0,0:0:0:0:
197,184,83142,1,8,3:2:0:0:
215,175,83252,1,0,3:2:0:0:
234,169,83361,1,0,3:2:0:0:
253,166,83471,1,0,3:2:0:0:
273,165,83580,6,4,P|320:174|399:136,1,120,4|0,3:2|0:0,0:0:0:0:
315,76,84018,2,0,L|208:67,1,80,8|0,3:2|0:0,0:0:0:0:
41,212,84456,2,0,B|105:208|105:208|150:164,1,120,4|0,3:2|0:2,0:2:0:0:
131,71,84894,2,0,L|32:63,1,80,8|0,3:2|0:0,0:0:0:0:
213,118,85332,6,0,P|264:123|307:98,1,80,4|0,3:2|0:0,0:0:0:0:
401,195,85770,2,0,P|350:190|307:215,1,80,8|0,3:2|0:0,0:0:0:0:
230,320,86208,1,0,3:2:0:0:
254,160,86427,1,0,0:0:0:0:
374,284,86646,1,8,3:2:0:0:
324,200,86865,1,0,0:0:0:0:
141,266,87084,6,0,P|96:264|45:157,1,160,4|8,3:2|3:2,3:2:0:0:
120,70,87741,1,0,0:0:0:0:
201,175,87960,2,0,L|105:188,1,80,0|0,3:2|0:0,0:0:0:0:
224,255,88398,2,0,L|320:268,1,80,8|0,3:2|0:0,0:0:0:0:
387,128,88836,6,0,L|403:215,1,80,0|0,3:2|0:0,0:0:0:0:
356,322,89274,2,0,P|291:311|242:310,1,80,8|0,3:2|0:0,0:0:0:0:
205,208,89712,2,0,P|140:219|91:220,1,80,0|0,3:2|0:0,0:0:0:0:
74,97,90150,1,8,3:2:0:0:
39,206,90369,1,0,0:0:0:0:
186,95,90588,6,0,P|247:97|326:198,1,160,0|8,3:2|3:2,3:2:0:0:
283,279,91244,1,0,0:0:0:0:
225,191,91463,2,0,L|107:186,1,80,0|0,3:2|0:0,0:0:0:0:
186,95,91901,2,0,L|304:90,1,80,8|0,3:2|0:0,0:0:0:0:
386,160,92339,6,0,P|317:159|264:77,1,160,0|8,3:2|3:2,3:2:0:0:
354,79,92996,1,0,0:0:0:0:
386,160,93215,2,0,L|392:261,1,80,0|0,3:2|0:0,0:0:0:0:
249,212,93653,2,0,L|253:132,1,80,8|0,3:2|3:2,0:0:0:0:
317,82,93982,1,0,3:2:0:0:
336,72,94091,6,0,P|303:45|181:59,1,160,4|8,3:2|3:2,3:2:0:0:
115,137,94748,1,0,0:0:0:0:
225,177,94967,2,0,P|238:220|230:255,1,80,0|0,3:2|0:0,0:0:0:0:
102,269,95405,2,0,P|125:237|161:220,1,80,8|0,3:2|0:0,0:0:0:0:
156,329,95843,6,0,P|102:349|57:335,1,80,0|0,3:2|0:0,0:0:0:0:
28,235,96281,2,0,L|22:131,1,80,8|0,3:2|0:0,0:0:0:0:
159,47,96719,2,0,P|166:105|158:131,1,80,0|0,3:2|0:0,0:0:0:0:
50,241,97157,1,8,3:2:0:0:
77,90,97376,1,0,0:0:0:0:
314,130,97595,6,0,P|226:213|191:203,1,160,4|8,3:2|3:2,3:2:0:0:
231,128,98252,1,0,0:0:0:0:
281,52,98471,2,0,L|375:39,1,80,0|0,3:2|0:0,0:0:0:0:
393,140,98909,2,0,L|299:127,1,80,8|0,3:2|0:0,0:0:0:0:
150,93,99347,5,0,0:0:0:0:
118,251,99566,1,0,0:0:0:0:
118,251,99675,1,0,0:0:0:0:
118,251,99785,1,8,0:0:0:0:
252,152,100004,5,0,0:0:0:0:
252,152,100113,1,0,0:0:0:0:
252,152,100223,1,8,0:0:0:0:
252,152,100332,1,8,0:0:0:0:
252,152,100442,1,0,0:0:0:0:
205,279,100661,1,8,0:0:0:0:
123,169,100880,1,8,0:0:0:0:
103,167,100989,1,8,0:0:0:0:
84,166,101099,5,4,0:0:0:0:
179,63,101317,1,0,0:0:0:0:
282,158,101536,2,0,P|272:195|272:222,1,64,8|0,0:1|0:0,0:0:0:0:
336,282,101865,1,0,0:0:0:0:
336,282,101974,2,0,L|408:269,1,64
443,164,102412,1,8,0:1:0:0:
338,93,102631,6,0,P|263:97|251:95,1,64
194,39,103069,2,0,P|119:35|107:37,1,64,0|8,0:0|0:1,0:0:0:0:
60,99,103507,1,0,0:0:0:0:
137,174,103726,2,0,P|143:214|135:262,2,64,0|0|8,0:0|0:0|0:1,0:0:0:0:
60,99,104383,6,0,L|-30:82,1,64
159,44,104821,1,0,0:0:0:0:
253,115,105040,2,0,P|297:122|319:117,1,64,8|0,0:1|0:0,0:0:0:0:
390,47,105478,2,0,P|434:40|456:45,1,64
432,153,105916,1,8,0:1:0:0:
432,153,106354,6,0,L|321:141,1,96
306,157,106792,2,0,P|315:210|312:238,1,64,8|0,0:1|0:0,0:0:0:0:
248,282,107120,1,0,0:0:0:0:
248,282,107230,2,0,L|191:278,2,32
306,157,107668,2,0,P|344:146|386:154,1,64,8|0,0:1|3:2,0:0:0:0:
445,194,107996,1,0,3:2:0:0:
445,194,108106,6,0,L|448:116,1,64,2|0,0:0|0:0,0:0:0:0:
373,65,108544,1,8,0:1:0:0:
307,157,108763,1,0,0:0:0:0:
215,91,108982,2,0,P|172:84|123:95,1,64
67,157,109420,1,8,0:1:0:0:
72,260,109639,1,0,0:0:0:0:
67,157,109858,6,0,L|60:75,1,64
171,168,110296,1,8,0:1:0:0:
89,281,110515,2,0,B|135:298|135:298|228:265,1,128
321,186,111172,2,0,P|274:175|237:184,1,64,8|0,0:1|0:0,0:0:0:0:
332,269,111609,6,0,L|472:264,1,128,0|8,0:0|0:1,0:0:0:0:
461,139,112266,1,0,0:0:0:0:
461,139,112376,1,0,0:0:0:0:
461,139,112485,2,0,P|422:132|388:135,1,64
317,47,112923,2,0,P|278:54|244:51,1,64,8|0,0:1|0:0,0:0:0:0:
108,35,113361,5,4,0:0:0:0:
232,295,113799,1,12,0:0:0:0:
358,45,114237,1,4,0:0:0:0:
86,175,114675,2,0,P|81:209|85:238,1,64,12|8,0:0|0:0,0:0:0:0:
153,295,115004,1,8,0:0:0:0:
153,295,115113,6,0,L|249:289,1,71.9999978027344,4|0,0:0|0:0,0:0:0:0:
268,144,115551,1,8,0:0:0:0:
268,144,115661,2,0,P|308:158|344:153,1,71.9999978027344
391,91,115989,2,0,L|386:11,1,71.9999978027344
260,35,116427,1,8,0:0:0:0:
367,192,116865,6,0,P|403:189|446:200,1,71.9999978027344
328,287,117303,1,8,0:0:0:0:
328,287,117412,2,0,L|252:298,1,71.9999978027344
198,235,117741,2,0,L|122:224,1,71.9999978027344
34,309,118179,1,8,0:0:0:0:
201,100,118617,5,0,0:0:0:0:
282,177,118836,1,0,0:0:0:0:
205,258,119055,1,8,0:0:0:0:
205,258,119164,2,0,P|161:258|132:241,1,71.9999978027344
136,154,119493,2,0,P|168:139|204:141,1,71.9999978027344
284,197,119931,1,8,0:0:0:0:
137,245,120150,1,0,0:0:0:0:
284,197,120369,6,0,P|330:180|388:189,1,107.999996704102
467,127,120807,2,0,L|448:37,1,71.9999978027344,8|0,0:0|0:0,0:0:0:0:
326,69,121244,2,0,P|275:77|238:72,1,71.9999978027344
155,28,121682,2,0,L|70:25,1,71.9999978027344,8|0,0:0|0:0,0:0:0:0:
158,163,122120,6,0,L|258:157,1,71.9999978027344,4|0,0:0|0:0,0:0:0:0:
329,201,122558,1,8,0:0:0:0:
291,48,122777,2,0,P|285:92|293:128,1,71.9999978027344,4|0,0:0|0:0,0:0:0:0:
266,247,123215,1,0,0:0:0:0:
176,177,123434,2,0,P|134:160|88:157,1,71.9999978027344,8|0,0:0|0:0,0:0:0:0:
254,125,123872,6,0,P|296:108|342:105,1,71.9999978027344,4|0,0:0|0:0,0:0:0:0:
375,186,124310,1,8,0:0:0:0:
408,33,124529,2,0,L|415:124,1,71.9999978027344,4|0,0:0|0:0,0:0:0:0:
468,178,124967,1,0,0:0:0:0:
375,186,125186,1,8,0:0:0:0:
332,106,125405,1,0,0:0:0:0:
317,231,125624,6,0,P|321:267|314:323,1,71.9999978027344,4|0,0:0|0:0,0:0:0:0:
225,208,126062,2,0,P|221:172|223:136,1,71.9999978027344,8|0,0:0|0:0,0:0:0:0:
235,302,126500,2,0,P|186:309|119:291,1,107.999996704102
81,225,126938,2,0,L|71:145,1,71.9999978027344,8|0,0:0|0:0,0:0:0:0:
224,77,127376,6,0,P|151:79|106:35,1,107.999996704102,4|0,0:0|0:0,0:0:0:0:
186,6,127814,2,0,L|276:3,1,71.9999978027344,8|0,0:0|0:0,0:0:0:0:
363,50,128252,1,0,0:0:0:0:
323,135,128471,1,0,0:0:0:0:
377,213,128690,1,8,3:2:0:0:
378,230,128799,1,0,3:2:0:0:
379,248,128909,1,0,3:2:0:0:
380,266,129018,1,0,3:2:0:0:
382,284,129128,5,2,0:0:0:0:
382,284,129566,2,0,P|445:271|507:266,1,111.999996582031,2|2,0:0|0:0,0:0:0:0:
310,169,130442,2,0,P|274:176|234:164,1,55.9999982910157,10|0,0:0|3:2,0:0:0:0:
213,96,130770,1,0,3:2:0:0:
213,96,130880,6,0,L|345:83,1,120,6|0,0:0|0:0,3:2:0:0:
426,120,131317,1,8,3:2:0:0:
388,233,131536,1,0,0:0:0:0:
258,200,131755,2,0,P|212:188|154:188,1,80,0|0,3:2|0:0,0:0:0:0:
102,328,132193,1,8,3:2:0:0:
104,146,132412,1,0,0:0:0:0:
275,211,132631,6,0,P|340:195|414:208,1,120,2|0,3:2|0:0,0:0:0:0:
451,283,133069,1,8,3:2:0:0:
308,312,133288,1,0,0:0:0:0:
308,312,133398,1,0,0:0:0:0:
308,312,133507,2,0,L|225:306,1,80,0|0,3:2|0:0,0:0:0:0:
96,182,133945,1,8,3:2:0:0:
228,306,134164,1,0,0:0:0:0:
210,113,134383,6,0,P|247:97|334:102,1,120,2|0,3:2|0:0,0:0:0:0:
402,164,134821,1,8,3:2:0:0:
330,270,135040,1,0,0:0:0:0:
181,239,135259,2,0,P|125:235|77:236,1,80,0|0,3:2|0:0,0:0:0:0:
35,147,135697,1,8,3:2:0:0:
95,317,135916,1,0,0:0:0:0:
265,257,136135,6,0,P|317:231|366:231,1,80,2|0,3:2|0:0,0:0:0:0:
388,150,136463,1,0,0:0:0:0:
388,150,136573,2,0,L|481:141,1,80,8|8,3:2|0:0,0:0:0:0:
493,71,136901,1,8,0:0:0:0:
493,71,137011,1,0,3:2:0:0:
390,20,137230,1,0,0:0:0:0:
388,150,137449,2,0,P|332:160|307:155,1,80,8|8,3:2|0:0,0:0:0:0:
229,96,137777,1,8,0:0:0:0:
229,96,137887,6,0,L|117:91,1,80,4|0,3:2|0:0,0:0:0:0:
105,242,138325,2,0,L|217:237,1,80,8|0,3:2|0:0,0:0:0:0:
248,181,138653,1,0,0:0:0:0:
248,181,138763,2,0,P|291:189|327:185,1,80,0|0,3:2|0:0,0:0:0:0:
286,55,139201,1,8,3:2:0:0:
388,90,139420,1,0,0:0:0:0:
364,203,139639,6,0,P|300:182|242:181,1,120,2|0,3:2|0:0,0:0:0:0:
162,235,140077,2,0,L|78:230,1,80,8|0,3:2|0:0,0:0:0:0:
157,102,140515,2,0,L|241:97,1,80,0|0,3:2|0:0,0:0:0:0:
340,235,140953,1,8,3:2:0:0:
194,204,141172,1,0,0:0:0:0:
356,117,141390,6,0,P|406:111|445:115,1,80,6|0,3:2|0:0,0:0:0:0:
482,196,141719,2,0,L|469:269,1,40,2|8,0:0|3:2,0:0:0:0:
352,295,142047,1,0,0:0:0:0:
181,224,142266,2,0,P|204:158|196:133,1,80,2|0,3:2|0:0,0:0:0:0:
125,89,142595,2,0,L|80:84,1,40,2|8,0:0|3:2,0:0:0:0:
43,271,142923,1,0,0:0:0:0:
269,176,143142,6,0,L|357:171,1,80,2|0,3:2|0:0,0:0:0:0:
404,96,143471,2,0,P|409:73|406:50,1,40,2|8,0:0|3:2,0:0:0:0:
166,77,143799,2,0,L|157:124,1,40
179,204,144018,1,0,3:2:0:0:
77,64,144237,1,0,0:0:0:0:
262,117,144456,1,0,0:0:0:0:
280,124,144566,1,0,0:0:0:0:
300,127,144675,1,0,0:0:0:0:
319,125,144785,1,0,0:0:0:0:
339,119,144894,6,0,P|384:109|477:149,1,120,6|0,3:2|0:0,0:0:0:0:
425,225,145332,2,0,L|324:219,1,80,8|0,3:2|0:0,0:0:0:0:
159,257,145770,2,0,P|231:265|257:257,1,80,0|0,3:2|0:0,0:0:0:0:
262,94,146208,1,8,3:2:0:0:
145,171,146427,1,0,0:0:0:0:
333,203,146646,6,0,L|461:195,1,120,2|0,3:2|0:0,0:0:0:0:
512,113,147084,1,8,3:2:0:0:
454,277,147303,1,0,0:0:0:0:
454,277,147412,1,0,0:0:0:0:
454,277,147522,2,0,P|405:282|359:268,1,80,0|0,3:2|0:0,0:0:0:0:
279,172,147960,1,8,3:2:0:0:
257,284,148179,1,0,0:0:0:0:
386,178,148398,6,0,P|379:129|318:75,1,120,2|0,3:2|0:0,0:0:0:0:
231,65,148836,2,0,P|189:89|140:89,1,80,8|0,3:2|0:0,3:2:0:0:
48,20,149274,1,0,3:2:0:0:
105,185,149493,1,0,0:0:0:0:
270,128,149712,2,0,P|303:115|355:112,1,80,8|0,3:2|0:0,0:0:0:0:
277,248,150150,6,0,L|161:241,1,80,2|0,3:2|0:0,0:0:0:0:
114,193,150478,1,0,0:0:0:0:
114,193,150588,2,0,P|117:142|105:106,1,80,8|0,3:2|0:0,0:0:0:0:
39,53,150916,1,0,0:0:0:0:
39,53,151026,1,0,3:2:0:0:
39,187,151244,1,0,0:0:0:0:
200,68,151463,2,0,P|257:60|299:65,1,80,8|8,3:2|0:0,0:0:0:0:
362,135,151792,1,8,0:0:0:0:
362,135,151901,6,0,L|460:125,1,80,4|0,3:2|0:0,0:0:0:0:
323,233,152339,2,0,P|281:235|241:219,1,80,8|0,3:2|0:0,0:0:0:0:
194,159,152668,1,0,0:0:0:0:
194,159,152777,2,0,P|194:115|177:77,1,80,0|0,3:2|0:0,0:0:0:0:
61,46,153215,1,8,3:2:0:0:
121,198,153434,1,0,0:0:0:0:
290,107,153653,6,0,P|335:94|398:112,1,80,0|0,3:2|0:0,0:0:0:0:
302,245,154091,2,0,P|268:212|252:148,1,80,8|0,3:2|0:0,0:0:0:0:
416,166,154529,2,0,P|404:211|357:257,1,80,0|0,3:2|0:0,0:0:0:0:
290,107,154967,1,8,3:2:0:0:
308,99,155077,1,0,3:2:0:0:
327,94,155186,1,0,3:2:0:0:
347,94,155296,1,0,3:2:0:0:
367,97,155405,6,0,L|359:230,1,120,4|0,3:2|0:0,0:0:0:0:
295,290,155843,2,0,P|246:273|199:266,1,80,8|0,3:2|0:0,0:0:0:0:
116,326,156281,2,0,P|124:273|95:211,1,120,4|0,3:2|0:0,0:0:0:0:
154,140,156719,2,0,L|238:122,1,80,8|0,3:2|0:0,0:0:0:0:
392,150,157157,6,0,P|331:169|283:154,1,80,4|0,3:2|0:0,0:0:0:0:
292,52,157595,2,0,P|353:33|401:48,1,80,8|0,3:2|0:0,0:0:0:0:
448,100,158033,1,0,3:2:0:0:
316,167,158252,1,0,0:0:0:0:
191,86,158471,1,8,3:2:0:0:
172,79,158580,1,0,3:2:0:0:
152,75,158690,1,0,3:2:0:0:
132,72,158799,1,0,3:2:0:0:
110,73,158909,5,4,0:0:0:0:
135,276,174237,5,2,0:0:0:0:
113,179,174456,1,2,0:0:0:0:
232,298,174675,6,0,P|273:279|307:277,1,64,4|0,3:2|0:0,0:0:0:0:
373,307,175113,1,8,0:0:0:0:
438,233,175332,2,0,P|439:182|432:101,1,128,0|0,3:2|0:0,0:0:0:0:
345,40,175989,1,8,0:0:0:0:
345,40,176208,1,0,0:0:0:0:
270,120,176427,6,0,P|238:138|200:135,1,64,0|0,3:2|0:0,0:0:0:0:
143,74,176865,2,0,P|111:56|73:59,1,64,8|0,0:0|3:2,0:0:0:0:
20,141,177303,2,0,L|8:230,1,64,0|0,0:0|3:2,0:0:0:0:
102,271,177741,1,8,0:0:0:0:
182,215,177960,1,8,0:0:0:0:
182,215,178069,1,8,0:0:0:0:
182,215,178179,6,0,P|225:197|267:194,1,64
255,88,178617,2,0,P|217:59|194:24,1,64,8|0,0:0|3:2,0:0:0:0:
108,87,179055,2,0,P|103:135|84:173,1,64
34,241,179493,1,8,0:0:0:0:
179,195,179712,6,0,P|238:178|261:175,1,64,0|0,0:0|3:2,0:0:0:0:
333,235,180150,1,0,0:0:0:0:
432,188,180369,2,0,P|444:121|444:101,1,64,8|0,0:0|3:2,0:0:0:0:
320,82,180807,2,0,P|323:113|331:144,1,64,0|0,0:0|3:2,0:0:0:0:
395,271,181244,1,8,0:0:0:0:
218,243,181463,1,8,0:0:0:0:
199,240,181573,1,8,0:0:0:0:
180,228,181682,6,0,P|120:208|35:240,1,143.999995605469,4|8,3:2|0:0,0:0:0:0:
120,115,182339,2,0,L|119:69,2,35.9999989013672,0|0|0,3:2|0:0|0:0,0:0:0:0:
180,228,182777,1,0,0:0:0:0:
280,162,182996,2,0,P|341:140|379:137,1,71.9999978027344,8|0,0:0|0:0,0:0:0:0:
219,99,183434,6,0,L|49:86,1,143.999995605469,0|8,3:2|0:0,0:0:0:0:
24,199,184091,1,8,0:0:0:0:
24,199,184201,1,8,0:0:0:0:
24,199,184310,1,0,0:0:0:0:
67,64,184529,1,0,3:2:0:0:
143,208,184748,2,0,L|137:297,1,71.9999978027344,8|0,0:0|0:0,0:0:0:0:
231,166,185186,6,0,P|226:118|151:35,1,143.999995605469,4|8,3:2|0:0,0:0:0:0:
60,96,185843,2,0,P|65:144|140:227,1,143.999995605469,0|0,3:2|0:0,0:0:0:0:
214,258,186500,1,8,0:0:0:0:
448,102,186938,6,0,L|302:89,1,143.999995605469,0|8,3:2|0:0,0:0:0:0:
199,129,187595,1,0,3:2:0:0:
281,208,187814,2,0,P|289:257|241:309,1,107.999996704102
192,330,188252,2,0,P|263:302|286:306,1,71.9999978027344,8|0,0:0|0:0,0:0:0:0:
394,308,188690,6,0,P|407:233|365:156,1,143.999995605469,4|8,3:2|0:0,0:0:0:0:
271,122,189347,2,0,L|123:106,1,143.999995605469,0|0,3:2|0:0,0:0:0:0:
46,176,190004,2,0,P|34:212|37:256,1,71.9999978027344,8|0,0:0|0:0,0:0:0:0:
145,170,190442,6,0,P|97:95|16:88,1,143.999995605469,0|8,3:2|0:0,0:0:0:0:
46,176,191099,1,8,3:2:0:0:
46,176,191208,1,8,0:0:0:0:
46,176,191317,1,0,0:0:0:0:
47,82,191536,1,0,0:0:0:0:
137,27,191755,2,0,L|225:21,1,71.9999978027344,8|0,0:0|0:0,0:0:0:0:
179,155,192193,5,4,3:2:0:0:
159,295,192412,1,0,0:0:0:0:
372,261,192631,5,4,3:2:0:0:
232,241,192850,1,0,0:0:0:0:
338,48,193069,5,4,3:2:0:0:
318,188,193288,1,0,0:0:0:0:
125,82,193507,5,4,3:2:0:0:
265,102,193726,1,0,0:0:0:0:
114,116,195259,2,0,L|201:108,1,71.9999978027344,8|0,0:0|3:2,0:0:0:0:
243,37,195588,1,0,3:2:0:0:
243,37,195697,6,0,P|283:41|383:26,1,120,6|0,3:2|0:0,0:0:0:0:
436,101,196135,2,0,L|429:181,1,80,8|0,3:2|0:0,0:0:0:0:
300,299,196573,2,0,P|285:232|300:200,1,80,0|0,3:2|0:0,0:0:0:0:
383,237,197011,1,8,3:2:0:0:
204,253,197230,1,0,0:0:0:0:
297,87,197449,6,0,P|226:50|174:60,1,120,2|0,3:2|0:0,0:0:0:0:
107,113,197887,1,8,3:2:0:0:
239,204,198106,1,0,0:0:0:0:
261,200,198215,1,0,0:0:0:0:
283,196,198325,2,0,P|351:182|390:184,1,80,0|0,3:2|0:0,0:0:0:0:
346,301,198763,1,8,3:2:0:0:
211,211,198982,1,0,0:0:0:0:
387,72,199201,6,0,P|381:153|352:188,1,120,2|0,3:2|0:0,0:0:0:0:
291,110,199639,2,0,L|199:102,1,80,8|0,3:2|0:0,0:0:0:0:
87,184,200077,2,0,P|145:198|168:193,1,80,0|0,3:2|0:0,0:0:0:0:
230,102,200515,1,8,3:2:0:0:
273,219,200734,1,0,0:0:0:0:
137,114,200953,6,0,P|62:103|11:133,1,120,2|0,3:2|0:0,0:0:0:0:
0,218,201390,2,0,L|7:314,1,80,8|0,3:2|0:0,0:0:0:0:
88,331,201719,1,0,0:0:0:0:
88,331,201828,1,0,3:2:0:0:
115,184,202047,1,0,0:0:0:0:
270,216,202266,2,0,P|321:216|352:209,1,80,8|8,3:2|0:0,0:0:0:0:
407,126,202595,1,8,0:0:0:0:
407,126,202704,6,0,L|499:122,1,80,6|0,3:2|0:0,0:0:0:0:
359,38,203142,2,0,P|296:30|268:37,1,80,8|0,3:2|0:0,0:0:0:0:
212,97,203471,1,0,0:0:0:0:
212,97,203580,2,0,L|219:184,1,80,0|0,3:2|0:0,0:0:0:0:
155,284,204018,1,8,3:2:0:0:
129,170,204237,1,0,0:0:0:0:
277,273,204456,6,0,P|354:275|402:234,1,120,2|0,3:2|0:0,0:0:0:0:
407,149,204894,2,0,L|398:63,1,80,8|0,3:2|0:0,0:0:0:0:
285,193,205332,2,0,L|276:279,1,80,0|0,3:2|0:0,0:0:0:0:
386,338,205770,1,8,3:2:0:0:
467,215,205989,1,0,0:0:0:0:
404,89,206208,6,0,P|367:51|323:38,1,80,2|0,3:2|0:0,0:0:0:0:
245,101,206536,2,0,L|293:100,1,40,2|8,0:0|3:2,0:0:0:0:
379,194,206865,1,0,0:0:0:0:
250,294,207084,2,0,P|236:236|261:189,1,80,2|0,3:2|0:0,0:0:0:0:
189,149,207412,2,0,L|140:140,1,40,2|8,0:0|3:2,0:0:0:0:
87,216,207741,1,0,0:0:0:0:
241,217,207960,6,0,L|354:206,1,80,2|0,3:2|0:0,0:0:0:0:
377,138,208288,2,0,P|401:151|431:160,1,40,2|8,0:0|3:2,0:0:0:0:
438,48,208617,1,0,0:0:0:0:
438,48,208726,1,0,0:0:0:0:
438,48,208836,2,0,B|392:42|392:42|330:54,1,80,0|0,3:2|0:0,0:0:0:0:
165,169,209274,1,8,3:2:0:0:
194,171,209383,1,0,3:2:0:0:
224,170,209493,1,0,3:2:0:0:
253,163,209602,1,0,3:2:0:0:
281,152,209712,6,0,P|278:223|312:273,1,120,4|0,3:2|0:0,0:0:0:0:
382,190,210150,2,0,P|394:143|367:91,1,80,8|0,3:2|0:0,0:0:0:0:
217,111,210588,2,0,P|251:144|310:147,1,80,0|0,3:2|0:0,0:0:0:0:
364,17,211026,2,0,P|317:30|285:79,1,80,8|0,3:2|0:0,0:0:0:0:
382,190,211463,6,0,B|399:149|399:149|371:90,1,80,0|0,3:2|0:0,0:0:0:0:
250,186,211901,2,0,P|243:252|251:287,1,80,8|0,3:2|0:0,0:0:0:0:
325,317,212230,1,0,0:0:0:0:
325,317,212339,2,0,L|416:296,1,80,0|0,3:2|0:0,0:0:0:0:
432,198,212777,1,8,3:2:0:0:
490,291,212996,1,0,0:0:0:0:
330,251,213215,6,0,P|268:238|204:231,1,120,0|0,3:2|0:0,0:0:0:0:
128,289,213653,1,8,3:2:0:0:
217,338,213872,1,0,0:0:0:0:
211,231,214091,2,0,P|204:186|212:128,1,80,0|0,3:2|0:0,0:0:0:0:
295,61,214529,1,8,3:2:0:0:
298,181,214748,1,0,0:0:0:0:
179,79,214967,6,0,P|131:75|59:106,1,120,0|0,3:2|0:0,0:0:0:0:
107,190,215405,2,0,L|200:174,1,80,8|0,3:2|0:0,0:0:0:0:
266,203,215734,1,0,0:0:0:0:
266,203,215843,1,0,3:2:0:0:
253,95,216062,1,0,0:0:0:0:
207,248,216281,1,8,3:2:0:0:
339,150,216500,1,8,0:0:0:0:
339,150,216609,1,8,0:0:0:0:
339,150,216719,6,0,P|385:141|454:141,1,80,4|0,3:2|0:0,0:0:0:0:
348,289,217157,2,0,L|250:278,1,80,8|0,3:2|3:2,3:2:0:0:
186,240,217485,1,0,0:0:0:0:
186,240,217595,2,0,B|148:265|97:274,1,80,0|0,3:2|0:0,0:0:0:0:
54,155,218033,1,8,3:2:0:0:
30,261,218252,1,0,0:0:0:0:
160,166,218471,6,0,P|201:158|255:184,1,80,0|0,3:2|0:0,0:0:0:0:
148,303,218909,2,0,P|120:271|116:211,1,80,8|0,3:2|0:0,0:0:0:0:
275,239,219347,2,0,P|261:278|211:312,1,80,0|0,3:2|0:0,0:0:0:0:
160,166,219785,1,8,3:2:0:0:
178,159,219894,1,0,3:2:0:0:
198,157,220004,1,0,3:2:0:0:
218,161,220113,1,0,3:2:0:0:
236,169,220223,6,0,L|223:38,1,120,4|0,3:2|0:0,0:0:0:0:
142,23,220661,2,0,P|98:39|50:37,1,80,8|0,3:2|0:0,0:0:0:0:
120,146,221099,2,0,P|183:149|243:172,1,120,4|0,3:2|0:0,0:0:0:0:
319,171,221536,2,0,P|330:133|329:74,1,80,8|0,3:2|0:0,0:0:0:0:
235,168,221974,6,0,P|241:214|291:256,1,80,4|0,3:2|0:0,0:0:0:0:
402,189,222412,2,0,P|396:143|346:101,1,80,8|0,3:2|0:0,0:0:0:0:
286,91,222850,1,0,3:2:0:0:
317,178,223069,1,0,0:0:0:0:
376,117,223288,1,8,3:2:0:0:
235,168,223507,1,8,0:0:0:0:
235,168,223617,1,8,0:0:0:0:
235,168,223726,6,0,P|141:188|77:126,1,160,4|8,3:2|0:0,0:0:0:0:
171,104,224383,1,0,0:0:0:0:
247,28,224602,2,0,L|341:20,1,80,0|0,3:2|0:0,0:0:0:0:
314,174,225040,2,0,L|220:166,1,80,8|0,3:2|0:0,0:0:0:0:
183,244,225369,1,0,0:0:0:0:
183,244,225478,6,0,L|94:240,1,80,0|0,3:2|0:0,0:0:0:0:
30,155,225916,2,0,P|52:119|58:65,1,80,10|0,3:2|0:0,0:0:0:0:
128,38,226244,1,0,0:0:0:0:
128,38,226354,2,0,L|222:33,1,80,0|0,3:2|0:0,0:0:0:0:
307,131,226792,1,8,3:2:0:0:
212,125,227011,1,0,0:0:0:0:
305,42,227230,6,0,P|363:58|396:153,1,160,0|8,3:2|3:2,0:0:0:0:
323,236,227887,1,0,0:0:0:0:
228,146,228106,2,0,L|320:128,1,80,0|0,3:2|0:0,0:0:0:0:
401,251,228544,2,0,L|309:233,1,80,8|0,3:2|0:0,0:0:0:0:
175,243,228982,6,0,P|246:212|331:243,1,160,0|8,3:2|3:2,3:2:0:0:
249,307,229639,1,0,0:0:0:0:
249,307,229748,1,0,0:0:0:0:
249,307,229858,2,0,P|205:335|168:337,1,80,0|0,3:2|0:0,0:0:0:0:
92,276,230296,2,0,P|89:223|106:190,1,80,8|0,3:2|0:0,0:0:0:0:
174,138,230624,1,0,0:0:0:0:
194,152,230734,6,0,B|270:166|270:166|371:138,1,160,4|8,3:2|3:2,3:2:0:0:
385,45,231390,1,0,0:0:0:0:
438,138,231609,2,0,P|450:203|451:223,1,80,0|0,3:2|0:0,0:0:0:0:
310,207,232047,2,0,P|324:142|331:123,1,80,8|0,3:2|0:0,0:0:0:0:
379,267,232485,6,0,P|342:291|219:238,1,160,0|8,3:2|3:2,3:2:0:0:
214,162,233142,1,0,0:0:0:0:
136,230,233361,2,0,P|129:278|144:319,1,80,0|0,3:2|0:0,0:0:0:0:
214,162,233799,2,0,P|221:114|206:73,1,80,8|0,3:2|0:0,0:0:0:0:
77,29,234237,6,0,P|64:93|162:112,1,160,4|8,3:2|3:2,3:2:0:0:
219,55,234894,1,0,0:0:0:0:
307,136,235113,2,0,L|298:227,1,80,0|0,3:2|0:0,0:0:0:0:
190,302,235551,2,0,L|181:211,1,80,8|0,3:2|0:0,0:0:0:0:
154,97,235989,5,0,0:0:0:0:
86,243,236208,1,0,0:0:0:0:
86,243,236317,1,0,0:0:0:0:
86,243,236427,1,8,0:0:0:0:
245,194,236646,5,0,0:0:0:0:
245,194,236755,1,0,0:0:0:0:
245,194,236865,1,0,0:0:0:0:
70,160,237084,5,0,0:0:0:0:
50,126,237193,1,0,0:0:0:0:
58,88,237303,1,0,0:0:0:0:
91,66,237412,1,0,0:0:0:0:
129,73,237522,1,0,0:0:0:0:
152,105,237631,1,0,0:0:0:0:
147,144,237741,5,4,0:0:0:0:
