osu file format v14

[General]
AudioFilename: audio.mp3
AudioLeadIn: 0
PreviewTime: 194383
Countdown: 0
SampleSet: Soft
StackLeniency: 0.7
Mode: 0
LetterboxInBreaks: 0
WidescreenStoryboard: 0

[Editor]
DistanceSpacing: 1.9
BeatDivisor: 1
GridSize: 8
TimelineZoom: 1

[Metadata]
Title:MEMORIA
TitleUnicode:MEMORIA
Artist:GFRIEND
ArtistUnicode:ジーフレンド
Creator:Hokichi
Version:Hard
Source:
Tags:여자친구 yeojachingu yeo ja chin gu yeochin sowon yerin eunha yuju sinbi sinb umji 소원 예린 은하 유주 신비 엄지 메모리아 girlfriend g-friend korean kpop source music bighit ibighit soumu
BeatmapID:1773567
BeatmapSetID:848112

[Difficulty]
HPDrainRate:5.4
CircleSize:3.5
OverallDifficulty:6
ApproachRate:7.5
SliderMultiplier:1.4
SliderTickRate:1

[Events]
//Background and Video events
0,0,"bg.png",0,0
//Break Periods
2,160860,172098
//Storyboard Layer 0 (Background)
//Storyboard Layer 1 (Fail)
//Storyboard Layer 2 (Pass)
//Storyboard Layer 3 (Foreground)
//Storyboard Layer 4 (Overlay)
//Storyboard Sound Samples

[TimingPoints]
1245,437.956204379562,4,2,1,50,1,0
1245,-125,4,2,1,50,0,0
11317,-133.333333333333,4,2,1,50,0,0
11755,-100,4,2,1,50,0,0
15259,-125,4,2,1,50,0,0
29274,-125,4,2,1,50,0,0
43288,-111.111111111111,4,2,1,50,0,0
55551,-142.857142857143,4,2,1,50,0,0
57084,-142.857142857143,4,2,1,5,0,0
57303,-142.857142857143,4,2,1,50,0,0
57741,-117.647058823529,4,2,1,50,0,0
59055,-100,4,2,1,60,0,1
86974,-100,4,2,1,60,0,0
87084,-100,4,2,1,60,0,1
89602,-100,4,2,1,5,0,1
89712,-100,4,2,1,60,0,1
96609,-100,4,2,1,5,0,1
96719,-100,4,2,1,60,0,1
101099,-125,4,2,1,50,0,0
115113,-111.111111111111,4,2,1,50,0,0
129566,-142.857142857143,4,2,1,50,0,0
130880,-100,4,2,1,60,0,1
160661,-100,4,2,1,5,0,0
174237,-100,4,2,1,50,0,0
174675,-125,4,2,1,50,0,0
181682,-111.111111111111,4,2,1,50,0,0
195697,-100,4,2,1,50,0,1
223617,-100,4,2,1,50,0,0
223726,-100,4,2,1,50,0,1
237741,-100,4,2,1,50,0,0

[Colours]
Combo1 : 176,153,145
Combo2 : 255,213,115
Combo3 : 217,179,179
Combo4 : 91,173,255
Combo5 : 53,53,140
Combo6 : 77,74,104
SliderBorder : 252,207,250
SliderTrackOverride : 78,35,85

[HitObjects]
52,107,1026,5,0,0:0:0:0:
137,197,1245,2,0,L|266:189,1,112,2|0,0:0|0:0,0:0:0:0:
274,91,1901,1,0,0:0:0:0:
356,177,2120,2,0,P|347:226|352:255,2,56,0|0|0,0:0|0:0|0:0,0:0:0:0:
441,220,2777,1,0,0:0:0:0:
483,95,2996,6,0,B|450:74|450:74|362:92,1,112,2|0,0:0|0:0,0:0:0:0:
281,59,3653,1,0,0:0:0:0:
195,118,3872,2,0,P|187:170|187:192,1,56,2|0,0:0|0:0,0:0:0:0:
260,235,4310,2,0,P|268:287|268:309,1,56,2|0,0:0|0:0,0:0:0:0:
165,364,4748,6,0,P|81:322|74:288,1,112,2|0,0:0|0:0,0:0:0:0:
134,217,5405,2,0,B|164:207|164:207|151:291,1,112,2|0,0:0|0:0,0:0:0:0:
54,225,6062,2,0,P|58:189|83:156,1,56,2|0,0:0|0:0,0:0:0:0:
128,106,6500,6,0,P|175:123|251:95,1,112,2|0,0:0|0:0,0:0:0:0:
340,112,7157,2,0,P|293:95|217:123,1,112,2|0,0:0|0:0,0:0:0:0:
284,187,7814,1,2,0:0:0:0:
374,212,8033,1,0,0:0:0:0:
378,317,8252,6,0,L|251:306,1,112,2|0,0:0|0:0,0:0:0:0:
167,349,8909,1,0,0:0:0:0:
108,265,9128,2,0,P|90:204|100:135,1,112,0|0,0:0|0:0,0:0:0:0:
177,86,9785,1,0,0:0:0:0:
281,154,10004,6,0,B|321:166|321:166|406:144,1,112,2|0,0:0|0:0,0:0:0:0:
453,57,10661,1,0,0:0:0:0:
497,165,10880,2,0,L|504:232,1,56,0|0,0:0|0:0,0:0:0:0:
474,252,11208,1,0,0:0:0:0:
474,252,11317,6,0,P|443:249|419:249,1,52.5000020027161
390,278,11646,1,0,0:0:0:0:
390,278,11755,6,0,L|303:271,1,70,4|0,0:0|0:0,0:0:0:0:
224,170,12193,2,0,L|311:163,1,70,8|0,0:0|0:0,0:0:0:0:
415,80,12631,2,0,P|364:57|328:60,1,70,0|0,3:2|0:0,0:0:0:0:
293,164,13069,2,0,P|327:158|357:140,1,70,8|0,0:0|0:0,0:0:0:0:
274,66,13507,5,4,0:0:0:0:
149,224,13945,1,12,0:0:0:0:
307,349,14383,1,4,0:0:0:0:
432,191,14821,2,0,P|431:151|426:137,3,35,12|8|8|8,0:0|0:0|0:0|0:0,0:0:0:0:
404,218,15259,6,0,L|278:208,1,112,4|8,0:0|0:1,0:0:0:0:
197,134,15916,1,0,0:0:0:0:
197,134,16026,1,0,0:0:0:0:
197,134,16135,2,0,P|150:145|139:143,1,56,0|0,0:0|0:0,0:0:0:0:
128,34,16573,2,0,P|175:23|186:25,1,56,8|0,0:1|0:0,0:0:0:0:
267,82,17011,6,0,L|345:87,1,56,0|0,0:0|0:0,0:0:0:0:
379,145,17449,1,8,0:1:0:0:
434,220,17668,2,0,L|498:212,1,56,0|0,0:0|0:0,0:0:0:0:
427,304,18106,1,0,0:0:0:0:
326,301,18325,2,0,P|298:297|249:293,1,56,8|0,0:1|0:0,0:0:0:0:
193,353,18763,6,0,P|171:285|194:230,1,112,0|8,0:0|0:1,0:0:0:0:
267,175,19420,1,0,0:0:0:0:
267,175,19529,1,0,0:0:0:0:
267,175,19639,2,0,L|342:170,1,56,0|0,0:0|0:0,0:0:0:0:
383,82,20077,2,0,L|308:77,1,56,8|0,0:1|0:0,0:0:0:0:
203,91,20515,6,0,P|170:103|87:79,1,112,0|8,0:0|0:1,0:0:0:0:
25,159,21172,2,0,L|37:289,1,112,0|0,0:0|0:0,0:0:0:0:
124,318,21828,2,0,P|177:322|192:317,1,56,8|0,0:1|0:0,0:0:0:0:
268,242,22266,6,0,P|204:228|149:248,1,112,0|8,0:0|0:1,0:0:0:0:
78,192,22923,1,0,0:0:0:0:
156,131,23142,2,0,P|178:73|159:12,1,112,0|8,0:0|0:1,0:0:0:0:
82,66,23799,1,0,0:0:0:0:
175,155,24018,6,0,L|302:146,1,112,0|8,0:0|0:1,0:0:0:0:
366,71,24675,2,0,L|493:80,1,112,0|0,0:0|0:1,0:0:0:0:
439,188,25332,2,0,P|428:233|437:266,1,56,8|0,0:1|0:0,0:0:0:0:
465,316,25770,6,0,P|427:291|340:289,1,112,0|8,0:0|0:1,0:0:0:0:
268,348,26427,1,0,0:0:0:0:
167,288,26646,2,0,L|145:156,1,112,0|8,0:0|0:1,0:0:0:0:
214,91,27303,1,0,0:0:0:0:
301,168,27522,6,0,P|363:169|400:134,2,112,0|8|0,0:0|0:1|0:0,0:0:0:0:
214,91,28617,1,0,0:0:0:0:
136,160,28836,2,0,P|127:219|130:234,1,56,8|0,0:1|0:0,0:0:0:0:
218,308,29274,6,0,P|240:256|218:204,1,112,0|8,0:0|0:1,0:0:0:0:
217,100,29931,1,0,0:0:0:0:
318,66,30150,2,0,L|379:57,1,56,0|0,0:0|0:0,0:0:0:0:
415,151,30588,2,0,L|476:160,1,56,8|0,0:1|0:0,0:0:0:0:
415,271,31026,6,0,P|366:296|297:278,1,112,0|8,0:0|0:1,0:0:0:0:
240,209,31682,2,0,B|299:188|299:188|371:206,1,112,0|0,0:0|0:0,0:0:0:0:
434,142,32339,2,0,L|441:75,1,56,8|0,0:1|0:0,0:0:0:0:
314,26,32777,6,0,P|273:54|192:46,1,112,0|8,0:0|0:1,0:0:0:0:
82,83,33434,1,0,0:0:0:0:
82,83,33544,1,0,0:0:0:0:
82,83,33653,2,0,L|78:157,1,56,0|0,0:0|0:0,0:0:0:0:
187,230,34091,2,0,L|183:156,1,56,8|0,0:1|0:0,0:0:0:0:
264,71,34529,6,0,B|311:55|311:55|385:75,1,112,0|8,0:0|0:1,0:0:0:0:
427,172,35186,2,0,L|426:303,1,112,0|0,0:0|0:0,0:0:0:0:
328,349,35843,2,0,P|269:333|252:331,1,56,8|0,0:1|0:0,0:0:0:0:
151,326,36281,6,0,B|134:288|134:288|151:196,1,112,0|8,0:0|0:1,0:0:0:0:
233,130,36938,1,0,0:0:0:0:
343,190,37157,2,0,P|397:182|439:123,1,112,0|8,0:0|0:1,0:0:0:0:
422,43,37814,1,0,0:0:0:0:
355,108,38033,6,0,L|225:102,1,112,0|8,0:0|0:1,0:0:0:0:
152,169,38690,2,0,P|189:232|174:285,1,112,0|0,0:0|0:0,0:0:0:0:
94,244,39347,2,0,L|17:228,1,56,8|0,0:1|0:0,0:0:0:0:
75,118,39785,6,0,B|124:84|124:84|199:82,1,112,0|8,0:0|0:1,0:0:0:0:
266,152,40442,1,0,0:0:0:0:
370,85,40661,2,0,P|415:68|482:81,1,112,0|8,0:0|0:1,0:0:0:0:
429,165,41317,1,0,0:0:0:0:
364,242,41536,5,4,0:0:0:0:
165,244,41974,1,4,0:0:0:0:
364,242,42412,1,4,0:0:0:0:
200,130,42850,2,0,L|192:88,3,28,12|8|8|8,0:0|0:1|0:1|0:1,0:0:0:0:
208,164,43288,5,4,0:0:0:0:
307,119,43507,1,0,0:0:0:0:
401,175,43726,1,8,0:0:0:0:
401,175,43836,2,0,L|472:162,1,62.9999980773926,0|0,0:0|0:0,0:0:0:0:
480,139,44164,2,0,P|487:102|481:60,1,62.9999980773926,0|0,0:0|0:0,0:0:0:0:
399,29,44602,1,8,0:0:0:0:
399,29,45040,6,0,P|339:52|317:51,1,62.9999980773926,0|0,0:0|0:0,0:0:0:0:
194,77,45478,1,8,0:0:0:0:
194,77,45588,2,0,L|185:144,1,62.9999980773926,0|0,0:0|0:0,0:0:0:0:
214,158,45916,2,0,L|221:224,1,62.9999980773926,0|0,0:0|0:0,0:0:0:0:
326,282,46354,1,8,0:0:0:0:
326,282,46792,6,0,P|373:265|401:269,2,62.9999980773926,0|0|8,0:0|0:0|0:0,0:0:0:0:
301,317,47339,2,0,L|224:311,1,62.9999980773926,0|0,0:0|0:0,0:0:0:0:
216,288,47668,2,0,P|185:305|136:299,1,62.9999980773926,0|0,0:0|0:0,0:0:0:0:
146,200,48106,2,0,P|177:183|232:192,1,62.9999980773926,8|0,0:0|0:0,0:0:0:0:
308,208,48544,6,0,L|412:191,1,94.499997116089,0|0,0:0|0:0,0:0:0:0:
428,174,48982,2,0,P|429:136|425:108,1,62.9999980773926,8|0,0:0|0:0,0:0:0:0:
281,42,49420,1,0,0:0:0:0:
281,42,49529,2,0,P|248:94|209:109,1,94.499997116089,8|8,0:0|0:0,0:0:0:0:
70,62,50077,1,8,0:0:0:0:
70,62,50186,1,8,0:0:0:0:
70,62,50296,6,0,P|125:89|184:74,1,125.999996154785,4|8,0:0|0:0,0:0:0:0:
290,21,50953,2,0,P|367:9|411:41,1,125.999996154785,4|0,0:0|0:0,0:0:0:0:
428,136,51609,2,0,L|439:211,1,62.9999980773926,8|0,0:0|0:0,0:0:0:0:
404,301,52047,6,0,P|392:249|441:196,1,125.999996154785,4|8,0:0|0:0,0:0:0:0:
342,105,52704,2,0,L|210:92,1,125.999996154785,4|0,0:0|0:0,0:0:0:0:
129,48,53361,2,0,P|116:87|119:123,1,62.9999980773926,8|0,0:0|0:0,0:0:0:0:
180,232,53799,6,0,B|231:244|231:244|324:217,1,125.999996154785,4|8,0:0|0:0,0:0:0:0:
388,89,54675,2,0,L|269:80,1,94.499997116089,0|0,0:0|0:0,0:0:0:0:
266,101,55113,2,0,P|260:139|269:167,1,62.9999980773926,8|0,0:0|0:0,0:0:0:0:
341,269,55551,6,0,P|374:277|428:267,2,73.4999977569581,2|2|2,0:0|0:0|0:0,0:0:0:0:
228,237,56427,2,0,P|241:182|193:237,1,195.999994018555,2|0,0:0|0:0,0:0:0:0:
190,235,57741,6,0,L|58:222,2,119.000002269745,0|0|8,0:0|0:0|0:0,0:0:0:0:
286,148,58836,1,2,0:0:0:0:
362,287,59055,6,0,L|246:296,1,105,6|0,3:2|0:0,0:0:0:0:
223,306,59493,1,8,3:2:0:0:
152,221,59712,1,0,0:0:0:0:
190,116,59931,2,0,P|226:120|305:58,1,140,0|8,3:2|3:2,0:0:0:0:
216,26,60588,1,0,0:0:0:0:
120,66,60807,6,0,L|112:187,1,105,2|0,3:2|0:0,0:0:0:0:
119,207,61244,2,0,P|180:197|202:203,1,70,8|0,3:2|3:2,0:0:0:0:
254,256,61682,2,0,P|222:212|245:123,1,140,0|8,3:2|3:2,0:0:0:0:
318,64,62339,1,0,0:0:0:0:
418,99,62558,6,0,B|442:151|442:151|435:214,1,105,2|0,3:2|0:0,0:0:0:0:
416,221,62996,1,8,3:2:0:0:
307,177,63215,1,0,0:0:0:0:
251,269,63434,2,0,P|205:262|168:262,1,70,0|0,3:2|0:0,0:0:0:0:
102,335,63872,1,8,3:2:0:0:
66,235,64091,1,0,0:0:0:0:
147,124,64310,6,0,P|109:99|43:98,1,105,0|0,3:2|0:0,0:0:0:0:
29,115,64748,2,0,L|23:26,1,70,8|0,3:2|0:0,0:0:0:0:
52,32,65077,1,0,0:0:0:0:
52,32,65186,1,0,3:2:0:0:
147,124,65405,1,2,0:0:0:0:
41,204,65624,1,10,3:2:0:0:
298,245,66062,6,0,P|356:254|383:242,1,70,4|0,3:2|0:0,0:0:0:0:
412,164,66500,2,0,L|413:83,1,70,8|0,3:2|0:0,0:0:0:0:
390,71,66828,2,0,P|328:91|278:68,1,105,0|0,0:0|0:0,0:0:0:0:
195,29,67376,1,8,3:2:0:0:
195,29,67595,1,0,0:0:0:0:
94,108,67814,6,0,P|66:158|74:206,1,105,2|0,3:2|0:0,0:0:0:0:
86,226,68252,2,0,L|164:237,1,70,10|0,3:2|0:0,0:0:0:0:
239,321,68690,2,0,L|389:303,1,140,2|8,3:2|3:2,0:0:0:0:
271,218,69347,1,0,0:0:0:0:
325,100,69566,6,0,P|322:135|345:180,1,70,2|0,3:2|0:0,0:0:0:0:
356,191,69894,2,0,L|403:178,1,35,2|8,0:0|3:2,0:0:0:0:
443,94,70223,1,0,0:0:0:0:
489,182,70442,2,0,P|492:217|472:266,1,70,2|0,3:2|0:0,0:0:0:0:
458,273,70770,2,0,L|411:262,1,35,2|8,0:0|3:2,0:0:0:0:
356,191,71099,1,0,0:0:0:0:
259,286,71317,6,0,P|200:306|157:297,1,105,2|2,3:2|0:0,0:0:0:0:
138,264,71755,2,0,L|140:168,1,70,8|0,3:2|0:0,0:0:0:0:
167,66,72193,2,0,P|214:80|243:74,1,70,0|0,3:2|0:0,0:0:0:0:
350,48,72631,2,0,L|361:8,3,35,8|0|0|0,3:2|3:2|3:2|3:2,0:0:0:0:
318,73,73069,6,0,L|332:191,1,105,6|0,3:2|0:0,0:0:0:0:
316,218,73507,1,8,3:2:0:0:
216,273,73726,1,0,0:0:0:0:
122,207,73945,2,0,P|103:170|142:70,1,140,0|8,3:2|3:2,0:0:0:0:
195,148,74602,1,0,0:0:0:0:
193,278,74821,6,0,L|312:268,1,105,2|0,3:2|0:0,0:0:0:0:
309,235,75259,2,0,L|405:241,1,70,8|0,3:2|0:0,0:0:0:0:
463,155,75697,2,0,P|468:109|399:46,1,140,0|8,3:2|3:2,0:0:0:0:
314,124,76354,1,0,0:0:0:0:
175,60,76573,6,0,B|118:69|118:69|66:55,1,105,2|0,3:2|0:0,0:0:0:0:
37,30,77011,1,8,3:2:0:0:
53,166,77230,1,0,0:0:0:0:
179,221,77449,2,0,P|228:206|275:206,1,70,0|0,3:2|0:0,0:0:0:0:
349,269,77887,1,8,3:2:0:0:
241,320,78106,1,0,0:0:0:0:
146,232,78325,6,0,L|134:124,1,105,0|0,3:2|0:0,0:0:0:0:
112,85,78763,2,0,P|163:101|192:98,1,70,8|0,3:2|0:0,0:0:0:0:
251,44,79201,1,0,3:2:0:0:
266,149,79420,1,0,0:0:0:0:
331,64,79639,1,8,3:2:0:0:
426,119,79858,1,8,0:0:0:0:
426,119,79967,1,8,0:0:0:0:
426,119,80077,6,0,P|439:72|423:22,1,70,4|0,3:2|0:0,0:0:0:0:
283,44,80515,2,0,P|239:60|215:60,1,70,8|0,3:2|0:0,0:0:0:0:
175,29,80843,2,0,L|190:153,1,105,0|0,0:0|0:0,0:0:0:0:
187,233,81390,1,8,3:2:0:0:
319,207,81609,1,0,0:0:0:0:
187,133,81828,6,0,P|121:105|37:120,2,140,0|8|0,3:2|3:2|3:0,0:0:0:0:
131,335,83142,2,0,L|72:326,3,35,8|0|0|0,3:2|3:2|3:2|3:2,0:0:0:0:
170,327,83580,6,0,L|279:320,1,105,4|0,3:2|0:0,0:0:0:0:
292,297,84018,2,0,P|335:286|368:286,1,70,8|0,3:2|0:0,0:0:0:0:
462,238,84456,2,0,P|453:186|428:140,1,105,4|0,3:2|0:2,0:0:0:0:
402,114,84894,2,0,P|396:60|405:32,1,70,8|0,3:2|0:0,0:0:0:0:
301,101,85332,6,0,L|225:96,1,70,4|0,3:2|0:0,0:0:0:0:
206,209,85770,2,0,L|275:204,1,70,8|0,3:2|0:0,0:0:0:0:
140,106,86208,2,0,L|64:101,1,70,0|0,3:2|0:0,0:0:0:0:
33,211,86646,2,0,L|102:206,1,70,8|0,3:2|0:0,0:0:0:0:
232,279,87084,6,0,P|157:307|86:278,2,140,4|8|0,3:2|3:2|3:2,0:0:0:0:
268,169,88179,1,0,0:0:0:0:
193,77,88398,2,0,L|98:68,1,70,8|0,3:2|0:0,0:0:0:0:
55,180,88836,6,0,L|150:171,1,70,0|0,3:2|0:0,0:0:0:0:
229,212,89274,2,0,P|273:217|325:198,1,70,8|0,3:2|0:0,0:0:0:0:
365,143,89712,2,0,L|363:72,1,70,0|0,3:2|0:0,0:0:0:0:
270,9,90150,1,8,3:2:0:0:
215,91,90369,1,0,0:0:0:0:
364,74,90588,6,0,P|464:55|507:70,2,140,0|8|0,3:2|3:2|3:2,0:0:0:0:
301,177,91682,1,0,0:0:0:0:
190,151,91901,2,0,L|101:139,1,70,8|0,3:2|0:0,0:0:0:0:
89,263,92339,6,0,P|123:227|116:135,1,140,0|8,3:2|3:2,0:0:0:0:
28,81,92996,1,0,0:0:0:0:
119,28,93215,2,0,L|285:18,1,140,0|8,3:2|3:2,0:0:0:0:
333,113,93872,1,0,3:2:0:0:
333,113,93982,1,0,3:2:0:0:
333,113,94091,6,0,P|392:100|475:143,2,140,4|8|0,3:2|3:2|3:2,0:0:0:0:
270,197,95186,1,0,0:0:0:0:
151,181,95405,2,0,L|142:102,1,70,8|0,3:2|0:0,0:0:0:0:
63,225,95843,6,0,P|36:285|43:313,1,70,0|0,3:2|0:0,0:0:0:0:
134,341,96281,2,0,L|231:329,1,70,8|0,3:2|0:0,0:0:0:0:
281,287,96719,2,0,L|372:300,1,70,0|0,3:2|0:0,0:0:0:0:
415,214,97157,1,8,3:2:0:0:
434,322,97376,1,0,0:0:0:0:
302,200,97595,6,0,P|319:145|396:94,2,140,4|8|0,3:2|3:2|3:2,0:0:0:0:
281,287,98690,1,0,0:0:0:0:
199,280,98909,2,0,L|112:273,1,70,8|0,3:2|0:0,0:0:0:0:
80,189,99347,5,0,0:0:0:0:
172,101,99566,2,0,L|167:60,2,35,0|0|8,0:0|0:0|0:0,0:0:0:0:
295,148,100004,1,0,0:0:0:0:
295,148,100113,1,0,0:0:0:0:
295,148,100223,2,0,L|290:189,2,35,8|8|0,0:0|0:0|0:0,0:0:0:0:
406,71,100661,1,8,0:0:0:0:
459,197,100880,1,8,0:0:0:0:
459,197,100989,1,8,0:0:0:0:
459,197,101099,6,0,P|443:257|446:275,1,56,4|0,0:0|0:0,0:0:0:0:
348,305,101536,2,0,P|288:289|270:292,1,56,8|0,0:1|0:0,0:0:0:0:
266,307,101865,1,0,0:0:0:0:
266,307,101974,2,0,L|192:315,1,56,0|0,0:0|0:0,0:0:0:0:
117,265,102412,1,8,0:1:0:0:
198,182,102631,1,0,0:0:0:0:
393,195,103069,5,0,0:0:0:0:
324,130,103288,2,0,L|268:126,1,56,8|0,0:1|0:0,0:0:0:0:
283,25,103726,2,0,L|228:29,2,56,0|0|8,0:0|0:0|0:1,0:0:0:0:
416,71,104383,1,0,0:0:0:0:
333,217,104821,5,0,0:0:0:0:
323,129,105040,2,0,L|250:123,1,56,8|0,0:1|0:0,0:0:0:0:
166,164,105478,2,0,L|93:170,1,56,0|0,0:0|0:0,0:0:0:0:
30,103,105916,1,8,0:1:0:0:
42,81,106354,6,0,P|90:60|138:68,1,84,0|0,0:0|0:0,0:0:0:0:
152,91,106792,2,0,L|228:88,1,56,8|0,0:1|0:0,0:0:0:0:
326,61,107230,2,0,P|352:51|401:51,1,56,0|0,0:0|0:0,0:0:0:0:
407,158,107668,2,0,P|381:168|332:168,1,56,8|0,0:1|3:2,0:0:0:0:
318,158,107996,1,0,3:2:0:0:
318,158,108106,6,0,P|262:138|201:164,1,112,2|8,0:0|0:1,0:0:0:0:
146,248,108763,1,0,0:0:0:0:
52,175,108982,2,0,P|45:110|48:49,1,112,0|8,0:0|0:1,0:0:0:0:
158,26,109639,1,0,0:0:0:0:
245,100,109858,6,0,P|294:111|320:108,1,56,0|0,0:0|0:0,0:0:0:0:
392,56,110296,1,8,0:1:0:0:
414,173,110515,2,0,P|372:226|375:269,1,112,0|0,0:0|0:0,0:0:0:0:
302,340,111172,2,0,L|240:336,1,56,8|0,0:1|0:0,0:0:0:0:
134,256,111609,6,0,P|205:232|249:255,1,112,0|8,0:0|0:1,0:0:0:0:
316,165,112266,1,0,0:0:0:0:
316,165,112376,1,0,0:0:0:0:
316,165,112485,2,0,L|326:88,1,56,0|0,0:0|0:0,0:0:0:0:
409,44,112923,2,0,L|419:121,1,56,8|0,0:1|0:0,0:0:0:0:
465,206,113361,5,4,0:0:0:0:
263,273,113799,1,12,0:0:0:0:
470,319,114237,1,4,0:0:0:0:
311,177,114675,1,12,0:0:0:0:
263,273,114894,1,8,0:0:0:0:
263,273,115004,1,8,0:0:0:0:
263,273,115113,6,0,P|212:274|188:261,1,62.9999980773926,4|0,0:0|0:0,0:0:0:0:
123,181,115551,1,8,0:0:0:0:
123,181,115661,2,0,P|125:148|134:95,1,62.9999980773926,0|0,0:0|0:0,0:0:0:0:
159,95,115989,2,0,P|186:116|223:125,1,62.9999980773926,0|0,0:0|0:0,0:0:0:0:
317,86,116427,1,8,0:0:0:0:
317,86,116865,5,0,0:0:0:0:
390,175,117084,1,0,0:0:0:0:
349,282,117303,1,8,0:0:0:0:
349,282,117412,2,0,P|307:268|268:266,1,62.9999980773926,0|0,0:0|0:0,0:0:0:0:
255,288,117741,2,0,P|213:302|172:296,1,62.9999980773926,0|0,0:0|0:0,0:0:0:0:
103,227,118179,1,8,0:0:0:0:
103,227,118617,6,0,P|113:190|105:145,1,62.9999980773926,0|0,0:0|0:0,0:0:0:0:
75,52,119055,1,8,0:0:0:0:
75,52,119164,2,0,L|152:42,1,62.9999980773926,0|0,0:0|0:0,0:0:0:0:
165,78,119493,1,0,0:0:0:0:
299,57,119712,1,0,0:0:0:0:
400,146,119931,2,0,L|403:212,1,62.9999980773926,8|0,0:0|0:0,0:0:0:0:
290,298,120369,6,0,P|287:251|305:193,1,94.499997116089,0|0,0:0|0:0,0:0:0:0:
279,175,120807,2,0,L|204:168,1,62.9999980773926,8|0,0:0|0:0,0:0:0:0:
74,80,121244,2,0,P|127:62|192:86,1,125.999996154785,0|8,0:0|0:0,0:0:0:0:
296,153,121901,1,0,0:0:0:0:
296,153,122011,1,0,0:0:0:0:
296,153,122120,6,0,B|357:173|357:173|440:154,1,125.999996154785,4|8,0:0|0:0,0:0:0:0:
323,61,122777,2,0,L|187:46,1,125.999996154785,4|0,0:0|0:0,0:0:0:0:
81,131,123434,1,8,0:0:0:0:
81,131,123872,6,0,P|63:91|99:-1,1,125.999996154785,4|8,0:0|0:0,0:0:0:0:
167,73,124529,2,0,L|148:202,1,125.999996154785,0|0,0:0|0:0,0:0:0:0:
208,301,125186,2,0,B|217:269|217:269|212:216,1,62.9999980773926,8|0,0:0|0:0,0:0:0:0:
279,134,125624,6,0,P|218:117|158:132,1,125.999996154785,4|8,0:0|0:0,0:0:0:0:
323,39,126500,2,0,L|426:24,1,94.499997116089,0|0,0:0|0:0,0:0:0:0:
454,42,126938,2,0,P|445:87|452:116,1,62.9999980773926,8|0,0:0|0:0,0:0:0:0:
350,216,127376,6,0,P|312:220|250:202,1,94.499997116089,4|0,0:0|0:0,0:0:0:0:
243,181,127814,2,0,L|250:118,1,62.9999980773926,8|0,0:0|0:0,0:0:0:0:
144,59,128252,2,0,L|151:122,1,62.9999980773926,0|0,0:0|0:0,0:0:0:0:
74,228,128690,2,0,P|64:199|62:182,3,31.4999990386963,8|0|0|0,3:2|3:2|3:2|3:2,0:0:0:0:
112,251,129128,5,2,0:0:0:0:
112,251,129566,2,0,L|119:136,2,97.9999970092774,2|2|10,0:0|0:0|0:0,0:0:0:0:
200,323,130661,1,0,3:2:0:0:
200,323,130770,1,0,3:2:0:0:
200,323,130880,6,0,P|250:305|310:312,1,105,6|0,0:0|0:0,0:0:0:0:
332,317,131317,2,0,L|337:242,1,70,8|0,3:2|0:0,0:0:0:0:
418,172,131755,2,0,P|369:139|273:158,1,140,0|8,3:2|3:2,0:0:0:0:
209,244,132412,1,0,0:0:0:0:
77,179,132631,6,0,B|59:137|59:137|74:60,1,105,2|0,3:2|0:0,0:0:0:0:
92,63,133069,1,8,3:2:0:0:
186,146,133288,1,0,0:0:0:0:
298,106,133507,2,0,P|344:90|436:135,1,140,0|8,3:2|3:2,0:0:0:0:
472,245,134164,1,0,0:0:0:0:
355,291,134383,6,0,L|349:167,1,105,2|0,3:2|0:0,0:0:0:0:
323,160,134821,2,0,P|283:163|250:152,1,70,8|0,3:2|0:0,0:0:0:0:
170,70,135259,2,0,L|84:59,1,70,0|0,3:2|0:0,0:0:0:0:
32,150,135697,1,8,3:2:0:0:
71,257,135916,1,0,0:0:0:0:
178,218,136135,6,0,P|221:200|294:205,1,105,2|0,3:2|0:0,0:0:0:0:
305,217,136573,2,0,L|293:124,1,70,8|8,3:2|0:0,0:0:0:0:
307,115,136901,1,8,0:0:0:0:
307,115,137011,1,0,3:2:0:0:
397,161,137230,1,0,0:0:0:0:
349,293,137449,1,8,3:2:0:0:
238,201,137668,1,8,0:0:0:0:
238,201,137777,1,8,0:0:0:0:
238,201,137887,6,0,P|192:187|148:184,1,70,4|0,3:2|0:0,0:0:0:0:
87,89,138325,2,0,L|185:77,1,70,8|0,3:2|0:0,0:0:0:0:
182,99,138653,2,0,P|226:112|292:92,1,105,0|0,0:0|0:0,0:0:0:0:
232,19,139201,1,8,3:2:0:0:
282,98,139420,1,0,0:0:0:0:
221,198,139639,6,0,P|167:227|104:215,1,105,2|0,3:2|0:0,0:0:0:0:
92,203,140077,2,0,L|74:119,1,70,8|0,3:2|0:0,0:0:0:0:
168,48,140515,2,0,P|226:26|299:53,1,140,0|8,3:2|3:2,0:0:0:0:
345,159,141172,1,0,0:0:0:0:
267,257,141390,6,0,L|175:261,1,70,6|0,3:2|0:0,0:0:0:0:
166,248,141719,2,0,P|168:211|164:183,1,35,2|8,0:0|3:2,0:0:0:0:
100,102,142047,1,0,0:0:0:0:
213,29,142266,2,0,P|285:17|310:23,1,70,2|0,3:2|0:0,0:0:0:0:
310,36,142595,2,0,L|301:95,1,35,2|8,0:0|3:2,0:0:0:0:
230,172,142923,1,0,0:0:0:0:
324,257,143142,6,0,P|371:262|428:230,1,105,2|2,3:2|0:0,0:0:0:0:
428,199,143580,2,0,L|415:128,1,70,8|0,3:2|0:0,0:0:0:0:
302,47,144018,2,0,P|288:90|293:118,1,70,0|0,3:2|0:0,0:0:0:0:
201,217,144456,2,0,L|195:180,3,35,0|0|0|0,0:0|0:0|0:0|0:0,0:0:0:0:
216,253,144894,6,0,P|167:241|103:256,1,105,6|0,3:2|0:0,0:0:0:0:
84,274,145332,2,0,L|86:172,1,70,8|0,3:2|0:0,0:0:0:0:
176,115,145770,2,0,P|215:137|319:110,1,140,0|8,3:2|3:2,0:0:0:0:
245,42,146427,1,0,0:0:0:0:
176,115,146646,6,0,L|192:228,1,105,2|0,3:2|0:0,0:0:0:0:
168,240,147084,2,0,P|104:229|71:237,1,70,8|0,3:2|0:0,0:0:0:0:
119,341,147522,2,0,L|285:338,1,140,0|8,3:2|3:2,0:0:0:0:
332,232,148179,1,0,0:0:0:0:
332,232,148288,1,0,0:0:0:0:
332,232,148398,6,0,P|329:174|361:106,1,105,2|0,3:2|0:0,0:0:0:0:
370,116,148836,2,0,L|449:109,1,70,8|0,3:2|0:0,0:0:0:0:
332,232,149274,2,0,L|253:225,1,70,0|0,3:2|0:0,0:0:0:0:
171,127,149712,1,8,3:2:0:0:
152,241,149931,1,0,0:0:0:0:
297,140,150150,6,0,P|339:119|399:136,1,105,2|0,3:2|0:0,0:0:0:0:
406,166,150588,2,0,L|420:66,1,70,8|0,3:2|0:0,0:0:0:0:
406,57,150916,1,0,0:0:0:0:
406,57,151026,1,0,3:2:0:0:
297,140,151244,1,0,0:0:0:0:
321,258,151463,1,8,3:2:0:0:
206,219,151682,1,8,0:0:0:0:
206,219,151792,1,8,0:0:0:0:
206,219,151901,6,0,P|151:202|110:198,1,70,4|0,3:2|0:0,0:0:0:0:
63,67,152339,2,0,L|143:53,1,70,8|0,3:2|0:0,0:0:0:0:
139,28,152668,2,0,L|266:46,1,105,0|0,0:0|0:0,0:0:0:0:
313,145,153215,1,8,3:2:0:0:
425,117,153434,1,0,0:0:0:0:
313,145,153653,6,0,P|260:139|161:152,2,140,0|8|0,3:2|3:2|3:2,0:0:0:0:
137,295,154967,2,0,L|88:285,3,35,8|0|0|0,3:2|3:2|3:2|3:2,0:0:0:0:
164,315,155405,6,0,L|279:306,1,105,4|0,3:2|0:0,0:0:0:0:
302,293,155843,2,0,P|295:270|300:215,1,70,8|0,3:2|0:0,0:0:0:0:
374,142,156281,2,0,L|489:134,1,105,4|0,3:2|0:0,0:0:0:0:
497,100,156719,2,0,L|397:93,1,70,8|0,3:2|0:0,0:0:0:0:
250,67,157157,6,0,P|201:57|161:68,1,70,4|0,3:2|0:0,0:0:0:0:
105,141,157595,2,0,P|120:188|150:217,1,70,8|0,3:2|0:0,0:0:0:0:
250,186,158033,1,0,3:2:0:0:
250,186,158252,1,0,0:0:0:0:
250,67,158471,2,0,L|280:22,3,35,8|0|0|0,3:2|3:2|3:2|3:2,0:0:0:0:
240,96,158909,6,0,B|257:143|299:149|349:161|404:147|506:162|513:45|435:17|374:-37|281:27|335:106|349:161|381:200|415:238|465:231,1,560,0|0,0:0|0:0,0:0:0:0:
256,192,172923,12,2,174237,0:0:0:0:
144,103,174675,6,0,P|117:150|129:224,1,112,4|8,3:2|0:0,0:0:0:0:
186,279,175332,2,0,L|306:267,1,112,0|0,3:2|0:0,0:0:0:0:
380,184,175989,1,8,0:0:0:0:
380,184,176208,1,0,0:0:0:0:
303,93,176427,6,0,P|275:97|241:95,1,56,0|0,3:2|0:0,0:0:0:0:
165,39,176865,2,0,P|137:37|109:41,1,56,8|0,0:0|3:2,0:0:0:0:
48,124,177303,2,0,L|50:240,1,112,0|8,0:0|0:0,0:0:0:0:
128,305,177960,1,8,0:0:0:0:
220,240,178179,6,0,P|226:186|212:109,2,112,0|8|0,0:0|0:0|0:0,0:0:0:0:
150,51,179493,1,8,0:0:0:0:
276,31,179712,6,0,L|357:25,1,56,0|0,0:0|3:2,0:0:0:0:
426,90,180150,1,0,0:0:0:0:
333,165,180369,2,0,P|325:199|334:228,1,56,8|0,0:0|3:2,0:0:0:0:
232,188,180807,2,0,P|240:154|231:125,1,56,0|0,0:0|3:2,0:0:0:0:
152,50,181244,2,0,L|81:38,1,56,8|8,0:0|0:0,0:0:0:0:
61,45,181573,1,8,0:0:0:0:
61,45,181682,6,0,L|65:189,1,125.999996154785,4|8,3:2|0:0,0:0:0:0:
155,268,182339,2,0,P|197:259|284:269,1,125.999996154785,0|0,3:2|0:0,0:0:0:0:
375,183,182996,2,0,P|375:222|366:246,1,62.9999980773926,8|0,0:0|0:0,0:0:0:0:
292,161,183434,6,0,B|286:73|286:73|325:116,1,125.999996154785,0|8,3:2|0:0,0:0:0:0:
366,229,184091,2,0,P|300:257|231:234,1,125.999996154785,8|0,0:0|3:2,0:0:0:0:
163,165,184748,1,8,0:0:0:0:
111,249,184967,1,0,0:0:0:0:
78,112,185186,6,0,P|140:70|215:80,1,125.999996154785,4|8,3:2|0:0,0:0:0:0:
257,158,185843,2,0,L|384:143,1,125.999996154785,0|0,3:2|0:0,0:0:0:0:
451,229,186500,2,0,P|415:229|388:218,1,62.9999980773926,8|0,0:0|0:0,0:0:0:0:
462,137,186938,6,0,B|475:93|475:93|450:10,1,125.999996154785,0|8,3:2|0:0,0:0:0:0:
335,62,187595,1,0,3:2:0:0:
216,54,187814,2,0,L|114:48,1,94.499997116089,0|0,0:0|0:0,0:0:0:0:
81,62,188252,2,0,P|95:103|83:135,1,62.9999980773926,8|0,0:0|0:0,0:0:0:0:
147,238,188690,6,0,P|86:223|17:239,2,125.999996154785,4|8|0,3:2|0:0|0:0,0:0:0:0:
248,49,190004,1,8,0:0:0:0:
391,208,190442,6,0,L|393:362,2,125.999996154785,0|8|0,3:2|0:0|0:0,0:0:0:0:
312,96,191536,2,0,P|270:78|234:81,2,62.9999980773926,0|8|0,0:0|0:0|0:0,0:0:0:0:
233,191,192193,6,0,L|153:188,1,62.9999980773926,4|0,3:2|0:0,0:0:0:0:
212,308,192631,2,0,L|292:305,1,62.9999980773926,4|0,3:2|0:0,0:0:0:0:
233,191,193069,6,0,L|236:111,1,62.9999980773926,4|0,3:2|0:0,0:0:0:0:
212,308,193507,1,4,3:2:0:0:
323,267,193726,1,0,0:0:0:0:
61,216,195259,2,0,P|106:210|134:222,1,62.9999980773926,8|0,0:0|3:2,0:0:0:0:
160,224,195588,1,0,3:2:0:0:
160,224,195697,6,0,L|160:97,1,105,6|0,3:2|0:0,0:0:0:0:
186,89,196135,1,8,3:2:0:0:
282,178,196354,1,0,0:0:0:0:
160,224,196573,2,0,L|78:217,2,70,0|0|8,3:2|0:0|3:2,0:0:0:0:
261,312,197230,1,0,0:0:0:0:
379,226,197449,6,0,P|386:166|379:104,1,105,2|0,3:2|0:0,0:0:0:0:
366,95,197887,1,8,3:2:0:0:
281,203,198106,1,0,0:0:0:0:
281,203,198215,1,0,0:0:0:0:
281,203,198325,2,0,L|206:194,1,70,0|0,3:2|0:0,0:0:0:0:
146,93,198763,1,8,3:2:0:0:
146,93,198982,1,0,0:0:0:0:
65,190,199201,6,0,B|49:244|49:244|63:304,1,105,2|0,3:2|0:0,0:0:0:0:
84,317,199639,2,0,L|175:307,1,70,8|0,3:2|0:0,0:0:0:0:
247,212,200077,2,0,L|156:202,1,70,0|0,3:2|0:0,0:0:0:0:
128,98,200515,1,8,3:2:0:0:
65,190,200734,1,0,0:0:0:0:
217,124,200953,6,0,P|255:96|334:110,1,105,2|0,3:2|0:0,0:0:0:0:
336,122,201390,2,0,L|352:196,1,70,8|0,3:2|0:0,0:0:0:0:
335,224,201719,1,0,0:0:0:0:
335,224,201828,1,0,3:2:0:0:
272,323,202047,1,0,0:0:0:0:
177,190,202266,2,0,L|166:101,1,70,8|8,3:2|0:0,0:0:0:0:
253,236,202704,6,0,P|220:268|179:280,1,70,6|0,3:2|0:0,0:0:0:0:
72,216,203142,2,0,P|68:163|77:134,1,70,8|0,3:2|0:0,0:0:0:0:
97,129,203471,2,0,L|201:115,1,105,0|0,0:0|0:0,0:0:0:0:
278,15,204018,1,8,3:2:0:0:
365,130,204237,1,0,0:0:0:0:
219,126,204456,6,0,L|115:112,1,105,2|0,3:2|0:0,0:0:0:0:
74,105,204894,2,0,P|87:70|85:38,1,70,8|0,3:2|0:0,0:0:0:0:
229,58,205332,2,0,P|216:93|218:125,1,70,0|0,3:2|0:0,0:0:0:0:
299,207,205770,1,8,3:2:0:0:
362,109,205989,1,0,0:0:0:0:
362,109,206099,1,0,0:0:0:0:
362,109,206208,6,0,L|265:96,1,70,2|0,3:2|0:0,0:0:0:0:
263,55,206536,2,0,L|225:58,1,35,2|8,0:0|3:2,0:0:0:0:
68,146,206865,1,0,0:0:0:0:
151,256,207084,2,0,P|221:270|245:269,1,70,2|0,3:2|0:0,0:0:0:0:
246,253,207412,2,0,L|243:208,1,35,2|8,0:0|3:2,0:0:0:0:
317,104,207741,1,0,0:0:0:0:
156,50,207960,6,0,L|48:43,1,105,2|2,3:2|0:0,0:0:0:0:
21,52,208398,2,0,P|33:115|28:148,1,70,8|0,3:2|0:0,0:0:0:0:
32,150,208726,1,0,0:0:0:0:
32,150,208836,2,0,L|123:140,1,70,0|0,3:2|0:0,0:0:0:0:
194,203,209274,2,0,L|151:198,3,35,8|0|0|0,3:2|3:2|3:2|3:2,0:0:0:0:
229,189,209712,6,0,P|290:173|350:185,1,105,4|0,3:2|0:0,0:0:0:0:
352,202,210150,2,0,L|336:280,1,70,8|0,3:2|0:0,0:0:0:0:
459,250,210588,2,0,P|463:190|451:159,1,70,0|0,3:2|0:0,0:0:0:0:
353,133,211026,2,0,P|349:193|361:224,1,70,8|0,3:2|0:0,0:0:0:0:
424,82,211463,6,0,P|381:51|308:60,1,105,0|0,3:2|0:0,0:0:0:0:
294,66,211901,1,8,3:2:0:0:
351,201,212120,1,0,0:0:0:0:
216,258,212339,2,0,P|170:239|125:228,2,70,0|0|8,3:2|0:0|3:2,0:0:0:0:
306,325,212996,1,0,0:0:0:0:
413,250,213215,6,0,P|417:195|406:131,1,105,0|0,3:2|0:0,0:0:0:0:
374,117,213653,2,0,L|468:107,1,70,8|0,3:2|0:0,0:0:0:0:
350,27,214091,2,0,L|256:17,1,70,0|0,3:2|0:0,0:0:0:0:
160,73,214529,1,8,3:2:0:0:
146,178,214748,1,0,0:0:0:0:
251,192,214967,6,0,P|287:181|370:178,1,105,0|0,3:2|0:0,0:0:0:0:
380,204,215405,2,0,L|367:292,1,70,8|0,3:2|0:0,0:0:0:0:
363,297,215734,1,0,0:0:0:0:
363,297,215843,1,0,3:2:0:0:
234,257,216062,1,0,0:0:0:0:
380,204,216281,2,0,P|423:197|477:212,1,70,8|8,3:2|0:0,0:0:0:0:
478,213,216609,1,8,0:0:0:0:
478,213,216719,6,0,L|465:126,1,70,4|0,3:2|0:0,0:0:0:0:
333,69,217157,2,0,P|299:83|257:76,1,70,8|0,3:2|3:2,0:0:0:0:
230,60,217485,2,0,L|105:78,1,105,0|0,0:0|0:0,0:0:0:0:
81,208,218033,1,8,3:2:0:0:
201,195,218252,1,0,0:0:0:0:
201,195,218361,1,0,0:0:0:0:
201,195,218471,6,0,P|219:243|190:339,2,140,0|8|0,3:2|3:2|3:2,0:0:0:0:
375,90,219785,2,0,L|330:80,3,35,8|0|0|0,3:2|3:2|3:2|3:2,0:0:0:0:
407,91,220223,6,0,P|388:149|400:217,1,105,4|0,3:2|0:0,0:0:0:0:
410,222,220661,2,0,L|315:218,1,70,8|0,3:2|0:0,0:0:0:0:
160,173,221099,2,0,P|239:152|281:169,1,105,4|0,3:2|0:0,0:0:0:0:
283,141,221536,2,0,L|280:62,1,70,8|0,3:2|0:0,0:0:0:0:
147,44,221974,6,0,P|100:55|78:55,1,70,4|0,3:2|0:0,0:0:0:0:
91,184,222412,2,0,P|138:173|160:173,1,70,8|0,3:2|0:0,0:0:0:0:
155,337,222850,2,0,P|145:303|143:268,1,70,0|0,3:2|0:0,0:0:0:0:
271,227,223288,2,0,P|280:260|282:295,1,70,8|8,3:2|0:0,0:0:0:0:
297,328,223617,1,8,0:0:0:0:
297,328,223726,6,0,L|395:316,1,70,4|0,3:2|0:0,0:0:0:0:
459,236,224164,2,0,L|361:224,1,70,8|0,0:0|0:0,0:0:0:0:
299,148,224602,2,0,P|359:142|391:119,1,70,0|0,3:2|0:0,0:0:0:0:
414,48,225040,2,0,P|381:36|346:38,1,70,8|0,3:2|0:0,0:0:0:0:
299,148,225478,6,0,L|306:221,1,70,0|0,3:2|0:0,0:0:0:0:
221,324,225916,2,0,P|184:313|144:311,1,70,10|0,3:2|0:0,0:0:0:0:
117,322,226244,1,0,0:0:0:0:
117,322,226354,2,0,P|98:257|125:157,1,140,0|8,3:2|3:2,0:0:0:0:
205,106,227011,1,0,0:0:0:0:
294,196,227230,6,0,B|337:213|337:213|444:180,1,140,0|8,3:2|3:2,0:0:0:0:
458,72,227887,1,0,0:0:0:0:
332,22,228106,2,0,P|286:17|249:22,1,70,0|0,3:2|0:0,0:0:0:0:
202,106,228544,2,0,P|156:111|119:106,1,70,8|0,3:2|0:0,0:0:0:0:
57,193,228982,6,0,L|65:286,1,70,0|0,3:2|0:0,0:0:0:0:
188,314,229420,1,8,3:2:0:0:
188,314,229639,1,0,0:0:0:0:
285,197,229858,2,0,P|343:172|436:190,1,140,0|8,3:2|3:2,0:0:0:0:
367,283,230515,1,0,0:0:0:0:
367,283,230624,1,0,0:0:0:0:
367,283,230734,6,0,L|267:295,1,70,4|0,3:2|0:0,0:0:0:0:
205,239,231172,2,0,L|105:227,1,70,8|0,3:2|0:0,0:0:0:0:
43,138,231609,2,0,P|39:84|48:38,1,70,0|0,3:2|0:0,0:0:0:0:
182,65,232047,2,0,P|186:119|177:165,1,70,8|0,3:2|0:0,0:0:0:0:
283,220,232485,6,0,L|439:211,1,140,0|8,3:2|3:2,0:0:0:0:
486,114,233142,1,0,0:0:0:0:
391,51,233361,2,0,P|355:38|256:80,1,140,0|8,3:2|3:2,0:0:0:0:
196,158,234018,1,0,0:0:0:0:
65,122,234237,6,0,P|102:59|191:28,1,140,4|8,3:2|3:2,0:0:0:0:
196,158,234894,1,0,0:0:0:0:
86,245,235113,2,0,L|-4:233,1,70,0|0,3:2|0:0,0:0:0:0:
126,167,235551,2,0,L|216:155,1,70,8|0,3:2|0:0,0:0:0:0:
290,249,235989,5,0,0:0:0:0:
365,113,236208,2,0,L|367:71,2,35,0|0|8,0:0|0:0|0:0,0:0:0:0:
445,188,236646,2,0,L|447:146,2,35,0|0|0,0:0|0:0|0:0,0:0:0:0:
367,258,237084,1,0,0:0:0:0:
367,258,237193,1,0,0:0:0:0:
367,258,237303,2,0,L|369:216,3,35,0|0|0|0,0:0|0:0|0:0|0:0,0:0:0:0:
413,337,237741,5,4,0:0:0:0:
