osu file format v14

[General]
AudioFilename: audio.mp3
AudioLeadIn: 0
PreviewTime: 194383
Countdown: 0
SampleSet: Soft
StackLeniency: 0.7
Mode: 0
LetterboxInBreaks: 0
WidescreenStoryboard: 1

[Editor]
DistanceSpacing: 1.3
BeatDivisor: 2
GridSize: 8
TimelineZoom: 1

[Metadata]
Title:MEMORIA
TitleUnicode:MEMORIA
Artist:GFRIEND
ArtistUnicode:ジーフレンド
Creator:Hokichi
Version:Advanced
Source:
Tags:여자친구 yeojachingu yeo ja chin gu yeochin sowon yerin eunha yuju sinbi sinb umji 소원 예린 은하 유주 신비 엄지 메모리아 girlfriend g-friend korean kpop source music bighit ibighit soumu
BeatmapID:1775335
BeatmapSetID:848112

[Difficulty]
HPDrainRate:4.7
CircleSize:3.3
OverallDifficulty:4.8
ApproachRate:6
SliderMultiplier:1.3
SliderTickRate:1

[Events]
//Background and Video events
0,0,"bg.png",0,0
//Break Periods
2,160661,173187
//Storyboard Layer 0 (Background)
//Storyboard Layer 1 (Fail)
//Storyboard Layer 2 (Pass)
//Storyboard Layer 3 (Foreground)
//Storyboard Layer 4 (Overlay)
//Storyboard Sound Samples

[TimingPoints]
1245,437.956204379562,4,2,1,50,1,0
1245,-100,4,2,1,50,0,0
11318,-100,4,2,1,50,0,0
11755,-100,4,2,1,50,0,0
15259,-100,4,2,1,50,0,0
29274,-100,4,2,1,50,0,0
43288,-100,4,2,1,50,0,0
55551,-100,4,2,1,50,0,0
57084,-100,4,2,1,5,0,0
57303,-100,4,2,1,50,0,0
57741,-100,4,2,1,50,0,0
59055,-100,4,2,1,60,0,1
86974,-100,4,2,1,60,0,0
87084,-100,4,2,1,60,0,1
89602,-100,4,2,1,5,0,1
89712,-100,4,2,1,60,0,1
96609,-100,4,2,1,5,0,1
96719,-100,4,2,1,60,0,1
101099,-100,4,2,1,50,0,0
115113,-100,4,2,1,50,0,0
129566,-100,4,2,1,50,0,0
130880,-100,4,2,1,60,0,1
160661,-100,4,2,1,5,0,0
174237,-100,4,2,1,50,0,0
174675,-100,4,2,1,50,0,0
181682,-100,4,2,1,50,0,0
195697,-100,4,2,1,50,0,1
223617,-100,4,2,1,50,0,0
223726,-100,4,2,1,50,0,1
237741,-100,4,2,1,50,0,0

[Colours]
Combo1 : 176,153,145
Combo2 : 255,213,115
Combo3 : 217,179,179
Combo4 : 91,173,255
Combo5 : 53,53,140
Combo6 : 77,74,104
SliderBorder : 252,207,250
SliderTrackOverride : 78,35,85

[HitObjects]
211,259,1026,5,0,0:0:0:0:
211,259,1245,2,0,P|275:288|388:215,1,195,2|2,0:0|0:0,0:0:0:0:
395,151,2120,1,0,0:0:0:0:
155,67,2777,1,0,0:0:0:0:
155,67,2996,2,0,P|119:146|178:249,1,195,2|0,0:0|0:0,0:0:0:0:
243,264,3872,2,0,L|382:237,1,130,2|2,0:0|0:0,0:0:0:0:
238,132,4748,6,0,B|182:98|182:98|45:121,2,195,2|2|2,0:0|0:0|0:0,0:0:0:0:
398,184,6500,2,0,P|331:189|300:312,2,195,2|2|2,0:0|0:0|0:0,0:0:0:0:
378,266,8033,1,0,0:0:0:0:
378,266,8252,6,0,P|335:206|211:186,1,195,2|0,0:0|0:0,0:0:0:0:
164,245,9128,1,0,0:0:0:0:
384,119,9785,1,0,0:0:0:0:
384,119,10004,2,0,P|304:81|225:145,1,195,2|0,0:0|0:0,0:0:0:0:
173,205,10880,2,0,L|311:193,1,130,0|0,0:0|0:0,0:0:0:0:
170,299,11755,6,0,P|100:322|45:301,1,130,4|8,0:0|0:0,0:0:0:0:
147,166,12631,2,0,P|216:142|227:141,1,65,0|0,3:2|0:0,0:0:0:0:
290,158,13069,1,8,0:0:0:0:
443,228,13507,1,4,0:0:0:0:
278,266,13945,1,12,0:0:0:0:
241,100,14383,1,4,0:0:0:0:
407,69,14821,1,12,0:0:0:0:
455,232,15259,5,4,0:0:0:0:
293,280,15697,2,0,L|218:283,1,65,8|0,0:1|0:0,0:0:0:0:
144,265,16135,2,0,P|119:193|133:125,1,130,0|8,0:0|0:1,0:0:0:0:
268,49,17011,2,0,L|399:48,1,130,0|8,0:0|0:1,0:0:0:0:
446,117,17668,2,0,P|431:188|453:241,1,130,0|0,0:0|0:0,0:0:0:0:
406,310,18325,1,8,0:1:0:0:
239,278,18763,6,0,P|179:248|114:248,1,130,0|8,0:0|0:1,0:0:0:0:
42,207,19420,1,0,0:0:0:0:
91,138,19639,2,0,L|233:122,1,130,0|8,0:0|0:1,0:0:0:0:
375,55,20515,2,0,P|451:45|508:76,1,130,0|8,0:0|0:1,0:0:0:0:
482,150,21172,2,0,P|406:160|349:129,1,130,0|0,0:0|0:0,0:0:0:0:
293,85,21828,1,8,0:1:0:0:
142,162,22266,6,0,B|128:229|128:229|152:304,2,130,0|8|0,0:0|0:1|0:0,0:0:0:0:
266,47,23580,1,8,0:1:0:0:
289,214,24018,2,0,P|371:201|403:142,1,130,0|8,0:0|0:1,0:0:0:0:
318,133,24675,2,0,L|172:108,1,130,0|0,0:0|0:1,0:0:0:0:
131,172,25332,1,8,0:1:0:0:
230,35,25770,6,0,P|294:19|368:46,1,130,0|8,0:0|0:1,0:0:0:0:
382,116,26427,1,0,0:0:0:0:
382,116,26646,2,0,L|381:265,1,130,0|8,0:0|0:1,0:0:0:0:
228,319,27522,2,0,P|199:264|214:198,1,130,0|8,0:0|0:1,0:0:0:0:
305,58,28398,2,0,P|338:113|319:179,1,130,0|8,0:0|0:1,0:0:0:0:
189,277,29274,6,0,L|317:256,1,130,0|8,0:0|0:1,0:0:0:0:
342,175,29931,1,0,0:0:0:0:
342,175,30150,2,0,P|393:170|422:158,1,65,0|0,0:0|0:0,0:0:0:0:
405,80,30588,2,0,P|456:85|485:97,1,65,8|0,0:1|0:0,0:0:0:0:
507,165,31026,2,0,P|515:235|463:279,1,130,0|8,0:0|0:1,0:0:0:0:
392,271,31682,2,0,P|343:238|261:260,1,130,0|0,0:0|0:0,0:0:0:0:
217,309,32339,1,8,0:1:0:0:
62,241,32777,6,0,B|46:203|46:203|67:105,1,130,0|8,0:0|0:1,0:0:0:0:
126,57,33434,1,0,0:0:0:0:
126,57,33653,2,0,L|269:53,1,130,0|8,0:0|0:1,0:0:0:0:
306,121,34310,1,0,0:0:0:0:
367,62,34529,2,0,P|388:133|352:193,1,130,0|8,0:0|0:1,0:0:0:0:
292,224,35186,2,0,L|150:218,1,130,0|0,0:0|0:0,0:0:0:0:
98,161,35843,1,8,0:1:0:0:
256,101,36281,6,0,B|290:87|290:87|396:96,1,130,0|8,0:0|0:1,0:0:0:0:
437,159,36938,1,0,0:0:0:0:
437,159,37157,2,0,P|416:228|447:285,1,130,0|8,0:0|0:1,0:0:0:0:
379,337,37814,1,0,0:0:0:0:
379,337,38033,2,0,P|286:326|236:328,1,130,0|8,0:0|0:1,0:0:0:0:
167,307,38690,2,0,B|182:276|182:276|160:174,1,130,0|0,0:0|0:0,0:0:0:0:
87,142,39347,1,8,0:1:0:0:
255,156,39785,6,0,P|328:197|380:177,1,130,0|8,0:0|0:1,0:0:0:0:
430,128,40442,1,0,0:0:0:0:
498,178,40661,2,0,B|509:244|509:244|490:326,1,130,0|8,0:0|0:1,0:0:0:0:
421,346,41317,1,0,0:0:0:0:
421,346,41536,5,4,0:0:0:0:
326,205,41974,1,4,0:0:0:0:
190,305,42412,1,4,0:0:0:0:
226,140,42850,1,12,0:0:0:0:
344,260,43288,6,0,L|423:265,1,65,4|0,0:0|0:0,0:0:0:0:
473,209,43726,2,0,P|482:180|475:140,1,65,8|0,0:0|0:0,0:0:0:0:
412,91,44164,2,0,L|277:75,1,130,0|8,0:0|0:0,0:0:0:0:
134,157,45040,2,0,P|175:147|219:147,1,65,0|0,0:0|0:0,0:0:0:0:
249,213,45478,2,0,P|290:223|335:218,1,65,8|0,0:0|0:0,0:0:0:0:
390,189,45916,2,0,P|405:148|393:60,1,130,0|8,0:0|0:0,0:0:0:0:
233,117,46792,6,0,P|235:80|230:44,2,65,0|0|8,0:0|0:0|0:0,0:0:0:0:
168,172,47449,1,0,0:0:0:0:
168,172,47668,2,0,P|160:235|190:309,1,130,0|8,0:0|0:0,0:0:0:0:
259,330,48325,1,0,0:0:0:0:
319,271,48544,2,0,P|386:244|419:255,2,97.5,0|0|0,0:0|0:0|0:0,0:0:0:0:
259,330,49420,2,0,L|116:322,1,130,0|8,0:0|0:0,0:0:0:0:
174,123,50296,6,0,P|108:80|41:95,1,130,4|8,0:0|0:0,0:0:0:0:
91,173,50953,2,0,L|104:315,1,130,4|0,0:0|0:0,0:0:0:0:
177,341,51609,1,8,0:0:0:0:
296,221,52047,2,0,P|309:156|278:92,1,130,4|8,0:0|0:0,0:0:0:0:
199,104,52704,2,0,P|186:169|217:233,1,130,4|0,0:0|0:0,0:0:0:0:
266,289,53361,2,0,P|274:331|269:356,1,65,8|0,0:0|0:0,0:0:0:0:
189,326,53799,6,0,L|45:318,1,130,4|8,0:0|0:0,0:0:0:0:
204,232,54675,2,0,P|263:208|319:210,2,97.5,0|0|0,0:0|0:0|0:0,0:0:0:0:
136,181,55551,2,0,P|77:157|14:157,2,97.5,2|2|2,0:0|0:0|0:0,0:0:0:0:
204,231,56427,2,0,P|306:200|229:177,1,260,2|0,0:0|0:0,0:0:0:0:
336,25,58617,1,8,0:0:0:0:
391,184,59055,6,0,P|319:207|260:179,1,130,6|8,3:2|3:2,0:0:0:0:
206,130,59712,1,0,0:0:0:0:
206,130,59931,2,0,P|148:116|75:142,1,130,0|8,3:2|3:2,0:0:0:0:
68,220,60588,1,0,0:0:0:0:
68,220,60807,2,0,L|208:231,1,130,2|8,3:2|3:2,0:0:0:0:
279,210,61463,1,0,3:2:0:0:
279,210,61682,1,0,3:2:0:0:
317,45,62120,1,8,3:2:0:0:
397,193,62558,6,0,B|410:126|410:126|390:58,1,130,2|8,3:2|3:2,0:0:0:0:
312,38,63215,1,0,0:0:0:0:
312,38,63434,2,0,P|229:31|173:56,1,130,0|8,3:2|3:2,0:0:0:0:
112,88,64091,1,0,0:0:0:0:
112,88,64310,2,0,L|9:61,2,97.5,0|0|0,3:2|0:0|0:0,0:0:0:0:
132,171,65186,2,0,P|173:162|268:204,1,130,0|10,3:2|3:2,0:0:0:0:
407,117,66062,6,0,L|317:106,1,65,4|0,3:2|0:0,0:0:0:0:
291,41,66500,2,0,P|257:93|282:165,1,130,8|0,3:2|3:2,0:0:0:0:
390,276,67376,2,0,L|325:268,1,65,8|0,3:2|0:0,0:0:0:0:
260,322,67814,2,0,P|198:332|126:308,2,130,2|10|2,3:2|3:2|3:2,0:0:0:0:
273,153,69128,1,8,3:2:0:0:
117,87,69566,6,0,L|-2:72,2,97.5,2|2|0,3:2|0:0|0:0,0:0:0:0:
200,73,70442,2,0,L|321:56,2,97.5,2|2|0,3:2|0:0|0:0,0:0:0:0:
161,148,71317,2,0,P|148:200|180:264,2,97.5,2|2|0,3:2|0:0|0:0,0:0:0:0:
230,196,72193,2,0,L|377:201,1,130,0|8,3:2|3:2,0:0:0:0:
234,86,73069,6,0,P|168:74|110:95,1,130,6|8,3:2|3:2,0:0:0:0:
58,161,73726,1,0,0:0:0:0:
58,161,73945,2,0,L|69:306,1,130,0|8,3:2|3:2,0:0:0:0:
144,327,74602,1,0,0:0:0:0:
144,327,74821,2,0,P|203:310|273:336,1,130,2|8,3:2|3:2,0:0:0:0:
350,317,75478,1,0,0:0:0:0:
350,317,75697,1,0,3:2:0:0:
367,148,76135,1,8,3:2:0:0:
434,327,76573,6,0,P|452:255|429:193,1,130,2|8,3:2|3:2,0:0:0:0:
377,141,77230,1,0,0:0:0:0:
377,141,77449,2,0,P|315:151|241:123,1,130,0|8,3:2|3:2,0:0:0:0:
187,75,78106,1,0,0:0:0:0:
114,121,78325,2,0,P|98:69|123:11,2,97.5,0|0|0,3:2|0:0|0:0,0:0:0:0:
186,184,79201,2,0,P|210:233|181:315,1,130,0|8,3:2|3:2,0:0:0:0:
129,109,80077,6,0,L|206:95,1,65,4|0,3:2|0:0,0:0:0:0:
265,141,80515,2,0,P|306:163|393:128,1,130,8|0,3:2|3:2,0:0:0:0:
239,231,81390,1,8,3:2:0:0:
324,86,81828,2,0,P|268:60|191:104,2,130,0|8|0,3:2|3:2|3:0,0:0:0:0:
296,253,83142,2,0,L|293:318,1,65,8|0,3:2|3:2,0:0:0:0:
209,330,83580,6,0,B|160:317|160:317|86:332,2,97.5,4|0|0,3:2|0:0|0:0,0:0:0:0:
293,317,84456,2,0,B|342:330|342:330|397:321,2,97.5,4|0|0,3:2|0:2|0:0,0:0:0:0:
278,233,85332,2,0,L|143:244,1,130,4|8,3:2|3:2,0:0:0:0:
19,353,86208,2,0,L|160:342,1,130,0|8,3:2|3:2,0:0:0:0:
233,345,86865,1,0,0:0:0:0:
290,283,87084,6,0,P|313:216|294:157,2,130,4|8|0,3:2|3:2|3:2,0:0:0:0:
121,296,88398,1,8,3:2:0:0:
113,126,88836,1,0,3:2:0:0:
267,58,89274,2,0,L|415:34,2,130,8|0|8,3:2|3:2|3:2,0:0:0:0:
113,130,90588,6,0,P|152:208|133:260,1,130,0|8,3:2|3:2,0:0:0:0:
303,195,91463,2,0,P|264:117|283:65,1,130,0|8,3:2|3:2,0:0:0:0:
431,142,92339,1,0,3:2:0:0:
405,310,92777,2,0,L|478:294,1,65,8|0,3:2|0:0,0:0:0:0:
501,218,93215,2,0,P|482:154|504:81,1,130,0|8,3:2|3:2,0:0:0:0:
421,53,93872,1,0,3:2:0:0:
353,104,94091,6,0,L|219:88,2,130,4|8|0,3:2|3:2|3:2,0:0:0:0:
427,256,95405,1,8,3:2:0:0:
273,326,95843,1,0,3:2:0:0:
355,177,96281,2,0,P|427:173|472:138,1,130,8|0,3:2|3:2,0:0:0:0:
311,81,97157,2,0,L|215:76,1,65,8|0,3:2|0:0,0:0:0:0:
189,14,97595,6,0,L|198:143,1,130,4|8,3:2|3:2,0:0:0:0:
262,200,98252,1,0,0:0:0:0:
237,280,98471,2,0,P|182:294|116:253,1,130,0|8,3:2|3:2,0:0:0:0:
139,91,99347,1,0,0:0:0:0:
301,45,99785,1,8,0:0:0:0:
348,207,100223,1,8,0:0:0:0:
185,254,100661,1,8,0:0:0:0:
139,91,101099,5,4,0:0:0:0:
11,201,101536,2,0,L|7:284,1,65,8|0,0:1|0:0,0:0:0:0:
71,322,101974,2,0,P|139:313|207:337,1,130,0|8,0:0|0:1,0:0:0:0:
275,300,102631,1,0,0:0:0:0:
334,240,102850,2,0,P|347:176|350:160,2,65,0|0|8,0:0|0:0|0:1,0:0:0:0:
359,320,103507,1,0,0:0:0:0:
275,300,103726,2,0,L|131:293,1,130,0|8,0:0|0:1,0:0:0:0:
65,264,104383,1,0,0:0:0:0:
46,181,104602,6,0,P|37:125|52:53,1,130,0|8,0:0|0:1,0:0:0:0:
131,24,105259,1,0,0:0:0:0:
181,91,105478,2,0,L|328:70,1,130,0|8,0:0|0:1,0:0:0:0:
406,211,106354,2,0,P|389:155|394:92,2,97.5,0|0|0,0:0|0:0|0:0,0:0:0:0:
479,258,107230,2,0,P|426:294|364:284,1,130,0|8,0:0|0:1,0:0:0:0:
284,134,108106,6,0,L|285:275,1,130,2|8,0:0|0:1,0:0:0:0:
211,307,108763,1,0,0:0:0:0:
211,307,108982,2,0,P|183:290|79:312,1,130,0|8,0:0|0:1,0:0:0:0:
88,217,109639,1,0,0:0:0:0:
88,217,109858,2,0,L|220:181,1,130,0|8,0:0|0:1,0:0:0:0:
241,102,110515,2,0,B|280:124|280:124|367:90,1,130,0|0,0:0|0:0,0:0:0:0:
422,35,111172,1,8,0:1:0:0:
355,189,111609,6,0,P|345:251|379:332,1,130,0|8,0:0|0:1,0:0:0:0:
288,349,112266,1,0,0:0:0:0:
223,293,112485,2,0,L|75:280,1,130,0|8,0:0|0:1,0:0:0:0:
41,214,113142,1,0,0:0:0:0:
27,130,113361,5,4,0:0:0:0:
189,83,113799,1,12,0:0:0:0:
239,244,114237,1,4,0:0:0:0:
79,298,114675,1,12,0:0:0:0:
169,156,115113,6,0,P|205:137|251:139,1,65,4|0,0:0|0:0,0:0:0:0:
302,176,115551,2,0,P|338:195|384:193,1,65,8|0,0:0|0:0,0:0:0:0:
441,167,115989,2,0,L|432:27,1,130,0|8,0:0|0:0,0:0:0:0:
263,37,116865,2,0,L|249:119,1,65,0|0,0:0|0:0,0:0:0:0:
171,128,117303,2,0,L|183:191,1,65,8|0,0:0|0:0,0:0:0:0:
119,247,117741,2,0,P|177:277|252:244,1,130,0|8,0:0|0:0,0:0:0:0:
402,229,118617,6,0,P|404:272|395:301,2,65,0|0|8,0:0|0:0|0:0,0:0:0:0:
381,146,119274,1,0,0:0:0:0:
313,196,119493,2,0,P|287:273|318:325,1,130,0|8,0:0|0:0,0:0:0:0:
374,259,120150,1,0,0:0:0:0:
374,259,120369,2,0,P|431:242|494:252,2,97.5,0|0|0,0:0|0:0|0:0,0:0:0:0:
304,307,121244,2,0,L|165:296,1,130,0|8,0:0|0:0,0:0:0:0:
26,197,122120,6,0,P|28:109|66:82,1,130,4|8,0:0|0:0,0:0:0:0:
137,109,122777,2,0,P|135:197|94:223,1,130,4|0,0:0|0:0,0:0:0:0:
26,197,123434,1,8,0:0:0:0:
168,287,123872,2,0,L|319:279,1,130,4|8,0:0|0:0,0:0:0:0:
364,227,124529,2,0,B|344:198|344:198|362:101,1,130,0|0,0:0|0:0,0:0:0:0:
294,52,125186,2,0,P|231:65|209:67,1,65,8|0,0:0|0:0,0:0:0:0:
151,34,125624,6,0,L|19:31,1,130,4|8,0:0|0:0,0:0:0:0:
159,128,126500,2,0,P|206:141|269:113,2,97.5,0|0|0,0:0|0:0|0:0,0:0:0:0:
119,199,127376,2,0,P|72:186|11:210,2,97.5,4|0|0,0:0|0:0|0:0,0:0:0:0:
158,274,128252,2,0,L|317:261,2,130,0|8|2,0:0|3:2|0:0,0:0:0:0:
211,150,130442,2,0,L|215:75,1,65,10|0,0:0|3:2,0:0:0:0:
278,29,130880,6,0,P|332:60|394:45,1,130,6|8,0:0|3:2,0:0:0:0:
461,96,131536,1,0,0:0:0:0:
461,96,131755,2,0,L|451:239,1,130,0|8,3:2|3:2,0:0:0:0:
378,268,132412,1,0,0:0:0:0:
318,208,132631,2,0,B|281:192|281:192|184:216,1,130,2|8,3:2|3:2,0:0:0:0:
144,282,133288,1,0,0:0:0:0:
144,282,133507,1,0,3:2:0:0:
205,123,133945,1,8,3:2:0:0:
42,168,134383,6,0,P|29:96|62:38,1,130,2|8,3:2|3:2,0:0:0:0:
135,25,135040,1,0,0:0:0:0:
135,25,135259,2,0,L|267:18,1,130,0|8,3:2|3:2,0:0:0:0:
330,72,135916,1,0,0:0:0:0:
330,72,136135,2,0,P|393:54|433:57,2,97.5,2|0|8,3:2|0:0|0:0,0:0:0:0:
296,150,137011,2,0,L|159:146,1,130,0|8,3:2|3:2,0:0:0:0:
65,282,137887,6,0,L|161:288,1,65,4|0,3:2|0:0,0:0:0:0:
197,336,138325,2,0,P|222:288|210:210,1,130,8|0,3:2|3:2,0:0:0:0:
125,69,139201,2,0,L|122:146,1,65,8|0,3:2|0:0,0:0:0:0:
190,184,139639,2,0,P|240:160|322:168,2,130,2|8|0,3:2|3:2|3:2,0:0:0:0:
113,335,140953,1,8,3:2:0:0:
25,190,141390,6,0,P|11:147|30:85,2,97.5,6|2|0,3:2|0:0|0:0,0:0:0:0:
109,189,142266,2,0,P|120:142|106:96,2,97.5,2|2|0,3:2|0:0|0:0,0:0:0:0:
73,265,143142,2,0,L|79:371,2,97.5,2|2|0,3:2|0:0|0:0,0:0:0:0:
109,189,144018,2,0,L|251:182,1,130,0|0,3:2|0:0,0:0:0:0:
320,204,144675,1,0,0:0:0:0:
324,288,144894,6,0,B|269:301|269:301|195:281,1,130,6|8,3:2|3:2,0:0:0:0:
146,214,145551,1,0,0:0:0:0:
146,214,145770,2,0,P|112:276|137:344,1,130,0|8,3:2|3:2,0:0:0:0:
208,350,146427,1,0,0:0:0:0:
269,291,146646,2,0,L|407:278,1,130,2|8,3:2|3:2,0:0:0:0:
459,220,147303,1,0,0:0:0:0:
470,136,147522,1,0,3:2:0:0:
311,197,147960,1,8,3:2:0:0:
362,36,148398,6,0,P|309:51|232:34,1,130,2|8,3:2|3:2,0:0:0:0:
174,94,149055,1,0,0:0:0:0:
174,94,149274,2,0,L|187:237,1,130,0|8,3:2|3:2,0:0:0:0:
122,280,149931,1,0,0:0:0:0:
122,280,150150,2,0,L|18:294,2,97.5,2|0|0,3:2|0:0|0:0,0:0:0:0:
185,223,151026,2,0,P|223:172|299:160,1,130,0|8,3:2|3:2,0:0:0:0:
273,241,151682,1,8,0:0:0:0:
273,241,151901,6,0,L|357:242,1,65,4|0,3:2|0:0,0:0:0:0:
421,228,152339,2,0,P|440:170|429:98,1,130,8|0,3:2|3:2,0:0:0:0:
267,59,153215,2,0,P|256:100|265:131,1,65,8|0,3:2|0:0,0:0:0:0:
306,192,153653,6,0,L|450:173,2,130,0|8|0,3:2|3:2|3:2,0:0:0:0:
235,345,154967,2,0,L|157:329,1,65,8|0,3:2|3:2,0:0:0:0:
136,254,155405,6,0,P|98:286|86:340,2,97.5,4|0|0,3:2|0:0|0:0,0:0:0:0:
193,191,156281,2,0,P|195:147|163:97,2,97.5,4|0|0,3:2|0:0|0:0,0:0:0:0:
214,273,157157,6,0,L|362:263,1,130,4|8,3:2|3:2,0:0:0:0:
458,139,158033,2,0,L|310:129,1,130,0|8,3:2|3:2,0:0:0:0:
244,116,158690,1,0,3:2:0:0:
232,32,158909,5,0,0:0:0:0:
84,104,174237,6,0,L|167:93,1,65,2|2,0:0|0:0,0:0:0:0:
223,135,174675,6,0,P|219:182|261:251,1,130,4|8,3:2|0:0,0:0:0:0:
344,266,175332,2,0,L|473:252,1,130,0|0,3:2|0:0,0:0:0:0:
493,169,175989,1,8,0:0:0:0:
343,89,176427,2,0,P|276:98|264:97,1,65,0|0,3:2|0:0,0:0:0:0:
203,58,176865,2,0,P|136:49|124:50,1,65,8|0,0:0|3:2,0:0:0:0:
76,106,177303,2,0,L|67:246,1,130,0|8,0:0|0:0,0:0:0:0:
146,268,177960,1,8,0:0:0:0:
186,193,178179,6,0,P|256:170|322:175,2,130,0|8|0,0:0|0:0|0:0,0:0:0:0:
240,353,179493,1,8,0:0:0:0:
240,353,179712,2,0,P|269:353|346:271,1,130,0|0,0:0|0:0,0:0:0:0:
260,266,180369,2,0,P|226:221|228:145,1,130,8|0,0:0|0:0,0:0:0:0:
367,57,181244,1,8,0:0:0:0:
439,210,181682,6,0,L|295:186,1,130,4|8,3:2|0:0,0:0:0:0:
256,123,182339,2,0,L|126:133,1,130,0|0,3:2|0:0,0:0:0:0:
50,171,182996,2,0,P|47:203|53:235,1,65,8|0,0:0|0:0,0:0:0:0:
92,310,183434,2,0,B|156:326|156:326|218:312,1,130,0|8,3:2|0:0,0:0:0:0:
288,264,184091,1,8,0:0:0:0:
288,264,184529,2,0,P|334:250|358:253,2,65,0|8|0,3:2|0:0|0:0,0:0:0:0:
209,232,185186,6,0,L|50:218,2,130,4|8|0,3:2|0:0|0:0,0:0:0:0:
359,310,186500,1,8,0:0:0:0:
270,166,186938,2,0,P|261:95|289:33,2,130,0|8|0,3:2|0:0|0:0,0:0:0:0:
350,315,188252,1,8,0:0:0:0:
193,251,188690,6,0,L|336:241,2,130,4|8|0,3:2|0:0|0:0,0:0:0:0:
319,137,190004,1,8,0:0:0:0:
387,291,190442,2,0,L|244:281,2,130,0|8|0,3:2|0:0|0:0,0:0:0:0:
360,124,191755,1,8,0:0:0:0:
205,191,192193,6,0,P|194:150|203:117,1,65,4|0,3:2|0:0,0:0:0:0:
256,67,192631,2,0,P|297:56|330:65,1,65,4|0,3:2|0:0,0:0:0:0:
380,118,193069,2,0,P|391:159|382:192,1,65,4|0,3:2|0:0,0:0:0:0:
329,242,193507,2,0,P|288:253|255:244,1,65,4|0,3:2|0:0,0:0:0:0:
136,142,195259,2,0,L|215:135,1,65,8|0,0:0|3:2,0:0:0:0:
274,178,195697,6,0,P|261:258|311:310,1,130,6|8,3:2|3:2,0:0:0:0:
339,229,196354,1,0,0:0:0:0:
339,229,196573,2,0,P|356:186|349:147,2,65,0|0|8,3:2|0:0|3:2,0:0:0:0:
286,295,197230,1,0,0:0:0:0:
286,295,197449,2,0,L|144:291,1,130,2|8,3:2|3:2,0:0:0:0:
81,250,198106,1,0,0:0:0:0:
81,250,198325,2,0,P|90:189|68:115,1,130,0|8,3:2|3:2,0:0:0:0:
104,44,198982,1,0,0:0:0:0:
104,44,199201,6,0,L|245:36,1,130,2|8,3:2|3:2,0:0:0:0:
295,95,199858,1,0,0:0:0:0:
295,95,200077,2,0,P|285:162|309:222,1,130,0|8,3:2|3:2,0:0:0:0:
329,300,200734,1,0,0:0:0:0:
244,303,200953,2,0,P|193:283|135:285,2,97.5,2|0|0,3:2|0:0|0:0,0:0:0:0:
312,352,201828,2,0,L|443:347,1,130,0|8,3:2|3:2,0:0:0:0:
480,271,202485,1,8,0:0:0:0:
480,271,202704,6,0,B|463:238|463:237|467:188,1,65,6|0,3:2|0:0,0:0:0:0:
430,131,203142,2,0,B|392:129|392:128|351:100,1,65,8|0,3:2|0:0,0:0:0:0:
291,77,203580,2,0,L|155:75,1,130,0|8,3:2|3:2,0:0:0:0:
105,139,204237,1,0,0:0:0:0:
105,139,204456,2,0,B|92:181|92:181|110:273,2,130,2|8|0,3:2|3:2|3:2,0:0:0:0:
262,76,205770,2,0,L|334:66,1,65,8|0,3:2|0:0,0:0:0:0:
400,104,206208,6,0,P|447:99|502:117,2,97.5,2|2|0,3:2|0:0|0:0,0:0:0:0:
406,188,207084,2,0,P|449:207|485:254,2,97.5,2|2|0,3:2|0:0|0:0,0:0:0:0:
366,263,207960,2,0,P|393:301|400:363,2,97.5,2|2|0,3:2|0:0|0:0,0:0:0:0:
281,256,208836,2,0,L|131:259,1,130,0|8,3:2|3:2,0:0:0:0:
79,213,209493,1,0,3:2:0:0:
147,163,209712,6,0,P|162:112|129:31,1,130,4|8,3:2|3:2,0:0:0:0:
53,36,210369,1,0,0:0:0:0:
53,36,210588,2,0,L|54:176,1,130,0|8,3:2|3:2,0:0:0:0:
60,250,211244,1,0,0:0:0:0:
136,213,211463,2,0,L|270:190,1,130,0|8,3:2|3:2,0:0:0:0:
310,119,212120,1,0,0:0:0:0:
310,119,212339,2,0,P|361:124|384:111,2,65,0|0|8,3:2|0:0|3:2,0:0:0:0:
231,86,212996,1,0,0:0:0:0:
226,170,213215,6,0,L|218:310,1,130,0|8,3:2|3:2,0:0:0:0:
139,331,213872,1,0,0:0:0:0:
73,277,214091,2,0,P|66:232|74:197,1,65,0|0,3:2|0:0,0:0:0:0:
96,132,214529,2,0,L|160:120,1,65,8|0,3:2|0:0,0:0:0:0:
226,172,214967,2,0,P|299:180|342:166,2,97.5,0|0|0,3:2|0:0|0:0,0:0:0:0:
159,120,215843,2,0,L|23:116,1,130,0|8,3:2|3:2,0:0:0:0:
152,231,216719,6,0,P|197:238|221:235,1,65,4|0,3:2|0:0,0:0:0:0:
295,205,217157,2,0,P|340:198|364:201,1,65,8|0,3:2|3:2,0:0:0:0:
436,235,217595,2,0,L|436:98,1,130,0|8,3:2|3:2,0:0:0:0:
359,68,218252,1,0,0:0:0:0:
359,68,218471,2,0,P|408:24|472:25,2,130,0|8|0,3:2|3:2|3:2,0:0:0:0:
280,218,219785,2,0,L|207:211,1,65,8|0,3:2|3:2,0:0:0:0:
141,170,220223,6,0,B|150:134|150:134|137:58,2,97.5,4|0|0,3:2|0:0|0:0,0:0:0:0:
65,207,221099,2,0,B|56:243|56:243|74:325,2,97.5,4|0|0,3:2|0:0|0:0,0:0:0:0:
141,170,221974,2,0,P|102:132|18:141,2,130,4|8|0,3:2|3:2|3:2,0:0:0:0:
293,244,223288,2,0,L|359:239,1,65,8|8,3:2|0:0,0:0:0:0:
417,179,223726,6,0,P|401:128|430:52,2,130,4|8|0,3:2|0:0|3:2,0:0:0:0:
327,322,225040,1,8,3:2:0:0:
192,219,225478,2,0,B|154:206|154:206|59:228,2,130,0|10|0,3:2|3:2|3:2,0:0:0:0:
296,352,226792,2,0,L|365:340,1,65,8|0,3:2|0:0,0:0:0:0:
408,271,227230,2,0,B|424:210|424:210|400:130,2,130,0|8|0,3:2|3:2|3:2,0:0:0:0:
238,267,228544,1,8,3:2:0:0:
125,141,228982,6,0,P|186:102|243:105,1,130,0|8,3:2|3:2,0:0:0:0:
295,170,229639,1,0,0:0:0:0:
295,170,229858,2,0,L|313:306,1,130,0|8,3:2|3:2,0:0:0:0:
389,333,230515,1,0,0:0:0:0:
413,252,230734,6,0,P|484:231|536:253,2,130,4|8|0,3:2|3:2|3:2,0:0:0:0:
252,305,232047,1,8,3:2:0:0:
117,202,232485,2,0,L|128:67,2,130,0|8|0,3:2|3:2|3:2,0:0:0:0:
257,297,233799,2,0,L|329:288,1,65,8|0,3:2|0:0,0:0:0:0:
360,213,234237,6,0,P|409:181|478:188,2,130,4|8|0,3:2|3:2|3:2,0:0:0:0:
231,323,235551,1,8,3:2:0:0:
166,166,235989,2,0,L|312:177,1,130,0|8,0:0|0:0,0:0:0:0:
299,345,236865,2,0,L|153:356,1,130,0|0,0:0|0:0,0:0:0:0:
165,185,237741,5,4,0:0:0:0:
