osu file format v14

[General]
AudioFilename: audio.mp3
AudioLeadIn: 0
PreviewTime: 110815
Countdown: 0
SampleSet: Soft
StackLeniency: 0.7
Mode: 3
LetterboxInBreaks: 0
SpecialStyle: 0
WidescreenStoryboard: 0

[Editor]
Bookmarks: 823,16823,32823,46823,48823,80823,88823,96823,110823,112823,144823,152823,156823,160823
DistanceSpacing: 1.2
BeatDivisor: 6
GridSize: 4
TimelineZoom: 1.8

[Metadata]
Title:MAGO
TitleUnicode:MAGO
Artist:GFRIEND
ArtistUnicode:여자친구
Creator:eudalyte
Version:RING MY HEART
Source:
Tags:신비 sinb 예린 yerin 소원 sowon 유주 yuju 엄지 umji 은하 eunha 황은비 hwang eunbi eun-bi 정예린 jung yerin ye-rin 김소정 kim sojeong so-jeong 최유나 choi yuna yu-na 김예원 kim yewon ye-won 정은비 jung eunbi eun-bi 回 回:walpurgis night the 3rd album kakao entertainment title track korean k pop k-pop kpop disbandment song source music soumu somu hybe bighit ibighit frants bang sihyuk si-hyuk kyler niko paulina cerrilla cho yoon-kyung yoonkyung alice vicious cazzi opeia ellen berg jaded jane noisy citizen justin reinstein jjean lemmie lemmieloo viviz
BeatmapID:4298937
BeatmapSetID:2057217

[Difficulty]
HPDrainRate:7.5
CircleSize:4
OverallDifficulty:7.5
ApproachRate:5
SliderMultiplier:1.4
SliderTickRate:1

[Events]
//Background and Video events
0,0,"mago.jpg",0,0
//Break Periods
//Storyboard Layer 0 (Background)
//Storyboard Layer 1 (Fail)
//Storyboard Layer 2 (Pass)
//Storyboard Layer 3 (Foreground)
//Storyboard Layer 4 (Overlay)
//Storyboard Sound Samples

[TimingPoints]
815,500,4,2,1,60,1,0
48815,-100,4,2,1,60,0,1
80815,-100,4,2,1,60,0,0
112815,-100,4,2,1,60,0,1
144815,-100,4,2,1,60,0,0
160815,-100,4,2,1,60,0,1
192815,-100,4,2,1,60,0,0

[HitObjects]
448,192,815,128,0,1815:0:0:0:0:
192,192,940,1,0,0:0:0:0:
64,192,1065,1,0,0:0:0:0:
320,192,1190,1,0,0:0:0:0:
192,192,1315,128,0,1815:0:0:0:0:
64,192,1565,1,0,0:0:0:0:
320,192,1815,1,0,0:0:0:0:
192,192,2065,1,0,0:0:0:0:
448,192,2315,1,0,0:0:0:0:
64,192,2565,1,0,0:0:0:0:
320,192,2815,1,0,0:0:0:0:
192,192,3065,1,0,0:0:0:0:
64,192,3315,1,0,0:0:0:0:
448,192,3565,1,0,0:0:0:0:
192,192,3815,1,0,0:0:0:0:
320,192,4065,1,0,0:0:0:0:
64,192,4315,1,0,0:0:0:0:
448,192,4565,1,0,0:0:0:0:
192,192,4815,1,0,0:0:0:0:
320,192,5065,1,0,0:0:0:0:
448,192,5315,1,0,0:0:0:0:
192,192,5565,1,0,0:0:0:0:
320,192,5815,1,0,0:0:0:0:
64,192,6065,1,0,0:0:0:0:
448,192,6315,1,0,0:0:0:0:
192,192,6565,1,0,0:0:0:0:
320,192,6815,1,0,0:0:0:0:
192,192,7065,1,0,0:0:0:0:
64,192,7315,1,0,0:0:0:0:
320,192,7565,1,0,0:0:0:0:
192,192,7815,1,0,0:0:0:0:
448,192,8065,1,0,0:0:0:0:
64,192,8315,1,0,0:0:0:0:
320,192,8565,1,0,0:0:0:0:
64,192,8815,1,0,0:0:0:0:
192,192,9065,1,0,0:0:0:0:
320,192,9315,1,0,0:0:0:0:
64,192,9565,1,0,0:0:0:0:
448,192,9815,1,0,0:0:0:0:
192,192,10065,1,0,0:0:0:0:
320,192,10315,1,0,0:0:0:0:
64,192,10565,1,0,0:0:0:0:
320,192,10815,1,0,0:0:0:0:
192,192,11065,1,0,0:0:0:0:
64,192,11315,1,0,0:0:0:0:
320,192,11565,1,0,0:0:0:0:
64,192,11815,1,0,0:0:0:0:
448,192,12065,1,0,0:0:0:0:
192,192,12315,1,0,0:0:0:0:
320,192,12565,1,0,0:0:0:0:
64,192,12815,1,0,0:0:0:0:
192,192,13065,1,0,0:0:0:0:
320,192,13315,1,0,0:0:0:0:
448,192,13565,1,0,0:0:0:0:
192,192,13815,1,0,0:0:0:0:
320,192,14065,1,0,0:0:0:0:
64,192,14315,1,0,0:0:0:0:
448,192,14565,1,0,0:0:0:0:
64,192,14815,1,0,0:0:0:0:
320,192,15065,1,0,0:0:0:0:
192,192,15315,1,0,0:0:0:0:
64,192,15565,1,0,0:0:0:0:
320,192,15815,1,0,0:0:0:0:
448,192,16065,1,0,0:0:0:0:
64,192,16315,1,0,0:0:0:0:
192,192,16315,1,0,0:0:0:0:
320,192,16565,1,0,0:0:0:0:
448,192,16815,128,0,17315:0:0:0:0:
64,192,16940,1,0,0:0:0:0:
320,192,17065,1,0,0:0:0:0:
192,192,17190,1,0,0:0:0:0:
64,192,17315,1,0,0:0:0:0:
320,192,17315,1,0,0:0:0:0:
192,192,17815,1,0,0:0:0:0:
448,192,18065,1,0,0:0:0:0:
192,192,18315,1,0,0:0:0:0:
64,192,18315,1,0,0:0:0:0:
320,192,18565,128,0,18815:0:0:0:0:
192,192,18690,1,0,0:0:0:0:
448,192,18815,1,0,0:0:0:0:
64,192,19065,128,0,19315:0:0:0:0:
320,192,19315,1,0,0:0:0:0:
192,192,19315,1,0,0:0:0:0:
64,192,19440,1,0,0:0:0:0:
448,192,19565,128,0,19815:0:0:0:0:
192,192,19815,1,0,0:0:0:0:
320,192,20065,1,0,0:0:0:0:
192,192,20315,1,0,0:0:0:0:
64,192,20315,1,0,0:0:0:0:
448,192,20565,1,0,0:0:0:0:
320,192,20815,128,0,21315:0:0:0:0:
192,192,21065,1,0,0:0:0:0:
64,192,21315,1,0,0:0:0:0:
448,192,21315,1,0,0:0:0:0:
320,192,21565,1,0,0:0:0:0:
192,192,21690,1,0,0:0:0:0:
448,192,21815,128,0,22065:0:0:0:0:
320,192,22065,128,0,22315:0:0:0:0:
64,192,22315,128,0,22815:0:0:0:0:
448,192,22315,1,0,0:0:0:0:
192,192,22565,128,0,22815:0:0:0:0:
448,192,22815,128,0,23315:0:0:0:0:
192,192,23065,1,0,0:0:0:0:
64,192,23315,1,0,0:0:0:0:
320,192,23315,128,0,23815:0:0:0:0:
448,192,23565,1,0,0:0:0:0:
192,192,23815,128,0,24315:0:0:0:0:
320,192,24065,1,0,0:0:0:0:
64,192,24315,1,0,0:0:0:0:
448,192,24315,128,0,24565:0:0:0:0:
192,192,24565,1,0,0:0:0:0:
320,192,24690,1,0,0:0:0:0:
64,192,24815,128,0,25065:0:0:0:0:
448,192,25065,128,0,25315:0:0:0:0:
320,192,25315,1,0,0:0:0:0:
64,192,25315,128,0,25565:0:0:0:0:
448,192,25565,128,0,25815:0:0:0:0:
64,192,25815,128,0,26315:0:0:0:0:
448,192,26315,1,0,0:0:0:0:
320,192,26315,128,0,26565:0:0:0:0:
192,192,26565,1,0,0:0:0:0:
64,192,26690,1,0,0:0:0:0:
448,192,26815,128,0,27065:0:0:0:0:
320,192,27065,1,0,0:0:0:0:
192,192,27190,1,0,0:0:0:0:
64,192,27315,1,0,0:0:0:0:
448,192,27315,1,0,0:0:0:0:
192,192,27565,1,0,0:0:0:0:
320,192,27690,1,0,0:0:0:0:
448,192,27815,128,0,28315:0:0:0:0:
192,192,28315,1,0,0:0:0:0:
64,192,28315,1,0,0:0:0:0:
320,192,28565,1,0,0:0:0:0:
448,192,28690,1,0,0:0:0:0:
192,192,28815,128,0,29190:0:0:0:0:
320,192,29065,1,0,0:0:0:0:
64,192,29315,128,0,29690:0:0:0:0:
448,192,29315,1,0,0:0:0:0:
192,192,29440,1,0,0:0:0:0:
320,192,29815,128,0,30190:0:0:0:0:
64,192,30065,1,0,0:0:0:0:
448,192,30315,128,0,30690:0:0:0:0:
320,192,30315,1,0,0:0:0:0:
192,192,30565,1,0,0:0:0:0:
64,192,30565,1,0,0:0:0:0:
448,192,30815,1,0,0:0:0:0:
320,192,30815,128,0,31065:0:0:0:0:
192,192,31065,128,0,31315:0:0:0:0:
64,192,31315,128,0,31565:0:0:0:0:
320,192,31315,1,0,0:0:0:0:
448,192,31565,128,0,31815:0:0:0:0:
320,192,31690,1,0,0:0:0:0:
64,192,31690,1,0,0:0:0:0:
192,192,31815,1,0,0:0:0:0:
320,192,31940,1,0,0:0:0:0:
448,192,31940,1,0,0:0:0:0:
64,192,32065,1,0,0:0:0:0:
192,192,32065,1,0,0:0:0:0:
64,192,32315,1,0,0:0:0:0:
448,192,32315,1,0,0:0:0:0:
192,192,32565,1,0,0:0:0:0:
320,192,32690,1,0,0:0:0:0:
64,192,32815,1,0,0:0:0:0:
448,192,33065,128,0,33815:0:0:0:0:
320,192,33315,1,0,0:0:0:0:
192,192,33315,1,0,0:0:0:0:
64,192,33815,1,0,0:0:0:0:
320,192,34065,128,0,34565:0:0:0:0:
448,192,34190,1,0,0:0:0:0:
192,192,34315,128,0,34565:0:0:0:0:
64,192,34315,1,0,0:0:0:0:
448,192,34565,128,0,34940:0:0:0:0:
192,192,34815,1,0,0:0:0:0:
64,192,35065,128,0,35440:0:0:0:0:
320,192,35315,1,0,0:0:0:0:
448,192,35315,1,0,0:0:0:0:
448,192,35565,128,0,36065:0:0:0:0:
320,192,35815,128,0,36065:0:0:0:0:
64,192,36190,1,0,0:0:0:0:
320,192,36315,1,0,0:0:0:0:
448,192,36315,1,0,0:0:0:0:
192,192,36565,1,0,0:0:0:0:
320,192,36815,128,0,37190:0:0:0:0:
64,192,37190,128,0,37565:0:0:0:0:
192,192,37315,1,0,0:0:0:0:
448,192,37315,1,0,0:0:0:0:
320,192,37565,1,0,0:0:0:0:
448,192,37815,128,0,38190:0:0:0:0:
320,192,38190,128,0,38565:0:0:0:0:
64,192,38315,1,0,0:0:0:0:
192,192,38315,1,0,0:0:0:0:
448,192,38565,1,0,0:0:0:0:
64,192,38815,128,0,39815:0:0:0:0:
448,192,39315,1,0,0:0:0:0:
320,192,39315,1,0,0:0:0:0:
320,192,39815,1,0,0:0:0:0:
192,192,40315,1,0,0:0:0:0:
448,192,40315,1,0,0:0:0:0:
64,192,40565,1,0,0:0:0:0:
320,192,40565,1,0,0:0:0:0:
192,192,40690,1,0,0:0:0:0:
320,192,40815,1,0,0:0:0:0:
448,192,40815,1,0,0:0:0:0:
192,192,41065,1,0,0:0:0:0:
64,192,41315,1,0,0:0:0:0:
448,192,41315,1,0,0:0:0:0:
192,192,41440,128,0,41815:0:0:0:0:
64,192,41815,128,0,42315:0:0:0:0:
192,192,42190,1,0,0:0:0:0:
448,192,42315,128,0,42815:0:0:0:0:
320,192,42315,1,0,0:0:0:0:
192,192,42565,1,0,0:0:0:0:
64,192,42815,1,0,0:0:0:0:
320,192,43065,1,0,0:0:0:0:
192,192,43315,1,0,0:0:0:0:
64,192,43315,1,0,0:0:0:0:
448,192,43440,128,0,43815:0:0:0:0:
64,192,43815,128,0,44815:0:0:0:0:
320,192,44065,1,0,0:0:0:0:
192,192,44315,128,0,44815:0:0:0:0:
448,192,44315,1,0,0:0:0:0:
320,192,44815,1,0,0:0:0:0:
448,192,44940,128,0,45315:0:0:0:0:
64,192,45315,1,0,0:0:0:0:
192,192,45315,1,0,0:0:0:0:
320,192,45440,128,0,45815:0:0:0:0:
448,192,45815,1,0,0:0:0:0:
192,192,45940,128,0,46315:0:0:0:0:
64,192,46315,1,0,0:0:0:0:
320,192,46315,1,0,0:0:0:0:
192,192,46815,1,0,0:0:0:0:
64,192,46815,1,0,0:0:0:0:
320,192,47065,1,0,0:0:0:0:
448,192,47315,1,0,0:0:0:0:
192,192,47315,1,0,0:0:0:0:
64,192,47565,1,0,0:0:0:0:
320,192,47815,1,0,0:0:0:0:
448,192,47815,1,0,0:0:0:0:
192,192,48065,1,0,0:0:0:0:
64,192,48315,128,0,48815:0:0:0:0:
448,192,48815,128,0,49315:0:0:0:0:
192,192,48815,1,0,0:0:0:0:
320,192,49065,1,0,0:0:0:0:
64,192,49315,128,0,49815:0:0:0:0:
192,192,49315,1,0,0:0:0:0:
448,192,49565,1,0,0:0:0:0:
320,192,49815,128,0,50065:0:0:0:0:
192,192,49815,1,0,0:0:0:0:
64,192,50065,128,0,50440:0:0:0:0:
448,192,50315,1,0,0:0:0:0:
320,192,50315,1,0,0:0:0:0:
192,192,50440,128,0,50815:0:0:0:0:
64,192,50565,1,0,0:0:0:0:
320,192,50815,128,0,51190:0:0:0:0:
448,192,50815,1,0,0:0:0:0:
192,192,51065,1,0,0:0:0:0:
64,192,51190,128,0,51565:0:0:0:0:
448,192,51315,1,0,0:0:0:0:
320,192,51315,1,0,0:0:0:0:
320,192,51565,128,0,51815:0:0:0:0:
448,192,51815,128,0,52190:0:0:0:0:
192,192,51815,1,0,0:0:0:0:
64,192,52065,1,0,0:0:0:0:
320,192,52190,128,0,52565:0:0:0:0:
192,192,52315,1,0,0:0:0:0:
448,192,52315,1,0,0:0:0:0:
192,192,52565,128,0,52815:0:0:0:0:
448,192,52815,128,0,53315:0:0:0:0:
320,192,52815,1,0,0:0:0:0:
64,192,53065,1,0,0:0:0:0:
320,192,53315,1,0,0:0:0:0:
192,192,53315,1,0,0:0:0:0:
64,192,53440,128,0,53815:0:0:0:0:
192,192,53565,1,0,0:0:0:0:
320,192,53815,128,0,54315:0:0:0:0:
448,192,53815,1,0,0:0:0:0:
64,192,54065,1,0,0:0:0:0:
448,192,54315,1,0,0:0:0:0:
192,192,54315,1,0,0:0:0:0:
64,192,54440,128,0,54815:0:0:0:0:
320,192,54565,1,0,0:0:0:0:
448,192,54815,128,0,55315:0:0:0:0:
192,192,54815,1,0,0:0:0:0:
320,192,55065,128,0,55315:0:0:0:0:
64,192,55315,128,0,55565:0:0:0:0:
192,192,55315,1,0,0:0:0:0:
448,192,55565,128,0,55815:0:0:0:0:
320,192,55815,128,0,56315:0:0:0:0:
192,192,55815,1,0,0:0:0:0:
64,192,56065,128,0,56315:0:0:0:0:
192,192,56315,128,0,56815:0:0:0:0:
448,192,56315,1,0,0:0:0:0:
320,192,56565,1,0,0:0:0:0:
448,192,56690,1,0,0:0:0:0:
320,192,56815,128,0,57315:0:0:0:0:
64,192,56815,1,0,0:0:0:0:
192,192,57065,1,0,0:0:0:0:
64,192,57315,128,0,57815:0:0:0:0:
448,192,57315,1,0,0:0:0:0:
320,192,57565,1,0,0:0:0:0:
192,192,57815,1,0,0:0:0:0:
448,192,57815,128,0,58065:0:0:0:0:
320,192,58065,128,0,58315:0:0:0:0:
192,192,58315,128,0,58565:0:0:0:0:
448,192,58315,1,0,0:0:0:0:
64,192,58565,128,0,59065:0:0:0:0:
320,192,58815,1,0,0:0:0:0:
448,192,58815,1,0,0:0:0:0:
448,192,59065,128,0,59315:0:0:0:0:
192,192,59315,128,0,59565:0:0:0:0:
64,192,59315,1,0,0:0:0:0:
320,192,59565,128,0,60065:0:0:0:0:
448,192,59815,1,0,0:0:0:0:
192,192,59815,1,0,0:0:0:0:
64,192,60065,1,0,0:0:0:0:
448,192,60315,1,0,0:0:0:0:
320,192,60315,1,0,0:0:0:0:
192,192,60440,128,0,60815:0:0:0:0:
448,192,60565,1,0,0:0:0:0:
320,192,60815,1,0,0:0:0:0:
64,192,60815,128,0,61065:0:0:0:0:
448,192,61065,1,0,0:0:0:0:
192,192,61315,1,0,0:0:0:0:
320,192,61315,128,0,61565:0:0:0:0:
448,192,61565,1,0,0:0:0:0:
192,192,61815,1,0,0:0:0:0:
64,192,61815,128,0,62065:0:0:0:0:
448,192,62065,1,0,0:0:0:0:
64,192,62315,1,0,0:0:0:0:
320,192,62315,128,0,62565:0:0:0:0:
192,192,62565,1,0,0:0:0:0:
448,192,62565,1,0,0:0:0:0:
320,192,62815,1,0,0:0:0:0:
448,192,62815,128,0,63315:0:0:0:0:
64,192,63065,1,0,0:0:0:0:
192,192,63315,1,0,0:0:0:0:
64,192,63315,128,0,63815:0:0:0:0:
320,192,63565,1,0,0:0:0:0:
448,192,63690,1,0,0:0:0:0:
192,192,63815,1,0,0:0:0:0:
320,192,63815,1,0,0:0:0:0:
448,192,63940,1,0,0:0:0:0:
64,192,64065,1,0,0:0:0:0:
192,192,64065,1,0,0:0:0:0:
320,192,64190,1,0,0:0:0:0:
192,192,64315,1,0,0:0:0:0:
448,192,64315,1,0,0:0:0:0:
64,192,64440,1,0,0:0:0:0:
320,192,64565,1,0,0:0:0:0:
448,192,64565,1,0,0:0:0:0:
192,192,64690,1,0,0:0:0:0:
64,192,64815,128,0,65315:0:0:0:0:
448,192,64815,1,0,0:0:0:0:
320,192,65065,1,0,0:0:0:0:
448,192,65315,128,0,65815:0:0:0:0:
192,192,65315,1,0,0:0:0:0:
320,192,65565,1,0,0:0:0:0:
64,192,65815,128,0,66315:0:0:0:0:
192,192,65815,1,0,0:0:0:0:
448,192,66065,1,0,0:0:0:0:
320,192,66315,1,0,0:0:0:0:
192,192,66315,128,0,66565:0:0:0:0:
448,192,66565,128,0,66815:0:0:0:0:
64,192,66815,1,0,0:0:0:0:
320,192,66815,128,0,67065:0:0:0:0:
192,192,67065,128,0,67315:0:0:0:0:
64,192,67315,128,0,67565:0:0:0:0:
448,192,67315,1,0,0:0:0:0:
192,192,67565,128,0,67815:0:0:0:0:
320,192,67815,128,0,68315:0:0:0:0:
64,192,67815,1,0,0:0:0:0:
448,192,68065,1,0,0:0:0:0:
64,192,68315,1,0,0:0:0:0:
192,192,68315,1,0,0:0:0:0:
448,192,68440,128,0,68815:0:0:0:0:
192,192,68565,1,0,0:0:0:0:
64,192,68815,128,0,69315:0:0:0:0:
320,192,68815,1,0,0:0:0:0:
192,192,69065,1,0,0:0:0:0:
448,192,69315,128,0,69815:0:0:0:0:
320,192,69315,1,0,0:0:0:0:
64,192,69565,1,0,0:0:0:0:
320,192,69815,128,0,70315:0:0:0:0:
192,192,69815,1,0,0:0:0:0:
448,192,70065,1,0,0:0:0:0:
64,192,70315,128,0,70565:0:0:0:0:
192,192,70315,1,0,0:0:0:0:
448,192,70565,128,0,71065:0:0:0:0:
64,192,70815,1,0,0:0:0:0:
320,192,70815,1,0,0:0:0:0:
192,192,71065,128,0,71815:0:0:0:0:
320,192,71315,1,0,0:0:0:0:
448,192,71315,1,0,0:0:0:0:
64,192,71565,1,0,0:0:0:0:
320,192,71815,1,0,0:0:0:0:
448,192,71815,1,0,0:0:0:0:
64,192,72065,1,0,0:0:0:0:
320,192,72315,128,0,72815:0:0:0:0:
192,192,72315,1,0,0:0:0:0:
448,192,72565,1,0,0:0:0:0:
192,192,72690,1,0,0:0:0:0:
64,192,72815,128,0,73315:0:0:0:0:
448,192,72815,1,0,0:0:0:0:
192,192,73065,1,0,0:0:0:0:
448,192,73315,1,0,0:0:0:0:
320,192,73315,128,0,73815:0:0:0:0:
192,192,73565,1,0,0:0:0:0:
448,192,73815,1,0,0:0:0:0:
64,192,73815,128,0,74315:0:0:0:0:
320,192,74065,1,0,0:0:0:0:
192,192,74315,128,0,74565:0:0:0:0:
448,192,74315,1,0,0:0:0:0:
320,192,74565,128,0,74815:0:0:0:0:
64,192,74815,128,0,75065:0:0:0:0:
448,192,74815,1,0,0:0:0:0:
192,192,75065,128,0,75315:0:0:0:0:
448,192,75315,1,0,0:0:0:0:
320,192,75315,128,0,75565:0:0:0:0:
64,192,75565,128,0,75815:0:0:0:0:
448,192,75815,128,0,76315:0:0:0:0:
320,192,75815,1,0,0:0:0:0:
192,192,76065,1,0,0:0:0:0:
320,192,76315,1,0,0:0:0:0:
64,192,76315,1,0,0:0:0:0:
192,192,76440,128,0,76815:0:0:0:0:
320,192,76565,1,0,0:0:0:0:
448,192,76815,128,0,77065:0:0:0:0:
64,192,76815,1,0,0:0:0:0:
320,192,77065,1,0,0:0:0:0:
64,192,77315,1,0,0:0:0:0:
192,192,77315,128,0,77565:0:0:0:0:
320,192,77565,1,0,0:0:0:0:
448,192,77815,128,0,78065:0:0:0:0:
192,192,77815,1,0,0:0:0:0:
64,192,78065,1,0,0:0:0:0:
192,192,78315,128,0,78565:0:0:0:0:
320,192,78315,1,0,0:0:0:0:
448,192,78565,1,0,0:0:0:0:
64,192,78565,1,0,0:0:0:0:
192,192,78815,128,0,79315:0:0:0:0:
320,192,78815,1,0,0:0:0:0:
64,192,79065,1,0,0:0:0:0:
320,192,79315,128,0,79815:0:0:0:0:
448,192,79315,1,0,0:0:0:0:
192,192,79565,1,0,0:0:0:0:
448,192,79690,1,0,0:0:0:0:
64,192,79815,128,0,80815:0:0:0:0:
192,192,79815,1,0,0:0:0:0:
320,192,79940,1,0,0:0:0:0:
448,192,80065,1,0,0:0:0:0:
192,192,80190,1,0,0:0:0:0:
320,192,80315,1,0,0:0:0:0:
448,192,80315,1,0,0:0:0:0:
192,192,80440,1,0,0:0:0:0:
448,192,80565,1,0,0:0:0:0:
320,192,80690,1,0,0:0:0:0:
192,192,80815,1,0,0:0:0:0:
448,192,80815,1,0,0:0:0:0:
320,192,81065,1,0,0:0:0:0:
64,192,81315,128,0,81815:0:0:0:0:
448,192,81315,1,0,0:0:0:0:
192,192,81440,1,0,0:0:0:0:
320,192,81815,128,0,82065:0:0:0:0:
448,192,82065,128,0,82315:0:0:0:0:
64,192,82315,128,0,82565:0:0:0:0:
192,192,82315,1,0,0:0:0:0:
320,192,82565,128,0,83065:0:0:0:0:
448,192,82690,1,0,0:0:0:0:
64,192,82815,1,0,0:0:0:0:
448,192,83065,1,0,0:0:0:0:
320,192,83315,1,0,0:0:0:0:
192,192,83315,1,0,0:0:0:0:
64,192,83440,1,0,0:0:0:0:
192,192,83815,128,0,84065:0:0:0:0:
320,192,84065,1,0,0:0:0:0:
192,192,84315,1,0,0:0:0:0:
448,192,84315,1,0,0:0:0:0:
64,192,84565,1,0,0:0:0:0:
320,192,84815,128,0,85065:0:0:0:0:
64,192,85065,128,0,85315:0:0:0:0:
448,192,85315,128,0,85565:0:0:0:0:
320,192,85315,1,0,0:0:0:0:
192,192,85565,128,0,85815:0:0:0:0:
320,192,85815,128,0,86065:0:0:0:0:
448,192,86065,1,0,0:0:0:0:
192,192,86315,128,0,86815:0:0:0:0:
64,192,86315,1,0,0:0:0:0:
448,192,86565,128,0,86815:0:0:0:0:
64,192,86690,1,0,0:0:0:0:
320,192,86815,1,0,0:0:0:0:
448,192,87065,1,0,0:0:0:0:
64,192,87315,1,0,0:0:0:0:
320,192,87315,1,0,0:0:0:0:
192,192,87440,1,0,0:0:0:0:
448,192,87690,1,0,0:0:0:0:
192,192,87815,128,0,88315:0:0:0:0:
64,192,88315,128,0,88815:0:0:0:0:
448,192,88315,1,0,0:0:0:0:
192,192,88565,1,0,0:0:0:0:
320,192,88690,1,0,0:0:0:0:
448,192,88815,1,0,0:0:0:0:
64,192,89065,1,0,0:0:0:0:
448,192,89190,1,0,0:0:0:0:
192,192,89315,1,0,0:0:0:0:
320,192,89315,1,0,0:0:0:0:
64,192,89565,1,0,0:0:0:0:
448,192,89690,1,0,0:0:0:0:
192,192,89815,128,0,90315:0:0:0:0:
448,192,90315,128,0,90815:0:0:0:0:
64,192,90315,1,0,0:0:0:0:
192,192,90565,1,0,0:0:0:0:
64,192,90690,1,0,0:0:0:0:
320,192,90815,128,0,91315:0:0:0:0:
192,192,91065,1,0,0:0:0:0:
448,192,91190,1,0,0:0:0:0:
192,192,91315,1,0,0:0:0:0:
64,192,91315,1,0,0:0:0:0:
64,192,91565,1,0,0:0:0:0:
320,192,91690,1,0,0:0:0:0:
192,192,91815,128,0,92315:0:0:0:0:
448,192,92315,128,0,92815:0:0:0:0:
64,192,92315,1,0,0:0:0:0:
320,192,92565,1,0,0:0:0:0:
192,192,92690,1,0,0:0:0:0:
64,192,92815,128,0,93065:0:0:0:0:
448,192,93065,1,0,0:0:0:0:
320,192,93315,128,0,93815:0:0:0:0:
192,192,93315,1,0,0:0:0:0:
448,192,93440,1,0,0:0:0:0:
64,192,93815,128,0,94315:0:0:0:0:
320,192,94065,1,0,0:0:0:0:
448,192,94315,128,0,94690:0:0:0:0:
192,192,94315,1,0,0:0:0:0:
64,192,94565,1,0,0:0:0:0:
192,192,94565,1,0,0:0:0:0:
320,192,94815,1,0,0:0:0:0:
448,192,94815,128,0,95190:0:0:0:0:
64,192,95065,128,0,95440:0:0:0:0:
192,192,95315,1,0,0:0:0:0:
448,192,95315,128,0,95690:0:0:0:0:
64,192,95565,128,0,95940:0:0:0:0:
192,192,95690,1,0,0:0:0:0:
320,192,95815,1,0,0:0:0:0:
448,192,95815,128,0,96065:0:0:0:0:
192,192,95940,1,0,0:0:0:0:
64,192,96065,1,0,0:0:0:0:
192,192,96315,1,0,0:0:0:0:
320,192,96315,1,0,0:0:0:0:
320,192,96565,1,0,0:0:0:0:
192,192,96690,1,0,0:0:0:0:
64,192,96815,1,0,0:0:0:0:
448,192,96815,1,0,0:0:0:0:
320,192,97065,128,0,97815:0:0:0:0:
448,192,97315,1,0,0:0:0:0:
192,192,97315,1,0,0:0:0:0:
64,192,97815,1,0,0:0:0:0:
448,192,98065,128,0,98315:0:0:0:0:
320,192,98190,1,0,0:0:0:0:
64,192,98315,128,0,98565:0:0:0:0:
192,192,98315,1,0,0:0:0:0:
320,192,98565,128,0,99065:0:0:0:0:
64,192,98815,1,0,0:0:0:0:
448,192,99065,128,0,99315:0:0:0:0:
64,192,99315,128,0,99565:0:0:0:0:
320,192,99315,1,0,0:0:0:0:
192,192,99565,128,0,99815:0:0:0:0:
448,192,99815,128,0,100065:0:0:0:0:
64,192,100065,1,0,0:0:0:0:
192,192,100190,1,0,0:0:0:0:
64,192,100315,128,0,100565:0:0:0:0:
320,192,100315,1,0,0:0:0:0:
448,192,100565,128,0,100815:0:0:0:0:
320,192,100815,128,0,101190:0:0:0:0:
64,192,101190,128,0,101565:0:0:0:0:
192,192,101315,1,0,0:0:0:0:
448,192,101315,1,0,0:0:0:0:
320,192,101565,128,0,101815:0:0:0:0:
448,192,101815,128,0,102190:0:0:0:0:
192,192,102190,128,0,102565:0:0:0:0:
448,192,102315,1,0,0:0:0:0:
64,192,102315,1,0,0:0:0:0:
64,192,102565,128,0,102815:0:0:0:0:
320,192,102815,128,0,103815:0:0:0:0:
192,192,103315,1,0,0:0:0:0:
64,192,103315,1,0,0:0:0:0:
64,192,103815,1,0,0:0:0:0:
192,192,104315,1,0,0:0:0:0:
64,192,104315,1,0,0:0:0:0:
320,192,104565,1,0,0:0:0:0:
448,192,104565,1,0,0:0:0:0:
64,192,104690,1,0,0:0:0:0:
192,192,104690,1,0,0:0:0:0:
320,192,104815,1,0,0:0:0:0:
448,192,104815,1,0,0:0:0:0:
192,192,105065,1,0,0:0:0:0:
64,192,105315,1,0,0:0:0:0:
448,192,105315,1,0,0:0:0:0:
320,192,105440,128,0,105815:0:0:0:0:
192,192,105815,128,0,106315:0:0:0:0:
64,192,106190,1,0,0:0:0:0:
448,192,106315,128,0,106815:0:0:0:0:
320,192,106315,1,0,0:0:0:0:
192,192,106565,128,0,106815:0:0:0:0:
64,192,106815,128,0,107065:0:0:0:0:
320,192,107065,1,0,0:0:0:0:
448,192,107315,1,0,0:0:0:0:
192,192,107315,1,0,0:0:0:0:
320,192,107440,128,0,107815:0:0:0:0:
192,192,107815,128,0,108315:0:0:0:0:
64,192,108065,1,0,0:0:0:0:
448,192,108315,128,0,108815:0:0:0:0:
320,192,108315,1,0,0:0:0:0:
64,192,108815,1,0,0:0:0:0:
192,192,108940,128,0,109315:0:0:0:0:
448,192,109315,1,0,0:0:0:0:
320,192,109315,1,0,0:0:0:0:
64,192,109440,128,0,109815:0:0:0:0:
320,192,109815,1,0,0:0:0:0:
448,192,109940,128,0,110315:0:0:0:0:
64,192,110315,1,0,0:0:0:0:
192,192,110315,1,0,0:0:0:0:
192,192,110565,1,0,0:0:0:0:
448,192,110565,1,0,0:0:0:0:
320,192,110815,1,0,0:0:0:0:
448,192,110815,1,0,0:0:0:0:
64,192,111065,128,0,111315:0:0:0:0:
192,192,111315,128,0,111565:0:0:0:0:
448,192,111315,1,0,0:0:0:0:
320,192,111565,128,0,111815:0:0:0:0:
64,192,111815,128,0,112065:0:0:0:0:
192,192,111815,1,0,0:0:0:0:
448,192,112065,128,0,112315:0:0:0:0:
192,192,112315,128,0,112815:0:0:0:0:
320,192,112815,1,0,0:0:0:0:
448,192,112815,128,0,113315:0:0:0:0:
192,192,113065,1,0,0:0:0:0:
64,192,113315,1,0,0:0:0:0:
320,192,113315,1,0,0:0:0:0:
448,192,113565,1,0,0:0:0:0:
192,192,113815,128,0,114065:0:0:0:0:
64,192,113815,1,0,0:0:0:0:
448,192,114065,128,0,114440:0:0:0:0:
192,192,114315,1,0,0:0:0:0:
320,192,114315,1,0,0:0:0:0:
64,192,114440,128,0,114815:0:0:0:0:
320,192,114565,1,0,0:0:0:0:
448,192,114815,128,0,115190:0:0:0:0:
192,192,114815,1,0,0:0:0:0:
320,192,115065,1,0,0:0:0:0:
64,192,115190,128,0,115565:0:0:0:0:
448,192,115315,1,0,0:0:0:0:
192,192,115315,1,0,0:0:0:0:
192,192,115565,128,0,115815:0:0:0:0:
448,192,115815,128,0,116190:0:0:0:0:
320,192,115815,1,0,0:0:0:0:
64,192,116065,1,0,0:0:0:0:
320,192,116190,128,0,116565:0:0:0:0:
192,192,116315,1,0,0:0:0:0:
448,192,116315,1,0,0:0:0:0:
192,192,116565,128,0,116815:0:0:0:0:
448,192,116815,128,0,117315:0:0:0:0:
64,192,116815,1,0,0:0:0:0:
320,192,117065,1,0,0:0:0:0:
64,192,117315,1,0,0:0:0:0:
192,192,117315,1,0,0:0:0:0:
320,192,117440,128,0,117815:0:0:0:0:
448,192,117565,1,0,0:0:0:0:
192,192,117815,128,0,118315:0:0:0:0:
64,192,117815,1,0,0:0:0:0:
320,192,118065,1,0,0:0:0:0:
448,192,118315,1,0,0:0:0:0:
64,192,118315,1,0,0:0:0:0:
320,192,118440,1,0,0:0:0:0:
192,192,118565,1,0,0:0:0:0:
64,192,118815,1,0,0:0:0:0:
448,192,118815,128,0,119315:0:0:0:0:
320,192,119065,128,0,119315:0:0:0:0:
192,192,119315,1,0,0:0:0:0:
64,192,119315,128,0,119565:0:0:0:0:
320,192,119565,128,0,119815:0:0:0:0:
448,192,119815,128,0,120315:0:0:0:0:
192,192,119815,1,0,0:0:0:0:
320,192,120065,128,0,120315:0:0:0:0:
64,192,120315,128,0,120815:0:0:0:0:
192,192,120315,1,0,0:0:0:0:
320,192,120565,1,0,0:0:0:0:
448,192,120565,1,0,0:0:0:0:
192,192,120690,1,0,0:0:0:0:
448,192,120815,1,0,0:0:0:0:
320,192,120815,128,0,121315:0:0:0:0:
64,192,121065,1,0,0:0:0:0:
192,192,121315,128,0,121815:0:0:0:0:
448,192,121315,1,0,0:0:0:0:
64,192,121565,1,0,0:0:0:0:
448,192,121815,128,0,122315:0:0:0:0:
320,192,121815,1,0,0:0:0:0:
64,192,122065,128,0,122315:0:0:0:0:
320,192,122315,128,0,122565:0:0:0:0:
192,192,122315,1,0,0:0:0:0:
192,192,122565,128,0,123065:0:0:0:0:
448,192,122815,1,0,0:0:0:0:
320,192,122815,1,0,0:0:0:0:
64,192,123065,128,0,123315:0:0:0:0:
448,192,123315,128,0,123565:0:0:0:0:
192,192,123315,1,0,0:0:0:0:
320,192,123565,128,0,124065:0:0:0:0:
192,192,123815,1,0,0:0:0:0:
448,192,123815,1,0,0:0:0:0:
64,192,124065,1,0,0:0:0:0:
448,192,124315,1,0,0:0:0:0:
320,192,124315,1,0,0:0:0:0:
192,192,124440,128,0,124815:0:0:0:0:
448,192,124565,1,0,0:0:0:0:
64,192,124815,128,0,125065:0:0:0:0:
320,192,124815,1,0,0:0:0:0:
192,192,125065,1,0,0:0:0:0:
448,192,125315,128,0,125565:0:0:0:0:
64,192,125315,1,0,0:0:0:0:
320,192,125565,1,0,0:0:0:0:
192,192,125815,1,0,0:0:0:0:
64,192,125815,128,0,126065:0:0:0:0:
320,192,126065,1,0,0:0:0:0:
192,192,126315,1,0,0:0:0:0:
448,192,126315,128,0,126565:0:0:0:0:
64,192,126565,1,0,0:0:0:0:
320,192,126565,1,0,0:0:0:0:
192,192,126815,128,0,127315:0:0:0:0:
448,192,126815,1,0,0:0:0:0:
64,192,127065,1,0,0:0:0:0:
320,192,127315,128,0,127815:0:0:0:0:
448,192,127315,1,0,0:0:0:0:
64,192,127565,1,0,0:0:0:0:
448,192,127690,1,0,0:0:0:0:
64,192,127815,128,0,128315:0:0:0:0:
192,192,127815,1,0,0:0:0:0:
320,192,127940,1,0,0:0:0:0:
448,192,128065,1,0,0:0:0:0:
192,192,128190,1,0,0:0:0:0:
320,192,128315,128,0,128815:0:0:0:0:
448,192,128315,1,0,0:0:0:0:
64,192,128440,1,0,0:0:0:0:
192,192,128565,1,0,0:0:0:0:
448,192,128690,1,0,0:0:0:0:
64,192,128815,128,0,129315:0:0:0:0:
192,192,128815,1,0,0:0:0:0:
320,192,129065,1,0,0:0:0:0:
192,192,129315,1,0,0:0:0:0:
448,192,129315,128,0,129815:0:0:0:0:
320,192,129565,1,0,0:0:0:0:
64,192,129815,128,0,130315:0:0:0:0:
192,192,129815,1,0,0:0:0:0:
448,192,130065,1,0,0:0:0:0:
320,192,130315,1,0,0:0:0:0:
192,192,130315,128,0,130565:0:0:0:0:
448,192,130565,128,0,130815:0:0:0:0:
320,192,130815,128,0,131065:0:0:0:0:
192,192,130815,1,0,0:0:0:0:
64,192,131065,128,0,131315:0:0:0:0:
192,192,131315,128,0,131565:0:0:0:0:
448,192,131315,1,0,0:0:0:0:
320,192,131565,128,0,131815:0:0:0:0:
64,192,131815,128,0,132065:0:0:0:0:
448,192,131815,1,0,0:0:0:0:
192,192,132065,1,0,0:0:0:0:
448,192,132315,1,0,0:0:0:0:
320,192,132315,1,0,0:0:0:0:
192,192,132440,128,0,132815:0:0:0:0:
64,192,132565,1,0,0:0:0:0:
448,192,132815,128,0,133315:0:0:0:0:
320,192,132815,1,0,0:0:0:0:
64,192,133065,1,0,0:0:0:0:
320,192,133315,1,0,0:0:0:0:
192,192,133315,128,0,133815:0:0:0:0:
448,192,133565,1,0,0:0:0:0:
64,192,133815,128,0,134315:0:0:0:0:
320,192,133815,1,0,0:0:0:0:
192,192,134065,1,0,0:0:0:0:
320,192,134315,1,0,0:0:0:0:
448,192,134315,128,0,134565:0:0:0:0:
192,192,134565,128,0,135065:0:0:0:0:
448,192,134815,1,0,0:0:0:0:
320,192,134815,1,0,0:0:0:0:
64,192,135065,128,0,135815:0:0:0:0:
448,192,135315,1,0,0:0:0:0:
192,192,135315,1,0,0:0:0:0:
320,192,135565,1,0,0:0:0:0:
192,192,135815,1,0,0:0:0:0:
448,192,135815,1,0,0:0:0:0:
64,192,136065,1,0,0:0:0:0:
448,192,136315,128,0,136815:0:0:0:0:
320,192,136315,1,0,0:0:0:0:
64,192,136565,1,0,0:0:0:0:
192,192,136690,1,0,0:0:0:0:
64,192,136815,1,0,0:0:0:0:
320,192,136815,128,0,137315:0:0:0:0:
192,192,137065,1,0,0:0:0:0:
448,192,137315,128,0,137815:0:0:0:0:
64,192,137315,1,0,0:0:0:0:
192,192,137565,1,0,0:0:0:0:
320,192,137815,128,0,138315:0:0:0:0:
64,192,137815,1,0,0:0:0:0:
448,192,138065,1,0,0:0:0:0:
192,192,138315,128,0,138565:0:0:0:0:
64,192,138315,1,0,0:0:0:0:
320,192,138565,128,0,138815:0:0:0:0:
448,192,138815,128,0,139065:0:0:0:0:
192,192,138815,1,0,0:0:0:0:
64,192,139065,128,0,139315:0:0:0:0:
320,192,139315,128,0,139565:0:0:0:0:
448,192,139315,1,0,0:0:0:0:
192,192,139565,128,0,139815:0:0:0:0:
64,192,139815,128,0,140315:0:0:0:0:
448,192,139815,1,0,0:0:0:0:
320,192,140065,1,0,0:0:0:0:
448,192,140315,1,0,0:0:0:0:
192,192,140315,1,0,0:0:0:0:
320,192,140440,128,0,140815:0:0:0:0:
64,192,140565,1,0,0:0:0:0:
448,192,140815,1,0,0:0:0:0:
192,192,140815,128,0,141065:0:0:0:0:
320,192,141065,1,0,0:0:0:0:
64,192,141315,1,0,0:0:0:0:
448,192,141315,128,0,141565:0:0:0:0:
320,192,141565,1,0,0:0:0:0:
64,192,141815,1,0,0:0:0:0:
192,192,141815,128,0,142065:0:0:0:0:
320,192,142065,1,0,0:0:0:0:
64,192,142315,1,0,0:0:0:0:
448,192,142315,128,0,142565:0:0:0:0:
64,192,142565,1,0,0:0:0:0:
192,192,142565,1,0,0:0:0:0:
192,192,142815,128,0,143315:0:0:0:0:
320,192,142815,1,0,0:0:0:0:
448,192,143065,1,0,0:0:0:0:
64,192,143315,128,0,143815:0:0:0:0:
320,192,143315,1,0,0:0:0:0:
448,192,143565,1,0,0:0:0:0:
320,192,143690,1,0,0:0:0:0:
448,192,143815,128,0,144315:0:0:0:0:
192,192,143815,1,0,0:0:0:0:
320,192,143940,1,0,0:0:0:0:
64,192,144065,1,0,0:0:0:0:
192,192,144190,1,0,0:0:0:0:
64,192,144315,128,0,144815:0:0:0:0:
320,192,144315,1,0,0:0:0:0:
192,192,144440,1,0,0:0:0:0:
320,192,144565,1,0,0:0:0:0:
448,192,144690,1,0,0:0:0:0:
320,192,144815,128,0,145065:0:0:0:0:
192,192,145065,128,0,146440:0:0:0:0:
448,192,146815,1,0,0:0:0:0:
320,192,146815,1,0,0:0:0:0:
64,192,148065,1,0,0:0:0:0:
192,192,148315,1,0,0:0:0:0:
448,192,148565,128,0,149065:0:0:0:0:
320,192,148815,1,0,0:0:0:0:
192,192,148815,1,0,0:0:0:0:
64,192,149065,128,0,150065:0:0:0:0:
192,192,149565,128,0,150315:0:0:0:0:
320,192,150065,1,0,0:0:0:0:
448,192,150190,1,0,0:0:0:0:
64,192,150315,1,0,0:0:0:0:
192,192,150440,1,0,0:0:0:0:
320,192,150565,128,0,151065:0:0:0:0:
64,192,150815,1,0,0:0:0:0:
448,192,150815,1,0,0:0:0:0:
192,192,151065,128,0,151315:0:0:0:0:
64,192,151315,128,0,151565:0:0:0:0:
448,192,151565,128,0,152065:0:0:0:0:
320,192,151815,1,0,0:0:0:0:
64,192,152065,128,0,152565:0:0:0:0:
192,192,152315,128,0,152565:0:0:0:0:
320,192,152565,128,0,153065:0:0:0:0:
448,192,152815,1,0,0:0:0:0:
192,192,152815,1,0,0:0:0:0:
64,192,153065,128,0,153315:0:0:0:0:
320,192,153315,1,0,0:0:0:0:
448,192,153315,128,0,153565:0:0:0:0:
192,192,153565,128,0,154065:0:0:0:0:
320,192,153815,1,0,0:0:0:0:
64,192,153815,1,0,0:0:0:0:
448,192,154065,128,0,154315:0:0:0:0:
192,192,154315,1,0,0:0:0:0:
64,192,154315,128,0,154565:0:0:0:0:
320,192,154565,128,0,155065:0:0:0:0:
192,192,154815,1,0,0:0:0:0:
448,192,154815,1,0,0:0:0:0:
64,192,155065,128,0,155315:0:0:0:0:
320,192,155315,1,0,0:0:0:0:
448,192,155315,128,0,155565:0:0:0:0:
64,192,155565,128,0,156065:0:0:0:0:
192,192,155815,1,0,0:0:0:0:
320,192,155815,1,0,0:0:0:0:
448,192,156065,128,0,156315:0:0:0:0:
64,192,156315,128,0,156690:0:0:0:0:
320,192,156315,1,0,0:0:0:0:
192,192,156690,128,0,157065:0:0:0:0:
320,192,156815,1,0,0:0:0:0:
448,192,156815,1,0,0:0:0:0:
64,192,157065,1,0,0:0:0:0:
320,192,157065,1,0,0:0:0:0:
448,192,157315,1,0,0:0:0:0:
192,192,157315,1,0,0:0:0:0:
448,192,157565,1,0,0:0:0:0:
320,192,157565,1,0,0:0:0:0:
192,192,157815,1,0,0:0:0:0:
64,192,157815,128,0,158065:0:0:0:0:
320,192,158065,1,0,0:0:0:0:
192,192,158148,1,0,0:0:0:0:
320,192,158231,1,0,0:0:0:0:
64,192,158315,1,0,0:0:0:0:
448,192,158315,1,0,0:0:0:0:
320,192,158565,1,0,0:0:0:0:
192,192,158565,1,0,0:0:0:0:
320,192,158815,128,0,159065:0:0:0:0:
448,192,158815,1,0,0:0:0:0:
192,192,159065,128,0,159315:0:0:0:0:
64,192,159065,1,0,0:0:0:0:
448,192,159315,128,0,159565:0:0:0:0:
320,192,159315,1,0,0:0:0:0:
64,192,159565,128,0,159815:0:0:0:0:
192,192,159565,1,0,0:0:0:0:
320,192,159815,128,0,160315:0:0:0:0:
448,192,159815,1,0,0:0:0:0:
192,192,160065,1,0,0:0:0:0:
64,192,160315,128,0,160815:0:0:0:0:
192,192,160815,1,0,0:0:0:0:
448,192,160815,128,0,161315:0:0:0:0:
320,192,161065,1,0,0:0:0:0:
64,192,161315,1,0,0:0:0:0:
192,192,161315,1,0,0:0:0:0:
320,192,161565,1,0,0:0:0:0:
192,192,161815,128,0,162065:0:0:0:0:
448,192,161815,1,0,0:0:0:0:
320,192,162065,128,0,162440:0:0:0:0:
448,192,162315,1,0,0:0:0:0:
192,192,162315,1,0,0:0:0:0:
64,192,162440,128,0,162815:0:0:0:0:
448,192,162565,1,0,0:0:0:0:
320,192,162815,128,0,163190:0:0:0:0:
192,192,162815,1,0,0:0:0:0:
448,192,163065,1,0,0:0:0:0:
64,192,163190,128,0,163565:0:0:0:0:
320,192,163315,1,0,0:0:0:0:
448,192,163315,1,0,0:0:0:0:
192,192,163565,128,0,163815:0:0:0:0:
448,192,163815,128,0,164190:0:0:0:0:
64,192,163815,1,0,0:0:0:0:
320,192,164065,1,0,0:0:0:0:
64,192,164190,128,0,164565:0:0:0:0:
192,192,164315,1,0,0:0:0:0:
448,192,164315,1,0,0:0:0:0:
320,192,164565,128,0,164815:0:0:0:0:
64,192,164815,128,0,165315:0:0:0:0:
192,192,164815,1,0,0:0:0:0:
448,192,165065,1,0,0:0:0:0:
192,192,165315,1,0,0:0:0:0:
320,192,165315,1,0,0:0:0:0:
448,192,165440,128,0,165815:0:0:0:0:
64,192,165565,1,0,0:0:0:0:
320,192,165815,128,0,166315:0:0:0:0:
192,192,165815,1,0,0:0:0:0:
448,192,166065,1,0,0:0:0:0:
64,192,166315,1,0,0:0:0:0:
192,192,166315,1,0,0:0:0:0:
448,192,166440,128,0,166815:0:0:0:0:
320,192,166565,1,0,0:0:0:0:
192,192,166815,128,0,167065:0:0:0:0:
64,192,166815,1,0,0:0:0:0:
320,192,167065,128,0,167315:0:0:0:0:
64,192,167315,1,0,0:0:0:0:
448,192,167315,128,0,167565:0:0:0:0:
192,192,167565,128,0,167815:0:0:0:0:
64,192,167815,128,0,168065:0:0:0:0:
320,192,167815,1,0,0:0:0:0:
448,192,168065,128,0,168315:0:0:0:0:
192,192,168315,128,0,168815:0:0:0:0:
64,192,168315,1,0,0:0:0:0:
320,192,168565,1,0,0:0:0:0:
448,192,168690,1,0,0:0:0:0:
64,192,168815,128,0,169315:0:0:0:0:
320,192,168815,1,0,0:0:0:0:
192,192,169065,1,0,0:0:0:0:
448,192,169315,1,0,0:0:0:0:
320,192,169315,1,0,0:0:0:0:
64,192,169565,1,0,0:0:0:0:
448,192,169815,1,0,0:0:0:0:
192,192,169815,1,0,0:0:0:0:
320,192,170065,128,0,170315:0:0:0:0:
64,192,170315,1,0,0:0:0:0:
448,192,170315,128,0,170565:0:0:0:0:
192,192,170565,128,0,171065:0:0:0:0:
320,192,170815,1,0,0:0:0:0:
448,192,170815,1,0,0:0:0:0:
64,192,171065,128,0,171315:0:0:0:0:
448,192,171315,128,0,171565:0:0:0:0:
192,192,171315,1,0,0:0:0:0:
320,192,171565,128,0,172065:0:0:0:0:
192,192,171815,1,0,0:0:0:0:
448,192,171815,1,0,0:0:0:0:
64,192,172065,128,0,172315:0:0:0:0:
320,192,172315,1,0,0:0:0:0:
192,192,172315,1,0,0:0:0:0:
448,192,172440,128,0,172815:0:0:0:0:
192,192,172815,128,0,173065:0:0:0:0:
64,192,172815,1,0,0:0:0:0:
320,192,173065,1,0,0:0:0:0:
448,192,173315,128,0,173565:0:0:0:0:
192,192,173315,1,0,0:0:0:0:
64,192,173565,1,0,0:0:0:0:
192,192,173815,128,0,174065:0:0:0:0:
448,192,173815,1,0,0:0:0:0:
320,192,174065,1,0,0:0:0:0:
64,192,174315,1,0,0:0:0:0:
448,192,174315,128,0,174565:0:0:0:0:
320,192,174565,1,0,0:0:0:0:
192,192,174565,1,0,0:0:0:0:
64,192,174815,128,0,175315:0:0:0:0:
192,192,174815,1,0,0:0:0:0:
320,192,175065,1,0,0:0:0:0:
192,192,175315,128,0,175815:0:0:0:0:
448,192,175315,1,0,0:0:0:0:
320,192,175565,1,0,0:0:0:0:
64,192,175690,1,0,0:0:0:0:
448,192,175815,1,0,0:0:0:0:
320,192,175815,128,0,176315:0:0:0:0:
64,192,175940,1,0,0:0:0:0:
192,192,176065,1,0,0:0:0:0:
448,192,176190,1,0,0:0:0:0:
192,192,176315,128,0,176815:0:0:0:0:
64,192,176315,1,0,0:0:0:0:
448,192,176440,1,0,0:0:0:0:
64,192,176565,1,0,0:0:0:0:
320,192,176690,1,0,0:0:0:0:
64,192,176815,128,0,177315:0:0:0:0:
448,192,176815,1,0,0:0:0:0:
192,192,177065,1,0,0:0:0:0:
448,192,177315,128,0,177815:0:0:0:0:
320,192,177315,1,0,0:0:0:0:
64,192,177565,1,0,0:0:0:0:
320,192,177815,128,0,178315:0:0:0:0:
192,192,177815,1,0,0:0:0:0:
448,192,178065,1,0,0:0:0:0:
64,192,178315,128,0,178565:0:0:0:0:
192,192,178315,1,0,0:0:0:0:
320,192,178565,128,0,178815:0:0:0:0:
448,192,178815,128,0,179065:0:0:0:0:
192,192,178815,1,0,0:0:0:0:
64,192,179065,128,0,179315:0:0:0:0:
192,192,179315,1,0,0:0:0:0:
320,192,179315,128,0,179565:0:0:0:0:
64,192,179565,128,0,179815:0:0:0:0:
448,192,179815,128,0,180315:0:0:0:0:
320,192,179815,1,0,0:0:0:0:
192,192,180065,1,0,0:0:0:0:
64,192,180315,1,0,0:0:0:0:
320,192,180315,1,0,0:0:0:0:
192,192,180440,128,0,180815:0:0:0:0:
448,192,180565,1,0,0:0:0:0:
320,192,180815,128,0,181315:0:0:0:0:
64,192,180815,1,0,0:0:0:0:
192,192,181065,1,0,0:0:0:0:
64,192,181315,128,0,181815:0:0:0:0:
448,192,181315,1,0,0:0:0:0:
192,192,181565,1,0,0:0:0:0:
320,192,181815,128,0,182315:0:0:0:0:
448,192,181815,1,0,0:0:0:0:
192,192,182065,1,0,0:0:0:0:
64,192,182315,128,0,182565:0:0:0:0:
448,192,182315,1,0,0:0:0:0:
448,192,182565,128,0,183065:0:0:0:0:
320,192,182815,1,0,0:0:0:0:
64,192,182815,1,0,0:0:0:0:
192,192,183065,128,0,183315:0:0:0:0:
64,192,183315,128,0,183815:0:0:0:0:
448,192,183315,1,0,0:0:0:0:
320,192,183565,1,0,0:0:0:0:
448,192,183815,1,0,0:0:0:0:
192,192,183815,1,0,0:0:0:0:
64,192,184065,1,0,0:0:0:0:
320,192,184315,128,0,184815:0:0:0:0:
192,192,184315,1,0,0:0:0:0:
64,192,184565,1,0,0:0:0:0:
192,192,184690,1,0,0:0:0:0:
64,192,184815,128,0,185315:0:0:0:0:
448,192,184815,1,0,0:0:0:0:
192,192,185065,1,0,0:0:0:0:
320,192,185315,128,0,185815:0:0:0:0:
448,192,185315,1,0,0:0:0:0:
192,192,185565,1,0,0:0:0:0:
64,192,185815,128,0,186315:0:0:0:0:
448,192,185815,1,0,0:0:0:0:
320,192,186065,1,0,0:0:0:0:
448,192,186315,128,0,186565:0:0:0:0:
192,192,186315,1,0,0:0:0:0:
320,192,186565,128,0,186815:0:0:0:0:
192,192,186815,128,0,187065:0:0:0:0:
448,192,186815,1,0,0:0:0:0:
64,192,187065,128,0,187315:0:0:0:0:
448,192,187315,128,0,187565:0:0:0:0:
192,192,187315,1,0,0:0:0:0:
320,192,187565,128,0,187815:0:0:0:0:
192,192,187815,128,0,188315:0:0:0:0:
64,192,187815,1,0,0:0:0:0:
448,192,188065,1,0,0:0:0:0:
64,192,188315,1,0,0:0:0:0:
320,192,188315,1,0,0:0:0:0:
448,192,188440,128,0,188815:0:0:0:0:
192,192,188565,1,0,0:0:0:0:
64,192,188815,128,0,189065:0:0:0:0:
320,192,188815,1,0,0:0:0:0:
448,192,189065,1,0,0:0:0:0:
192,192,189315,1,0,0:0:0:0:
320,192,189315,128,0,189565:0:0:0:0:
448,192,189565,1,0,0:0:0:0:
64,192,189815,128,0,190065:0:0:0:0:
192,192,189815,1,0,0:0:0:0:
448,192,190065,1,0,0:0:0:0:
192,192,190315,1,0,0:0:0:0:
320,192,190315,128,0,190565:0:0:0:0:
64,192,190565,1,0,0:0:0:0:
448,192,190565,1,0,0:0:0:0:
192,192,190815,128,0,191315:0:0:0:0:
320,192,190815,1,0,0:0:0:0:
448,192,191065,1,0,0:0:0:0:
64,192,191315,128,0,191815:0:0:0:0:
320,192,191315,1,0,0:0:0:0:
192,192,191565,1,0,0:0:0:0:
320,192,191690,1,0,0:0:0:0:
448,192,191815,128,0,192315:0:0:0:0:
192,192,191815,1,0,0:0:0:0:
64,192,191940,1,0,0:0:0:0:
320,192,192065,1,0,0:0:0:0:
192,192,192190,1,0,0:0:0:0:
64,192,192315,1,0,0:0:0:0:
320,192,192315,1,0,0:0:0:0:
448,192,192440,1,0,0:0:0:0:
64,192,192565,1,0,0:0:0:0:
192,192,192565,1,0,0:0:0:0:
448,192,192690,1,0,0:0:0:0:
320,192,192690,1,0,0:0:0:0:
