osu file format v14

[General]
AudioFilename: audio.mp3
AudioLeadIn: 0
PreviewTime: 110815
Countdown: 0
SampleSet: Soft
StackLeniency: 0.7
Mode: 3
LetterboxInBreaks: 0
SpecialStyle: 0
WidescreenStoryboard: 1

[Editor]
DistanceSpacing: 1.2
BeatDivisor: 6
GridSize: 4
TimelineZoom: 1.1

[Metadata]
Title:MAGO
TitleUnicode:MAGO
Artist:GFRIEND
ArtistUnicode:여자친구
Creator:eudalyte
Version:LEMMIE'S NORMAL
Source:
Tags:신비 sinb 예린 yerin 소원 sowon 유주 yuju 엄지 umji 은하 eunha 황은비 hwang eunbi eun-bi 정예린 jung yerin ye-rin 김소정 kim sojeong so-jeong 최유나 choi yuna yu-na 김예원 kim yewon ye-won 정은비 jung eunbi eun-bi 回 回:walpurgis night the 3rd album kakao entertainment title track korean k pop k-pop kpop disbandment song source music soumu somu hybe bighit ibighit frants bang sihyuk si-hyuk kyler niko paulina cerrilla cho yoon-kyung yoonkyung alice vicious cazzi opeia ellen berg jaded jane noisy citizen justin reinstein jjean lemmie lemmieloo viviz
BeatmapID:4298938
BeatmapSetID:2057217

[Difficulty]
HPDrainRate:7
CircleSize:4
OverallDifficulty:7
ApproachRate:5
SliderMultiplier:1.4
SliderTickRate:1

[Events]
//Background and Video events
0,0,"mago.jpg",0,0
//Break Periods
//Storyboard Layer 0 (Background)
//Storyboard Layer 1 (Fail)
//Storyboard Layer 2 (Pass)
//Storyboard Layer 3 (Foreground)
//Storyboard Layer 4 (Overlay)
//Storyboard Sound Samples

[TimingPoints]
815,500,4,2,1,60,1,0
48815,-100,4,2,1,60,0,1
80815,-100,4,2,1,60,0,0
112815,-100,4,2,1,60,0,1
144815,-100,4,2,1,60,0,0
160815,-100,4,2,1,60,0,1
192815,-100,4,2,1,60,0,0

[HitObjects]
64,192,815,128,0,1065:0:0:0:0:
192,192,1065,128,0,1315:0:0:0:0:
448,192,1315,1,0,0:0:0:0:
320,192,1565,1,0,0:0:0:0:
64,192,1815,1,0,0:0:0:0:
192,192,2065,1,0,0:0:0:0:
448,192,2315,1,0,0:0:0:0:
192,192,2565,1,0,0:0:0:0:
64,192,2815,1,0,0:0:0:0:
192,192,3065,1,0,0:0:0:0:
448,192,3315,1,0,0:0:0:0:
320,192,3565,1,0,0:0:0:0:
448,192,3815,1,0,0:0:0:0:
192,192,4065,1,0,0:0:0:0:
64,192,4315,1,0,0:0:0:0:
320,192,4565,1,0,0:0:0:0:
64,192,4815,1,0,0:0:0:0:
192,192,5065,1,0,0:0:0:0:
448,192,5315,1,0,0:0:0:0:
320,192,5565,1,0,0:0:0:0:
448,192,5815,1,0,0:0:0:0:
192,192,6065,1,0,0:0:0:0:
320,192,6315,1,0,0:0:0:0:
64,192,6565,1,0,0:0:0:0:
448,192,6815,1,0,0:0:0:0:
320,192,7065,1,0,0:0:0:0:
64,192,7315,1,0,0:0:0:0:
320,192,7565,1,0,0:0:0:0:
192,192,7815,1,0,0:0:0:0:
448,192,8065,1,0,0:0:0:0:
64,192,8315,1,0,0:0:0:0:
320,192,8565,1,0,0:0:0:0:
192,192,8815,1,0,0:0:0:0:
320,192,9065,1,0,0:0:0:0:
64,192,9315,1,0,0:0:0:0:
192,192,9565,1,0,0:0:0:0:
448,192,9815,1,0,0:0:0:0:
64,192,10065,1,0,0:0:0:0:
192,192,10315,1,0,0:0:0:0:
64,192,10565,1,0,0:0:0:0:
320,192,10815,1,0,0:0:0:0:
448,192,11065,1,0,0:0:0:0:
192,192,11315,1,0,0:0:0:0:
448,192,11565,1,0,0:0:0:0:
320,192,11815,1,0,0:0:0:0:
64,192,12065,1,0,0:0:0:0:
192,192,12315,1,0,0:0:0:0:
448,192,12565,1,0,0:0:0:0:
320,192,12815,1,0,0:0:0:0:
192,192,13065,1,0,0:0:0:0:
448,192,13315,1,0,0:0:0:0:
192,192,13565,1,0,0:0:0:0:
320,192,13815,1,0,0:0:0:0:
64,192,14065,1,0,0:0:0:0:
192,192,14315,1,0,0:0:0:0:
64,192,14565,1,0,0:0:0:0:
320,192,14815,1,0,0:0:0:0:
448,192,15065,1,0,0:0:0:0:
192,192,15315,1,0,0:0:0:0:
64,192,15565,1,0,0:0:0:0:
448,192,15815,1,0,0:0:0:0:
192,192,16065,1,0,0:0:0:0:
64,192,16315,1,0,0:0:0:0:
448,192,16315,1,0,0:0:0:0:
320,192,16565,1,0,0:0:0:0:
64,192,16815,128,0,17315:0:0:0:0:
192,192,16815,1,0,0:0:0:0:
448,192,17315,1,0,0:0:0:0:
320,192,17315,1,0,0:0:0:0:
192,192,17815,1,0,0:0:0:0:
64,192,17815,1,0,0:0:0:0:
448,192,18065,1,0,0:0:0:0:
320,192,18315,1,0,0:0:0:0:
64,192,18315,1,0,0:0:0:0:
192,192,18565,1,0,0:0:0:0:
448,192,18815,1,0,0:0:0:0:
320,192,18815,1,0,0:0:0:0:
192,192,19315,1,0,0:0:0:0:
64,192,19315,1,0,0:0:0:0:
64,192,19815,1,0,0:0:0:0:
448,192,19815,1,0,0:0:0:0:
192,192,20065,1,0,0:0:0:0:
448,192,20315,1,0,0:0:0:0:
320,192,20315,1,0,0:0:0:0:
64,192,20565,1,0,0:0:0:0:
192,192,20815,1,0,0:0:0:0:
320,192,20815,1,0,0:0:0:0:
64,192,21315,1,0,0:0:0:0:
448,192,21315,1,0,0:0:0:0:
192,192,21565,1,0,0:0:0:0:
320,192,21815,1,0,0:0:0:0:
448,192,21815,1,0,0:0:0:0:
64,192,22065,1,0,0:0:0:0:
192,192,22315,1,0,0:0:0:0:
448,192,22315,1,0,0:0:0:0:
320,192,22565,1,0,0:0:0:0:
192,192,22815,1,0,0:0:0:0:
64,192,22815,1,0,0:0:0:0:
448,192,23315,1,0,0:0:0:0:
64,192,23315,1,0,0:0:0:0:
320,192,23815,1,0,0:0:0:0:
192,192,23815,1,0,0:0:0:0:
448,192,24315,1,0,0:0:0:0:
64,192,24315,1,0,0:0:0:0:
320,192,24565,1,0,0:0:0:0:
192,192,24815,128,0,25315:0:0:0:0:
64,192,24815,1,0,0:0:0:0:
320,192,25315,1,0,0:0:0:0:
448,192,25315,128,0,25815:0:0:0:0:
64,192,25815,1,0,0:0:0:0:
192,192,25815,128,0,26315:0:0:0:0:
448,192,26315,128,0,26815:0:0:0:0:
320,192,26315,1,0,0:0:0:0:
320,192,26815,128,0,27315:0:0:0:0:
192,192,26815,1,0,0:0:0:0:
64,192,27315,128,0,27815:0:0:0:0:
448,192,27315,1,0,0:0:0:0:
448,192,27815,128,0,28315:0:0:0:0:
192,192,27815,1,0,0:0:0:0:
320,192,28315,128,0,28815:0:0:0:0:
64,192,28315,1,0,0:0:0:0:
192,192,28565,1,0,0:0:0:0:
448,192,28815,1,0,0:0:0:0:
64,192,28815,1,0,0:0:0:0:
192,192,29315,1,0,0:0:0:0:
320,192,29315,1,0,0:0:0:0:
448,192,29815,1,0,0:0:0:0:
64,192,29815,1,0,0:0:0:0:
320,192,30315,1,0,0:0:0:0:
448,192,30315,1,0,0:0:0:0:
192,192,30565,1,0,0:0:0:0:
64,192,30565,1,0,0:0:0:0:
320,192,30815,1,0,0:0:0:0:
448,192,30815,128,0,31815:0:0:0:0:
192,192,31315,1,0,0:0:0:0:
64,192,31815,1,0,0:0:0:0:
192,192,31815,1,0,0:0:0:0:
320,192,32065,1,0,0:0:0:0:
448,192,32315,1,0,0:0:0:0:
64,192,32315,1,0,0:0:0:0:
192,192,32565,1,0,0:0:0:0:
320,192,32815,1,0,0:0:0:0:
448,192,32815,1,0,0:0:0:0:
192,192,33065,1,0,0:0:0:0:
448,192,33315,1,0,0:0:0:0:
64,192,33315,1,0,0:0:0:0:
192,192,33815,1,0,0:0:0:0:
64,192,33815,1,0,0:0:0:0:
320,192,34065,1,0,0:0:0:0:
448,192,34315,1,0,0:0:0:0:
64,192,34315,1,0,0:0:0:0:
192,192,34565,128,0,35065:0:0:0:0:
320,192,34815,1,0,0:0:0:0:
64,192,35065,128,0,35565:0:0:0:0:
448,192,35315,1,0,0:0:0:0:
192,192,35565,128,0,36065:0:0:0:0:
320,192,35815,1,0,0:0:0:0:
64,192,36315,1,0,0:0:0:0:
448,192,36315,1,0,0:0:0:0:
320,192,36565,1,0,0:0:0:0:
192,192,36815,1,0,0:0:0:0:
64,192,36815,128,0,37190:0:0:0:0:
448,192,37190,128,0,37565:0:0:0:0:
320,192,37315,1,0,0:0:0:0:
192,192,37565,128,0,37815:0:0:0:0:
448,192,37815,128,0,38190:0:0:0:0:
64,192,37815,1,0,0:0:0:0:
64,192,38190,128,0,38565:0:0:0:0:
192,192,38315,1,0,0:0:0:0:
320,192,38565,128,0,38815:0:0:0:0:
448,192,38815,128,0,39815:0:0:0:0:
64,192,38815,1,0,0:0:0:0:
192,192,39315,1,0,0:0:0:0:
320,192,39815,1,0,0:0:0:0:
64,192,39815,1,0,0:0:0:0:
448,192,40315,1,0,0:0:0:0:
320,192,40315,1,0,0:0:0:0:
64,192,40565,1,0,0:0:0:0:
192,192,40565,1,0,0:0:0:0:
448,192,40815,1,0,0:0:0:0:
320,192,40815,1,0,0:0:0:0:
64,192,41315,1,0,0:0:0:0:
448,192,41315,1,0,0:0:0:0:
192,192,41815,128,0,42315:0:0:0:0:
320,192,41815,1,0,0:0:0:0:
448,192,42315,1,0,0:0:0:0:
64,192,42315,128,0,42815:0:0:0:0:
448,192,42815,1,0,0:0:0:0:
320,192,42815,1,0,0:0:0:0:
64,192,43315,1,0,0:0:0:0:
448,192,43315,1,0,0:0:0:0:
192,192,43815,1,0,0:0:0:0:
320,192,43815,128,0,44315:0:0:0:0:
64,192,44315,1,0,0:0:0:0:
448,192,44315,128,0,44815:0:0:0:0:
64,192,44815,128,0,45315:0:0:0:0:
320,192,44815,1,0,0:0:0:0:
192,192,45315,128,0,45815:0:0:0:0:
448,192,45315,1,0,0:0:0:0:
320,192,45815,128,0,46315:0:0:0:0:
64,192,45815,1,0,0:0:0:0:
192,192,46315,1,0,0:0:0:0:
448,192,46315,1,0,0:0:0:0:
448,192,46815,1,0,0:0:0:0:
320,192,46815,1,0,0:0:0:0:
320,192,47315,1,0,0:0:0:0:
448,192,47315,1,0,0:0:0:0:
320,192,47815,1,0,0:0:0:0:
448,192,47815,1,0,0:0:0:0:
64,192,48815,128,0,49315:0:0:0:0:
192,192,48815,1,0,0:0:0:0:
320,192,49065,1,0,0:0:0:0:
448,192,49315,1,0,0:0:0:0:
192,192,49315,1,0,0:0:0:0:
448,192,49815,1,0,0:0:0:0:
320,192,49815,1,0,0:0:0:0:
192,192,50065,1,0,0:0:0:0:
64,192,50315,1,0,0:0:0:0:
448,192,50315,1,0,0:0:0:0:
320,192,50565,1,0,0:0:0:0:
192,192,50815,1,0,0:0:0:0:
64,192,50815,128,0,51190:0:0:0:0:
320,192,51190,128,0,51565:0:0:0:0:
448,192,51315,1,0,0:0:0:0:
192,192,51565,128,0,51815:0:0:0:0:
64,192,51815,1,0,0:0:0:0:
448,192,51815,128,0,52190:0:0:0:0:
192,192,52190,128,0,52565:0:0:0:0:
64,192,52315,1,0,0:0:0:0:
320,192,52565,128,0,52815:0:0:0:0:
448,192,52815,1,0,0:0:0:0:
64,192,52815,128,0,53315:0:0:0:0:
320,192,53315,1,0,0:0:0:0:
448,192,53315,1,0,0:0:0:0:
64,192,53815,1,0,0:0:0:0:
192,192,53815,1,0,0:0:0:0:
320,192,54065,1,0,0:0:0:0:
448,192,54315,1,0,0:0:0:0:
64,192,54315,1,0,0:0:0:0:
192,192,54565,1,0,0:0:0:0:
320,192,54815,1,0,0:0:0:0:
448,192,54815,1,0,0:0:0:0:
64,192,55315,1,0,0:0:0:0:
448,192,55315,1,0,0:0:0:0:
320,192,55565,1,0,0:0:0:0:
64,192,55815,1,0,0:0:0:0:
192,192,55815,1,0,0:0:0:0:
320,192,56065,1,0,0:0:0:0:
448,192,56315,1,0,0:0:0:0:
64,192,56315,1,0,0:0:0:0:
320,192,56565,1,0,0:0:0:0:
192,192,56565,1,0,0:0:0:0:
64,192,56815,1,0,0:0:0:0:
448,192,56815,128,0,57315:0:0:0:0:
64,192,57315,1,0,0:0:0:0:
192,192,57315,1,0,0:0:0:0:
320,192,57815,1,0,0:0:0:0:
448,192,57815,1,0,0:0:0:0:
192,192,58065,1,0,0:0:0:0:
448,192,58315,1,0,0:0:0:0:
64,192,58315,1,0,0:0:0:0:
192,192,58565,1,0,0:0:0:0:
320,192,58815,1,0,0:0:0:0:
448,192,58815,1,0,0:0:0:0:
64,192,59315,1,0,0:0:0:0:
320,192,59315,1,0,0:0:0:0:
192,192,59815,1,0,0:0:0:0:
64,192,59815,1,0,0:0:0:0:
448,192,60315,1,0,0:0:0:0:
64,192,60315,1,0,0:0:0:0:
192,192,60565,1,0,0:0:0:0:
448,192,60815,1,0,0:0:0:0:
320,192,60815,128,0,61315:0:0:0:0:
192,192,61315,1,0,0:0:0:0:
64,192,61315,128,0,61815:0:0:0:0:
448,192,61815,1,0,0:0:0:0:
320,192,61815,128,0,62315:0:0:0:0:
192,192,62315,1,0,0:0:0:0:
64,192,62315,128,0,62815:0:0:0:0:
320,192,62565,1,0,0:0:0:0:
448,192,62815,1,0,0:0:0:0:
192,192,62815,1,0,0:0:0:0:
320,192,63315,1,0,0:0:0:0:
448,192,63315,1,0,0:0:0:0:
192,192,63565,1,0,0:0:0:0:
64,192,63565,1,0,0:0:0:0:
320,192,63815,1,0,0:0:0:0:
448,192,63815,1,0,0:0:0:0:
64,192,64065,1,0,0:0:0:0:
448,192,64315,128,0,64815:0:0:0:0:
192,192,64315,1,0,0:0:0:0:
320,192,64565,1,0,0:0:0:0:
64,192,64815,1,0,0:0:0:0:
192,192,64815,128,0,65315:0:0:0:0:
320,192,65315,1,0,0:0:0:0:
448,192,65315,128,0,65815:0:0:0:0:
192,192,65815,128,0,66315:0:0:0:0:
64,192,65815,1,0,0:0:0:0:
448,192,66315,1,0,0:0:0:0:
320,192,66315,1,0,0:0:0:0:
64,192,66565,1,0,0:0:0:0:
192,192,66815,1,0,0:0:0:0:
320,192,66815,1,0,0:0:0:0:
448,192,67065,1,0,0:0:0:0:
64,192,67315,1,0,0:0:0:0:
192,192,67315,1,0,0:0:0:0:
448,192,67565,1,0,0:0:0:0:
320,192,67815,1,0,0:0:0:0:
192,192,67815,1,0,0:0:0:0:
448,192,68315,1,0,0:0:0:0:
64,192,68315,1,0,0:0:0:0:
320,192,68565,1,0,0:0:0:0:
192,192,68815,1,0,0:0:0:0:
64,192,68815,1,0,0:0:0:0:
64,192,69315,1,0,0:0:0:0:
448,192,69315,1,0,0:0:0:0:
320,192,69815,1,0,0:0:0:0:
448,192,69815,1,0,0:0:0:0:
64,192,70315,1,0,0:0:0:0:
448,192,70315,1,0,0:0:0:0:
320,192,70565,1,0,0:0:0:0:
64,192,70815,1,0,0:0:0:0:
192,192,70815,1,0,0:0:0:0:
320,192,71065,1,0,0:0:0:0:
448,192,71315,1,0,0:0:0:0:
64,192,71315,1,0,0:0:0:0:
192,192,71815,1,0,0:0:0:0:
320,192,71815,1,0,0:0:0:0:
64,192,72315,128,0,72815:0:0:0:0:
448,192,72315,1,0,0:0:0:0:
192,192,72565,1,0,0:0:0:0:
320,192,72815,128,0,73315:0:0:0:0:
448,192,72815,1,0,0:0:0:0:
64,192,73315,128,0,73815:0:0:0:0:
192,192,73315,1,0,0:0:0:0:
320,192,73815,128,0,74315:0:0:0:0:
448,192,73815,1,0,0:0:0:0:
64,192,74315,1,0,0:0:0:0:
448,192,74315,1,0,0:0:0:0:
192,192,74565,1,0,0:0:0:0:
448,192,74815,1,0,0:0:0:0:
320,192,74815,1,0,0:0:0:0:
64,192,75065,1,0,0:0:0:0:
448,192,75315,1,0,0:0:0:0:
192,192,75315,1,0,0:0:0:0:
320,192,75565,1,0,0:0:0:0:
64,192,75815,1,0,0:0:0:0:
192,192,75815,1,0,0:0:0:0:
448,192,76315,1,0,0:0:0:0:
192,192,76315,1,0,0:0:0:0:
320,192,76565,1,0,0:0:0:0:
64,192,76815,128,0,77315:0:0:0:0:
192,192,76815,1,0,0:0:0:0:
448,192,77315,1,0,0:0:0:0:
320,192,77315,128,0,77815:0:0:0:0:
192,192,77815,1,0,0:0:0:0:
64,192,77815,128,0,78315:0:0:0:0:
448,192,78315,1,0,0:0:0:0:
320,192,78315,128,0,78815:0:0:0:0:
192,192,78565,1,0,0:0:0:0:
64,192,78815,1,0,0:0:0:0:
448,192,78815,1,0,0:0:0:0:
64,192,79315,1,0,0:0:0:0:
192,192,79315,1,0,0:0:0:0:
320,192,79815,1,0,0:0:0:0:
448,192,79815,1,0,0:0:0:0:
192,192,80065,1,0,0:0:0:0:
64,192,80315,1,0,0:0:0:0:
448,192,80315,1,0,0:0:0:0:
320,192,80565,1,0,0:0:0:0:
192,192,80815,1,0,0:0:0:0:
64,192,80815,1,0,0:0:0:0:
448,192,81315,1,0,0:0:0:0:
192,192,81315,1,0,0:0:0:0:
64,192,81815,1,0,0:0:0:0:
320,192,81815,1,0,0:0:0:0:
320,192,82315,1,0,0:0:0:0:
448,192,82315,1,0,0:0:0:0:
64,192,82565,1,0,0:0:0:0:
192,192,82815,1,0,0:0:0:0:
448,192,82815,1,0,0:0:0:0:
320,192,83315,1,0,0:0:0:0:
448,192,83315,1,0,0:0:0:0:
64,192,83815,1,0,0:0:0:0:
192,192,83815,1,0,0:0:0:0:
320,192,84065,1,0,0:0:0:0:
448,192,84315,1,0,0:0:0:0:
64,192,84315,1,0,0:0:0:0:
192,192,84565,1,0,0:0:0:0:
448,192,84815,1,0,0:0:0:0:
320,192,84815,1,0,0:0:0:0:
64,192,85315,1,0,0:0:0:0:
448,192,85315,1,0,0:0:0:0:
320,192,85815,1,0,0:0:0:0:
192,192,85815,1,0,0:0:0:0:
64,192,86315,1,0,0:0:0:0:
448,192,86315,1,0,0:0:0:0:
320,192,86565,1,0,0:0:0:0:
64,192,86815,1,0,0:0:0:0:
192,192,86815,1,0,0:0:0:0:
320,192,87315,1,0,0:0:0:0:
448,192,87315,1,0,0:0:0:0:
448,192,87815,1,0,0:0:0:0:
64,192,87815,1,0,0:0:0:0:
192,192,88315,1,0,0:0:0:0:
64,192,88315,1,0,0:0:0:0:
320,192,88565,1,0,0:0:0:0:
448,192,88565,1,0,0:0:0:0:
64,192,88815,128,0,89315:0:0:0:0:
192,192,88815,1,0,0:0:0:0:
448,192,89315,1,0,0:0:0:0:
320,192,89315,128,0,89815:0:0:0:0:
64,192,89815,128,0,90315:0:0:0:0:
192,192,89815,1,0,0:0:0:0:
448,192,90315,1,0,0:0:0:0:
320,192,90315,128,0,90815:0:0:0:0:
192,192,90815,128,0,91315:0:0:0:0:
64,192,90815,1,0,0:0:0:0:
320,192,91315,1,0,0:0:0:0:
448,192,91315,128,0,91815:0:0:0:0:
192,192,91815,128,0,92315:0:0:0:0:
64,192,91815,1,0,0:0:0:0:
320,192,92315,1,0,0:0:0:0:
448,192,92315,128,0,92815:0:0:0:0:
192,192,92565,1,0,0:0:0:0:
64,192,92815,1,0,0:0:0:0:
320,192,92815,1,0,0:0:0:0:
448,192,93315,1,0,0:0:0:0:
192,192,93315,1,0,0:0:0:0:
320,192,93815,1,0,0:0:0:0:
448,192,93815,1,0,0:0:0:0:
64,192,94315,1,0,0:0:0:0:
448,192,94315,1,0,0:0:0:0:
320,192,94565,1,0,0:0:0:0:
192,192,94565,1,0,0:0:0:0:
448,192,94815,128,0,95315:0:0:0:0:
64,192,94815,1,0,0:0:0:0:
320,192,95315,128,0,95815:0:0:0:0:
192,192,95315,1,0,0:0:0:0:
64,192,95690,1,0,0:0:0:0:
448,192,95815,1,0,0:0:0:0:
192,192,96065,1,0,0:0:0:0:
448,192,96315,1,0,0:0:0:0:
64,192,96315,1,0,0:0:0:0:
320,192,96565,1,0,0:0:0:0:
192,192,96815,1,0,0:0:0:0:
64,192,96815,1,0,0:0:0:0:
320,192,97065,1,0,0:0:0:0:
192,192,97315,1,0,0:0:0:0:
448,192,97315,1,0,0:0:0:0:
320,192,97815,1,0,0:0:0:0:
448,192,97815,1,0,0:0:0:0:
192,192,98065,1,0,0:0:0:0:
64,192,98315,1,0,0:0:0:0:
448,192,98315,1,0,0:0:0:0:
320,192,98565,128,0,99065:0:0:0:0:
192,192,98815,1,0,0:0:0:0:
448,192,99065,128,0,99565:0:0:0:0:
64,192,99315,1,0,0:0:0:0:
320,192,99565,128,0,100065:0:0:0:0:
192,192,99815,1,0,0:0:0:0:
64,192,100315,1,0,0:0:0:0:
448,192,100315,1,0,0:0:0:0:
192,192,100565,1,0,0:0:0:0:
320,192,100815,1,0,0:0:0:0:
448,192,100815,128,0,101190:0:0:0:0:
192,192,101190,128,0,101565:0:0:0:0:
64,192,101315,1,0,0:0:0:0:
320,192,101565,128,0,101815:0:0:0:0:
448,192,101815,1,0,0:0:0:0:
64,192,101815,128,0,102190:0:0:0:0:
320,192,102190,128,0,102565:0:0:0:0:
448,192,102315,1,0,0:0:0:0:
192,192,102565,128,0,102815:0:0:0:0:
448,192,102815,128,0,103565:0:0:0:0:
64,192,102815,1,0,0:0:0:0:
192,192,103315,1,0,0:0:0:0:
320,192,103815,1,0,0:0:0:0:
64,192,103815,1,0,0:0:0:0:
448,192,104315,1,0,0:0:0:0:
320,192,104315,1,0,0:0:0:0:
64,192,104565,1,0,0:0:0:0:
192,192,104565,1,0,0:0:0:0:
448,192,104815,1,0,0:0:0:0:
320,192,104815,1,0,0:0:0:0:
64,192,105315,1,0,0:0:0:0:
448,192,105315,1,0,0:0:0:0:
192,192,105815,128,0,106315:0:0:0:0:
320,192,105815,1,0,0:0:0:0:
64,192,106315,128,0,106815:0:0:0:0:
448,192,106315,1,0,0:0:0:0:
448,192,106815,1,0,0:0:0:0:
320,192,106815,1,0,0:0:0:0:
64,192,107315,1,0,0:0:0:0:
192,192,107315,1,0,0:0:0:0:
448,192,107815,128,0,108315:0:0:0:0:
192,192,107815,1,0,0:0:0:0:
320,192,108315,128,0,108815:0:0:0:0:
64,192,108315,1,0,0:0:0:0:
64,192,108815,128,0,109315:0:0:0:0:
448,192,108815,1,0,0:0:0:0:
192,192,109315,128,0,109815:0:0:0:0:
320,192,109315,1,0,0:0:0:0:
320,192,109815,128,0,110315:0:0:0:0:
448,192,109815,1,0,0:0:0:0:
64,192,110315,1,0,0:0:0:0:
192,192,110315,1,0,0:0:0:0:
448,192,110565,1,0,0:0:0:0:
320,192,110565,1,0,0:0:0:0:
64,192,110815,1,0,0:0:0:0:
192,192,110815,1,0,0:0:0:0:
192,192,111315,1,0,0:0:0:0:
64,192,111315,1,0,0:0:0:0:
64,192,111815,1,0,0:0:0:0:
192,192,111815,1,0,0:0:0:0:
448,192,112815,128,0,113315:0:0:0:0:
320,192,112815,1,0,0:0:0:0:
192,192,113065,1,0,0:0:0:0:
320,192,113315,1,0,0:0:0:0:
64,192,113315,1,0,0:0:0:0:
192,192,113815,1,0,0:0:0:0:
64,192,113815,1,0,0:0:0:0:
448,192,114065,1,0,0:0:0:0:
320,192,114315,1,0,0:0:0:0:
64,192,114315,1,0,0:0:0:0:
192,192,114565,1,0,0:0:0:0:
320,192,114815,1,0,0:0:0:0:
448,192,114815,128,0,115190:0:0:0:0:
192,192,115190,128,0,115565:0:0:0:0:
64,192,115315,1,0,0:0:0:0:
320,192,115565,128,0,115815:0:0:0:0:
448,192,115815,1,0,0:0:0:0:
64,192,115815,128,0,116190:0:0:0:0:
320,192,116190,128,0,116565:0:0:0:0:
448,192,116315,1,0,0:0:0:0:
192,192,116565,128,0,116815:0:0:0:0:
448,192,116815,128,0,117315:0:0:0:0:
64,192,116815,1,0,0:0:0:0:
64,192,117315,1,0,0:0:0:0:
320,192,117315,1,0,0:0:0:0:
192,192,117815,1,0,0:0:0:0:
448,192,117815,1,0,0:0:0:0:
448,192,118315,1,0,0:0:0:0:
320,192,118315,1,0,0:0:0:0:
192,192,118815,1,0,0:0:0:0:
64,192,118815,1,0,0:0:0:0:
448,192,119065,1,0,0:0:0:0:
320,192,119315,1,0,0:0:0:0:
64,192,119315,1,0,0:0:0:0:
192,192,119565,1,0,0:0:0:0:
448,192,119815,1,0,0:0:0:0:
320,192,119815,1,0,0:0:0:0:
192,192,120065,1,0,0:0:0:0:
448,192,120315,1,0,0:0:0:0:
64,192,120315,1,0,0:0:0:0:
320,192,120565,1,0,0:0:0:0:
192,192,120565,1,0,0:0:0:0:
64,192,120815,1,0,0:0:0:0:
448,192,120815,128,0,121315:0:0:0:0:
192,192,121315,1,0,0:0:0:0:
64,192,121315,1,0,0:0:0:0:
320,192,121815,1,0,0:0:0:0:
448,192,121815,1,0,0:0:0:0:
192,192,122065,1,0,0:0:0:0:
64,192,122315,1,0,0:0:0:0:
448,192,122315,1,0,0:0:0:0:
320,192,122565,1,0,0:0:0:0:
192,192,122815,1,0,0:0:0:0:
64,192,122815,1,0,0:0:0:0:
64,192,123315,1,0,0:0:0:0:
448,192,123315,1,0,0:0:0:0:
192,192,123565,1,0,0:0:0:0:
320,192,123815,1,0,0:0:0:0:
448,192,123815,1,0,0:0:0:0:
448,192,124315,1,0,0:0:0:0:
64,192,124315,1,0,0:0:0:0:
320,192,124565,1,0,0:0:0:0:
64,192,124815,1,0,0:0:0:0:
192,192,124815,128,0,125315:0:0:0:0:
448,192,125315,128,0,125815:0:0:0:0:
320,192,125315,1,0,0:0:0:0:
64,192,125815,1,0,0:0:0:0:
192,192,125815,128,0,126315:0:0:0:0:
320,192,126315,1,0,0:0:0:0:
448,192,126315,128,0,126815:0:0:0:0:
192,192,126565,1,0,0:0:0:0:
320,192,126815,1,0,0:0:0:0:
64,192,126815,1,0,0:0:0:0:
192,192,127315,1,0,0:0:0:0:
448,192,127315,1,0,0:0:0:0:
64,192,127565,1,0,0:0:0:0:
448,192,127815,1,0,0:0:0:0:
320,192,127815,1,0,0:0:0:0:
192,192,128065,1,0,0:0:0:0:
64,192,128315,128,0,128815:0:0:0:0:
448,192,128315,1,0,0:0:0:0:
320,192,128565,1,0,0:0:0:0:
192,192,128815,128,0,129315:0:0:0:0:
448,192,128815,1,0,0:0:0:0:
64,192,129315,128,0,129815:0:0:0:0:
320,192,129315,1,0,0:0:0:0:
192,192,129815,128,0,130315:0:0:0:0:
448,192,129815,1,0,0:0:0:0:
448,192,130315,1,0,0:0:0:0:
320,192,130315,1,0,0:0:0:0:
64,192,130565,1,0,0:0:0:0:
192,192,130815,1,0,0:0:0:0:
448,192,130815,1,0,0:0:0:0:
320,192,131065,1,0,0:0:0:0:
64,192,131315,1,0,0:0:0:0:
192,192,131315,1,0,0:0:0:0:
448,192,131565,1,0,0:0:0:0:
64,192,131815,128,0,132315:0:0:0:0:
320,192,131815,1,0,0:0:0:0:
448,192,132315,1,0,0:0:0:0:
192,192,132315,1,0,0:0:0:0:
64,192,132815,1,0,0:0:0:0:
192,192,132815,1,0,0:0:0:0:
448,192,133315,1,0,0:0:0:0:
64,192,133315,1,0,0:0:0:0:
320,192,133815,1,0,0:0:0:0:
448,192,133815,1,0,0:0:0:0:
448,192,134315,1,0,0:0:0:0:
64,192,134315,1,0,0:0:0:0:
320,192,134565,1,0,0:0:0:0:
192,192,134815,1,0,0:0:0:0:
64,192,134815,1,0,0:0:0:0:
320,192,135065,1,0,0:0:0:0:
448,192,135315,1,0,0:0:0:0:
64,192,135315,1,0,0:0:0:0:
320,192,135815,1,0,0:0:0:0:
192,192,135815,1,0,0:0:0:0:
64,192,136315,128,0,136815:0:0:0:0:
192,192,136315,1,0,0:0:0:0:
448,192,136565,1,0,0:0:0:0:
192,192,136815,128,0,137315:0:0:0:0:
320,192,136815,1,0,0:0:0:0:
64,192,137315,128,0,137815:0:0:0:0:
448,192,137315,1,0,0:0:0:0:
192,192,137815,128,0,138315:0:0:0:0:
320,192,137815,1,0,0:0:0:0:
448,192,138315,1,0,0:0:0:0:
64,192,138315,1,0,0:0:0:0:
320,192,138565,1,0,0:0:0:0:
192,192,138815,1,0,0:0:0:0:
64,192,138815,1,0,0:0:0:0:
320,192,139065,1,0,0:0:0:0:
64,192,139315,1,0,0:0:0:0:
448,192,139315,1,0,0:0:0:0:
192,192,139565,1,0,0:0:0:0:
320,192,139815,1,0,0:0:0:0:
448,192,139815,1,0,0:0:0:0:
448,192,140315,1,0,0:0:0:0:
64,192,140315,1,0,0:0:0:0:
320,192,140565,1,0,0:0:0:0:
64,192,140815,1,0,0:0:0:0:
192,192,140815,128,0,141315:0:0:0:0:
320,192,141315,1,0,0:0:0:0:
448,192,141315,128,0,141815:0:0:0:0:
64,192,141815,1,0,0:0:0:0:
192,192,141815,128,0,142315:0:0:0:0:
320,192,142315,1,0,0:0:0:0:
448,192,142315,128,0,142815:0:0:0:0:
192,192,142565,1,0,0:0:0:0:
64,192,142815,1,0,0:0:0:0:
320,192,142815,1,0,0:0:0:0:
192,192,143315,1,0,0:0:0:0:
448,192,143315,1,0,0:0:0:0:
448,192,143815,1,0,0:0:0:0:
320,192,143815,1,0,0:0:0:0:
192,192,144065,1,0,0:0:0:0:
64,192,144315,1,0,0:0:0:0:
448,192,144315,1,0,0:0:0:0:
320,192,144565,1,0,0:0:0:0:
64,192,144815,128,0,147815:0:0:0:0:
192,192,144815,1,0,0:0:0:0:
448,192,145065,128,0,146315:0:0:0:0:
192,192,146815,1,0,0:0:0:0:
192,192,148065,128,0,148315:0:0:0:0:
320,192,148315,128,0,148565:0:0:0:0:
192,192,148565,128,0,148815:0:0:0:0:
448,192,148815,128,0,149565:0:0:0:0:
64,192,148815,1,0,0:0:0:0:
192,192,149065,128,0,149565:0:0:0:0:
320,192,149565,128,0,152315:0:0:0:0:
192,192,150815,1,0,0:0:0:0:
64,192,151815,1,0,0:0:0:0:
448,192,152065,1,0,0:0:0:0:
192,192,152315,128,0,152815:0:0:0:0:
320,192,152565,1,0,0:0:0:0:
64,192,152815,1,0,0:0:0:0:
448,192,152815,1,0,0:0:0:0:
320,192,153065,128,0,153315:0:0:0:0:
64,192,153315,128,0,153565:0:0:0:0:
192,192,153565,128,0,153815:0:0:0:0:
448,192,153815,1,0,0:0:0:0:
64,192,154065,128,0,154315:0:0:0:0:
448,192,154315,128,0,154565:0:0:0:0:
320,192,154565,128,0,154815:0:0:0:0:
64,192,154815,1,0,0:0:0:0:
192,192,155065,128,0,155315:0:0:0:0:
64,192,155315,128,0,155565:0:0:0:0:
320,192,155565,128,0,155815:0:0:0:0:
448,192,155815,1,0,0:0:0:0:
192,192,156065,128,0,156315:0:0:0:0:
448,192,156315,128,0,156815:0:0:0:0:
192,192,156565,1,0,0:0:0:0:
320,192,156815,128,0,157565:0:0:0:0:
64,192,156815,1,0,0:0:0:0:
192,192,157065,1,0,0:0:0:0:
64,192,157315,1,0,0:0:0:0:
192,192,157565,1,0,0:0:0:0:
448,192,157815,128,0,158815:0:0:0:0:
320,192,158065,1,0,0:0:0:0:
64,192,158315,1,0,0:0:0:0:
192,192,158565,1,0,0:0:0:0:
64,192,158815,128,0,160315:0:0:0:0:
320,192,159065,1,0,0:0:0:0:
448,192,159315,1,0,0:0:0:0:
320,192,159565,1,0,0:0:0:0:
192,192,160815,1,0,0:0:0:0:
448,192,160815,128,0,161315:0:0:0:0:
320,192,161065,1,0,0:0:0:0:
192,192,161315,1,0,0:0:0:0:
64,192,161315,1,0,0:0:0:0:
320,192,161815,1,0,0:0:0:0:
448,192,161815,1,0,0:0:0:0:
64,192,162065,1,0,0:0:0:0:
448,192,162315,1,0,0:0:0:0:
192,192,162315,1,0,0:0:0:0:
320,192,162565,1,0,0:0:0:0:
192,192,162815,1,0,0:0:0:0:
64,192,162815,128,0,163190:0:0:0:0:
320,192,163190,128,0,163565:0:0:0:0:
448,192,163315,1,0,0:0:0:0:
192,192,163565,128,0,163815:0:0:0:0:
64,192,163815,1,0,0:0:0:0:
448,192,163815,128,0,164190:0:0:0:0:
192,192,164190,128,0,164565:0:0:0:0:
64,192,164315,1,0,0:0:0:0:
320,192,164565,128,0,164815:0:0:0:0:
448,192,164815,1,0,0:0:0:0:
64,192,164815,128,0,165315:0:0:0:0:
192,192,165315,1,0,0:0:0:0:
448,192,165315,1,0,0:0:0:0:
320,192,165815,1,0,0:0:0:0:
448,192,165815,1,0,0:0:0:0:
320,192,166315,1,0,0:0:0:0:
64,192,166315,1,0,0:0:0:0:
192,192,166815,1,0,0:0:0:0:
64,192,166815,1,0,0:0:0:0:
448,192,167065,1,0,0:0:0:0:
320,192,167315,1,0,0:0:0:0:
64,192,167315,1,0,0:0:0:0:
192,192,167565,1,0,0:0:0:0:
320,192,167815,1,0,0:0:0:0:
448,192,167815,1,0,0:0:0:0:
192,192,168065,1,0,0:0:0:0:
448,192,168315,1,0,0:0:0:0:
64,192,168315,1,0,0:0:0:0:
320,192,168565,1,0,0:0:0:0:
192,192,168565,1,0,0:0:0:0:
64,192,168815,1,0,0:0:0:0:
448,192,168815,128,0,169315:0:0:0:0:
320,192,169315,1,0,0:0:0:0:
192,192,169315,1,0,0:0:0:0:
64,192,169815,1,0,0:0:0:0:
320,192,169815,1,0,0:0:0:0:
448,192,170065,1,0,0:0:0:0:
192,192,170315,1,0,0:0:0:0:
320,192,170315,1,0,0:0:0:0:
64,192,170565,1,0,0:0:0:0:
192,192,170815,1,0,0:0:0:0:
448,192,170815,1,0,0:0:0:0:
64,192,171315,1,0,0:0:0:0:
320,192,171315,1,0,0:0:0:0:
192,192,171565,1,0,0:0:0:0:
448,192,171815,1,0,0:0:0:0:
320,192,171815,1,0,0:0:0:0:
64,192,172315,1,0,0:0:0:0:
448,192,172315,1,0,0:0:0:0:
320,192,172565,1,0,0:0:0:0:
64,192,172815,1,0,0:0:0:0:
192,192,172815,128,0,173315:0:0:0:0:
320,192,173315,1,0,0:0:0:0:
448,192,173315,128,0,173815:0:0:0:0:
64,192,173815,1,0,0:0:0:0:
192,192,173815,128,0,174315:0:0:0:0:
320,192,174315,1,0,0:0:0:0:
448,192,174315,128,0,174815:0:0:0:0:
192,192,174565,1,0,0:0:0:0:
320,192,174815,1,0,0:0:0:0:
64,192,174815,1,0,0:0:0:0:
192,192,175315,1,0,0:0:0:0:
448,192,175315,1,0,0:0:0:0:
320,192,175565,1,0,0:0:0:0:
192,192,175815,1,0,0:0:0:0:
64,192,175815,1,0,0:0:0:0:
448,192,176065,1,0,0:0:0:0:
320,192,176315,128,0,176815:0:0:0:0:
192,192,176315,1,0,0:0:0:0:
64,192,176565,1,0,0:0:0:0:
448,192,176815,128,0,177315:0:0:0:0:
192,192,176815,1,0,0:0:0:0:
320,192,177315,128,0,177815:0:0:0:0:
64,192,177315,1,0,0:0:0:0:
192,192,177815,1,0,0:0:0:0:
448,192,177815,128,0,178315:0:0:0:0:
64,192,178315,1,0,0:0:0:0:
320,192,178315,1,0,0:0:0:0:
192,192,178565,1,0,0:0:0:0:
320,192,178815,1,0,0:0:0:0:
448,192,178815,1,0,0:0:0:0:
64,192,179065,1,0,0:0:0:0:
192,192,179315,1,0,0:0:0:0:
448,192,179315,1,0,0:0:0:0:
320,192,179565,1,0,0:0:0:0:
192,192,179815,1,0,0:0:0:0:
64,192,179815,1,0,0:0:0:0:
64,192,180315,1,0,0:0:0:0:
448,192,180315,1,0,0:0:0:0:
320,192,180815,1,0,0:0:0:0:
448,192,180815,1,0,0:0:0:0:
320,192,181315,1,0,0:0:0:0:
64,192,181315,1,0,0:0:0:0:
64,192,181815,1,0,0:0:0:0:
192,192,181815,1,0,0:0:0:0:
192,192,182315,1,0,0:0:0:0:
448,192,182315,1,0,0:0:0:0:
320,192,182565,1,0,0:0:0:0:
64,192,182815,1,0,0:0:0:0:
192,192,182815,1,0,0:0:0:0:
448,192,183065,1,0,0:0:0:0:
320,192,183315,1,0,0:0:0:0:
64,192,183315,1,0,0:0:0:0:
192,192,183815,1,0,0:0:0:0:
64,192,183815,1,0,0:0:0:0:
448,192,184315,128,0,184815:0:0:0:0:
320,192,184315,1,0,0:0:0:0:
64,192,184565,1,0,0:0:0:0:
320,192,184815,128,0,185315:0:0:0:0:
192,192,184815,1,0,0:0:0:0:
448,192,185315,128,0,185815:0:0:0:0:
64,192,185315,1,0,0:0:0:0:
320,192,185815,128,0,186315:0:0:0:0:
192,192,185815,1,0,0:0:0:0:
64,192,186315,1,0,0:0:0:0:
448,192,186315,1,0,0:0:0:0:
192,192,186565,1,0,0:0:0:0:
448,192,186815,1,0,0:0:0:0:
320,192,186815,1,0,0:0:0:0:
192,192,187065,1,0,0:0:0:0:
64,192,187315,1,0,0:0:0:0:
320,192,187315,1,0,0:0:0:0:
448,192,187565,1,0,0:0:0:0:
64,192,187815,1,0,0:0:0:0:
192,192,187815,1,0,0:0:0:0:
448,192,188315,1,0,0:0:0:0:
64,192,188315,1,0,0:0:0:0:
192,192,188565,1,0,0:0:0:0:
448,192,188815,1,0,0:0:0:0:
320,192,188815,128,0,189315:0:0:0:0:
192,192,189315,1,0,0:0:0:0:
64,192,189315,128,0,189815:0:0:0:0:
448,192,189815,1,0,0:0:0:0:
320,192,189815,128,0,190315:0:0:0:0:
192,192,190315,1,0,0:0:0:0:
64,192,190315,128,0,190815:0:0:0:0:
320,192,190565,1,0,0:0:0:0:
448,192,190815,1,0,0:0:0:0:
192,192,190815,1,0,0:0:0:0:
320,192,191315,1,0,0:0:0:0:
64,192,191315,1,0,0:0:0:0:
192,192,191565,1,0,0:0:0:0:
448,192,191815,1,0,0:0:0:0:
320,192,191815,1,0,0:0:0:0:
64,192,192065,1,0,0:0:0:0:
192,192,192315,1,0,0:0:0:0:
448,192,192315,1,0,0:0:0:0:
320,192,192565,1,0,0:0:0:0:
