osu file format v14

[General]
AudioFilename: audio.mp3
AudioLeadIn: 0
PreviewTime: 82573
Countdown: 0
SampleSet: Soft
StackLeniency: 0.7
Mode: 0
LetterboxInBreaks: 0
WidescreenStoryboard: 1

[Editor]
DistanceSpacing: 0.6
BeatDivisor: 4
GridSize: 4
TimelineZoom: 1

[Metadata]
Title:Fingertip
TitleUnicode:Fingertip
Artist:GFRIEND
ArtistUnicode:GFRIEND
Creator:cosmiccc
Version:TANG TANG TANG
Source:
Tags:Gfriend Kpop Fingertip GlassBead Navillera Rough MeGustasTu SinB Yuju Eunha Umji Sowon Yerin
BeatmapID:1244635
BeatmapSetID:583251

[Difficulty]
HPDrainRate:6
CircleSize:4
OverallDifficulty:6.5
ApproachRate:8
SliderMultiplier:1.80000000596046
SliderTickRate:2

[Events]
//Background and Video events
0,0,"gfriend-2017-comeback-teaser-fingertip-3.png",0,0
Video,0,"Gfriendfingertipavi.avi"
//Break Periods
2,194903,203298
2,212595,221358
//Storyboard Layer 0 (Background)
//Storyboard Layer 1 (Fail)
//Storyboard Layer 2 (Pass)
//Storyboard Layer 3 (Foreground)
//Storyboard Sound Samples

[TimingPoints]
20606,491.803278688525,4,3,0,100,1,0
20606,-166.666666666667,4,3,0,100,0,0
21220,-100,4,3,0,100,0,0
26507,-133.333333333333,4,3,0,100,0,0
27368,-166.666666666667,4,3,0,100,0,0
27737,-166.666666666667,4,3,0,100,0,0
28843,-133.333333333333,4,3,0,100,0,0
29581,-100,4,3,0,100,0,0
34130,-125,4,3,0,100,0,0
35606,-66.6666666666667,4,3,0,100,0,0
37573,-166.666666666667,4,3,0,100,0,0
38187,-66.6666666666667,4,3,0,100,0,0
38556,-166.666666666667,4,3,0,100,0,0
40646,-66.6666666666667,4,3,0,100,0,0
41507,-166.666666666667,4,3,0,100,0,0
41999,-66.6666666666667,4,3,0,100,0,0
43843,-166.666666666667,4,3,0,100,0,0
44458,-66.6666666666667,4,3,0,100,0,0
45442,-166.666666666667,4,3,0,100,0,0
49761,-100,4,3,0,100,0,0
52081,-100,4,2,0,75,0,0
55401,-133.333333333333,4,2,0,75,0,0
58720,-100,4,2,0,75,0,0
61794,-166.666666666667,4,2,0,75,0,0
62409,-100,4,2,0,75,0,0
65974,-166.666666666667,4,2,0,75,0,0
69909,-100,4,2,0,75,0,0
71138,-166.666666666667,4,2,0,75,0,0
71876,-200,4,2,0,75,0,0
72614,-133.333333333333,4,2,0,75,0,0
82696,-100,4,2,0,75,0,0
83556,-100,4,2,0,75,0,1
83925,-166.666666666667,4,2,0,75,0,1
84417,-133.333333333333,4,2,0,75,0,1
87860,-133.333333333333,4,2,0,75,0,1
88474,-133.333333333333,4,2,0,75,0,1
90810,-100,4,2,0,75,0,1
94253,-133.333333333333,4,2,0,75,0,1
102222,-133.333333333333,4,2,0,75,0,1
103228,-133.333333333333,4,2,0,75,0,0
106671,-133.333333333333,4,2,0,75,0,0
107532,-100,4,2,0,75,0,0
111220,-166.666666666667,4,2,0,75,0,0
113433,-100,4,2,0,75,0,0
115032,-100,4,2,0,75,0,0
116138,-133.333333333333,4,2,0,75,0,0
117860,-166.666666666667,4,2,0,75,0,0
119089,-133.333333333333,4,2,0,75,0,0
119581,-133.333333333333,4,2,0,75,0,0
124745,-200,4,2,0,75,0,0
125360,-100,4,2,0,75,0,0
125728,-133.333333333333,4,2,0,75,0,0
126958,-133.333333333333,4,2,0,75,0,0
132614,-100,4,2,0,75,0,0
133843,-133.333333333333,4,2,0,75,0,0
134581,-100,4,2,0,75,0,0
135687,-133.333333333333,4,2,0,75,0,0
139253,-133.333333333333,4,2,0,75,0,0
141466,-166.666666666667,4,2,0,75,0,0
143433,-133.333333333333,4,2,0,75,0,0
144663,-100,4,2,0,75,0,0
146138,-200,4,2,0,75,0,0
148351,-200,4,2,0,75,0,1
148843,-100,4,2,0,75,0,1
150687,-133.333333333333,4,2,0,75,0,1
156712,-166.666666666667,4,2,0,75,0,1
164212,-133.333333333333,4,2,0,75,0,0
169007,-166.666666666667,4,2,0,75,0,0
170851,-100,4,2,0,75,0,0
171343,-66.6666666666667,4,2,0,75,0,0
172081,-100,4,2,0,75,0,0
182778,-166.666666666667,4,2,0,75,0,0
189540,-100,4,2,0,75,0,0
189909,-133.333333333333,4,2,0,75,0,0
191384,-166.666666666667,4,2,0,75,0,0
204048,521.739130434783,4,2,0,100,1,0
204048,-133.333333333333,4,3,0,100,0,0
212395,491.803278688525,4,2,0,100,1,0
222737,-100,4,2,0,75,0,0
225673,-100,4,2,0,75,0,1
226179,-133.333333333333,4,2,0,75,0,1
228515,-200,4,2,0,75,0,1
230114,-66.6666666666667,4,2,0,75,0,1
230606,-100,4,2,0,75,0,1
232435,-166.666666666667,4,2,0,75,0,1
232804,-100,4,2,0,75,0,1
234786,-166.666666666667,4,2,0,75,0,1
244868,-100,4,2,0,75,0,1
248556,-166.666666666667,4,2,0,75,0,1
251015,-100,4,2,0,75,0,1
252860,-166.666666666667,4,2,0,75,0,1
255565,-100,4,2,0,75,0,1
257272,-100,4,2,0,75,0,0

[Colours]
Combo1 : 95,173,222
Combo2 : 13,128,242
Combo3 : 183,81,217
Combo4 : 230,132,183

[HitObjects]
132,176,20606,6,0,P|160:172|180:56,1,161.999995592594
264,216,21589,1,0,0:0:0:0:
292,184,21712,1,0,0:0:0:0:
300,144,21835,1,0,0:0:0:0:
308,108,21958,1,0,0:0:0:0:
136,88,22204,2,0,L|224:96,1,45.0000001490115
192,184,22573,5,0,0:0:0:0:
196,212,22696,1,0,0:0:0:0:
200,240,22819,1,0,0:0:0:0:
332,336,23065,2,0,L|356:232,1,90.000000298023
208,76,23556,6,4,P|296:88|352:144,2,135.000000447034
232,176,24540,5,0,0:0:0:0:
108,148,24786,1,0,0:0:0:0:
132,120,24909,1,0,0:0:0:0:
172,104,25032,1,0,0:0:0:0:
104,280,25278,1,0,0:0:0:0:
264,296,25524,1,0,0:0:0:0:
240,252,25646,1,0,0:0:0:0:
256,212,25769,1,0,0:0:0:0:
288,176,25892,1,0,0:0:0:0:
316,136,26015,1,0,0:0:0:0:
160,64,26261,6,0,L|80:144,1,90.000000298023
200,248,26753,2,0,P|176:284|200:316,1,67.500002798438
296,180,27245,1,0,0:0:0:0:
312,148,27368,1,0,0:0:0:0:
336,112,27491,2,4,P|344:84|320:52,1,53.9999985308646
200,176,27860,6,4,L|148:220,1,53.9999985308646
320,232,28228,2,4,L|364:280,1,53.9999985308646
120,276,28720,5,0,0:0:0:0:
252,160,28966,2,0,L|176:160,2,67.500002798438
312,104,29581,1,0,0:0:0:0:
360,128,29704,1,0,0:0:0:0:
380,176,29827,1,0,0:0:0:0:
248,252,30073,5,0,0:0:0:0:
220,220,30196,1,0,0:0:0:0:
212,180,30319,1,0,0:0:0:0:
220,136,30442,2,0,B|240:181|288:96|332:120,1,90.000000298023
452,220,30933,2,0,P|428:272|364:272,1,90.000000298023
260,96,31425,5,0,0:0:0:0:
260,96,31548,1,0,0:0:0:0:
172,272,31794,1,0,0:0:0:0:
132,132,32163,2,0,L|64:240,1,90.000000298023
172,272,32655,1,0,0:0:0:0:
328,196,33392,6,0,P|332:232|280:280,2,90.000000298023
208,220,34130,1,0,0:0:0:0:
188,184,34253,1,0,0:0:0:0:
164,144,34376,1,0,0:0:0:0:
236,72,34622,5,0,0:0:0:0:
352,88,34868,1,0,0:0:0:0:
368,136,34991,1,0,0:0:0:0:
376,184,35114,1,0,0:0:0:0:
348,228,35237,1,0,0:0:0:0:
304,248,35360,1,0,0:0:0:0:
220,172,35851,6,0,P|196:204|256:192,1,135.000005596876
352,120,36589,5,0,0:0:0:0:
172,292,36835,2,0,B|96:240|96:240|124:220,1,67.500002798438
352,128,37327,5,0,0:0:0:0:
304,104,37450,1,0,0:0:0:0:
264,132,37573,1,0,0:0:0:0:
260,176,37696,2,0,L|236:252,1,53.9999985308646
124,100,38310,6,0,L|204:100,1,67.500002798438
316,248,38802,1,0,0:0:0:0:
284,204,38925,1,0,0:0:0:0:
88,148,39294,2,0,P|64:112|60:80,1,53.9999985308646
152,240,39663,2,0,P|188:264|220:268,1,53.9999985308646
308,168,40032,2,0,P|272:184|240:188,1,53.9999985308646
204,80,40524,5,0,0:0:0:0:
244,312,40769,2,0,B|276:296|276:296|288:264,1,67.500002798438
128,64,41261,1,0,0:0:0:0:
128,104,41384,1,0,0:0:0:0:
384,272,41630,2,0,P|352:284|316:284,1,53.9999985308646
112,172,42245,6,0,L|112:248,1,67.500002798438
332,104,42737,1,0,0:0:0:0:
296,96,42860,1,0,0:0:0:0:
200,136,43106,2,0,P|256:200|232:112,1,202.500008395314
248,312,43720,1,0,0:0:0:0:
104,160,43966,2,0,L|120:228,1,53.9999985308646
384,148,44458,6,0,P|340:128|252:144,1,135.000005596876
112,152,45196,2,0,L|180:196,1,67.500002798438
216,264,45565,2,0,P|316:276|352:264,1,135.000005596876
108,88,46671,5,0,0:0:0:0:
132,116,46794,1,0,0:0:0:0:
248,104,47163,2,0,L|304:72,1,53.9999985308646
404,220,47532,2,0,P|408:268|376:296,1,80.9999977962969
140,92,48392,5,0,0:0:0:0:
384,144,48638,1,0,0:0:0:0:
304,264,49130,1,0,0:0:0:0:
280,224,49253,1,0,0:0:0:0:
232,196,49376,1,0,0:0:0:0:
188,204,49499,1,0,0:0:0:0:
208,72,49868,6,0,L|176:128,1,45.0000001490115
128,232,50237,5,0,0:0:0:0:
160,260,50360,1,0,0:0:0:0:
208,240,50483,1,0,0:0:0:0:
248,228,50606,1,0,0:0:0:0:
288,244,50728,1,0,0:0:0:0:
336,256,50851,1,0,0:0:0:0:
116,124,51097,6,0,L|160:128,1,45.0000001490115
296,128,51466,2,0,L|244:132,3,45.0000001490115
100,68,52327,6,0,L|220:92,2,90.000000298023
168,300,53065,1,0,0:0:0:0:
424,216,53310,2,0,L|456:264,1,45.0000001490115
248,132,53802,5,0,0:0:0:0:
212,96,53925,1,0,0:0:0:0:
180,56,54048,1,0,0:0:0:0:
300,292,54294,1,0,0:0:0:0:
292,48,54540,1,0,0:0:0:0:
200,276,54786,2,0,P|132:264|128:216,1,90.000000298023
104,44,55278,1,0,0:0:0:0:
268,240,55524,2,0,L|328:308,1,67.500002798438
388,40,56015,2,0,L|448:116,1,67.500002798438
88,300,56507,5,0,0:0:0:0:
184,128,56753,1,0,0:0:0:0:
344,196,56999,2,0,L|396:184,1,33.750001399219
452,252,57245,2,0,L|380:272,1,67.500002798438
232,172,57737,5,0,0:0:0:0:
260,140,57860,1,0,0:0:0:0:
304,120,57983,2,0,B|328:100|360:104,5,33.750001399219
392,36,58843,2,0,P|452:112|368:192,1,225.000000745057
368,112,59581,1,0,0:0:0:0:
204,68,59950,6,0,L|316:112,1,90.000000298023
328,208,60442,1,0,0:0:0:0:
116,168,60687,1,0,0:0:0:0:
300,304,60933,1,0,0:0:0:0:
216,236,61179,2,0,L|284:196,1,45.0000001490115
384,148,61671,5,0,0:0:0:0:
368,104,61794,1,0,0:0:0:0:
320,80,61917,2,0,P|320:108|300:144,1,53.9999985308646
192,132,62286,1,0,0:0:0:0:
372,272,62532,1,0,0:0:0:0:
64,36,62778,1,0,0:0:0:0:
216,100,63146,6,0,L|316:72,2,90.000000298023
88,144,63884,1,0,0:0:0:0:
216,280,64130,1,0,0:0:0:0:
344,144,64376,1,0,0:0:0:0:
136,208,64622,5,0,0:0:0:0:
156,176,64745,1,0,0:0:0:0:
132,136,64868,1,0,0:0:0:0:
232,308,65114,1,0,0:0:0:0:
280,320,65237,1,0,0:0:0:0:
312,292,65360,1,0,0:0:0:0:
352,268,65483,1,0,0:0:0:0:
356,224,65606,5,0,0:0:0:0:
260,48,65851,1,0,0:0:0:0:
136,116,66097,2,0,P|144:180|188:216,1,107.999997061729
44,268,66835,2,0,L|80:328,1,53.9999985308646
128,108,67327,5,0,0:0:0:0:
292,308,67573,1,0,0:0:0:0:
368,60,67819,1,0,0:0:0:0:
364,232,68065,5,0,0:0:0:0:
224,56,68310,1,0,0:0:0:0:
192,268,68556,1,0,0:0:0:0:
292,124,68802,2,0,L|176:160,1,107.999997061729
152,288,69540,5,0,0:0:0:0:
188,260,69663,1,0,0:0:0:0:
228,236,69786,1,0,0:0:0:0:
312,184,70032,2,0,L|400:256,2,90.000000298023
196,72,70769,5,0,0:0:0:0:
381,240,71015,1,0,0:0:0:0:
108,200,71261,2,0,L|48:244,2,53.9999985308646
376,108,71999,5,0,0:0:0:0:
160,60,72245,1,0,0:0:0:0:
222,319,72491,1,0,0:0:0:0:
160,220,72737,2,0,P|172:292|240:320,1,135.000005596876
296,236,73474,5,0,0:0:0:0:
92,80,73720,1,0,0:0:0:0:
236,64,73966,1,0,0:0:0:0:
148,248,74212,2,0,L|124:296,2,33.750001399219
248,64,74704,2,0,P|308:104|268:216,1,202.500008395314
144,64,75933,5,0,0:0:0:0:
172,96,76056,1,0,0:0:0:0:
220,104,76179,1,0,0:0:0:0:
248,136,76302,1,0,0:0:0:0:
252,180,76425,1,0,0:0:0:0:
352,156,76671,2,0,L|368:240,1,67.500002798438
208,296,77040,2,0,L|188:176,1,101.250004197657
352,56,77901,5,0,0:0:0:0:
376,96,78024,1,0,0:0:0:0:
420,112,78147,1,0,0:0:0:0:
440,256,78269,2,0,L|396:296,1,33.750001399219
372,148,78638,2,0,P|364:196|332:220,1,67.500002798438
236,116,79007,2,0,P|196:136|184:176,1,67.500002798438
212,284,79376,2,0,P|180:312|136:312,1,67.500002798438
88,148,79868,5,0,0:0:0:0:
236,44,80114,1,0,0:0:0:0:
224,240,80360,1,0,0:0:0:0:
120,52,80606,1,0,0:0:0:0:
272,120,80851,1,0,0:0:0:0:
96,176,81097,1,0,0:0:0:0:
92,248,81343,2,0,P|160:288|124:204,1,202.500008395314
308,60,82573,5,0,0:0:0:0:
272,92,82696,1,0,0:0:0:0:
264,308,82942,1,0,0:0:0:0:
228,276,83065,1,0,0:0:0:0:
232,236,83187,1,0,0:0:0:0:
204,204,83310,1,0,0:0:0:0:
152,76,83556,6,0,L|152:144,1,45.0000001490115
284,256,83802,2,0,L|284:192,1,45.0000001490115
96,252,84048,2,0,B|148:204,1,53.9999985308646
376,144,84540,6,0,L|404:224,2,67.500002798438
156,96,85278,1,0,0:0:0:0:
308,48,85524,1,0,0:0:0:0:
168,256,85769,1,0,0:0:0:0:
380,152,86015,1,0,0:0:0:0:
328,176,86138,1,0,0:0:0:0:
316,276,86384,1,0,0:0:0:0:
316,276,86507,6,0,P|356:220|352:200,1,67.500002798438
120,48,86876,2,0,P|88:100|96:124,1,67.500002798438
224,152,87245,2,0,B|224:212,1,33.750001399219
336,76,87491,5,0,0:0:0:0:
92,132,87737,1,0,0:0:0:0:
224,236,87983,2,0,B|212:200|212:200|224:152|224:152,1,67.500002798438
344,252,88474,2,0,L|364:328,2,67.500002798438
176,80,89212,6,0,L|160:164,1,67.500002798438
132,288,89581,1,0,0:0:0:0:
168,252,89704,1,0,0:0:0:0:
204,276,89827,1,0,0:0:0:0:
248,260,89950,2,0,L|264:168,2,67.500002798438
112,64,90687,6,0,L|140:144,1,67.500002798438
168,256,91179,1,0,0:0:0:0:
100,212,91425,6,0,P|80:256|120:304,2,90.000000298023
216,220,92163,5,0,0:0:0:0:
180,56,92409,1,0,0:0:0:0:
140,84,92532,1,0,0:0:0:0:
108,120,92655,1,0,0:0:0:0:
216,220,92901,1,0,0:0:0:0:
312,156,93146,5,0,0:0:0:0:
112,84,93392,1,0,0:0:0:0:
336,296,93638,1,0,0:0:0:0:
108,216,93884,1,0,0:0:0:0:
292,76,94130,1,0,0:0:0:0:
240,296,94376,6,0,L|144:268,1,67.500002798438
368,184,94745,2,0,L|444:204,1,67.500002798438
192,88,95114,2,0,L|104:64,1,67.500002798438
376,104,95606,6,0,L|296:104,2,67.500002798438
212,64,96343,1,0,0:0:0:0:
112,200,96589,1,0,0:0:0:0:
284,196,96835,1,0,0:0:0:0:
108,124,97081,2,0,P|44:192|104:268,1,202.500008395314
240,124,98310,5,0,0:0:0:0:
224,164,98433,1,0,0:0:0:0:
180,184,98556,1,0,0:0:0:0:
160,228,98679,1,0,0:0:0:0:
176,272,98802,1,0,0:0:0:0:
216,284,98925,1,0,0:0:0:0:
260,268,99048,1,0,0:0:0:0:
292,296,99171,1,0,0:0:0:0:
344,264,99294,6,0,B|368:216|340:184|300:148|336:128|368:88|336:40,1,202.500008395314
164,88,100278,2,0,L|116:124,3,33.750001399219
240,224,100892,2,0,L|240:116,1,101.250004197657
308,176,101507,1,0,0:0:0:0:
160,280,101753,1,0,0:0:0:0:
156,128,102245,6,0,L|232:128,1,67.500002798438
296,40,102737,1,0,0:0:0:0:
328,80,102860,1,0,0:0:0:0:
336,128,102983,1,0,0:0:0:0:
328,176,103106,1,0,0:0:0:0:
300,212,103228,1,0,0:0:0:0:
184,256,103474,5,0,0:0:0:0:
184,96,103720,2,0,P|172:144|192:184,1,67.500002798438
280,72,104212,1,0,0:0:0:0:
304,108,104335,1,0,0:0:0:0:
272,144,104458,1,0,0:0:0:0:
296,184,104581,1,0,0:0:0:0:
144,324,104827,2,0,L|160:272,1,33.750001399219
164,104,105196,6,0,L|216:80,1,33.750001399219
240,172,105442,2,0,L|288:148,1,33.750001399219
352,212,105810,1,0,0:0:0:0:
356,252,105933,1,0,0:0:0:0:
324,292,106056,1,0,0:0:0:0:
276,300,106179,1,0,0:0:0:0:
160,92,106425,6,0,B|176:64|176:64|228:52,1,67.500002798438
312,124,106917,2,0,B|332:160|332:160|308:200,1,67.500002798438
76,80,107409,1,0,0:0:0:0:
132,280,107655,1,0,0:0:0:0:
256,108,107901,1,0,0:0:0:0:
328,260,108146,1,0,0:0:0:0:
100,168,108392,1,0,0:0:0:0:
216,344,108638,1,0,0:0:0:0:
260,156,108884,5,0,0:0:0:0:
392,72,109130,1,0,0:0:0:0:
320,312,109376,1,0,0:0:0:0:
288,84,109622,1,0,0:0:0:0:
168,136,109868,5,0,0:0:0:0:
184,180,109991,1,0,0:0:0:0:
228,192,110114,1,0,0:0:0:0:
356,248,110360,2,0,B|296:348|192:288,1,180.000000596046
256,72,111097,5,0,0:0:0:0:
152,140,111343,2,0,L|176:164,1,26.9999992654323
352,140,111589,2,0,P|340:172|348:200,1,53.9999985308646
152,220,112081,5,0,0:0:0:0:
168,260,112204,1,0,0:0:0:0:
212,272,112327,1,0,0:0:0:0:
400,112,112450,2,0,P|368:80|328:68,1,80.9999977962969
180,248,113065,5,0,0:0:0:0:
104,80,113310,1,0,0:0:0:0:
160,296,113556,2,0,L|244:248,1,90.000000298023
356,96,114048,5,0,0:0:0:0:
352,144,114171,1,0,0:0:0:0:
316,168,114294,1,0,0:0:0:0:
288,200,114417,1,0,0:0:0:0:
316,240,114540,1,0,0:0:0:0:
352,272,114663,1,0,0:0:0:0:
324,308,114786,1,0,0:0:0:0:
280,320,114909,1,0,0:0:0:0:
228,172,116261,6,0,L|248:128,1,33.750001399219
276,260,116507,2,0,L|252:312,1,33.750001399219
148,320,116753,1,0,0:0:0:0:
340,268,117245,5,0,0:0:0:0:
228,48,117491,1,0,0:0:0:0:
96,144,117737,1,0,0:0:0:0:
192,56,117983,2,0,L|240:88,2,53.9999985308646
96,156,118720,5,0,0:0:0:0:
112,200,118843,1,0,0:0:0:0:
148,228,118966,1,0,0:0:0:0:
204,320,119212,2,0,P|252:300|264:268,1,67.500002798438
308,56,119581,2,0,L|228:88,1,67.500002798438
348,180,119950,6,0,P|388:164|432:176,1,67.500002798438
312,312,120442,2,0,P|268:320|228:304,1,67.500002798438
152,160,120933,2,0,P|128:140|88:136,1,67.500002798438
196,276,121425,1,0,0:0:0:0:
360,188,121671,1,0,0:0:0:0:
236,40,121917,5,0,0:0:0:0:
180,56,122040,1,0,0:0:0:0:
140,96,122163,1,0,0:0:0:0:
120,144,122286,2,0,P|144:192|172:212,1,67.500002798438
208,208,122655,5,0,0:0:0:0:
264,204,122778,1,0,0:0:0:0:
296,164,122901,2,0,L|252:112,2,67.500002798438
320,204,123515,1,0,0:0:0:0:
300,256,123638,1,0,0:0:0:0:
256,264,123761,2,0,P|228:224|128:264,1,168.750006996095
100,192,124499,1,0,0:0:0:0:
172,84,124868,6,0,L|224:80,1,45.0000001490115
312,124,125360,1,0,0:0:0:0:
176,144,125606,1,0,0:0:0:0:
168,224,125851,6,0,L|220:256,2,33.750001399219
288,224,126220,2,0,P|272:184|228:164,1,67.500002798438
200,148,126589,5,0,0:0:0:0:
204,96,126712,1,0,0:0:0:0:
232,56,126835,1,0,0:0:0:0:
284,64,126958,2,0,L|352:92,2,67.500002798438
200,184,127696,2,0,P|252:208|292:184,1,101.250004197657
264,104,128310,5,0,0:0:0:0:
184,248,128556,1,0,0:0:0:0:
416,104,128802,1,0,0:0:0:0:
304,236,129048,2,0,L|248:304,1,67.500002798438
140,116,129540,2,0,L|96:32,1,67.500002798438
344,140,130032,5,0,0:0:0:0:
212,120,130278,1,0,0:0:0:0:
180,152,130401,1,0,0:0:0:0:
168,196,130524,1,0,0:0:0:0:
128,220,130646,2,0,P|148:292|196:292,1,101.250004197657
100,108,132245,5,0,0:0:0:0:
376,88,132491,1,0,0:0:0:0:
260,232,132737,1,0,0:0:0:0:
304,56,132983,6,0,P|364:80|408:116,1,90.000000298023
152,136,133474,1,0,0:0:0:0:
296,236,133720,1,0,0:0:0:0:
108,224,133966,2,0,P|148:264|184:268,1,67.500002798438
256,184,134458,1,0,0:0:0:0:
160,112,134704,6,0,L|132:68,1,45.0000001490115
340,108,134950,2,0,L|360:68,1,45.0000001490115
296,228,135196,2,0,L|320:265,1,45.0000001490115
192,228,135442,2,0,L|167:268,1,45.0000001490115
192,160,135687,6,0,P|248:132|316:172,1,135.000005596876
212,276,136425,1,0,0:0:0:0:
316,168,136671,1,0,0:0:0:0:
236,48,136917,5,0,0:0:0:0:
380,272,137163,1,0,0:0:0:0:
104,120,137409,1,0,0:0:0:0:
232,320,137655,1,0,0:0:0:0:
208,112,137901,1,0,0:0:0:0:
204,312,138146,2,0,P|164:288|148:256,1,67.500002798438
224,80,138638,5,0,0:0:0:0:
256,120,138761,1,0,0:0:0:0:
244,168,138884,1,0,0:0:0:0:
112,260,139130,2,0,L|152:292,1,33.750001399219
480,188,139499,2,0,B|348:232|356:80|268:136,1,236.250009794533
280,96,140851,5,0,0:0:0:0:
264,144,140974,1,0,0:0:0:0:
280,192,141097,1,0,0:0:0:0:
164,260,141343,1,0,0:0:0:0:
144,104,141589,6,0,P|164:80|192:76,1,53.9999985308646
284,248,141958,2,0,P|320:240|352:196,1,80.9999977962969
152,160,142819,5,0,0:0:0:0:
184,180,142942,1,0,0:0:0:0:
232,160,143065,1,0,0:0:0:0:
264,128,143187,1,0,0:0:0:0:
304,152,143310,1,0,0:0:0:0:
172,304,143556,2,0,P|124:288|120:264,1,67.500002798438
192,220,143925,2,0,P|172:184|180:148,1,67.500002798438
276,176,144294,2,0,P|268:128|280:112,1,67.500002798438
200,280,144786,5,0,0:0:0:0:
300,128,145032,1,0,0:0:0:0:
376,284,145278,1,0,0:0:0:0:
172,52,145524,5,0,0:0:0:0:
196,92,145646,1,0,0:0:0:0:
180,136,145769,1,0,0:0:0:0:
184,184,145892,1,0,0:0:0:0:
220,216,146015,1,0,0:0:0:0:
308,184,146261,2,0,P|364:192|320:280,1,180.000000596046
96,120,147491,5,0,0:0:0:0:
136,88,147614,1,0,0:0:0:0:
144,216,147860,5,0,0:0:0:0:
184,200,147983,1,0,0:0:0:0:
208,156,148106,1,0,0:0:0:0:
212,120,148228,1,0,0:0:0:0:
268,216,148474,5,0,0:0:0:0:
356,144,148720,1,0,0:0:0:0:
200,276,148966,2,0,B|136:248|136:248|144:208,1,90.000000298023
144,116,149458,6,0,L|108:48,2,45.0000001490115
200,220,149827,1,0,0:0:0:0:
192,48,150196,5,0,0:0:0:0:
408,168,150442,2,0,P|444:208|424:260,1,90.000000298023
296,272,150933,1,0,0:0:0:0:
308,224,151056,2,0,L|260:216,1,33.750001399219
212,160,151302,2,0,P|176:108|108:84,1,135.000005596876
384,112,152163,6,0,L|412:192,1,67.500002798438
328,324,152655,1,0,0:0:0:0:
140,80,152901,2,0,P|132:124|148:148,1,67.500002798438
268,60,153392,5,0,0:0:0:0:
264,116,153515,1,0,0:0:0:0:
240,168,153638,1,0,0:0:0:0:
260,220,153761,1,0,0:0:0:0:
84,276,154130,5,0,0:0:0:0:
124,132,154376,2,0,P|148:96|176:88,1,67.500002798438
208,256,154868,2,0,P|248:292|288:284,1,67.500002798438
40,132,155360,2,0,L|104:92,1,67.500002798438
172,228,155728,2,0,L|148:160,1,67.500002798438
192,92,156097,1,0,0:0:0:0:
292,204,156343,5,0,0:0:0:0:
300,248,156466,1,0,0:0:0:0:
284,288,156589,1,0,0:0:0:0:
404,112,156835,2,0,P|384:76|356:60,1,53.9999985308646
88,128,157327,5,0,0:0:0:0:
96,184,157450,1,0,0:0:0:0:
128,216,157573,1,0,0:0:0:0:
168,240,157696,2,0,L|216:200,1,53.9999985308646
228,168,158065,1,0,0:0:0:0:
360,200,158310,6,0,P|344:168|316:156,1,53.9999985308646
180,132,158802,5,0,0:0:0:0:
192,92,158925,2,0,L|204:64,1,26.9999992654323
96,292,159294,2,0,P|152:316|184:312,2,80.9999977962969
388,300,160524,5,0,0:0:0:0:
208,100,160769,1,0,0:0:0:0:
128,288,161015,1,0,0:0:0:0:
280,64,161261,1,0,0:0:0:0:
149,194,161507,1,0,0:0:0:0:
384,292,161753,1,0,0:0:0:0:
124,48,161999,2,0,B|160:76|168:124|92:140|132:188|168:208,1,161.999995592594
196,112,163228,5,0,0:0:0:0:
184,160,163351,1,0,0:0:0:0:
212,200,163474,1,0,0:0:0:0:
240,240,163597,1,0,0:0:0:0:
284,224,163720,1,0,0:0:0:0:
328,244,163843,1,0,0:0:0:0:
328,292,163966,1,0,0:0:0:0:
296,320,164089,1,0,0:0:0:0:
144,96,164458,5,0,0:0:0:0:
208,268,164704,1,0,0:0:0:0:
304,80,164950,1,0,0:0:0:0:
256,68,165073,1,0,0:0:0:0:
208,88,165196,2,0,L|160:136,1,67.500002798438
164,184,165565,1,0,0:0:0:0:
240,256,165810,5,0,0:0:0:0:
276,232,165933,1,0,0:0:0:0:
300,196,166056,1,0,0:0:0:0:
76,52,166425,2,0,P|68:100|88:140,1,67.500002798438
164,196,166794,1,0,0:0:0:0:
204,184,166917,1,0,0:0:0:0:
248,160,167040,1,0,0:0:0:0:
104,56,167163,6,0,P|92:92|104:128,1,67.500002798438
124,268,167532,2,0,P|156:236|156:196,1,67.500002798438
224,124,167901,2,0,P|264:108|296:120,1,67.500002798438
156,140,168392,5,0,0:0:0:0:
260,292,168638,2,0,P|304:268|320:236,1,67.500002798438
360,216,169007,1,0,0:0:0:0:
376,164,169130,2,0,P|380:124|340:92,1,80.9999977962969
208,56,169745,1,0,0:0:0:0:
176,100,169868,1,0,0:0:0:0:
160,148,169991,1,0,0:0:0:0:
164,196,170114,1,0,0:0:0:0:
272,312,170360,5,0,0:0:0:0:
292,40,170606,1,0,0:0:0:0:
248,64,170728,1,0,0:0:0:0:
336,260,170974,2,0,P|288:212|280:160,1,90.000000298023
124,184,171589,6,0,P|148:152|128:192,1,135.000005596876
368,92,172327,5,0,0:0:0:0:
268,276,172573,1,0,0:0:0:0:
172,96,172819,1,0,0:0:0:0:
220,84,172942,1,0,0:0:0:0:
268,96,173065,1,0,0:0:0:0:
288,144,173187,1,0,0:0:0:0:
132,208,173433,1,0,0:0:0:0:
304,256,173679,5,0,0:0:0:0:
320,216,173802,1,0,0:0:0:0:
336,172,173925,1,0,0:0:0:0:
312,132,174048,1,0,0:0:0:0:
128,88,174294,6,0,L|184:80,1,45.0000001490115
356,223,174540,2,0,L|280:215,1,45.0000001490115
164,272,174909,2,0,P|240:284|316:204,1,180.000000596046
224,240,175769,2,0,B|128:216|228:160,1,90.000000298023
316,120,176261,5,0,0:0:0:0:
352,308,176507,1,0,0:0:0:0:
188,228,176753,1,0,0:0:0:0:
112,84,176999,1,0,0:0:0:0:
332,76,177245,1,0,0:0:0:0:
232,196,177491,1,0,0:0:0:0:
292,280,177737,5,0,0:0:0:0:
248,288,177860,1,0,0:0:0:0:
208,264,177983,1,0,0:0:0:0:
152,204,178228,2,0,P|152:160|108:124,1,90.000000298023
156,96,178597,1,0,0:0:0:0:
204,64,178720,1,0,0:0:0:0:
164,292,178966,5,0,0:0:0:0:
180,44,179212,1,0,0:0:0:0:
460,112,179458,1,0,0:0:0:0:
84,284,179704,1,0,0:0:0:0:
208,92,179950,6,0,L|156:116,2,45.0000001490115
88,220,180442,1,0,0:0:0:0:
292,304,180687,2,0,P|364:308|392:272,1,90.000000298023
128,104,181179,1,0,0:0:0:0:
176,104,181302,1,0,0:0:0:0:
200,64,181425,1,0,0:0:0:0:
424,260,181794,5,0,0:0:0:0:
436,304,181917,1,0,0:0:0:0:
396,332,182040,1,0,0:0:0:0:
168,244,182409,1,0,0:0:0:0:
224,72,182655,1,0,0:0:0:0:
88,168,182901,6,0,P|128:192|136:216,1,53.9999985308646
280,88,183269,2,0,P|312:108|324:132,1,53.9999985308646
264,248,183638,2,0,P|296:268|308:292,1,53.9999985308646
336,324,184007,5,0,0:0:0:0:
376,288,184130,1,0,0:0:0:0:
300,136,184376,1,0,0:0:0:0:
144,220,184622,1,0,0:0:0:0:
296,48,184868,1,0,0:0:0:0:
376,340,185114,1,0,0:0:0:0:
408,304,185237,1,0,0:0:0:0:
96,192,185483,6,0,L|124:224,2,26.9999992654323
112,144,185851,1,0,0:0:0:0:
152,112,185974,1,0,0:0:0:0:
200,120,186097,1,0,0:0:0:0:
236,156,186220,1,0,0:0:0:0:
264,196,186343,1,0,0:0:0:0:
312,208,186466,1,0,0:0:0:0:
356,232,186589,1,0,0:0:0:0:
368,280,186712,1,0,0:0:0:0:
328,312,186835,6,0,P|276:308|248:296,1,80.9999977962969
284,188,187573,2,0,P|256:168|216:168,1,53.9999985308646
248,60,188065,5,0,0:0:0:0:
336,288,188310,1,0,0:0:0:0:
224,88,188556,1,0,0:0:0:0:
116,140,188802,2,0,P|120:204|144:220,1,80.9999977962969
208,240,189417,1,0,0:0:0:0:
212,244,189540,2,0,L|296:184,1,90.000000298023
328,160,189909,5,0,0:0:0:0:
336,124,190032,2,0,P|312:96|280:88,1,67.500002798438
232,88,190401,1,0,0:0:0:0:
184,124,190524,2,0,P|192:172|176:204,1,67.500002798438
168,232,190892,1,0,0:0:0:0:
172,284,191015,2,0,L|232:324,1,67.500002798438
404,200,191507,2,0,P|408:164|396:132,1,53.9999985308646
100,172,191999,5,0,0:0:0:0:
112,228,192122,1,0,0:0:0:0:
136,264,192245,1,0,0:0:0:0:
272,112,192491,1,0,0:0:0:0:
448,328,192737,1,0,0:0:0:0:
80,136,192983,1,0,0:0:0:0:
96,308,193228,1,0,0:0:0:0:
212,112,193474,2,0,B|288:172|352:80|352:80|424:180,1,269.999992654323
200,84,204048,6,0,L|144:96,1,33.750001399219
192,196,204308,2,0,L|244:204,1,33.750001399219
356,160,204569,2,0,L|280:112,1,67.500002798438
116,92,205091,6,0,L|124:148,1,33.750001399219
184,252,205352,2,0,L|192:196,1,33.750001399219
324,164,205613,2,0,L|240:120,1,67.500002798438
368,92,206134,6,0,L|348:128,1,33.750001399219
232,104,206395,2,0,L|212:140,1,33.750001399219
332,272,206656,2,0,L|312:208,1,67.500002798438
352,100,207178,6,0,L|300:96,1,33.750001399219
132,120,207439,2,0,L|168:164,1,33.750001399219
274,237,207700,2,0,L|334:273,1,67.500002798438
172,140,208221,6,0,P|216:172|240:160,1,67.500002798438
344,248,208743,6,0,P|368:204|364:184,1,67.500002798438
208,48,209265,6,0,P|248:64|256:104,1,67.500002798438
188,240,209787,6,0,P|148:232|128:208,1,67.500002798438
256,192,210308,12,0,212395,0:0:0:0:
176,80,222108,5,0,0:0:0:0:
148,112,222231,1,0,0:0:0:0:
156,156,222354,1,0,0:0:0:0:
312,168,222599,1,0,0:0:0:0:
184,248,222846,2,0,L|100:328,2,90.000000298023
220,192,223583,2,0,P|212:112|352:232,1,450.000001490115
312,164,224936,1,0,0:0:0:0:
128,144,225182,5,0,0:0:0:0:
152,108,225305,1,0,0:0:0:0:
192,104,225428,1,0,0:0:0:0:
224,140,225551,1,0,0:0:0:0:
248,176,225673,1,0,0:0:0:0:
240,220,225796,5,0,0:0:0:0:
112,156,226042,1,0,0:0:0:0:
364,200,226288,2,0,P|332:244|296:264,1,67.500002798438
128,64,226780,5,0,0:0:0:0:
180,56,226903,1,0,0:0:0:0:
216,96,227026,1,0,0:0:0:0:
224,152,227149,1,0,0:0:0:0:
104,264,227518,5,0,0:0:0:0:
324,128,227764,1,0,0:0:0:0:
392,256,228010,1,0,0:0:0:0:
100,156,228255,1,0,0:0:0:0:
132,192,228378,1,0,0:0:0:0:
440,140,228747,6,0,P|416:112|392:104,1,45.0000001490115
292,256,229239,1,0,0:0:0:0:
300,216,229362,1,0,0:0:0:0:
304,168,229485,1,0,0:0:0:0:
196,144,229731,5,0,0:0:0:0:
128,284,229977,1,0,0:0:0:0:
392,184,230223,2,0,B|352:136|428:88|368:52,1,135.000005596876
148,92,230714,5,0,0:0:0:0:
168,128,230837,1,0,0:0:0:0:
140,212,231083,2,0,P|208:240|264:200,1,135.000000447034
136,68,231698,1,0,0:0:0:0:
348,264,231944,1,0,0:0:0:0:
112,196,232190,1,0,0:0:0:0:
160,216,232313,1,0,0:0:0:0:
236,148,232559,2,0,P|280:136|304:144,1,53.9999985308646
328,168,232928,5,0,0:0:0:0:
256,236,233173,1,0,0:0:0:0:
120,164,233419,1,0,0:0:0:0:
200,76,233665,2,0,B|280:68|236:176|352:192,1,180.000000596046
140,184,234649,5,0,0:0:0:0:
176,208,234772,1,0,0:0:0:0:
216,216,234895,2,0,P|252:260|252:272,1,53.9999985308646
88,304,235387,1,0,0:0:0:0:
104,100,235632,1,0,0:0:0:0:
264,168,235878,1,0,0:0:0:0:
352,288,236124,6,0,L|384:324,2,26.9999992654323
400,56,236616,1,0,0:0:0:0:
108,228,236985,1,0,0:0:0:0:
240,116,237354,2,0,P|308:132|344:116,1,107.999997061729
396,308,238092,5,0,0:0:0:0:
184,40,238337,1,0,0:0:0:0:
120,252,238583,1,0,0:0:0:0:
384,132,238829,1,0,0:0:0:0:
112,252,239075,1,0,0:0:0:0:
196,88,239321,2,0,B|244:-12|284:164,1,161.999995592594
284,268,240551,5,0,0:0:0:0:
248,228,240673,1,0,0:0:0:0:
276,184,240796,1,0,0:0:0:0:
284,136,240919,1,0,0:0:0:0:
240,96,241042,1,0,0:0:0:0:
188,96,241165,1,0,0:0:0:0:
136,80,241288,1,0,0:0:0:0:
272,104,242026,5,0,0:0:0:0:
84,120,242518,1,0,0:0:0:0:
104,168,242641,1,0,0:0:0:0:
144,200,242764,1,0,0:0:0:0:
188,208,242887,1,0,0:0:0:0:
320,164,243501,6,0,L|264:204,1,53.9999985308646
140,256,243993,1,0,0:0:0:0:
108,216,244116,1,0,0:0:0:0:
80,176,244239,1,0,0:0:0:0:
164,88,244485,5,0,0:0:0:0:
264,304,244731,1,0,0:0:0:0:
223,216,244976,2,0,B|175:172|175:172|207:120|207:120|143:72,1,180.000000596046
408,168,245714,5,0,0:0:0:0:
223,216,245960,1,0,0:0:0:0:
168,100,246452,1,0,0:0:0:0:
212,72,246575,1,0,0:0:0:0:
360,240,246821,1,0,0:0:0:0:
332,268,246944,2,0,B|228:224|228:224|88:176|208:-24|376:184|216:308,1,495.000001639126
144,196,248665,6,0,P|136:160|152:128,1,53.9999985308646
448,112,249157,2,0,P|392:104|328:140,1,107.999997061729
320,272,249895,1,0,0:0:0:0:
92,96,250141,1,0,0:0:0:0:
112,284,250387,1,0,0:0:0:0:
152,260,250510,1,0,0:0:0:0:
176,220,250632,1,0,0:0:0:0:
328,76,250878,1,0,0:0:0:0:
104,116,251124,6,0,B|168:96|168:96|144:240,1,180.000000596046
244,56,251862,1,0,0:0:0:0:
324,256,252108,2,0,B|388:236|388:236|272:160,1,180.000000596046
160,80,253092,6,0,P|212:108|256:96,1,107.999997061729
112,232,253829,1,0,0:0:0:0:
368,304,254075,1,0,0:0:0:0:
88,224,254321,1,0,0:0:0:0:
388,160,254567,1,0,0:0:0:0:
116,88,254813,1,0,0:0:0:0:
304,232,255059,2,0,P|360:200|360:152,1,107.999997061729
180,208,255796,5,0,0:0:0:0:
224,212,255919,1,0,0:0:0:0:
240,168,256042,1,0,0:0:0:0:
344,92,256288,5,0,0:0:0:0:
84,40,256534,1,0,0:0:0:0:
144,280,256780,1,0,0:0:0:0:
164,248,256903,1,0,0:0:0:0:
208,224,257026,1,0,0:0:0:0:
224,176,257149,1,0,0:0:0:0:
