osu file format v14

[General]
AudioFilename: audio.mp3
AudioLeadIn: 0
PreviewTime: 82573
Countdown: 0
SampleSet: Soft
StackLeniency: 0.7
Mode: 0
LetterboxInBreaks: 0
WidescreenStoryboard: 1

[Editor]
DistanceSpacing: 0.6
BeatDivisor: 4
GridSize: 4
TimelineZoom: 1

[Metadata]
Title:Fingertip
TitleUnicode:Fingertip
Artist:GFRIEND
ArtistUnicode:GFRIEND
Creator:cosmiccc
Version:Hard
Source:
Tags:Gfriend Kpop Fingertip GlassBead Navillera Rough MeGustasTu SinB Yuju Eunha Umji Sowon Yerin
BeatmapID:1235288
BeatmapSetID:583251

[Difficulty]
HPDrainRate:4
CircleSize:4
OverallDifficulty:3.6
ApproachRate:5
SliderMultiplier:1.50000000596046
SliderTickRate:2

[Events]
//Background and Video events
0,0,"gfriend-2017-comeback-teaser-fingertip-3.png",0,0
Video,0,"Gfriendfingertipavi.avi"
//Break Periods
2,36296,46510
2,99370,100854
2,103306,104911
2,179904,186674
2,195210,209296
2,212609,220362
2,241625,243108
2,245560,247165
//Storyboard Layer 0 (Background)
//Storyboard Layer 1 (Fail)
//Storyboard Layer 2 (Pass)
//Storyboard Layer 3 (Foreground)
//Storyboard Sound Samples

[TimingPoints]
20606,491.803278688525,4,2,0,85,1,0
52081,-100,4,2,0,85,0,0
81189,-66.6666666666667,4,2,0,85,0,0
82762,-100,4,2,0,85,0,0
83310,-100,4,2,0,85,0,1
83850,-66.6666666666667,4,2,0,85,0,1
84455,-100,4,2,0,85,0,1
85060,-100,4,2,0,85,0,1
103222,-100,4,2,0,85,0,0
136108,-200,4,2,0,85,0,0
136592,-100,4,2,0,85,0,0
143488,-166.666666666667,4,2,0,85,0,0
143850,-133.333333333333,4,2,0,85,0,0
144697,-100,4,2,0,85,0,0
148351,-100,4,2,0,85,0,1
152681,-66.6666666666667,4,2,0,85,0,1
153286,-100,4,2,0,85,0,1
164225,-100,4,2,0,85,0,0
171466,-80,4,2,0,85,0,0
172081,-100,4,2,0,85,0,0
188971,-166.666666666667,4,2,0,85,0,0
189576,-100,4,2,0,85,0,0
193326,-66.6666666666667,4,2,0,85,0,0
202641,-100,4,2,0,85,0,0
222121,491.803278688525,4,2,0,85,1,0
225687,-100,4,2,0,85,0,1
226301,491.803278688525,4,2,0,85,1,0
230114,-66.6666666666667,4,2,0,85,0,1
230606,-100,4,2,0,85,0,1
251999,-100,4,2,0,85,0,1
257286,-100,4,2,0,85,0,0

[Colours]
Combo1 : 95,173,222
Combo2 : 13,128,242
Combo3 : 183,81,217
Combo4 : 230,132,183

[HitObjects]
160,92,21589,5,0,0:0:0:0:
188,72,21712,1,0,0:0:0:0:
220,60,21835,1,0,0:0:0:0:
256,56,21958,1,0,0:0:0:0:
344,96,22204,2,0,L|396:108,1,37.5000001490115
464,176,22573,2,0,L|388:196,1,75.000000298023
308,240,23065,1,0,0:0:0:0:
136,184,23556,6,0,L|72:136,1,75.000000298023
148,124,23925,2,0,L|216:176,1,75.000000298023
272,184,24294,2,0,B|272:112|272:112|196:60,1,150.000000596046
207,67,25155,5,0,0:0:0:0:
308,64,25524,1,0,0:0:0:0:
344,52,25646,1,0,0:0:0:0:
376,52,25769,1,0,0:0:0:0:
404,64,25892,1,0,0:0:0:0:
436,172,26138,2,0,L|380:220,1,37.5000001490115
382,217,26507,1,0,0:0:0:0:
288,250,26753,1,0,0:0:0:0:
197,241,27122,5,0,0:0:0:0:
175,204,27245,1,0,0:0:0:0:
256,136,27491,2,0,L|346:63,2,112.500000447034
229,36,29212,5,0,0:0:0:0:
172,92,29458,1,0,0:0:0:0:
152,112,29581,1,0,0:0:0:0:
144,136,29704,1,0,0:0:0:0:
140,164,29827,1,0,0:0:0:0:
136,260,30073,2,0,L|220:278,1,75.000000298023
209,275,30442,1,0,0:0:0:0:
306,235,30687,1,0,0:0:0:0:
383,177,30933,2,0,P|428:128|384:68,1,150.000000596046
232,60,31794,6,0,L|156:88,1,75.000000298023
232,136,32163,2,0,L|316:160,1,75.000000298023
252,232,32655,1,0,0:0:0:0:
384,188,33392,5,0,0:0:0:0:
380,160,33515,1,0,0:0:0:0:
368,124,33638,1,0,0:0:0:0:
352,92,33761,1,0,0:0:0:0:
260,108,34130,2,0,L|172:140,1,75.000000298023
120,220,34499,1,0,0:0:0:0:
120,220,34622,2,0,B|116:300|180:320|220:264|252:268|280:344,1,225.000000894069
272,164,35851,6,4,P|244:120|220:108,1,75.000000298023
256,192,47901,12,0,51589,0:0:0:0:
304,64,52327,6,0,L|200:96,1,75.000000298023
152,152,52819,1,0,0:0:0:0:
232,208,53065,1,0,0:0:0:0:
240,300,53310,2,0,P|280:300|280:300,2,37.5000001490115
380,208,53802,1,0,0:0:0:0:
380,172,53925,1,0,0:0:0:0:
380,136,54048,2,0,L|380:36,2,75.000000298023
272,156,54786,1,0,0:0:0:0:
308,256,55032,6,0,L|212:304,1,75.000000298023
128,280,55524,2,0,L|56:224,1,75.000000298023
72,108,56015,2,0,L|136:56,1,75.000000298023
196,136,56507,2,0,B|256:88|256:88|332:144,1,150.000000596046
329,138,57245,5,0,0:0:0:0:
256,192,57491,1,0,0:0:0:0:
256,312,57737,1,0,0:0:0:0:
132,188,57983,1,0,0:0:0:0:
256,88,58228,1,0,0:0:0:0:
384,188,58474,1,0,0:0:0:0:
472,128,58720,2,0,L|388:104,1,75.000000298023
332,56,59458,6,0,L|392:48,2,37.5000001490115
184,184,59950,1,0,0:0:0:0:
128,104,60196,1,0,0:0:0:0:
72,196,60442,1,0,0:0:0:0:
144,280,60687,1,0,0:0:0:0:
256,280,60933,1,0,0:0:0:0:
256,248,61179,2,0,L|256:164,1,75.000000298023
356,192,61671,6,0,P|380:148|360:76,1,112.500000447034
324,72,62163,1,0,0:0:0:0:
284,80,62286,1,0,0:0:0:0:
248,88,62409,1,0,0:0:0:0:
136,116,62655,1,0,0:0:0:0:
248,88,62901,6,0,L|328:152,1,75.000000298023
364,256,63392,1,0,0:0:0:0:
264,288,63638,2,0,L|292:188,2,75.000000298023
208,136,64376,1,0,0:0:0:0:
104,192,64622,6,0,P|84:156|96:104,1,75.000000298023
320,128,65114,2,0,P|324:160|284:196,1,75.000000298023
204,260,65606,1,0,0:0:0:0:
73,260,65851,2,0,L|105:188,1,75.000000298023
152,132,66343,1,0,0:0:0:0:
208,40,66589,1,0,0:0:0:0:
280,128,66835,1,0,0:0:0:0:
336,200,67327,6,0,L|264:232,2,75.000000298023
344,108,68065,6,0,L|237:107,1,75.000000298023
196,144,68556,2,0,L|136:208,1,75.000000298023
116,272,69048,2,0,L|200:320,1,75.000000298023
288,288,69540,1,0,0:0:0:0:
280,184,69786,5,0,0:0:0:0:
288,288,70032,1,0,0:0:0:0:
384,224,70278,1,0,0:0:0:0:
368,120,70524,1,0,0:0:0:0:
256,80,70769,2,0,P|208:96|208:144,1,75.000000298023
168,152,71261,5,0,0:0:0:0:
288,120,71507,1,0,0:0:0:0:
308,244,71753,1,0,0:0:0:0:
256,296,71999,5,0,0:0:0:0:
136,224,72245,1,0,0:0:0:0:
184,80,72491,1,0,0:0:0:0:
328,80,72737,1,0,0:0:0:0:
380,224,72983,1,0,0:0:0:0:
264,224,73228,2,0,L|168:180,1,75.000000298023
180,124,73720,2,0,L|256:160,1,75.000000298023
336,132,74212,1,0,0:0:0:0:
336,132,74335,1,0,0:0:0:0:
348,216,74581,2,0,P|388:260|336:220,1,187.500000745057
216,280,75933,5,0,0:0:0:0:
160,192,76179,1,0,0:0:0:0:
180,112,76425,2,0,P|220:88|272:104,1,75.000000298023
312,152,76917,2,0,P|272:176|220:168,1,75.000000298023
160,192,77409,2,0,P|172:248|208:264,1,75.000000298023
260,280,77901,2,0,P|316:260|328:228,1,75.000000298023
336,160,78392,1,0,0:0:0:0:
340,164,78638,2,0,P|356:208|316:248,2,75.000000298023
248,68,79376,6,0,L|164:60,1,75.000000298023
176,256,79868,2,0,L|256:232,1,75.000000298023
80,156,80360,2,0,L|176:156,1,75.000000298023
296,240,80851,1,0,0:0:0:0:
400,224,81097,1,0,0:0:0:0:
200,264,81343,2,0,L|156:272,14,37.5000001490115
344,60,83556,5,0,0:0:0:0:
216,72,83802,1,0,0:0:0:0:
168,164,84048,2,0,B|108:196|108:196|80:152,1,112.500004738569
220,224,84540,2,0,L|276:192,1,56.2500023692846
336,144,84909,1,0,0:0:0:0:
396,56,85278,5,0,0:0:0:0:
472,192,85524,1,0,0:0:0:0:
320,248,85769,1,0,0:0:0:0:
164,168,86015,1,0,0:0:0:0:
256,168,86261,2,0,L|256:268,2,75.000000298023
184,84,86999,1,0,0:0:0:0:
268,56,87245,1,0,0:0:0:0:
356,56,87491,5,0,0:0:0:0:
388,216,87737,1,0,0:0:0:0:
256,164,87983,1,0,0:0:0:0:
200,80,88228,2,0,L|120:80,1,75.000000298023
92,168,88720,2,0,L|92:256,1,75.000000298023
196,296,89212,2,0,L|280:296,1,75.000000298023
364,248,89704,2,0,L|364:156,1,75.000000298023
280,104,90196,1,0,0:0:0:0:
152,164,90442,2,0,P|116:224|192:288,1,150.000000596046
312,88,91425,5,0,0:0:0:0:
252,168,91671,1,0,0:0:0:0:
196,236,91917,1,0,0:0:0:0:
336,296,92409,2,0,L|288:296,3,37.5000001490115
384,272,92901,2,0,L|328:208,1,75.000000298023
208,216,93392,5,0,0:0:0:0:
312,100,93638,1,0,0:0:0:0:
208,100,93884,1,0,0:0:0:0:
304,216,94130,1,0,0:0:0:0:
304,312,94376,2,0,L|380:328,1,75.000000298023
344,160,94868,1,0,0:0:0:0:
208,64,95114,2,0,L|124:72,1,75.000000298023
256,192,95606,12,0,97819,0:0:0:0:
256,64,98310,5,0,0:0:0:0:
256,256,98556,1,0,0:0:0:0:
208,152,98802,2,0,L|240:188,1,37.5000001490115
284,180,99048,2,0,L|316:140,1,37.5000001490115
256,112,102245,6,0,L|184:160,1,75.000000298023
244,252,102737,2,0,L|208:216,2,37.5000001490115
312,192,103106,1,0,0:0:0:0:
148,88,106425,6,0,B|128:128|128:128|152:176,1,75.000000298023
216,272,106917,2,0,L|320:272,1,75.000000298023
288,212,107409,1,0,0:0:0:0:
236,72,107655,1,0,0:0:0:0:
328,116,107901,1,0,0:0:0:0:
196,172,108146,1,0,0:0:0:0:
88,224,108392,2,0,L|140:316,1,75.000000298023
312,248,108884,6,0,L|300:160,2,75.000000298023
236,72,109622,1,0,0:0:0:0:
184,200,109868,2,0,L|164:252,2,37.5000001490115
304,240,110360,2,0,P|336:208|312:156,1,75.000000298023
324,112,110851,1,0,0:0:0:0:
176,80,111097,6,0,L|264:112,2,75.000000298023
192,164,111835,1,0,0:0:0:0:
328,192,112081,2,0,L|236:220,2,75.000000298023
312,124,112819,1,0,0:0:0:0:
152,52,113065,5,0,0:0:0:0:
176,92,113310,2,0,L|208:180,1,75.000000298023
312,188,113802,2,0,L|260:252,2,75.000000298023
444,244,114540,2,0,L|416:212,1,37.5000001490115
376,312,114909,1,0,0:0:0:0:
72,112,116261,5,0,0:0:0:0:
100,100,116384,1,0,0:0:0:0:
124,92,116507,1,0,0:0:0:0:
144,88,116630,1,0,0:0:0:0:
172,80,116753,1,0,0:0:0:0:
200,76,116876,1,0,0:0:0:0:
304,56,117245,6,0,L|344:128,1,75.000000298023
328,216,117737,1,0,0:0:0:0:
256,312,117983,1,0,0:0:0:0:
180,184,118228,2,0,L|140:108,1,75.000000298023
40,112,118720,6,0,L|84:208,1,75.000000298023
232,176,119212,2,0,L|200:128,2,37.5000001490115
300,272,119704,1,0,0:0:0:0:
376,148,119950,2,0,P|352:92|256:56,1,150.000000596046
256,196,120933,1,0,0:0:0:0:
172,280,121302,2,0,P|132:256|96:196,1,112.500000447034
168,80,121917,5,0,0:0:0:0:
256,120,122163,2,0,L|328:56,2,75.000000298023
80,120,122901,1,0,0:0:0:0:
156,264,123146,1,0,0:0:0:0:
224,124,123392,1,0,0:0:0:0:
260,216,123638,1,0,0:0:0:0:
292,204,123761,1,0,0:0:0:0:
320,196,123884,1,0,0:0:0:0:
352,300,124130,1,0,0:0:0:0:
408,172,124376,2,0,L|436:112,2,37.5000001490115
440,260,124868,1,0,0:0:0:0:
320,196,125114,5,0,0:0:0:0:
304,72,125360,1,0,0:0:0:0:
196,132,125606,1,0,0:0:0:0:
200,264,125851,1,0,0:0:0:0:
400,112,126097,2,0,L|496:88,1,75.000000298023
428,172,126589,2,0,L|332:196,1,75.000000298023
140,112,127081,2,0,L|72:72,1,75.000000298023
92,160,127573,2,0,L|168:208,1,75.000000298023
200,296,128065,5,0,0:0:0:0:
272,244,128310,1,0,0:0:0:0:
288,216,128433,1,0,0:0:0:0:
300,188,128556,1,0,0:0:0:0:
272,96,128802,1,0,0:0:0:0:
174,156,129048,2,0,P|188:212|230:228,1,75.000000298023
296,228,129540,2,0,P|288:264|256:288,1,75.000000298023
356,324,130032,5,0,0:0:0:0:
408,176,130278,1,0,0:0:0:0:
384,152,130401,1,0,0:0:0:0:
360,124,130524,1,0,0:0:0:0:
340,104,130646,2,0,L|248:168,1,112.500000447034
312,80,132245,5,0,0:0:0:0:
160,140,132491,1,0,0:0:0:0:
320,208,132737,1,0,0:0:0:0:
256,292,132983,5,0,0:0:0:0:
180,232,133228,1,0,0:0:0:0:
160,140,133474,1,0,0:0:0:0:
196,72,133720,2,0,B|256:116|256:116|328:64,1,150.000000596046
360,140,134458,5,0,0:0:0:0:
320,228,134704,1,0,0:0:0:0:
256,292,134950,1,0,0:0:0:0:
172,224,135196,1,0,0:0:0:0:
276,96,135442,1,0,0:0:0:0:
152,68,135687,2,0,L|88:148,1,75.000000298023
352,244,136179,2,0,L|328:280,1,37.5000001490115
164,72,136671,6,0,P|128:140|168:200,1,150.000000596046
260,196,137409,1,0,0:0:0:0:
360,196,137655,2,0,P|364:268|304:312,1,150.000000596046
208,304,138392,1,0,0:0:0:0:
92,240,138638,1,0,0:0:0:0:
276,84,138884,1,0,0:0:0:0:
176,168,139130,2,0,L|212:196,1,37.5000001490115
184,256,139499,2,0,B|236:320|304:320|328:208|376:208|440:304|440:304,1,262.50000104308
304,124,140851,6,0,L|347:189,2,75.000000298023
164,172,141589,2,0,L|244:128,1,75.000000298023
260,180,141958,2,0,L|184:224,1,75.000000298023
224,268,142327,2,0,L|308:220,1,75.000000298023
184,80,142819,5,0,0:0:0:0:
216,84,142942,1,0,0:0:0:0:
244,88,143065,1,0,0:0:0:0:
272,92,143187,1,0,0:0:0:0:
304,100,143310,1,0,0:0:0:0:
336,172,143556,2,0,L|304:220,1,44.9999988055228
196,212,143925,2,0,L|140:136,1,75.000000298023
388,64,144786,6,0,L|308:84,1,75.000000298023
272,152,145278,1,0,0:0:0:0:
408,188,145524,2,0,L|328:212,1,75.000000298023
288,276,146015,1,0,0:0:0:0:
256,192,146261,12,0,148228,0:0:0:0:
192,76,148474,5,0,0:0:0:0:
324,252,148720,1,0,0:0:0:0:
104,276,148966,1,0,0:0:0:0:
264,216,149458,2,0,L|236:168,1,37.5000001490115
208,144,149827,1,0,0:0:0:0:
124,112,150196,5,0,0:0:0:0:
124,112,150442,2,0,L|228:152,1,84.3750035539268
372,192,150933,1,0,0:0:0:0:
216,224,151179,2,0,L|111:255,1,75.000000298023
304,264,151794,2,0,P|352:252|372:180,1,112.500000447034
128,112,152409,5,0,0:0:0:0:
244,168,152655,1,0,0:0:0:0:
172,236,152901,2,0,B|120:292|120:292|64:252,1,112.500004738569
368,104,153392,2,0,L|304:64,2,75.000000298023
372,192,154130,1,0,0:0:0:0:
344,264,154376,2,0,L|256:308,1,75.000000298023
340,160,154868,1,0,0:0:0:0:
312,128,154991,1,0,0:0:0:0:
288,104,155114,1,0,0:0:0:0:
200,104,155360,6,0,L|136:172,2,75.000000298023
112,276,156097,1,0,0:0:0:0:
68,184,156343,5,0,0:0:0:0:
144,108,156589,2,0,L|236:144,1,75.000000298023
284,196,157081,1,0,0:0:0:0:
256,304,157327,1,0,0:0:0:0:
288,292,157450,1,0,0:0:0:0:
320,280,157573,1,0,0:0:0:0:
360,200,157819,6,0,P|388:152|380:120,1,75.000000298023
288,140,158310,2,0,L|200:112,1,75.000000298023
212,196,158802,1,0,0:0:0:0:
236,204,158925,1,0,0:0:0:0:
260,212,159048,1,0,0:0:0:0:
368,280,159294,5,0,0:0:0:0:
192,296,159663,1,0,0:0:0:0:
252,124,160032,2,0,L|308:212,1,75.000000298023
256,192,160524,12,0,162737,0:0:0:0:
316,148,163228,5,0,0:0:0:0:
256,40,163474,1,0,0:0:0:0:
176,156,163720,2,0,L|176:208,1,37.5000001490115
256,272,164089,1,0,0:0:0:0:
400,84,164458,6,0,L|356:148,1,75.000000298023
360,232,164950,1,0,0:0:0:0:
344,268,165073,1,0,0:0:0:0:
312,296,165196,1,0,0:0:0:0:
268,300,165319,1,0,0:0:0:0:
240,284,165442,1,0,0:0:0:0:
188,280,165565,1,0,0:0:0:0:
56,128,165810,6,0,L|112:192,1,75.000000298023
124,184,166179,2,0,L|148:108,1,75.000000298023
248,152,166671,2,0,L|288:116,3,37.5000001490115
340,72,167163,6,0,L|384:116,1,37.5000001490115
344,184,167532,2,0,L|384:224,1,37.5000001490115
444,128,167901,2,0,P|472:172|424:264,1,150.000000596046
360,268,168638,5,0,0:0:0:0:
212,280,168884,2,0,L|144:220,1,75.000000298023
152,144,169376,2,0,L|224:88,1,75.000000298023
300,100,169868,2,0,L|372:152,1,75.000000298023
332,244,170360,1,0,0:0:0:0:
172,244,170606,1,0,0:0:0:0:
160,208,170728,1,0,0:0:0:0:
140,168,170851,2,0,B|112:88|112:88,1,75.000000298023
228,168,171589,6,0,P|228:136|268:84,1,93.7500003725287
367,109,172327,5,0,0:0:0:0:
336,232,172573,2,0,L|300:137,1,75.000000298023
198,109,172942,2,0,L|214:153,2,37.5000001490115
336,232,173433,1,0,0:0:0:0:
360,132,173679,2,0,L|344:88,3,37.5000001490115
260,136,174294,2,0,L|208:139,1,37.5000001490115
269,187,174540,2,0,L|184:208,1,75.000000298023
189,247,174909,2,0,P|258:298|313:270,1,150.000000596046
383,169,175769,5,0,0:0:0:0:
338,77,176015,1,0,0:0:0:0:
286,168,176261,2,0,L|251:240,1,75.000000298023
146,288,176753,1,0,0:0:0:0:
130,136,176999,2,0,L|93:211,2,75.000000298023
303,282,177737,6,0,L|337:212,1,75.000000298023
396,162,178228,1,0,0:0:0:0:
387,130,178351,1,0,0:0:0:0:
367,101,178474,1,0,0:0:0:0:
350,76,178597,1,0,0:0:0:0:
329,56,178720,1,0,0:0:0:0:
233,131,178966,5,0,0:0:0:0:
174,284,179212,1,0,0:0:0:0:
62,159,179458,1,0,0:0:0:0:
233,131,179704,1,0,0:0:0:0:
168,92,188065,5,0,0:0:0:0:
276,76,188310,2,0,L|352:96,1,75.000000298023
400,208,188802,1,0,0:0:0:0:
296,252,189048,2,0,P|268:264|236:256,1,44.9999988055228
136,56,189540,5,0,0:0:0:0:
272,104,189786,2,0,L|300:176,1,75.000000298023
220,256,190278,1,0,0:0:0:0:
184,160,190524,1,0,0:0:0:0:
364,252,190769,1,0,0:0:0:0:
400,156,191015,1,0,0:0:0:0:
336,328,191261,2,0,L|228:344,2,75.000000298023
140,228,191999,5,0,0:0:0:0:
132,200,192122,1,0,0:0:0:0:
128,176,192245,1,0,0:0:0:0:
172,96,192491,1,0,0:0:0:0:
288,48,192737,5,0,0:0:0:0:
372,144,192983,1,0,0:0:0:0:
328,268,193228,1,0,0:0:0:0:
240,188,193474,6,0,L|272:184,25,28.1250011846423
256,192,210687,12,0,212409,0:0:0:0:
256,192,221876,12,0,225563,0:0:0:0:
197,92,225810,5,0,0:0:0:0:
128,272,226056,1,0,0:0:0:0:
348,132,226302,1,0,0:0:0:0:
307,261,226794,2,0,L|324:294,1,37.5000001490115
253,187,227163,1,0,0:0:0:0:
209,186,227532,6,0,L|123:156,1,75.000000298023
283,158,228024,2,0,L|337:99,1,75.000000298023
272,235,228515,2,0,L|322:326,1,75.000000298023
224,144,229128,2,0,P|280:84|336:80,1,112.500000447034
316,164,229745,5,0,0:0:0:0:
200,244,229991,1,0,0:0:0:0:
120,128,230237,2,0,B|123:71|123:71|204:48,1,112.500004738569
344,79,230728,1,0,0:0:0:0:
320,116,230851,1,0,0:0:0:0:
296,227,231097,1,0,0:0:0:0:
173,236,231466,6,0,L|88:236,1,75.000000298023
176,140,231958,2,0,L|272:140,1,75.000000298023
276,160,232327,1,0,0:0:0:0:
338,193,232573,2,0,P|334:270|276:279,1,112.500000447034
174,304,233187,6,0,L|174:220,2,75.000000298023
178,151,233925,2,0,L|277:198,1,75.000000298023
264,176,234417,2,0,L|227:104,1,75.000000298023
296,100,234909,2,0,L|285:178,1,75.000000298023
433,194,235401,1,0,0:0:0:0:
339,278,235646,2,0,P|306:303|256:290,1,75.000000298023
264,176,236138,2,0,L|264:136,2,37.5000001490115
359,215,236630,6,0,P|344:275|314:280,1,75.000000298023
147,235,237122,1,0,0:0:0:0:
147,163,237368,1,0,0:0:0:0:
224,149,237614,1,0,0:0:0:0:
247,121,237860,6,0,L|264:36,1,75.000000298023
346,48,238351,2,0,L|360:124,1,75.000000298023
276,192,238843,1,0,0:0:0:0:
196,264,239089,1,0,0:0:0:0:
300,300,239335,2,0,P|362:340|318:260,1,225.000000894069
256,220,240319,5,0,0:0:0:0:
176,88,240565,2,0,L|255:88,1,75.000000298023
348,128,241056,1,0,0:0:0:0:
308,148,241179,1,0,0:0:0:0:
172,224,241425,1,0,0:0:0:0:
242,147,244499,6,0,L|320:168,1,75.000000298023
181,237,244991,2,0,L|135:223,2,37.5000001490115
306,271,245360,1,0,0:0:0:0:
245,72,248679,5,0,0:0:0:0:
271,91,248802,1,0,0:0:0:0:
298,109,248925,1,0,0:0:0:0:
342,193,249171,2,0,P|303:260|240:248,1,150.000000596046
148,284,249909,1,0,0:0:0:0:
223,128,250155,2,0,L|249:50,1,75.000000298023
314,151,250646,2,0,L|289:233,1,75.000000298023
116,230,251138,6,0,L|142:148,1,75.000000298023
254,85,251630,2,0,L|228:169,1,75.000000298023
337,178,252122,2,0,L|351:216,2,37.5000001490115
168,40,252614,2,0,P|118:105|145:164,1,150.000000596046
216,112,253597,5,0,0:0:0:0:
239,230,253843,1,0,0:0:0:0:
325,152,254089,1,0,0:0:0:0:
348,241,254335,2,0,L|366:316,2,75.000000298023
185,293,255073,2,0,P|100:290|72:164,1,225.000000894069
258,133,256302,5,0,0:0:0:0:
211,159,256425,1,0,0:0:0:0:
208,215,256548,1,0,0:0:0:0:
255,240,256671,1,0,0:0:0:0:
304,216,256794,1,0,0:0:0:0:
308,160,256917,1,0,0:0:0:0:
257,190,257163,1,0,0:0:0:0:
