osu file format v14

[General]
AudioFilename: audio.mp3
AudioLeadIn: 0
PreviewTime: 82573
Countdown: 0
SampleSet: Soft
StackLeniency: 0.7
Mode: 0
LetterboxInBreaks: 0
WidescreenStoryboard: 0

[Editor]
DistanceSpacing: 0.6
BeatDivisor: 4
GridSize: 4
TimelineZoom: 1

[Metadata]
Title:Fingertip
TitleUnicode:Fingertip
Artist:GFRIEND
ArtistUnicode:GFRIEND
Creator:cosmiccc
Version:Advanced
Source:
Tags:Gfriend Kpop Fingertip GlassBead Navillera Rough MeGustasTu SinB Yuju Eunha Umji Sowon Yerin
BeatmapID:1234299
BeatmapSetID:583251

[Difficulty]
HPDrainRate:3
CircleSize:3
OverallDifficulty:2
ApproachRate:3
SliderMultiplier:1.40000000596046
SliderTickRate:1

[Events]
//Background and Video events
0,0,"gfriend-2017-comeback-teaser-fingertip-3.png",0,0
Video,0,"Gfriendfingertipavi.avi"
//Break Periods
2,36590,46341
2,99371,100685
2,103428,104742
2,179903,186505
2,194903,209127
2,212609,220193
2,241747,242939
2,245682,247119
//Storyboard Layer 0 (Background)
//Storyboard Layer 1 (Fail)
//Storyboard Layer 2 (Pass)
//Storyboard Layer 3 (Foreground)
//Storyboard Sound Samples

[TimingPoints]
20606,491.803278688525,4,2,0,80,1,0
83433,-100,4,2,0,80,0,1
103474,-100,4,2,0,80,0,0
113971,-100,4,2,0,80,0,0
135565,-133.333333333333,4,2,0,80,0,0
136794,-100,4,2,0,80,0,0
148351,-100,4,2,0,80,0,1
164212,-100,4,2,0,80,0,0
222121,491.803278688525,4,2,0,80,1,0
225687,-100,4,2,0,80,0,1
226301,491.803278688525,4,2,0,80,1,0
255746,-66.6666666666667,4,2,0,80,0,0
256108,-100,4,2,0,80,0,0

[HitObjects]
92,60,24048,6,2,B|104:144|148:160|240:104|272:120|236:228|296:252|296:252,1,280.000001192092
312,84,26015,1,2,0:0:0:0:
416,152,26753,1,2,0:0:0:0:
416,152,26999,1,2,0:0:0:0:
360,276,27983,2,2,B|320:192|256:160|192:192|148:280,1,280.000001192092
336,244,29950,1,2,0:0:0:0:
184,244,30687,1,2,0:0:0:0:
184,244,30933,1,2,0:0:0:0:
420,324,31917,2,2,B|408:240|364:224|272:280|240:264|244:164|204:136|204:136,1,280.000001192092
352,124,33884,1,2,0:0:0:0:
148,124,34868,1,2,0:0:0:0:
228,128,35851,6,4,B|272:192|272:192|224:260,1,140.000000596046
256,192,47901,12,0,51589,0:0:0:0:
420,72,52081,6,0,P|344:60|280:84,1,140.000000596046
304,132,52819,1,0,0:0:0:0:
328,184,53065,6,0,P|272:204|200:168,1,140.000000596046
136,108,53802,2,0,B|80:192|80:192|136:288,1,210.000000894069
224,328,55032,2,0,L|236:236,1,70.000000298023
284,280,55524,2,0,P|348:304|420:284,1,140.000000596046
444,196,56384,1,0,0:0:0:0:
384,132,56753,1,0,0:0:0:0:
316,48,56999,6,0,L|280:188,1,140.000000596046
228,184,57737,1,0,0:0:0:0:
180,184,57983,2,0,L|168:92,2,70.000000298023
188,220,58720,2,0,P|252:256|304:196,1,140.000000596046
336,228,59458,2,0,L|388:316,1,70.000000298023
396,316,59950,1,0,0:0:0:0:
336,328,60196,6,0,L|244:312,1,70.000000298023
204,244,60687,1,0,0:0:0:0:
100,216,60933,2,0,P|128:164|216:144,1,140.000000596046
336,204,61671,2,0,L|284:120,3,70.000000298023
280,60,62655,1,0,0:0:0:0:
280,60,62901,1,0,0:0:0:0:
184,60,63146,6,0,P|148:68|100:108,1,70.000000298023
180,156,63638,1,0,0:0:0:0:
124,240,63884,2,0,P|184:248|216:252,1,70.000000298023
272,212,64376,2,0,L|272:136,1,70.000000298023
360,100,65114,5,0,0:0:0:0:
360,100,65360,2,0,B|428:84|428:84|448:156,1,140.000000596046
380,256,66097,2,0,P|292:308|204:248,1,210.000000894069
129,152,67327,6,0,L|157:84,1,70.000000298023
156,88,67819,2,0,B|264:72|264:72|252:104,1,140.000000596046
384,196,68802,2,0,B|276:212|276:212|288:180,1,140.000000596046
136,268,69786,2,0,B|172:164|172:164|204:180,1,140.000000596046
208,88,70769,2,0,P|280:64|344:96,1,140.000000596046
236,176,71507,5,0,0:0:0:0:
236,176,71753,2,0,L|312:176,1,70.000000298023
392,180,72245,2,0,P|416:232|396:264,1,70.000000298023
356,304,72737,2,0,P|296:320|272:296,1,70.000000298023
208,300,73228,2,0,P|164:260|164:228,1,70.000000298023
272,224,73720,2,0,L|188:112,3,140.000000596046
264,116,75933,5,0,0:0:0:0:
224,144,76179,2,0,L|140:104,1,70.000000298023
120,120,76671,2,0,P|128:176|172:232,2,105.000000447034
172,96,77655,5,0,0:0:0:0:
208,128,77901,2,0,P|216:168|240:192,2,70.000000298023
272,80,78638,2,0,P|304:116|320:220,1,140.000000596046
268,240,79376,1,0,0:0:0:0:
224,272,79622,2,0,P|248:304|356:316,1,140.000000596046
380,276,80360,1,0,0:0:0:0:
376,208,80606,2,0,L|360:136,3,70.000000298023
256,192,81589,12,0,83065,0:0:0:0:
160,216,83556,6,0,L|76:216,2,70.000000298023
208,120,84540,1,0,0:0:0:0:
240,88,84786,2,0,L|320:128,1,70.000000298023
336,144,85278,2,0,L|292:216,1,70.000000298023
276,240,85769,2,0,L|176:248,1,70.000000298023
128,168,86507,1,0,0:0:0:0:
168,84,86876,1,0,0:0:0:0:
256,72,87245,1,0,0:0:0:0:
348,92,87491,6,0,L|300:152,2,70.000000298023
300,64,88228,1,0,0:0:0:0:
240,64,88474,2,0,P|168:60|88:112,1,140.000000596046
108,160,89212,1,0,0:0:0:0:
152,224,89458,2,0,P|228:236|300:208,1,140.000000596046
280,148,90196,1,0,0:0:0:0:
268,80,90442,2,0,P|336:72|404:88,2,140.000000596046
336,152,91671,6,0,L|292:212,1,70.000000298023
244,224,92163,1,0,0:0:0:0:
200,244,92409,2,0,L|128:276,2,70.000000298023
312,304,93146,2,0,P|364:300|376:268,1,70.000000298023
344,212,93638,2,0,P|364:164|352:132,1,70.000000298023
284,124,94130,2,0,P|252:84|220:80,1,70.000000298023
256,192,95606,12,0,97819,0:0:0:0:
344,84,98310,6,0,L|296:156,1,70.000000298023
200,172,98802,2,0,L|232:224,1,35.0000001490115
238,230,99171,1,0,0:0:0:0:
208,120,102245,6,0,L|160:180,2,70.000000298023
280,192,102983,2,0,L|324:248,1,70.000000298023
184,60,106302,6,0,L|292:60,1,105.000000447034
364,104,106917,2,0,P|404:152|360:204,1,140.000000596046
272,248,107655,2,0,L|192:300,1,70.000000298023
160,224,108146,2,0,L|76:244,1,70.000000298023
72,152,108638,1,0,0:0:0:0:
196,64,108884,6,0,L|276:56,1,70.000000298023
272,144,109376,2,0,L|356:160,1,70.000000298023
264,228,109868,2,0,P|220:220|220:220,1,35.0000001490115
160,280,110360,1,0,0:0:0:0:
160,280,110483,2,0,P|124:240|132:188,1,105.000000447034
224,108,111097,6,0,L|148:148,2,70.000000298023
304,40,112081,2,0,P|336:68|340:116,2,70.000000298023
104,176,113065,6,0,P|144:136|232:176,1,140.000000596046
264,208,113802,1,0,0:0:0:0:
304,260,114048,6,0,L|380:232,1,70.000000298023
368,152,114540,1,0,0:0:0:0:
368,152,114663,2,0,P|328:108|280:96,1,105.000000447034
104,124,117245,6,0,L|192:88,1,70.000000298023
252,80,117737,2,0,L|332:100,1,70.000000298023
396,128,118228,2,0,L|440:192,1,70.000000298023
396,260,118720,2,0,L|328:300,1,70.000000298023
256,268,119212,2,0,P|248:212|172:176,1,140.000000596046
96,168,119950,2,0,L|96:84,1,70.000000298023
176,60,120442,2,0,L|264:48,1,70.000000298023
332,60,120933,2,0,L|456:104,1,105.000000447034
304,216,121671,5,0,0:0:0:0:
304,216,121917,2,0,L|428:140,2,140.000000596046
244,220,123146,1,0,0:0:0:0:
244,220,123392,2,0,B|340:184|240:32|196:164|80:184,1,280.000001192092
132,304,124868,6,0,P|188:320|268:272,1,140.000000596046
220,216,125606,1,0,0:0:0:0:
168,160,125851,2,0,P|184:104|280:80,1,140.000000596046
316,124,126589,1,0,0:0:0:0:
376,176,126835,2,0,P|360:232|264:256,1,140.000000596046
224,256,127573,2,0,L|172:312,1,70.000000298023
144,308,128065,5,0,0:0:0:0:
144,308,128310,2,0,L|84:244,1,70.000000298023
80,156,128802,2,0,P|124:120|172:188,1,140.000000596046
312,252,129786,2,0,B|232:184|268:128|304:160,1,140.000000596046
388,144,130769,2,0,B|428:112|456:180|388:264,1,140.000000596046
248,192,131753,5,0,0:0:0:0:
152,92,132245,2,0,L|100:140,2,70.000000298023
220,88,132983,2,0,P|208:156|236:220,1,140.000000596046
252,260,133720,1,0,0:0:0:0:
252,260,133966,2,0,P|272:208|260:176,2,70.000000298023
160,304,134704,5,0,0:0:0:0:
160,304,134950,1,0,0:0:0:0:
104,228,135196,2,0,P|96:168|108:148,1,70.000000298023
152,88,135687,2,0,P|184:108|204:148,2,78.7500033393501
288,132,136917,6,0,L|288:204,2,70.000000298023
256,48,137655,2,0,P|336:56|376:128,1,140.000000596046
368,176,138392,1,0,0:0:0:0:
336,244,138638,2,0,P|268:268|184:228,1,140.000000596046
52,120,139499,2,0,B|96:188|148:152|152:112|212:104|268:188|300:188,1,245.00000104308
340,100,140851,6,0,L|416:72,2,70.000000298023
328,152,141589,1,0,0:0:0:0:
328,152,141835,2,0,L|304:220,1,70.000000298023
264,252,142327,2,0,P|196:252|172:240,1,70.000000298023
152,244,142819,6,0,P|116:228|72:228,1,70.000000298023
148,152,143310,1,0,0:0:0:0:
180,76,143556,2,0,P|244:68|296:120,1,140.000000596046
144,196,144540,6,0,L|116:124,1,70.000000298023
180,76,145032,2,0,L|252:60,1,70.000000298023
328,68,145524,2,0,L|404:92,1,70.000000298023
416,172,146015,1,0,0:0:0:0:
416,172,146261,2,0,B|340:192|224:88|216:316|80:244,1,350.000001490115
176,172,148474,6,0,B|228:220|228:220|284:168|284:168,1,140.000000596046
360,112,149458,1,0,0:0:0:0:
388,120,149704,2,0,L|448:160,1,70.000000298023
448,228,150196,2,0,L|364:256,1,70.000000298023
336,264,150687,2,0,L|252:264,1,70.000000298023
232,296,151179,2,0,L|156:296,1,70.000000298023
180,200,151794,5,0,0:0:0:0:
272,172,152163,1,0,0:0:0:0:
264,88,152409,2,0,L|184:112,2,70.000000298023
344,80,153146,1,0,0:0:0:0:
412,132,153392,2,0,P|456:156|396:204,1,140.000000596046
372,220,154130,2,0,L|340:128,2,70.000000298023
336,244,154868,2,0,P|296:276|256:280,2,70.000000298023
328,168,156343,6,0,L|240:204,2,70.000000298023
300,288,157327,2,0,L|380:256,2,70.000000298023
212,292,158065,1,0,0:0:0:0:
212,292,158310,2,0,L|160:236,1,70.000000298023
168,156,158802,2,0,L|224:100,1,70.000000298023
276,160,159294,2,0,L|220:216,2,70.000000298023
280,132,160032,1,0,0:0:0:0:
336,124,160278,5,0,0:0:0:0:
336,124,160524,2,0,L|384:68,1,70.000000298023
408,164,161015,2,0,L|348:228,1,70.000000298023
440,248,161507,2,0,L|384:308,1,70.000000298023
288,328,161999,2,0,B|240:284|220:264|280:200|276:164|236:132,1,210.000000894069
272,56,163228,6,0,L|328:120,1,70.000000298023
340,152,163720,2,0,L|340:200,1,35.0000001490115
340,224,164089,1,0,0:0:0:0:
176,132,164458,5,0,0:0:0:0:
176,132,164704,2,0,P|132:180|188:232,4,140.000000596046
252,96,167163,2,0,L|312:148,1,70.000000298023
324,88,167532,2,0,L|388:136,1,70.000000298023
388,84,167901,2,0,P|444:124|444:148,1,70.000000298023
392,220,168392,5,0,0:0:0:0:
392,220,168638,2,0,L|320:228,1,70.000000298023
268,304,169130,2,0,L|176:304,1,70.000000298023
152,224,169622,2,0,L|72:212,1,70.000000298023
192,156,170114,6,0,P|264:136|332:164,2,140.000000596046
248,224,171589,2,0,P|280:240|336:244,1,70.000000298023
176,144,172327,5,0,0:0:0:0:
176,144,172573,1,0,0:0:0:0:
256,64,172819,2,0,L|348:88,1,70.000000298023
416,120,173310,2,0,L|352:192,1,70.000000298023
348,256,173802,2,0,L|260:232,1,70.000000298023
168,228,174294,2,0,L|112:284,2,70.000000298023
168,228,174909,2,0,B|164:168|164:168|312:164,1,175.000000745057
360,132,175769,2,0,P|388:132|364:128,1,70.000000298023
256,104,176261,6,0,P|200:80|120:128,1,140.000000596046
204,188,176999,2,0,P|160:196|132:224,2,70.000000298023
208,284,177737,2,0,P|256:288|288:264,1,70.000000298023
332,204,178228,2,0,P|368:180|400:184,1,70.000000298023
276,136,178720,5,0,0:0:0:0:
276,136,178966,2,0,L|204:188,3,70.000000298023
220,100,188065,6,0,L|284:172,2,70.000000298023
324,64,188802,2,0,P|392:68|440:96,1,105.000000447034
456,164,189540,1,0,0:0:0:0:
448,184,189786,1,0,0:0:0:0:
440,204,190032,2,0,L|400:268,1,70.000000298023
316,296,190524,2,0,L|232:296,1,70.000000298023
160,272,191015,2,0,L|80:248,1,70.000000298023
56,136,191507,6,0,L|104:64,1,70.000000298023
180,76,191999,2,0,L|228:164,1,70.000000298023
240,160,192491,1,0,0:0:0:0:
260,196,192737,2,0,L|296:272,1,70.000000298023
328,256,193228,1,0,0:0:0:0:
364,252,193474,2,0,P|444:308|388:184,1,350.000001490115
256,192,210687,12,0,212409,0:0:0:0:
256,192,221753,12,0,224827,0:0:0:0:
196,84,225810,5,0,0:0:0:0:
256,152,226056,1,0,0:0:0:0:
312,84,226302,1,0,0:0:0:0:
372,144,226794,2,0,B|428:192|428:192|364:264,1,140.000000596046
248,292,227532,5,0,0:0:0:0:
248,292,227778,2,0,L|248:196,1,70.000000298023
164,196,228269,2,0,L|164:112,1,70.000000298023
272,48,228761,2,0,L|272:132,1,70.000000298023
352,148,229253,2,0,L|352:236,1,70.000000298023
256,236,229745,5,0,0:0:0:0:
208,156,229991,1,0,0:0:0:0:
304,156,230237,1,0,0:0:0:0:
328,76,230728,2,0,L|396:44,2,70.000000298023
240,96,231466,1,0,0:0:0:0:
148,105,231712,2,0,P|84:105|56:188,2,140.000000596046
260,192,233679,5,0,0:0:0:0:
352,144,233925,2,0,L|292:92,1,70.000000298023
212,100,234417,2,0,L|144:164,1,70.000000298023
160,232,234909,2,0,L|236:300,1,70.000000298023
308,288,235401,6,0,L|392:288,1,70.000000298023
424,272,235892,1,0,0:0:0:0:
456,248,236138,2,0,L|456:152,2,70.000000298023
372,124,236999,1,0,0:0:0:0:
348,208,237368,1,0,0:0:0:0:
168,252,237860,6,0,P|128:220|124:172,1,70.000000298023
240,188,238351,1,0,0:0:0:0:
344,164,238597,2,0,P|316:120|280:108,2,70.000000298023
400,276,239335,1,0,0:0:0:0:
400,276,239581,2,0,P|344:328|264:308,1,140.000000596046
168,224,240565,6,0,L|100:188,1,70.000000298023
184,140,241056,2,0,L|252:176,2,70.000000298023
228,96,244499,6,0,P|196:144|172:176,1,70.000000298023
320,108,244991,2,0,P|328:156|256:216,1,140.000000596046
208,64,248679,5,0,0:0:0:0:
256,68,248925,1,0,0:0:0:0:
216,152,249171,2,0,L|296:156,1,70.000000298023
240,236,249663,2,0,L|320:240,1,70.000000298023
360,328,250155,1,0,0:0:0:0:
400,248,250401,2,0,L|408:148,2,70.000000298023
408,84,251138,6,0,P|320:56|252:76,1,140.000000596046
208,124,251876,1,0,0:0:0:0:
188,208,252122,2,0,P|248:256|336:260,1,140.000000596046
280,152,252860,5,0,0:0:0:0:
360,184,253106,2,0,P|396:140|456:68,2,140.000000596046
156,120,254335,2,0,L|152:220,1,70.000000298023
184,296,254827,2,0,L|268:280,1,70.000000298023
352,272,255319,2,0,L|356:172,1,70.000000298023
204,84,256302,6,0,L|156:172,1,70.000000298023
188,236,256794,2,0,L|256:244,1,35.0000001490115
284,156,257163,1,0,0:0:0:0:
