osu file format v14

[General]
AudioFilename: audio.mp3
AudioLeadIn: 0
PreviewTime: 63321
Countdown: 1
SampleSet: Normal
StackLeniency: 0.7
Mode: 0
LetterboxInBreaks: 0
WidescreenStoryboard: 0

[Editor]
Bookmarks: 31907,47153,63383,79120,86251,94858,96825,112071,128301,144038,151907,159776,167645,175514,191251,198383,206989
DistanceSpacing: 0.95
BeatDivisor: 4
GridSize: 8
TimelineZoom: 1

[Metadata]
Title:FINGERTIP
TitleUnicode:FINGERTIP
Artist:GFRIEND
ArtistUnicode:여자친구
Creator:Sonnyc
Version:Normal
Source:
Tags:핑거팁 THE AWAKENING
BeatmapID:1820097
BeatmapSetID:868365

[Difficulty]
HPDrainRate:4
CircleSize:3
OverallDifficulty:4
ApproachRate:6
SliderMultiplier:1.4
SliderTickRate:1

[Events]
//Background and Video events
0,0,"bg.jpg",0,0
//Break Periods
2,79197,81021
2,83132,85201
2,94935,96021
2,159770,166841
2,191329,193152
2,195263,197333
//Storyboard Layer 0 (Background)
//Storyboard Layer 1 (Fail)
//Storyboard Layer 2 (Pass)
//Storyboard Layer 3 (Foreground)
//Storyboard Sound Samples

[TimingPoints]
16170,491.803278688525,4,1,1,60,1,0
63874,-100,4,1,1,60,0,1
79120,-100,4,1,1,60,0,0
128792,-100,4,1,1,60,0,1
144038,-100,4,1,1,60,0,0
176006,-100,4,1,1,60,0,1
191251,-100,4,1,1,60,0,0

[Colours]
Combo1 : 255,128,64
Combo2 : 0,255,128
Combo3 : 128,128,255
Combo4 : 255,0,128

[HitObjects]
84,49,32153,5,0,0:0:0:0:
105,142,32399,1,8,0:0:0:0:
153,322,32891,1,0,0:0:0:0:
355,132,33629,5,0,0:0:0:0:
355,132,33875,1,0,0:0:0:0:
282,254,34244,1,0,0:0:0:0:
212,192,34490,1,0,0:0:0:0:
126,228,34736,1,0,0:0:0:0:
409,162,36088,5,0,0:0:0:0:
318,142,36333,1,8,0:0:0:0:
362,324,36825,1,0,0:0:0:0:
176,111,37563,5,0,0:0:0:0:
176,111,37809,1,0,0:0:0:0:
274,215,38178,1,0,0:0:0:0:
205,280,38424,1,0,0:0:0:0:
119,239,38670,1,0,0:0:0:0:
421,49,40022,5,0,0:0:0:0:
401,142,40268,1,8,0:0:0:0:
359,322,40760,1,0,0:0:0:0:
157,132,41497,5,0,0:0:0:0:
157,132,41743,1,0,0:0:0:0:
230,254,42112,1,0,0:0:0:0:
300,192,42358,1,0,0:0:0:0:
386,228,42604,1,0,0:0:0:0:
319,101,42973,5,0,0:0:0:0:
300,192,43219,1,8,0:2:0:0:
177,120,43588,1,8,0:2:0:0:
319,101,43956,1,0,0:0:0:0:
187,277,44940,37,0,0:0:0:0:
206,192,45186,1,8,0:0:0:0:
329,258,45555,1,0,0:2:0:0:
187,277,45924,1,0,0:0:0:0:
125,89,47153,21,10,0:0:0:0:
125,89,47399,1,0,0:0:0:0:
125,89,47645,1,2,0:0:0:0:
194,152,47891,5,0,0:0:0:0:
281,113,48137,1,8,0:0:0:0:
229,294,48629,1,0,0:0:0:0:
229,294,49120,1,8,0:0:0:0:
316,257,49366,5,0,0:0:0:0:
385,319,49612,1,0,0:0:0:0:
333,140,50104,1,8,0:0:0:0:
424,160,50350,1,0,0:0:0:0:
396,69,50596,1,0,0:0:0:0:
356,254,51088,21,10,0:0:0:0:
356,254,51333,1,0,0:0:0:0:
356,254,51579,1,2,0:0:0:0:
319,166,51825,37,0,0:0:0:0:
381,96,52071,1,8,0:0:0:0:
198,140,52563,1,0,0:0:0:0:
198,140,53055,1,8,0:0:0:0:
108,165,53301,1,0,0:0:0:0:
169,232,53547,37,0,0:0:0:0:
259,206,53792,1,0,0:0:0:0:
325,274,54038,1,8,0:0:0:0:
419,168,54407,1,2,0:0:0:0:
93,251,55760,37,0,0:0:0:0:
108,157,56006,1,8,0:0:0:0:
224,303,56497,1,0,0:0:0:0:
224,303,56866,1,0,0:0:0:0:
448,214,57727,5,0,0:0:0:0:
355,239,57973,1,8,0:0:0:0:
303,161,58219,1,0,0:0:0:0:
360,87,58465,1,0,0:0:0:0:
360,87,58833,1,0,0:0:0:0:
172,212,59694,5,0,0:0:0:0:
209,297,59940,1,8,0:0:0:0:
49,196,60432,1,0,0:0:0:0:
76,107,60678,1,0,0:0:0:0:
163,73,60924,1,8,0:0:0:0:
246,113,61170,1,0,0:0:0:0:
159,175,63383,21,2,0:0:0:0:
256,192,63629,1,2,0:0:0:0:
353,209,63874,1,14,0:0:0:0:
219,53,64366,5,2,0:0:0:0:
256,192,64735,1,2,0:0:0:0:
117,150,65104,21,2,0:0:0:0:
131,58,65350,1,2,0:0:0:0:
102,243,65842,1,2,0:0:0:0:
102,243,66210,1,2,0:0:0:0:
347,175,67317,5,2,0:0:0:0:
256,192,67563,1,2,0:0:0:0:
165,209,67809,1,14,0:0:0:0:
287,53,68301,5,2,0:0:0:0:
256,192,68670,1,2,0:0:0:0:
389,150,69038,21,2,0:0:0:0:
375,58,69284,1,2,0:0:0:0:
404,243,69776,1,2,0:0:0:0:
404,243,70145,1,2,0:0:0:0:
115,134,71251,37,2,0:0:0:0:
146,320,71743,1,10,0:0:0:0:
115,134,72235,37,2,0:0:0:0:
246,181,72604,1,2,0:0:0:0:
377,228,72973,21,2,0:0:0:0:
360,320,73219,1,2,0:0:0:0:
391,134,73710,1,2,0:0:0:0:
391,134,74079,1,2,0:0:0:0:
237,77,75432,37,2,0:0:0:0:
322,114,75678,1,10,0:0:0:0:
261,291,76170,1,2,0:0:0:0:
165,129,76661,1,10,0:0:0:0:
237,77,76907,1,2,0:0:0:0:
239,284,78137,37,2,0:0:0:0:
256,192,78383,1,0,0:0:0:0:
273,100,78629,1,10,0:0:0:0:
273,100,78997,1,2,0:0:0:0:
273,100,82071,53,2,0:0:0:0:
256,192,82317,1,0,0:0:0:0:
239,284,82563,1,10,0:0:0:0:
239,284,82932,1,2,0:0:0:0:
175,145,86251,5,0,0:0:0:0:
83,166,86497,1,8,0:0:0:0:
175,145,86743,1,2,0:0:0:0:
245,318,87235,5,0,0:0:0:0:
153,297,87481,1,8,0:0:0:0:
304,189,87973,1,0,0:0:0:0:
213,167,88219,1,0,0:0:0:0:
283,105,88465,1,8,0:0:0:0:
190,85,88710,21,2,0:0:0:0:
376,121,89202,1,2,0:0:0:0:
172,199,89694,1,2,0:0:0:0:
356,237,90186,1,2,0:0:0:0:
115,134,90924,5,2,0:0:0:0:
146,320,91415,1,10,0:0:0:0:
115,134,91907,37,2,0:0:0:0:
246,181,92276,1,2,0:0:0:0:
207,34,93137,21,0,0:0:0:0:
207,34,93383,1,8,0:0:0:0:
345,175,93874,21,2,0:0:0:0:
256,192,94120,1,0,0:0:0:0:
167,209,94366,1,10,0:0:0:0:
167,209,94735,1,2,0:0:0:0:
409,162,97071,37,0,0:0:0:0:
318,142,97317,1,8,0:0:0:0:
362,324,97809,1,0,0:0:0:0:
157,132,98547,5,0,0:0:0:0:
157,132,98792,1,0,0:0:0:0:
230,254,99161,1,0,0:0:0:0:
300,192,99407,1,0,0:0:0:0:
386,228,99653,1,0,0:0:0:0:
84,49,101006,5,0,0:0:0:0:
105,142,101251,1,8,0:0:0:0:
153,322,101743,1,0,0:0:0:0:
330,111,102481,5,0,0:0:0:0:
330,111,102727,1,0,0:0:0:0:
232,215,103096,1,0,0:0:0:0:
302,280,103342,1,0,0:0:0:0:
387,239,103588,1,0,0:0:0:0:
97,162,104940,5,0,0:0:0:0:
188,142,105186,1,8,0:0:0:0:
144,324,105678,1,0,0:0:0:0:
350,132,106415,5,0,0:0:0:0:
350,132,106661,1,0,0:0:0:0:
277,254,107030,1,0,0:0:0:0:
206,192,107276,1,0,0:0:0:0:
120,228,107522,1,0,0:0:0:0:
187,101,107891,5,0,0:0:0:0:
206,192,108137,1,8,0:2:0:0:
329,120,108506,1,8,0:2:0:0:
187,101,108874,1,0,0:0:0:0:
319,277,109858,37,0,0:0:0:0:
300,192,110104,1,8,0:0:0:0:
177,258,110473,1,0,0:2:0:0:
300,192,110842,1,0,0:0:0:0:
289,334,112071,21,10,0:0:0:0:
289,334,112317,1,0,0:0:0:0:
289,334,112563,1,2,0:0:0:0:
218,270,112809,5,0,0:0:0:0:
131,309,113055,1,8,0:0:0:0:
183,127,113547,1,0,0:0:0:0:
183,127,114038,1,8,0:0:0:0:
213,38,114284,1,0,0:0:0:0:
121,59,114530,5,0,0:0:0:0:
173,239,115022,1,8,0:0:0:0:
82,218,115268,1,0,0:0:0:0:
110,309,115514,1,0,0:0:0:0:
150,124,116006,21,10,0:0:0:0:
150,124,116251,1,0,0:0:0:0:
150,124,116497,1,2,0:0:0:0:
187,212,116743,37,0,0:0:0:0:
125,282,116989,1,8,0:0:0:0:
307,239,117481,1,0,0:0:0:0:
307,239,117973,1,8,0:0:0:0:
399,214,118219,1,0,0:0:0:0:
338,147,118465,37,0,0:0:0:0:
247,172,118710,1,0,0:0:0:0:
181,105,118956,1,8,0:0:0:0:
88,210,119325,1,2,0:0:0:0:
412,127,120678,37,0,0:0:0:0:
398,221,120924,1,8,0:0:0:0:
282,74,121415,1,0,0:0:0:0:
282,74,121784,1,0,0:0:0:0:
58,165,122645,5,0,0:0:0:0:
151,140,122891,1,8,0:0:0:0:
204,217,123137,1,0,0:0:0:0:
146,291,123383,1,0,0:0:0:0:
146,291,123751,1,0,0:0:0:0:
334,166,124612,5,0,0:0:0:0:
297,81,124858,1,8,0:0:0:0:
457,182,125350,1,0,0:0:0:0:
430,272,125596,1,0,0:0:0:0:
343,304,125842,1,8,0:0:0:0:
260,265,126088,1,0,0:0:0:0:
353,181,128301,21,2,0:0:0:0:
256,192,128547,1,2,0:0:0:0:
159,203,128792,1,14,0:0:0:0:
287,325,129284,5,2,0:0:0:0:
256,192,129653,1,2,0:0:0:0:
389,150,130022,21,2,0:0:0:0:
404,243,130268,1,2,0:0:0:0:
375,58,130760,1,2,0:0:0:0:
375,58,131129,1,2,0:0:0:0:
159,181,132235,5,2,0:0:0:0:
256,192,132481,1,2,0:0:0:0:
353,203,132727,1,14,0:0:0:0:
219,325,133219,5,2,0:0:0:0:
256,192,133588,1,2,0:0:0:0:
117,150,133956,21,2,0:0:0:0:
102,243,134202,1,2,0:0:0:0:
131,58,134694,1,2,0:0:0:0:
131,58,135063,1,2,0:0:0:0:
375,320,136170,37,2,0:0:0:0:
404,134,136661,1,10,0:0:0:0:
375,320,137153,37,2,0:0:0:0:
246,274,137522,1,2,0:0:0:0:
117,228,137891,21,2,0:0:0:0:
102,134,138137,1,2,0:0:0:0:
131,320,138629,1,2,0:0:0:0:
131,320,138997,1,2,0:0:0:0:
269,77,140350,37,2,0:0:0:0:
184,114,140596,1,10,0:0:0:0:
245,291,141088,1,2,0:0:0:0:
341,129,141579,1,10,0:0:0:0:
269,77,141825,1,2,0:0:0:0:
279,284,143055,37,2,0:0:0:0:
256,192,143301,1,0,0:0:0:0:
233,100,143547,1,10,0:0:0:0:
233,100,143915,1,2,0:0:0:0:
229,297,144284,37,0,0:0:0:0:
139,268,144530,1,2,0:2:0:0:
296,163,145022,1,2,0:2:0:0:
161,115,145391,1,2,0:2:0:0:
80,232,145760,5,2,0:2:0:0:
170,200,146006,1,2,0:2:0:0:
349,137,146497,1,2,0:2:0:0:
484,90,146866,1,2,0:2:0:0:
278,297,148219,5,0,0:0:0:0:
366,268,148465,1,2,0:2:0:0:
211,163,148956,1,2,0:2:0:0:
345,115,149325,1,2,0:2:0:0:
426,232,149694,5,2,0:2:0:0:
337,200,149940,1,2,0:2:0:0:
163,137,150432,1,2,0:2:0:0:
28,90,150801,1,2,0:2:0:0:
134,216,152153,5,0,0:0:0:0:
42,235,152399,1,14,0:0:0:0:
198,130,152891,1,0,0:0:0:0:
227,269,153260,1,2,0:0:0:0:
332,174,153629,5,0,0:0:0:0:
313,83,153874,1,2,0:0:0:0:
417,238,154366,1,8,0:0:0:0:
279,267,154735,1,2,0:0:0:0:
279,267,156088,5,2,0:0:0:0:
303,356,156333,1,10,0:0:0:0:
140,249,156825,1,2,0:0:0:0:
279,267,157194,1,2,0:0:0:0:
395,188,157563,1,2,0:0:0:0:
374,95,157809,5,2,0:0:0:0:
235,77,158178,1,2,0:0:0:0:
119,156,158547,1,2,0:0:0:0:
140,249,158792,21,2,0:0:0:0:
231,227,159038,1,2,0:0:0:0:
201,316,159284,1,10,0:0:0:0:
291,294,159530,1,2,0:0:0:0:
174,326,167891,37,0,0:0:0:0:
266,299,168137,1,8,0:0:0:0:
173,134,168629,1,0,0:0:0:0:
173,134,168997,1,0,0:0:0:0:
309,91,169366,5,0,0:0:0:0:
371,268,169858,1,0,0:0:0:0:
279,241,170104,1,8,0:0:0:0:
216,312,170350,1,0,0:0:0:0:
307,337,170596,1,0,0:0:0:0:
307,337,170965,1,0,0:0:0:0:
362,137,171825,5,0,0:0:0:0:
362,137,172071,1,8,0:0:0:0:
178,100,172563,1,0,0:0:0:0:
138,183,172809,1,0,0:0:0:0:
172,269,173055,1,8,0:0:0:0:
261,295,173301,1,0,0:0:0:0:
159,353,175514,21,2,0:0:0:0:
256,338,175760,1,2,0:0:0:0:
353,323,176006,1,14,0:0:0:0:
222,187,176497,5,2,0:0:0:0:
330,94,176866,1,2,0:0:0:0:
429,193,177235,21,2,0:0:0:0:
445,101,177481,1,2,0:0:0:0:
413,287,177973,1,2,0:0:0:0:
413,287,178342,1,2,0:0:0:0:
353,31,179448,5,2,0:0:0:0:
256,46,179694,1,2,0:0:0:0:
159,61,179940,1,14,0:0:0:0:
284,192,180432,5,2,0:0:0:0:
176,284,180801,1,2,0:0:0:0:
77,185,181170,21,2,0:0:0:0:
61,277,181415,1,2,0:0:0:0:
92,92,181907,1,2,0:0:0:0:
92,92,182276,1,2,0:0:0:0:
391,134,183383,37,2,0:0:0:0:
360,320,183874,1,10,0:0:0:0:
391,134,184366,37,2,0:0:0:0:
260,181,184735,1,2,0:0:0:0:
130,228,185104,21,2,0:0:0:0:
146,320,185350,1,2,0:0:0:0:
115,134,185842,1,2,0:0:0:0:
115,134,186210,1,2,0:0:0:0:
269,77,187563,37,2,0:0:0:0:
184,114,187809,1,10,0:0:0:0:
245,291,188301,1,2,0:0:0:0:
341,129,188792,1,10,0:0:0:0:
269,77,189038,1,2,0:0:0:0:
281,284,190268,37,2,0:0:0:0:
256,192,190514,1,0,0:0:0:0:
231,100,190760,1,10,0:0:0:0:
231,100,191129,1,2,0:0:0:0:
233,103,194202,53,2,0:0:0:0:
256,192,194448,1,0,0:0:0:0:
279,281,194694,1,10,0:0:0:0:
279,281,195063,1,2,0:0:0:0:
331,145,198383,5,0,0:0:0:0:
422,166,198629,1,8,0:0:0:0:
331,145,198874,1,2,0:0:0:0:
261,318,199366,5,0,0:0:0:0:
353,297,199612,1,8,0:0:0:0:
202,189,200104,1,0,0:0:0:0:
294,167,200350,1,0,0:0:0:0:
223,105,200596,1,8,0:0:0:0:
316,85,200842,21,2,0:0:0:0:
131,121,201333,1,2,0:0:0:0:
334,199,201825,1,2,0:0:0:0:
150,237,202317,1,2,0:0:0:0:
364,205,203301,5,2,0:0:0:0:
328,120,203547,1,10,0:0:0:0:
151,181,204038,1,2,0:0:0:0:
313,277,204530,1,10,0:0:0:0:
364,205,204776,1,2,0:0:0:0:
167,167,206006,37,2,0:0:0:0:
256,192,206251,1,0,0:0:0:0:
345,217,206497,1,10,0:0:0:0:
345,217,206866,1,2,0:0:0:0:
