osu file format v14

[General]
AudioFilename: audio.mp3
AudioLeadIn: 0
PreviewTime: 0
Countdown: 0
SampleSet: Soft
StackLeniency: 0.7
Mode: 0
LetterboxInBreaks: 0
WidescreenStoryboard: 0

[Editor]
Bookmarks: 211,2229,7610,14000,17027,22408,29134,34515,39897,46623,52004,56040,65457
DistanceSpacing: 1
BeatDivisor: 4
GridSize: 4
TimelineZoom: 2.5

[Metadata]
Title:My Song
TitleUnicode:My Song
Artist:GFOTY
ArtistUnicode:GFOTY
Creator:Myxomatosis
Version:Insane
Source:
Tags:gfotybucks pc music starbucks america electronic experimental noise
BeatmapID:1756907
BeatmapSetID:839251

[Difficulty]
HPDrainRate:5
CircleSize:3
OverallDifficulty:7.5
ApproachRate:8.5
SliderMultiplier:2.6
SliderTickRate:2

[Events]
//Background and Video events
0,0,"gfotybucks.jpg",0,0
//Break Periods
//Storyboard Layer 0 (Background)
//Storyboard Layer 1 (Fail)
//Storyboard Layer 2 (Pass)
//Storyboard Layer 3 (Foreground)
//Storyboard Sound Samples

[TimingPoints]
211,336.322869955157,6,2,1,20,1,0
2229,336.322869955157,4,1,1,50,1,0
3826,-100,4,2,1,20,0,0
4078,-133.333333333333,4,2,1,40,0,0
4415,-100,4,1,1,50,0,0
4919,-100,4,2,1,40,0,0
5003,-100,4,2,1,20,0,0
5087,-100,4,2,1,40,0,0
5171,-100,4,2,1,20,0,0
5255,-100,4,2,1,40,0,0
5339,-100,4,2,1,20,0,0
5424,-100,4,2,1,40,0,0
5508,-100,4,2,1,20,0,0
5592,-100,4,2,1,40,0,0
5676,-100,4,2,1,20,0,0
5760,-100,4,2,1,40,0,0
6348,-100,4,2,1,20,0,0
6601,-100,4,2,1,40,0,0
6685,-100,4,2,1,20,0,0
6937,-200,4,2,1,40,0,0
7526,-200,4,2,1,20,0,0
7610,-100,4,1,1,50,0,0
7778,-100,4,2,1,40,0,0
7862,-100,4,1,1,50,0,0
7946,-100,4,2,1,40,0,0
8030,-100,4,2,1,20,0,0
8114,-100,4,2,1,40,0,0
8198,-100,4,2,1,20,0,0
8282,-100,4,2,1,40,0,0
8450,-100,4,1,1,50,0,0
9123,-100,4,2,1,40,0,0
9207,-100,4,1,1,50,0,0
9291,-100,4,2,1,40,0,0
10300,-100,4,1,1,50,0,0
10468,-100,4,2,1,40,0,0
10552,-100,4,1,1,50,0,0
10637,-100,4,2,1,40,0,0
10721,-100,4,2,1,20,0,0
10805,-100,4,2,1,40,0,0
10889,-100,4,2,1,20,0,0
10973,-100,4,2,1,40,0,0
11141,-100,4,1,1,50,0,0
11814,-100,4,2,1,40,0,0
11898,-100,4,1,1,50,0,0
11982,-100,4,2,1,40,0,0
12486,-100,4,1,1,50,0,0
12991,-100,4,2,1,40,0,0
14000,-100,4,1,1,30,0,0
14336,-100,4,1,1,35,0,0
14672,-100,4,1,1,40,0,0
15009,-100,4,1,1,45,0,0
15345,-100,4,1,1,50,0,0
15681,-100,4,1,1,55,0,0
16018,-100,4,1,1,60,0,0
16606,-100,4,2,1,40,0,0
16690,-100,4,2,1,20,0,0
17027,-76.9230769230769,4,1,1,60,0,0
19549,-100,4,2,1,40,0,0
21063,-100,4,2,1,20,0,0
22408,-100,4,2,1,40,0,0
22492,-100,4,2,1,20,0,0
22576,-100,4,2,1,40,0,0
22660,-100,4,2,1,20,0,0
22744,-100,4,2,1,40,0,0
22828,-100,4,2,1,20,0,0
22912,-100,4,2,1,40,0,0
22996,-100,4,2,1,20,0,0
23081,-100,4,2,1,40,0,0
23753,-76.9230769230769,4,1,1,60,0,0
25098,-100,4,1,1,60,0,0
25687,-100,4,2,1,20,0,0
25771,-100,4,1,1,60,0,0
26360,-100,4,2,1,20,0,0
26444,-76.9230769230769,4,1,1,60,0,0
28462,-200,4,2,1,40,0,0
29050,-200,4,2,1,20,0,0
29134,-100,4,1,1,15,0,0
30480,-100,4,1,1,20,0,0
31825,-100,4,1,1,25,0,0
33170,-100,4,1,1,30,0,0
34515,-100,4,1,1,35,0,0
36533,-200,4,2,1,40,0,0
37122,-200,4,2,1,20,0,0
37206,-100,4,1,1,40,0,0
39897,-200,4,1,1,50,0,0
40569,-200,4,2,1,40,0,0
40906,-200,4,1,1,50,0,0
41915,-200,4,2,1,40,0,0
42587,-200,4,1,1,50,0,0
43260,-200,4,2,1,40,0,0
43596,-200,4,1,1,50,0,0
44605,-200,4,2,1,40,0,0
45278,-100,4,1,1,60,0,0
45866,-100,4,2,1,20,0,0
45950,-100,4,1,1,60,0,0
46119,-100,4,2,1,20,0,0
46203,-100,4,1,1,60,0,0
46371,-100,4,2,1,20,0,0
46455,-66.6666666666667,4,1,1,60,0,0
46623,-200,4,1,1,40,0,0
47296,-200,4,2,1,30,0,0
47632,-200,4,1,1,40,0,0
48641,-200,4,2,1,30,0,0
49146,-200,4,2,1,10,0,0
49314,-200,4,1,1,40,0,0
49986,-200,4,2,1,30,0,0
50323,-200,4,1,1,40,0,0
51332,-200,4,2,1,30,0,0
51836,-200,4,2,1,10,0,0
52004,-100,4,1,1,60,0,0
52593,-100,4,2,1,20,0,0
52677,-100,4,1,1,60,0,0
53265,-100,4,2,1,20,0,0
53350,-80,4,1,1,65,0,0
53938,-80,4,2,1,20,0,0
54022,-80,4,1,1,65,0,0
54611,-80,4,2,1,20,0,0
54695,-100,4,2,1,30,0,0
55031,-100,4,2,1,40,0,0
56040,-100,4,2,1,20,0,0
65457,-66.6666666666667,4,2,1,40,0,0
65541,-66.6666666666667,4,2,1,20,0,0

[Colours]
Combo1 : 225,47,109
Combo2 : 3,28,199

[HitObjects]
256,192,211,12,0,1892,0:0:0:0:
158,328,2229,6,0,L|354:328,1,195
210,47,3070,5,0,0:0:0:0:
302,47,3237,1,0,0:0:0:0:
308,53,3322,1,0,0:0:0:0:
119,231,3575,6,0,P|40:180|93:145,1,195
419,231,4079,5,2,0:0:0:0:
392,318,4246,2,0,L|332:342,1,48.750001859665,2|2,0:0|0:0,0:0:0:0:
256,368,4416,5,0,0:0:0:0:
256,276,4584,1,0,0:0:0:0:
256,184,4752,1,0,0:0:0:0:
256,8,4919,6,0,P|227:23|210:51,1,65
256,44,5087,2,0,P|284:59|301:87,1,65
256,96,5255,2,0,P|227:111|210:139,1,65
256,132,5424,2,0,P|284:147|301:175,1,65
256,184,5592,2,0,P|227:199|210:227,1,65
302,335,5760,5,2,0:0:0:0:
210,335,5927,1,2,0:0:0:0:
204,329,6012,1,0,0:0:0:0:
452,116,6264,6,0,P|436:152|441:194,1,65
60,116,6601,2,0,P|76:152|71:194,1,65
256,32,6937,6,0,B|292:92|260:140|256:140|252:140|220:188|256:248,1,227.5
460,96,7610,6,0,L|460:226,1,130,12|0,0:0|0:0,0:0:0:0:
460,272,7862,1,0,0:0:0:0:
460,318,7946,2,0,P|433:336|401:335,1,65,8|0,0:0|0:0,0:0:0:0:
342,235,8115,2,0,P|314:220|299:191,1,65
196,136,8282,2,0,P|168:192|196:248,1,130,8|0,0:0|0:0,0:0:0:0:
156,360,8619,1,8,0:0:0:0:
150,354,8704,1,0,0:0:0:0:
52,226,8955,6,0,L|52:96,1,130,8|0,0:0|0:0,0:0:0:0:
136,36,9207,2,0,P|168:60|180:100,1,65,0|8,0:0|0:0,0:0:0:0:
333,82,9459,1,2,0:0:0:0:
298,262,9628,2,0,P|271:244|256:216,2,65,10|0|0,0:0|0:0|0:0,0:0:0:0:
460,96,10300,6,0,L|460:226,1,130,12|0,0:0|0:0,0:0:0:0:
460,272,10552,1,0,0:0:0:0:
460,318,10637,2,0,P|427:317|401:336,1,65,8|0,0:0|0:0,0:0:0:0:
341,234,10805,2,0,P|327:206|299:191,1,65
196,136,10972,2,0,P|168:192|196:248,1,130,8|0,0:0|0:0,0:0:0:0:
156,360,11309,1,8,0:0:0:0:
150,354,11394,1,0,0:0:0:0:
52,226,11645,6,0,L|52:96,1,130,8|0,0:0|0:0,0:0:0:0:
136,36,11897,2,0,P|168:60|180:100,1,65,0|8,0:0|0:0,0:0:0:0:
333,82,12149,1,0,0:0:0:0:
256,216,12318,1,8,0:0:0:0:
460,96,12486,5,0,0:0:0:0:
460,188,12655,1,8,0:0:0:0:
460,280,12823,1,0,0:0:0:0:
256,344,12991,5,0,0:0:0:0:
256,372,14000,5,0,0:0:0:0:
196,344,14168,1,0,0:0:0:0:
268,316,14336,1,0,0:0:0:0:
340,288,14504,1,0,0:0:0:0:
244,260,14672,1,0,0:0:0:0:
148,232,14841,1,0,0:0:0:0:
268,204,15009,1,0,0:0:0:0:
388,176,15177,1,0,0:0:0:0:
244,148,15345,1,0,0:0:0:0:
100,120,15513,1,0,0:0:0:0:
268,92,15681,1,0,0:0:0:0:
436,64,15850,1,0,0:0:0:0:
244,36,16018,1,0,0:0:0:0:
52,8,16186,1,0,0:0:0:0:
352,8,16606,6,0,L|352:73,1,65,2|0,0:0|0:0,0:0:0:0:
152,268,17027,6,0,B|68:268|68:268|24:340,1,168.999992263794
360,268,17363,2,0,B|444:268|444:268|488:340,1,168.999992263794
256,352,17699,2,0,B|228:308|252:272|260:272|284:236|256:192,2,168.999992263794
152,56,18372,6,0,B|68:56|68:56|24:128,1,168.999992263794
256,192,18708,2,0,L|256:23,2,168.999992263794
360,56,19213,2,0,B|444:56|444:56|488:128,1,168.999992263794
187,151,19549,5,0,0:0:0:0:
187,231,19717,1,0,0:0:0:0:
256,272,19886,1,0,0:0:0:0:
325,231,20054,1,0,0:0:0:0:
325,151,20222,1,0,0:0:0:0:
256,112,20390,1,0,0:0:0:0:
256,192,20558,1,0,0:0:0:0:
256,192,21063,12,0,22072,0:0:0:0:
256,320,22408,6,0,L|184:300,1,65
256,236,22576,2,0,L|328:216,1,65
256,152,22744,2,0,L|184:132,1,65
256,68,22912,2,0,L|328:48,1,65
416,20,23081,5,0,0:0:0:0:
397,121,23249,1,0,0:0:0:0:
115,121,23417,5,0,0:0:0:0:
96,20,23585,1,0,0:0:0:0:
152,268,23753,6,0,B|68:268|68:268|24:340,1,168.999992263794
360,268,24089,2,0,B|444:268|444:268|488:340,1,168.999992263794
256,352,24425,2,0,B|228:308|252:272|260:272|284:236|256:192,2,168.999992263794
152,8,25098,6,0,P|17:168|152:328,1,455,4|0,0:0|0:0,0:0:0:0:
360,376,25771,2,0,P|495:216|360:56,1,455
152,56,26444,6,0,B|68:56|68:56|24:128,1,168.999992263794
256,192,26780,2,0,L|256:23,2,168.999992263794
360,56,27285,2,0,B|444:56|444:56|488:128,1,168.999992263794
364,324,28462,6,0,B|304:360|256:328|256:324|256:320|208:288|148:324,1,227.5
219,155,29134,5,8,0:0:0:0:
291,227,29387,1,8,0:0:0:0:
291,155,29639,1,8,0:0:0:0:
219,227,29891,1,8,0:0:0:0:
228,92,30480,5,8,0:0:0:0:
282,290,30733,1,8,0:0:0:0:
354,164,30985,1,8,0:0:0:0:
156,218,31237,1,8,0:0:0:0:
295,43,31825,5,8,0:0:0:0:
215,339,32078,1,8,0:0:0:0:
403,231,32330,1,8,0:0:0:0:
107,151,32582,1,8,0:0:0:0:
396,50,33170,5,8,0:0:0:0:
114,332,33422,1,8,0:0:0:0:
396,332,33674,1,8,0:0:0:0:
114,50,33926,1,8,0:0:0:0:
52,374,34515,5,8,0:0:0:0:
461,346,34852,1,8,0:0:0:0:
52,318,35188,1,8,0:0:0:0:
461,290,35524,1,8,0:0:0:0:
52,262,35861,1,8,0:0:0:0:
461,234,36197,1,8,0:0:0:0:
256,84,36533,6,0,B|220:144|252:192|256:192|260:192|292:240|256:300,1,227.5
52,206,37206,5,8,0:0:0:0:
461,178,37542,1,8,0:0:0:0:
52,150,37878,1,8,0:0:0:0:
461,122,38215,1,8,0:0:0:0:
52,94,38551,1,8,0:0:0:0:
461,66,38888,1,8,0:0:0:0:
52,38,39224,1,8,0:0:0:0:
461,10,39560,1,8,0:0:0:0:
128,62,39897,6,0,L|128:324,1,260,0|8,0:0|0:0,0:0:0:0:
0,192,40906,1,0,0:0:0:0:
256,192,41915,1,8,0:0:0:0:
384,62,42587,6,0,L|384:324,1,260,0|8,0:0|0:0,0:0:0:0:
512,192,43596,1,0,0:0:0:0:
256,192,44605,1,8,0:0:0:0:
152,8,45278,6,0,P|17:168|152:328,1,455,4|0,0:0|0:0,0:0:0:0:
360,376,45950,2,0,L|476:240,1,130
495,216,46203,2,0,L|379:80,1,130
359,55,46455,1,0,0:0:0:0:
291,140,46623,6,0,L|136:168,1,130
16,47,47212,1,0,0:0:0:0:
26,54,47296,2,0,L|181:26,1,130,8|0,0:0|0:0,0:0:0:0:
440,284,48052,1,0,0:0:0:0:
428,292,48137,2,0,P|391:291|352:272,1,65
324,352,48389,2,0,P|287:352|248:372,1,65
189,321,48641,2,0,P|115:262|115:168,1,195,8|0,0:0|0:0,0:0:0:0:
221,140,49314,6,0,L|376:168,1,130
496,47,49903,1,0,0:0:0:0:
486,54,49987,2,0,L|331:26,1,130,8|0,0:0|0:0,0:0:0:0:
72,284,50743,1,0,0:0:0:0:
84,292,50828,2,0,P|120:291|160:272,1,65
188,352,51080,2,0,P|224:352|264:372,1,65
322,321,51332,2,0,P|396:262|396:168,1,195,8|0,0:0|0:0,0:0:0:0:
152,8,52004,6,0,P|17:168|152:328,1,455,4|0,0:0|0:0,0:0:0:0:
360,376,52677,2,0,P|495:216|360:56,1,455
152,8,53350,6,0,B|77:41|77:41|29:106|29:106|19:188|19:188|46:264|46:264|104:319|104:319|183:337|183:337|270:317,1,568.75,4|0,0:0|0:0,0:0:0:0:
360,376,54022,2,0,B|435:343|435:343|483:278|483:278|493:196|493:196|466:120|466:120|408:65|408:65|329:47|329:47|242:67,1,568.75
204,192,54695,5,0,0:0:0:0:
223,192,54947,2,0,L|296:192,1,65,0|2,0:0|0:0,0:0:0:0:
308,192,55283,1,2,0:0:0:0:
256,192,56040,12,0,56797,0:0:0:0:
256,192,57385,12,0,58142,0:0:0:0:
256,192,58731,12,0,59488,0:0:0:0:
256,192,60076,12,0,60833,0:0:0:0:
256,192,61421,12,0,63103,0:0:0:0:
256,192,64112,12,0,65121,0:0:0:0:
256,143,65457,6,0,L|256:255,1,97.50000371933
