osu file format v14

[General]
AudioFilename: My Song.mp3
AudioLeadIn: 0
PreviewTime: 28145
Countdown: 1
SampleSet: Normal
StackLeniency: 0.7
Mode: 1
LetterboxInBreaks: 0
WidescreenStoryboard: 0

[Editor]
DistanceSpacing: 1
BeatDivisor: 4
GridSize: 32
TimelineZoom: 1.5

[Metadata]
Title:My Song
TitleUnicode:My Song
Artist:GFOTY
ArtistUnicode:GFOTY
Creator:Ancelysia
Version:my taiko diff
Source:
Tags:gfotybucks a. g. cook pc music starbucks electronic experimental noise
BeatmapID:1834826
BeatmapSetID:877578

[Difficulty]
HPDrainRate:5
CircleSize:2
OverallDifficulty:7
ApproachRate:8
SliderMultiplier:1.4
SliderTickRate:1

[Events]
//Background and Video events
0,0,"BG.jpg",0,0
//Break Periods
//Storyboard Layer 0 (Background)
//Storyboard Layer 1 (Fail)
//Storyboard Layer 2 (Pass)
//Storyboard Layer 3 (Foreground)
//Storyboard Sound Samples

[TimingPoints]
21,336.322869955157,4,2,0,80,1,0
693,336.322869955157,6,2,0,80,1,0
1892,-100,6,1,0,80,0,0
2375,336.322869955157,4,1,0,80,1,0
14482,-90.9090909090909,4,1,0,80,0,0
14650,-83.3333333333333,4,1,0,80,0,0
14818,-76.9230769230769,4,1,0,80,0,0
14987,-71.4285714285714,4,1,0,80,0,0
15155,-66.6666666666667,4,1,0,80,0,0
15323,-62.5,4,1,0,80,0,0
15491,-58.8235294117647,4,1,0,80,0,0
15659,-55.5555555555556,4,1,0,80,0,0
15827,-52.6315789473684,4,1,0,80,0,0
15996,-50,4,1,0,80,0,0
16164,-47.6190476190476,4,1,0,80,0,0
16332,-45.4545454545455,4,1,0,80,0,0
16500,-43.4782608695652,4,1,0,80,0,0
16668,-41.6666666666667,4,1,0,80,0,0
17173,-100,4,1,0,80,0,0
25581,-25,4,1,0,80,0,1
26926,-100,4,1,0,80,0,0
30878,-66.6666666666667,4,1,0,80,0,0
32223,-50,4,1,0,80,0,0
33568,-40,4,1,0,80,0,0
34914,-100,4,1,0,80,0,0
45760,-33.3333333333333,4,1,0,80,0,1
47105,-100,4,1,0,80,0,0
52487,-25,4,1,0,80,0,1
55177,-100,4,1,0,80,0,0
65940,-10,4,1,0,80,0,0

[HitObjects]
256,192,21,5,8,0:0:0:0:
256,192,189,5,8,0:0:0:0:
256,192,357,5,8,0:0:0:0:
256,192,525,5,8,0:0:0:0:
256,192,693,5,8,0:0:0:0:
256,192,862,1,0,0:0:0:0:
256,192,1030,1,8,0:0:0:0:
256,192,1198,1,0,0:0:0:0:
256,192,1366,1,8,0:0:0:0:
256,192,1534,1,0,0:0:0:0:
256,192,1702,1,8,0:0:0:0:
256,192,1871,1,0,0:0:0:0:
256,192,2039,1,8,0:0:0:0:
256,192,2207,1,0,0:0:0:0:
128,288,2375,5,4,0:0:0:0:
448,320,2712,1,8,0:0:0:0:
448,320,2964,1,8,0:0:0:0:
448,320,3552,1,8,0:0:0:0:
448,320,3720,1,8,0:0:0:0:
448,320,3804,1,8,0:0:0:0:
448,320,4057,1,8,0:0:0:0:
192,320,4561,1,0,0:0:0:0:
448,320,4729,1,8,0:0:0:0:
224,320,4814,1,0,0:0:0:0:
160,192,4898,1,0,0:0:0:0:
160,192,5066,1,0,0:0:0:0:
160,192,5234,1,0,0:0:0:0:
416,96,5402,1,8,0:0:0:0:
416,96,5570,1,8,0:0:0:0:
416,96,5738,1,8,0:0:0:0:
416,96,5907,1,8,0:0:0:0:
416,96,6075,1,8,0:0:0:0:
160,192,6243,1,0,0:0:0:0:
416,96,6411,1,8,0:0:0:0:
416,96,6495,1,8,0:0:0:0:
0,0,7084,1,0,0:0:0:0:
256,192,8093,5,8,0:0:0:0:
256,192,8345,1,0,0:0:0:0:
256,192,8429,1,8,0:0:0:0:
256,192,8597,1,8,0:0:0:0:
256,192,8765,1,8,0:0:0:0:
160,224,8933,1,0,0:0:0:0:
192,64,9102,1,8,0:0:0:0:
192,64,9186,1,8,0:0:0:0:
352,96,9354,1,0,0:0:0:0:
352,96,9438,1,8,0:0:0:0:
416,224,9606,1,0,0:0:0:0:
352,96,9690,1,8,0:0:0:0:
320,320,9774,1,8,0:0:0:0:
192,320,9942,1,0,0:0:0:0:
448,320,10110,1,8,0:0:0:0:
448,320,10195,1,8,0:0:0:0:
224,320,10279,1,0,0:0:0:0:
128,160,10783,1,8,0:0:0:0:
128,160,10951,1,8,0:0:0:0:
224,256,11035,1,0,0:0:0:0:
128,160,11120,1,8,0:0:0:0:
128,160,11288,1,8,0:0:0:0:
256,64,11456,1,8,0:0:0:0:
320,160,11624,1,0,0:0:0:0:
320,160,11708,1,0,0:0:0:0:
320,160,11792,1,10,0:0:0:0:
416,224,11876,1,8,0:0:0:0:
320,320,11960,1,0,0:0:0:0:
192,288,12129,1,8,0:0:0:0:
64,352,12297,1,0,0:0:0:0:
192,288,12381,1,8,0:0:0:0:
192,160,12465,1,8,0:0:0:0:
64,160,12801,1,8,0:0:0:0:
288,64,12969,1,8,0:0:0:0:
416,160,13138,1,8,0:0:0:0:
416,160,13306,1,8,0:0:0:0:
0,384,13474,5,8,0:0:0:0:
256,192,14483,1,0,0:0:0:0:
256,192,14651,1,0,0:0:0:0:
256,192,14819,1,0,0:0:0:0:
256,192,14987,1,0,0:0:0:0:
256,192,15155,1,0,0:0:0:0:
256,192,15324,1,0,0:0:0:0:
256,192,15492,1,0,0:0:0:0:
256,192,15660,1,0,0:0:0:0:
256,192,15828,1,8,0:0:0:0:
256,192,15996,1,8,0:0:0:0:
256,192,16164,1,8,0:0:0:0:
256,192,16333,1,8,0:0:0:0:
256,192,16501,1,8,0:0:0:0:
256,192,16669,1,8,0:0:0:0:
512,0,17089,1,8,0:0:0:0:
96,64,17510,1,0,0:0:0:0:
288,64,17678,1,8,0:0:0:0:
352,128,17846,1,8,0:0:0:0:
128,160,18014,1,0,0:0:0:0:
192,224,18182,1,0,0:0:0:0:
192,224,18351,1,0,0:0:0:0:
192,224,18519,1,0,0:0:0:0:
192,224,18855,1,0,0:0:0:0:
192,224,19023,1,0,0:0:0:0:
192,224,19192,1,8,0:0:0:0:
128,160,19360,1,8,0:0:0:0:
352,128,19528,1,8,0:0:0:0:
288,64,19696,1,8,0:0:0:0:
96,64,19864,1,8,0:0:0:0:
256,192,20116,12,0,21377,0:0:0:0:
416,96,22891,5,8,0:0:0:0:
416,128,23059,1,8,0:0:0:0:
384,128,23227,1,8,0:0:0:0:
384,96,23395,1,8,0:0:0:0:
320,96,23564,1,8,0:0:0:0:
352,96,23732,1,0,0:0:0:0:
352,128,23900,1,8,0:0:0:0:
320,128,24068,1,0,0:0:0:0:
96,64,24236,1,0,0:0:0:0:
288,64,24404,1,8,0:0:0:0:
352,128,24572,1,8,0:0:0:0:
128,160,24740,1,0,0:0:0:0:
192,224,24908,1,0,0:0:0:0:
192,224,25076,1,0,0:0:0:0:
192,224,25245,1,0,0:0:0:0:
256,192,25581,12,0,26170,0:0:0:0:
256,192,26253,12,0,26842,0:0:0:0:
192,224,26927,5,0,0:0:0:0:
192,224,27095,1,0,0:0:0:0:
192,224,27262,1,8,0:0:0:0:
128,160,27432,1,8,0:0:0:0:
352,128,27600,1,8,0:0:0:0:
288,64,27768,1,8,0:0:0:0:
96,64,27936,1,8,0:0:0:0:
512,384,28903,5,8,0:0:0:0:
256,192,29617,1,8,0:0:0:0:
256,192,29869,1,8,0:0:0:0:
256,192,30122,1,8,0:0:0:0:
256,192,30374,1,8,0:0:0:0:
256,192,30963,1,8,0:0:0:0:
256,192,31215,1,8,0:0:0:0:
256,192,31466,1,8,0:0:0:0:
256,192,31720,1,8,0:0:0:0:
256,192,32308,1,8,0:0:0:0:
256,192,32560,1,8,0:0:0:0:
256,192,32813,1,8,0:0:0:0:
256,192,33065,1,8,0:0:0:0:
256,192,33653,1,8,0:0:0:0:
256,192,33905,1,8,0:0:0:0:
256,192,34158,1,8,0:0:0:0:
256,192,34410,1,8,0:0:0:0:
256,192,34998,1,8,0:0:0:0:
448,64,35335,1,8,0:0:0:0:
160,256,35671,1,8,0:0:0:0:
416,352,36007,1,8,0:0:0:0:
128,64,36344,1,8,0:0:0:0:
96,256,36680,1,8,0:0:0:0:
256,192,37689,1,8,0:0:0:0:
128,0,38026,1,8,0:0:0:0:
320,288,38362,1,8,0:0:0:0:
416,32,38698,1,8,0:0:0:0:
128,320,39035,1,8,0:0:0:0:
320,352,39371,1,8,0:0:0:0:
64,160,39707,1,8,0:0:0:0:
416,192,40043,1,8,0:0:0:0:
96,320,40380,1,0,0:0:0:0:
128,288,40464,1,8,0:0:0:0:
128,288,40632,1,8,0:0:0:0:
96,320,41052,1,8,0:0:0:0:
96,320,41389,1,0,0:0:0:0:
96,320,42398,1,8,0:0:0:0:
96,320,43070,1,0,0:0:0:0:
96,320,43743,1,8,0:0:0:0:
96,320,44079,1,0,0:0:0:0:
96,320,45088,1,8,0:0:0:0:
448,64,45761,5,6,0:0:0:0:
448,64,46433,1,0,0:0:0:0:
448,64,46686,1,0,0:0:0:0:
448,64,46938,1,0,0:0:0:0:
256,192,47105,5,0,0:0:0:0:
256,192,47442,1,8,0:0:0:0:
256,192,47695,1,8,0:0:0:0:
256,192,47779,1,8,0:0:0:0:
256,192,48115,1,0,0:0:0:0:
256,192,48451,1,8,0:0:0:0:
256,192,48535,1,0,0:0:0:0:
256,192,48704,1,8,0:0:0:0:
256,192,48788,1,0,0:0:0:0:
256,192,48956,1,8,0:0:0:0:
256,192,49040,1,0,0:0:0:0:
256,192,49124,1,8,0:0:0:0:
256,192,49797,1,0,0:0:0:0:
256,192,50133,1,8,0:0:0:0:
256,192,50386,1,8,0:0:0:0:
256,192,50470,1,8,0:0:0:0:
256,192,50806,1,0,0:0:0:0:
256,192,51142,1,8,0:0:0:0:
256,192,51226,1,0,0:0:0:0:
256,192,51395,1,8,0:0:0:0:
256,192,51479,1,0,0:0:0:0:
256,192,51647,1,8,0:0:0:0:
256,192,51731,1,0,0:0:0:0:
256,192,51815,1,8,0:0:0:0:
256,192,52487,12,0,53076,0:0:0:0:
256,192,53160,12,0,53749,0:0:0:0:
256,192,53832,12,0,54421,0:0:0:0:
256,192,54505,12,0,55094,0:0:0:0:
256,192,55178,5,2,0:0:0:0:
256,192,55430,1,2,0:0:0:0:
256,192,55514,1,2,0:0:0:0:
256,192,55766,1,2,0:0:0:0:
256,192,56523,1,0,0:0:0:0:
256,192,56775,1,0,0:0:0:0:
256,192,57028,1,8,0:0:0:0:
256,192,57280,1,8,0:0:0:0:
256,192,57868,1,0,0:0:0:0:
256,192,58120,1,0,0:0:0:0:
256,192,58373,1,8,0:0:0:0:
256,192,58625,1,8,0:0:0:0:
256,192,59214,1,0,0:0:0:0:
256,192,59466,1,0,0:0:0:0:
256,192,59719,1,8,0:0:0:0:
256,192,59971,1,8,0:0:0:0:
256,192,60559,1,0,0:0:0:0:
256,192,60811,1,0,0:0:0:0:
256,192,61064,1,8,0:0:0:0:
256,192,61316,1,8,0:0:0:0:
256,192,61904,1,0,0:0:0:0:
256,192,62241,1,0,0:0:0:0:
256,192,62577,1,8,0:0:0:0:
256,192,62913,1,8,0:0:0:0:
256,192,63250,1,0,0:0:0:0:
256,192,63586,1,8,0:0:0:0:
256,192,64595,1,0,0:0:0:0:
256,192,64932,1,0,0:0:0:0:
256,192,65268,1,8,0:0:0:0:
256,192,65604,1,8,0:0:0:0:
256,192,65941,1,0,0:0:0:0:
