osu file format v14

[General]
AudioFilename: My Song.mp3
AudioLeadIn: 0
PreviewTime: 28145
Countdown: 1
SampleSet: Normal
StackLeniency: 0
Mode: 0
LetterboxInBreaks: 0
WidescreenStoryboard: 1

[Editor]
DistanceSpacing: 1
BeatDivisor: 4
GridSize: 4
TimelineZoom: 2

[Metadata]
Title:My Song
TitleUnicode:My Song
Artist:GFOTY
ArtistUnicode:GFOTY
Creator:Ancelysia
Version:my standard diff
Source:
Tags:gfotybucks a. g. cook pc music starbucks electronic experimental noise
BeatmapID:1834825
BeatmapSetID:877578

[Difficulty]
HPDrainRate:5
CircleSize:3
OverallDifficulty:8
ApproachRate:9
SliderMultiplier:2
SliderTickRate:0.5

[Events]
//Background and Video events
0,0,"BG.jpg",0,0
//Break Periods
//Storyboard Layer 0 (Background)
//Storyboard Layer 1 (Fail)
//Storyboard Layer 2 (Pass)
//Storyboard Layer 3 (Foreground)
//Storyboard Sound Samples

[TimingPoints]
21,336.322869955157,4,2,0,80,1,0
693,336.322869955157,6,2,0,80,1,0
2375,336.322869955157,4,1,0,80,1,0
2375,-100,6,1,0,80,0,0
2711,-25,6,1,0,80,0,0
4056,-100,6,1,0,80,0,0
7083,-25,6,1,0,80,0,0
7167,-25,6,1,0,5,0,0
7419,-100,6,1,0,80,0,0
13473,-25,6,1,0,80,0,0
13557,-25,6,1,0,5,0,0
14482,-25,6,1,0,10,0,0
14650,-25,6,1,0,15,0,0
14818,-25,6,1,0,20,0,0
14987,-25,6,1,0,25,0,0
15155,-25,6,1,0,30,0,0
15323,-25,6,1,0,35,0,0
15491,-25,6,1,0,40,0,0
15659,-25,6,1,0,45,0,0
15827,-25,6,1,0,50,0,0
15996,-25,6,1,0,55,0,0
16164,-25,6,1,0,60,0,0
16332,-25,6,1,0,65,0,0
16500,-25,6,1,0,70,0,0
16668,-25,6,1,0,75,0,0
17089,-25,6,1,0,80,0,0
21040,-1000,4,2,0,50,0,0
21545,-1000,4,2,0,5,0,0
22890,-100,4,1,0,80,0,0
25581,-57.1428571428571,4,1,0,80,0,1
26169,-57.1428571428571,4,2,0,5,0,1
26253,-57.1428571428571,4,1,0,80,0,1
26842,-57.1428571428571,4,2,0,5,0,1
26926,-100,4,1,0,80,0,0
28902,-100,4,2,0,5,0,0
29617,-100,4,1,0,80,0,0
34998,-100,4,1,0,80,0,0
37016,-100,4,2,0,5,0,0
37688,-100,4,1,0,80,0,0
45760,-50,4,1,0,80,0,1
46265,-50,4,2,0,5,0,1
46433,-100,4,1,0,80,0,1
46937,-50,4,1,0,80,0,1
47021,-50,4,1,0,5,0,1
47105,-133.333333333333,4,1,0,80,0,0
52487,-100,4,1,0,80,0,1
53075,-100,4,2,0,5,0,1
53159,-100,4,1,0,80,0,1
53748,-100,4,2,0,5,0,0
53832,-80,4,1,0,80,0,1
54420,-80,4,2,0,5,0,1
54505,-80,4,1,0,80,0,1
55093,-80,4,2,0,5,0,1
55177,-100,4,1,0,50,0,0
57279,-100,4,1,0,5,0,0
57868,-100,4,1,0,50,0,0
58625,-100,4,2,0,5,0,0
59213,-100,4,1,0,50,0,0
59970,-100,4,2,0,5,0,0
60558,-100,4,1,0,50,0,0
61315,-100,4,2,0,5,0,0
61904,-100,4,1,0,50,0,0
63585,-100,4,2,0,5,0,0
64594,-100,4,1,0,50,0,0
65603,-100,4,2,0,5,0,0
65940,-25,4,2,0,80,0,0
65961,-1000,4,2,1,5,0,0

[Colours]
Combo1 : 18,124,255
Combo2 : 192,192,192

[HitObjects]
64,52,21,6,0,L|116:44,1,50,2|0,0:1|0:0,0:0:0:0:
64,52,189,6,0,L|116:44,1,50,2|0,0:1|0:0,0:0:0:0:
64,52,357,6,0,L|116:44,1,50,2|0,0:1|0:0,0:0:0:0:
64,52,525,6,0,L|116:44,1,50,2|0,0:1|0:0,0:0:0:0:
64,64,693,6,0,L|116:56,1,50,2|0,0:1|0:0,0:0:0:0:
248,40,861,1,8,0:0:0:0:
64,76,1029,6,0,L|116:68,1,50,2|0,0:1|0:0,0:0:0:0:
256,52,1197,1,8,0:0:0:0:
64,88,1365,6,0,L|116:80,1,50,2|0,0:1|0:0,0:0:0:0:
264,64,1533,1,8,0:0:0:0:
64,100,1701,6,0,L|116:92,1,50,2|0,0:1|0:0,0:0:0:0:
272,76,1869,1,8,0:0:0:0:
64,112,2038,6,0,L|116:104,1,50,2|0,0:1|0:0,0:0:0:0:
280,88,2206,6,0,L|332:80,1,50,2|0,0:1|0:0,0:0:0:0:
64,124,2374,5,4,3:0:0:0:
384,320,2711,6,0,P|456:264|384:232,1,200,2|0,0:0|2:0,2:0:0:0:
108,232,2963,1,2,0:0:0:0:
256,336,3552,5,2,0:3:0:0:
256,64,3721,1,2,0:3:0:0:
256,64,3805,1,2,0:3:0:0:
152,192,4057,6,0,L|352:192,1,200,2|0,0:3|2:0,0:0:0:0:
480,336,4561,5,2,0:2:0:0:
368,336,4729,1,2,0:2:0:0:
368,336,4814,1,2,0:2:0:0:
256,336,4898,5,0,0:0:0:0:
256,192,5066,1,0,0:0:0:0:
256,48,5234,1,0,0:0:0:0:
32,192,5402,5,2,2:0:0:0:
144,192,5570,1,2,2:0:0:0:
256,192,5738,1,2,2:0:0:0:
368,192,5907,1,2,2:0:0:0:
480,192,6075,1,2,2:0:0:0:
256,192,6243,5,2,0:2:0:0:
112,96,6411,1,2,0:2:0:0:
112,96,6495,1,2,0:2:0:0:
400,96,6747,1,0,0:0:0:0:
212,272,7083,6,0,P|228:336|300:272,1,200,0|0,2:0|2:0,1:0:0:0:
301,275,7419,6,0,B|232:220|160:272|156:272|152:272|96:328|4:268,1,300.000011444092,2|0,2:0|2:0,2:0:0:0:
256,56,8093,6,0,L|304:124,1,50,4|0,0:2|2:0,0:0:0:0:
192,192,8261,2,0,L|224:128,1,50,2|0,0:0|2:0,0:0:0:0:
336,192,8429,2,0,L|272:192,1,50,10|0,0:0|2:0,0:0:0:0:
256,56,8597,2,0,L|304:124,1,50,2|0,0:0|2:0,0:0:0:0:
400,272,8765,1,10,0:0:0:0:
480,96,8933,5,2,0:0:0:0:
336,192,9102,1,10,0:0:0:0:
336,192,9186,1,2,0:0:0:0:
472,312,9438,6,0,P|400:292|380:300,1,100,10|0,0:0|2:0,0:0:0:0:
304,336,9690,2,0,P|229:343|211:331,1,100,2|2,0:0|0:0,0:0:0:0:
264,260,9942,1,2,0:0:0:0:
64,88,10111,5,10,2:1:0:0:
80,176,10195,1,2,2:1:0:0:
96,264,10279,1,2,2:1:0:0:
96,264,10783,6,0,L|160:272,1,50,4|0,0:2|2:0,0:0:0:0:
200,344,10951,2,0,L|264:336,1,50,2|0,0:0|2:0,0:0:0:0:
288,256,11120,2,0,L|352:264,1,50,2|0,0:0|2:0,0:0:0:0:
392,336,11288,2,0,L|456:328,1,50,2|0,0:0|2:0,0:0:0:0:
496,256,11456,1,10,0:0:0:0:
400,144,11624,5,0,0:0:0:0:
496,256,11792,1,8,0:0:0:0:
496,256,11876,1,2,0:0:0:0:
488,64,12129,6,0,L|376:48,1,100,10|0,0:0|2:0,0:0:0:0:
312,112,12381,2,0,L|200:128,1,100,2|2,0:0|0:0,0:0:0:0:
213,126,12801,1,8,0:0:0:0:
408,312,12969,5,10,0:0:0:0:
424,200,13138,1,10,0:0:0:0:
440,96,13306,1,2,0:0:0:0:
384,340,13474,6,0,P|403:285|383:339,1,200,0|0,2:0|2:0,2:0:0:0:
193,254,14482,5,0,0:0:0:0:
318,254,14650,1,0,0:0:0:0:
318,129,14818,1,0,0:0:0:0:
193,129,14987,1,0,0:0:0:0:
142,243,15155,5,0,0:0:0:0:
307,303,15323,1,0,0:0:0:0:
367,138,15491,1,0,0:0:0:0:
202,78,15659,1,0,0:0:0:0:
83,206,15827,5,0,0:0:0:0:
270,363,15996,1,0,0:0:0:0:
427,176,16164,1,0,0:0:0:0:
240,19,16332,1,0,0:0:0:0:
27,192,16500,5,0,0:0:0:0:
484,192,16668,1,0,0:0:0:0:
256,192,17089,5,2,2:1:0:0:
112,304,17510,5,2,0:2:0:0:
400,304,17678,1,2,0:2:0:0:
464,192,17846,1,2,0:2:0:0:
48,192,18014,1,2,0:2:0:0:
112,72,18182,5,2,0:2:0:0:
256,72,18351,1,2,0:2:0:0:
400,72,18519,1,2,0:2:0:0:
368,192,18855,5,2,0:2:0:0:
256,72,19023,1,2,0:2:0:0:
144,192,19191,1,2,0:2:0:0:
256,304,19359,1,2,0:2:0:0:
352,96,19528,5,2,0:2:0:0:
256,304,19696,1,2,0:2:0:0:
160,80,19864,1,2,0:2:0:0:
497,346,20032,5,0,2:0:0:0:
495,349,20200,1,0,2:0:0:0:
494,353,20368,1,0,2:0:0:0:
493,357,20536,1,0,2:0:0:0:
492,362,20704,1,0,2:0:0:0:
492,366,20872,1,0,2:0:0:0:
492,366,21041,2,0,P|454:362|443:364,1,29.9999990844727
176,112,22891,5,2,2:1:0:0:
336,112,23059,1,2,2:1:0:0:
336,272,23227,1,2,2:1:0:0:
176,272,23395,1,2,2:1:0:0:
256,48,23564,5,0,0:0:0:0:
256,336,23732,1,0,0:0:0:0:
256,48,23900,1,0,0:0:0:0:
256,336,24068,1,0,0:0:0:0:
384,128,24236,5,2,0:2:0:0:
128,128,24404,1,2,0:2:0:0:
64,240,24572,1,2,0:2:0:0:
448,240,24740,1,2,0:2:0:0:
256,336,24909,5,2,0:2:0:0:
256,48,25077,1,2,0:2:0:0:
304,240,25245,1,2,0:2:0:0:
304,240,25581,6,2,B|448:320|448:320|444:44|444:44|288:160,1,612.500005841255,2|0,2:1|2:0,0:0:0:0:
208,240,26254,6,2,B|64:320|64:320|68:44|68:44|224:160,1,612.500005841255,2|0,2:1|2:0,0:0:0:0:
336,288,26927,5,2,0:2:0:0:
432,80,27095,1,2,0:2:0:0:
448,352,27263,1,2,0:2:0:0:
352,143,27431,1,2,0:2:0:0:
240,336,27599,5,2,0:2:0:0:
432,224,27768,1,2,0:2:0:0:
240,48,27936,1,2,0:2:0:0:
256,192,28902,5,0,0:0:0:0:
304,144,29617,5,8,0:0:0:0:
304,240,29870,1,8,0:0:0:0:
208,240,30122,1,8,0:0:0:0:
208,144,30373,1,8,0:0:0:0:
347,167,30963,5,8,0:0:0:0:
280,283,31214,1,8,0:0:0:0:
164,216,31466,1,8,0:0:0:0:
231,100,31719,1,8,0:0:0:0:
384,226,32308,5,8,0:0:0:0:
221,320,32559,1,8,0:0:0:0:
127,157,32813,1,8,0:0:0:0:
290,63,33064,1,8,0:0:0:0:
387,323,33653,5,8,0:0:0:0:
124,323,33906,1,8,0:0:0:0:
124,60,34158,1,8,0:0:0:0:
387,60,34409,1,8,0:0:0:0:
176,336,34998,5,8,0:0:0:0:
336,336,35335,1,8,0:0:0:0:
128,192,35671,5,8,0:0:0:0:
384,192,36007,1,8,0:0:0:0:
80,64,36344,5,8,0:0:0:0:
432,64,36680,1,8,0:0:0:0:
204,136,37016,6,0,P|156:196|216:248,1,150
318,245,37353,2,0,P|355:186|308:136,1,150
160,336,37689,5,8,0:0:0:0:
352,336,38026,1,8,0:0:0:0:
112,240,38362,5,8,0:0:0:0:
400,240,38698,1,8,0:0:0:0:
64,144,39035,5,8,0:0:0:0:
432,144,39371,1,8,0:0:0:0:
32,48,39707,5,8,0:0:0:0:
464,48,40043,1,8,0:0:0:0:
320,304,40380,5,0,0:0:0:0:
369,236,41052,1,8,0:0:0:0:
362,152,41389,1,0,0:0:0:0:
301,94,42397,1,8,0:0:0:0:
218,89,43070,5,0,0:0:0:0:
151,141,43743,1,8,0:0:0:0:
135,223,44079,1,0,0:0:0:0:
177,296,45088,1,8,0:0:0:0:
160,140,45761,6,2,P|256:360|332:136,1,600,2|0,0:0|2:0,0:0:0:0:
200,216,46433,6,2,P|160:256|144:328,1,100,2|0,0:0|0:0,0:0:0:0:
288,188,46685,2,2,P|276:136|232:100,1,100,2|0,0:0|0:0,0:0:0:0:
268,276,46937,2,2,P|304:315|360:324,1,100,2|0,0:0|2:0,0:0:0:0:
420,372,47106,5,0,0:0:0:0:
420,372,47442,2,0,P|404:332|444:248,1,112.500004291535
472,196,47779,2,0,P|488:156|440:40,1,150.000005722046,8|0,0:0|0:0,0:0:0:0:
256,56,48451,5,0,0:0:0:0:
256,80,48535,1,0,0:0:0:0:
256,176,48704,1,0,0:0:0:0:
256,200,48788,1,0,0:0:0:0:
256,296,48956,1,0,0:0:0:0:
256,312,49040,1,0,0:0:0:0:
256,328,49124,1,8,0:0:0:0:
92,372,49797,5,0,0:0:0:0:
92,372,50133,2,0,P|108:332|68:248,1,112.500004291535
40,196,50470,2,0,P|24:156|72:40,1,150.000005722046,8|0,0:0|0:0,0:0:0:0:
256,56,51142,5,0,0:0:0:0:
256,80,51226,1,0,0:0:0:0:
256,200,51395,1,0,0:0:0:0:
256,176,51479,1,0,0:0:0:0:
256,296,51647,1,0,0:0:0:0:
256,312,51731,1,0,0:0:0:0:
256,328,51815,1,8,0:0:0:0:
336,48,52487,6,2,B|436:192|436:192|344:348,1,350.00000333786,2|0,2:1|2:0,2:1:0:0:
164,342,53160,2,2,B|76:192|76:192|176:48,1,350.00000333786,2|0,2:1|2:0,2:1:0:0:
336,48,53833,6,2,P|476:196|325:344,1,437.5,6|0,2:1|2:0,2:1:0:0:
164,342,54505,2,2,P|36:190|176:48,1,437.5,2|0,2:1|2:0,2:1:0:0:
256,192,55178,5,2,2:0:0:0:
256,192,55430,1,2,2:0:0:0:
256,192,55514,1,2,0:2:0:0:
256,192,55766,1,2,0:2:0:0:
256,192,56523,12,0,57280,2:0:0:0:
256,192,57868,12,0,58625,0:0:0:0:
256,192,59214,12,0,59971,0:0:0:0:
256,192,60559,12,0,61316,0:0:0:0:
256,192,61904,12,0,63586,0:0:0:0:
256,192,64595,12,0,65604,0:0:0:0:
0,384,65940,6,0,P|-19:439|1:385,1,200,2|0,3:0|2:0,2:0:0:0:
