osu file format v14

[General]
AudioFilename: huuuuge.mp3
AudioLeadIn: 0
PreviewTime: 127915
Countdown: 0
SampleSet: Normal
StackLeniency: 0.4
Mode: 0
LetterboxInBreaks: 0
WidescreenStoryboard: 1

[Editor]
Bookmarks: 56584,68194,71030,133389,155679,177552,189524,201171,217060,233160,265162
DistanceSpacing: 0.5
BeatDivisor: 8
GridSize: 32
TimelineZoom: 2

[Metadata]
Title:Huge (DJ GURL POWER REMIX)
TitleUnicode:Huge (DJ GURL POWER REMIX)
Artist:GFOTY
ArtistUnicode:GFOTY
Creator:Ancelysia
Version:Silverboxer's 165cm
Source:
Tags:ancel silverboxer GFOTYBUCKS RED CUPS ag a g cook pc music english electronic experimental avantgarde avant-garde glitch house bassline hardstyle Girlfriend Of The Year RECORDS
BeatmapID:2371773
BeatmapSetID:1127019

[Difficulty]
HPDrainRate:4.7
CircleSize:2
OverallDifficulty:8
ApproachRate:9
SliderMultiplier:1.8
SliderTickRate:1

[Events]
//Background and Video events
0,0,"background.jpg",0,0
//Break Periods
2,34323,36558
2,40193,45065
2,128092,132964
//Storyboard Layer 0 (Background)
//Storyboard Layer 1 (Fail)
//Storyboard Layer 2 (Pass)
//Storyboard Layer 3 (Foreground)
//Storyboard Layer 4 (Overlay)
//Storyboard Sound Samples

[TimingPoints]
298,354.43187523998,4,2,3,80,1,0
298,-400,4,2,3,60,0,0
342,-400,4,2,2,40,0,0
5260,-250,4,2,2,40,0,0
5968,-400,4,2,2,40,0,0
11285,-66.6666666666667,4,2,2,40,0,0
11639,-133.333333333333,4,2,2,40,0,0
22627,-50,4,2,2,40,0,0
37158,-500,4,3,0,100,0,0
37867,-500,4,3,0,80,0,0
38576,-500,4,3,0,60,0,0
39285,-500,4,3,0,40,0,0
39639,-100,4,3,0,20,0,0
45665,-100,4,1,2,80,0,0
55589,-200,4,1,2,80,0,0
55943,-200,4,1,2,80,0,0
57007,-66.6666666666667,4,1,2,80,0,0
68171,-66.6666666666667,4,1,3,80,0,0
68348,-133.333333333333,4,1,3,80,0,0
68703,-133.333333333333,4,1,3,80,0,0
69766,-133.333333333333,4,1,2,80,0,0
71184,-66.6666666666667,4,1,2,80,0,0
73842,-133.333333333333,4,1,2,80,0,0
74374,-133.333333333333,4,1,2,20,0,0
76855,-66.6666666666667,4,1,2,80,0,0
79513,-133.333333333333,4,1,2,80,0,0
80045,-133.333333333333,4,1,2,20,0,0
81994,-133.333333333333,4,2,2,80,0,0
82526,-50,4,1,2,80,0,0
85184,-133.333333333333,4,1,2,80,0,0
85716,-133.333333333333,4,1,2,20,0,0
88197,-100,4,1,2,80,0,0
89614,-153.846153846154,4,1,2,80,0,0
90855,-133.333333333333,4,1,2,20,0,0
91032,-400,7,2,2,80,0,0
102374,-400,4,2,2,80,0,0
105209,-250,4,2,2,80,0,0
108045,-166.666666666667,4,2,2,80,0,0
113095,-100,4,2,2,80,0,0
113273,-100,4,2,2,25,0,0
113361,-100,4,2,2,80,0,0
113538,-100,4,2,2,25,0,0
113716,-133.333333333333,4,2,2,80,0,0
116551,-100,4,2,2,80,0,0
118678,-166.666666666667,4,2,2,80,0,0
119387,-100,4,2,2,80,0,0
120982,-166.666666666667,4,2,2,80,0,0
122133,-166.666666666667,4,2,2,20,0,0
122222,-303.030303030303,7,2,4,80,0,0
127893,-303.030303030303,7,2,4,20,0,0
133564,-66.6666666666667,7,1,2,80,0,0
136399,-500,7,1,0,80,0,0
137817,-100,7,1,0,80,0,0
139235,-66.6666666666667,7,1,2,80,0,0
142070,-500,7,1,0,80,0,0
143311,-500,7,1,0,50,0,0
143488,-500,7,1,0,80,0,0
144728,-500,7,1,0,50,0,0
144905,-500,7,1,0,80,0,0
146146,-500,7,1,0,50,0,0
146323,-500,7,1,0,80,0,0
148981,-500,7,1,0,50,0,0
149158,-500,7,1,0,80,0,0
151816,-500,7,1,0,50,0,0
151993,-500,7,1,0,80,0,0
153411,-500,7,1,0,50,0,0
156245,340.909090909091,4,1,2,100,1,0
156245,-66.6666666666667,4,1,2,80,0,0
164426,-714.285714285714,4,1,2,60,0,0
164767,-714.285714285714,4,1,0,50,0,0
165108,-714.285714285714,4,1,1,40,0,0
165449,-714.285714285714,4,1,0,30,0,0
165790,-714.285714285714,4,1,1,20,0,0
166472,-714.285714285714,4,1,0,10,0,0
166813,-714.285714285714,4,2,0,20,0,0
167154,-66.6666666666667,4,1,2,80,0,1
175335,-1000,4,1,1,60,0,0
176017,-1000,4,1,2,50,0,0
176699,-1000,4,1,1,40,0,0
177040,-1000,4,1,2,30,0,0
177381,-1000,4,1,1,20,0,0
177722,-1000,4,2,2,20,0,0
178042,363.636363636364,4,1,2,100,1,0
178042,-66.6666666666667,4,1,2,70,0,0
178996,-100,4,1,2,70,0,0
179496,-66.6666666666667,4,1,2,70,0,0
180451,-100,4,1,2,70,0,0
180951,-66.6666666666667,4,1,2,70,0,0
181905,-100,4,1,2,70,0,0
182405,-66.6666666666667,4,1,2,70,0,0
183360,-100,4,1,2,70,0,0
183860,-66.6666666666667,4,1,2,70,0,0
184814,-100,4,1,2,70,0,0
185314,-66.6666666666667,4,1,2,70,0,0
186269,-100,4,1,2,70,0,0
186769,-66.6666666666667,4,1,2,70,0,0
187723,-84.0336134453781,4,1,2,70,0,0
188314,-1000,4,1,2,70,0,0
189678,-66.6666666666667,4,1,2,70,0,0
190632,-100,4,1,2,70,0,0
191132,-66.6666666666667,4,1,2,70,0,0
192087,-100,4,1,2,70,0,0
192587,-66.6666666666667,4,1,2,70,0,0
193542,-100,4,1,2,70,0,0
194042,-66.6666666666667,4,1,2,70,0,0
194996,-100,4,1,2,70,0,0
195496,-66.6666666666667,4,1,2,70,0,0
196451,-100,4,1,2,70,0,0
196951,-66.6666666666667,4,1,2,70,0,0
197905,-100,4,1,2,70,0,0
198405,-66.6666666666667,4,1,2,70,0,0
199360,-100,4,1,2,70,0,0
199860,-66.6666666666667,4,1,2,70,0,0
200814,-100,4,1,2,70,0,0
201087,-100,4,1,2,20,0,0
201314,1000,4,2,3,80,1,0
201314,-132.450331125828,4,2,3,80,0,0
201714,-132.450331125828,4,2,0,60,0,0
202114,-132.450331125828,4,2,2,40,0,0
202514,-132.450331125828,4,2,0,20,0,0
202914,-132.450331125828,4,2,2,10,0,0
205714,-132.450331125828,4,2,0,15,0,0
206514,-132.450331125828,4,2,1,20,0,0
207314,-132.450331125828,4,2,0,25,0,0
208114,-132.450331125828,4,2,1,30,0,0
208914,-132.450331125828,4,2,0,30,0,0
209314,-107.296137339056,4,1,2,50,0,0
209414,-107.296137339056,4,1,0,30,0,0
209847,-107.296137339056,4,1,2,35,0,0
210064,-107.296137339056,4,1,3,40,0,0
210314,-107.296137339056,4,1,0,45,0,0
210580,-107.296137339056,4,1,2,50,0,0
210847,-107.296137339056,4,1,3,55,0,0
211064,-107.296137339056,4,1,0,60,0,0
211314,-107.296137339056,4,1,2,65,0,0
211580,-107.296137339056,4,1,3,70,0,0
211847,-107.296137339056,4,1,0,75,0,0
212064,-107.296137339056,4,1,2,80,0,0
212314,-107.296137339056,4,1,3,85,0,0
212580,-107.296137339056,4,1,0,90,0,0
212847,-107.296137339056,4,1,2,95,0,0
213064,-107.296137339056,4,1,3,100,0,0
213314,-107.296137339056,4,2,0,30,0,0
217314,-111.731843575419,4,2,0,30,0,0
225314,-107.52688172043,4,2,0,30,0,0
233314,-80,4,2,0,30,0,0
263314,-160,4,2,0,30,0,0
265314,-168.634064080944,4,2,0,50,0,0
268564,-168.634064080944,4,1,3,80,0,0
268714,-168.634064080944,4,2,0,50,0,0
268753,-168.634064080944,4,1,3,80,0,0
268889,-168.634064080944,4,2,0,50,0,0
277314,-168.634064080944,4,2,3,45,0,0
278314,-168.634064080944,4,2,0,40,0,0
279314,-168.634064080944,4,2,3,35,0,0
280314,-168.634064080944,4,2,0,30,0,0
281314,-168.634064080944,4,2,3,25,0,0
282314,-168.634064080944,4,2,0,20,0,0
282939,-168.634064080944,4,2,0,5,0,0

[Colours]
Combo1 : 255,20,55
Combo2 : 74,134,255
Combo3 : 192,190,225
Combo4 : 192,192,192

[HitObjects]
121,220,298,6,0,B|174:232|220:206|220:206|269:224|269:224|321:193|383:211,1,270,4|2,0:0|0:0,0:0:0:0:
326,315,3133,2,0,P|265:237|284:141,1,202.5,2|0,0:0|0:0,0:0:0:0:
457,62,5260,6,0,B|480:71|500:76|500:76|471:75|438:88,1,108
372,23,5968,6,0,B|242:127|246:-12|122:90,1,270,2|2,3:2|0:0,0:0:0:0:
12,134,8804,2,0,P|104:134|39:240,1,270,2|2,0:0|0:0,0:0:0:0:
201,241,11285,6,0,B|221:192|209:139|209:139|244:180|243:231,1,202.500007724762,2|0,0:0|0:0,0:0:0:0:
239,329,11639,6,0,P|278:345|338:335,2,101.250003862381,2|0|2,0:0|0:0|0:0,0:0:0:0:
408,256,12437,2,0,P|402:214|363:167,2,101.250003862381,2|0|2,0:0|0:0|0:0,0:0:0:0:
261,147,13234,2,0,P|227:172|206:229,2,101.250003862381,2|2|2,0:0|0:0|0:0,0:0:0:0:
261,147,14475,6,0,P|227:172|206:229,2,101.250003862381,2|0|2,0:0|0:0|0:0,0:0:0:0:
364,148,15272,2,0,P|358:106|319:59,2,101.250003862381,2|0|2,0:0|0:0|0:0,0:0:0:0:
311,236,16070,2,0,P|350:252|410:242,1,101.250003862381,2|2,0:0|0:0,0:0:0:0:
364,148,16601,2,0,B|281:152|281:152|255:166|255:166|165:169,1,202.500007724762,2|0,0:0|0:0,0:0:0:0:
76,145,17310,6,0,P|69:83|63:43,1,101.250003862381,2|0,0:0|0:0,0:0:0:0:
166,88,17842,1,2,0:0:0:0:
304,237,18108,6,0,P|311:175|316:136,1,101.250003862381,2|0,0:0|0:0,0:0:0:0:
214,180,18639,1,2,0:0:0:0:
76,329,18905,6,0,P|69:267|64:228,1,101.250003862381,2|2,0:0|0:0,0:0:0:0:
166,272,19437,1,2,0:0:0:0:
277,352,20146,6,0,P|316:355|379:354,2,101.250003862381,2|0|2,0:0|0:0|0:0,0:0:0:0:
512,259,20943,2,0,P|473:262|410:261,2,101.250003862381,2|0|2,0:0|0:0|0:0,0:0:0:0:
291,164,21741,2,0,P|330:167|393:166,2,101.250003862381,2|2|2,0:0|0:0|0:0,0:0:0:0:
356,73,22627,6,0,B|202:72|314:215|151:209,1,270,2|0,0:0|0:0,0:0:0:0:
59,204,22981,5,2,0:0:0:0:
31,178,23247,1,2,0:0:0:0:
18,144,23513,1,2,0:0:0:0:
143,294,23779,5,2,0:0:0:0:
134,331,24044,1,2,0:0:0:0:
111,359,24310,1,2,0:0:0:0:
182,179,24576,5,2,0:0:0:0:
218,168,24842,1,2,0:0:0:0:
254,174,25108,1,2,0:0:0:0:
254,174,25817,5,2,0:0:0:0:
265,138,26082,1,2,0:0:0:0:
259,102,26348,1,2,0:0:0:0:
411,157,26614,5,2,0:0:0:0:
436,184,26880,1,2,0:0:0:0:
470,197,27146,1,2,0:0:0:0:
347,301,27412,5,2,0:0:0:0:
311,309,27677,1,2,0:0:0:0:
283,332,27943,1,2,0:0:0:0:
283,332,28652,5,2,0:0:0:0:
281,305,28918,1,2,0:0:0:0:
279,278,29184,1,2,0:0:0:0:
152,348,29450,5,2,0:0:0:0:
153,312,29715,1,2,0:0:0:0:
154,276,29981,1,2,0:0:0:0:
29,358,30247,5,2,0:0:0:0:
34,307,30513,1,2,0:0:0:0:
38,262,30779,1,2,0:0:0:0:
181,119,31488,5,2,0:0:0:0:
183,165,31753,1,2,0:0:0:0:
185,213,32019,1,2,0:0:0:0:
339,88,32285,5,2,0:0:0:0:
337,153,32551,1,2,0:0:0:0:
336,216,32817,1,2,0:0:0:0:
487,18,33082,5,2,0:0:0:0:
481,115,33348,1,2,0:0:0:0:
476,208,33614,1,2,0:0:0:0:
256,60,37158,6,0,B|203:156|315:152|281:257|215:231|252:337,1,288,4|0,2:3|0:0,0:0:0:0:
85,118,45665,6,0,L|93:265,2,135,4|4|4,0:3|0:3|0:3,0:0:0:0:
218,16,46462,2,0,P|271:32|317:30,1,90,4|0,0:3|2:0,0:0:0:0:
405,21,46728,2,0,L|400:76,1,45,4|0,0:3|2:0,0:0:0:0:
470,141,46905,2,0,L|465:196,1,45,4|0,0:3|2:0,0:0:0:0:
371,232,47083,6,0,P|389:290|371:372,1,135,8|8,0:3|0:3,0:0:0:0:
135,361,47614,2,0,P|122:296|141:232,1,135,8|8,0:3|0:3,0:0:0:0:
296,157,48146,2,0,L|355:166,1,45,8|0,0:3|2:0,0:0:0:0:
201,99,48323,2,0,L|142:108,1,45,8|0,0:3|2:0,0:0:0:0:
277,17,48500,6,0,B|341:24|341:24|364:10|364:10|422:16,2,135,4|4|4,0:3|0:3|0:3,0:0:0:0:
80,38,49298,2,0,P|82:115|80:145,1,90,4|0,0:3|2:0,0:0:0:0:
25,213,49564,2,0,P|20:249|23:270,1,45,4|0,0:3|2:0,0:0:0:0:
91,329,49741,2,0,P|127:334|148:331,1,45,4|0,0:3|2:0,0:0:0:0:
217,284,49918,6,0,P|286:293|364:310,1,135,8|8,0:3|0:3,0:0:0:0:
485,162,50450,2,0,P|416:171|338:188,2,135,8|8|8,0:3|0:3|0:3,0:0:0:0:
376,68,51158,2,0,L|369:21,1,45,8|0,0:3|2:0,0:0:0:0:
265,42,51336,6,0,P|231:79|129:70,1,135,4|4,0:3|0:3,0:0:0:0:
376,178,51867,2,0,P|441:175|490:219,1,135,4|4,0:3|0:3,0:0:0:0:
418,358,52399,2,0,P|383:353|369:348,1,45,4|0,0:3|2:0,0:0:0:0:
282,355,52576,2,0,P|247:360|233:365,1,45,4|0,0:3|2:0,0:0:0:0:
177,294,52753,6,0,B|105:274|103:315|34:299,4,135,10|10|10|10|10,0:3|0:3|0:3|0:3|0:3,0:0:0:0:
63,200,53994,1,8,0:3:0:0:
260,147,54171,6,0,P|272:208|279:292,2,135,4|4|4,0:3|0:3|0:3,0:0:0:0:
154,10,54969,2,0,P|205:20|253:7,1,90,4|0,0:3|2:0,0:0:0:0:
345,14,55234,2,0,P|364:45|371:67,1,45,4|0,0:3|2:0,0:0:0:0:
465,28,55412,2,0,P|465:64|461:86,1,45,4|0,0:3|2:0,0:0:0:0:
395,153,55589,6,0,B|398:197|398:197|404:205|404:205|399:251,1,90,0|0,3:0|3:0,0:0:0:0:
441,293,57007,6,0,P|365:276|316:307,1,135.000005149842,4|0,0:3|2:0,0:0:0:0:
226,346,57272,1,4,0:3:0:0:
226,346,57361,2,0,P|150:363|101:332,1,135.000005149842,10|4,0:2|0:3,0:0:0:0:
32,173,57804,1,4,0:3:0:0:
32,173,57893,2,0,P|23:99|24:31,1,135.000005149842,0|10,0:0|0:2,0:0:0:0:
159,18,58247,2,0,L|231:22,1,67.5000025749208,4|0,0:3|2:0,0:0:0:0:
125,45,58424,6,0,L|261:53,1,135.000005149842,8|0,0:3|2:0,0:0:0:0:
366,25,58690,1,8,0:3:0:0:
366,25,58779,2,0,P|367:79|352:118,1,67.5000025749208,10|0,0:2|2:0,0:0:0:0:
251,204,58956,2,0,P|216:257|252:310,1,135.000005149842,8|0,0:3|2:0,0:0:0:0:
341,256,59222,1,2,0:3:0:0:
341,256,59310,2,0,P|383:274|418:273,1,67.5000025749208,2|0,0:3|2:0,0:0:0:0:
501,150,59488,6,0,P|506:113|503:77,1,67.5000025749208,10|0,0:2|2:0,0:0:0:0:
473,141,59665,2,0,P|478:104|475:68,1,67.5000025749208,8|0,0:3|2:0,0:0:0:0:
445,132,59842,6,0,P|442:42|421:4,1,135.000005149842,4|0,0:3|2:0,0:0:0:0:
331,48,60108,1,2,0:3:0:0:
331,48,60196,2,0,L|184:51,1,135.000005149842,10|6,0:2|0:3,0:0:0:0:
15,13,60640,1,6,0:3:0:0:
15,13,60728,2,0,P|43:92|26:142,1,135.000005149842,0|10,0:0|0:2,0:0:0:0:
85,293,61083,2,0,P|77:245|82:210,1,67.5000025749208,8|0,0:3|0:0,0:0:0:0:
171,166,61260,6,0,B|236:184|236:184|303:174,1,135.000005149842,8|0,0:3|2:0,0:0:0:0:
382,105,61526,1,8,0:3:0:0:
382,105,61614,2,0,L|387:30,1,67.5000025749208,10|0,0:2|2:0,0:0:0:0:
493,206,61791,2,0,P|482:286|476:346,1,135.000005149842,2|0,0:2|2:0,0:0:0:0:
378,365,62057,1,2,0:3:0:0:
378,365,62146,2,0,P|332:353|309:348,1,67.5000025749208,10|0,0:3|2:0,0:0:0:0:
209,331,62323,6,0,P|216:288|214:258,1,67.5000025749208,10|0,0:2|2:0,0:0:0:0:
185,323,62500,2,0,P|192:280|190:250,1,67.5000025749208,10|0,0:3|2:0,0:0:0:0:
161,315,62678,6,0,P|168:272|151:180,1,135.000005149842,4|0,0:3|2:0,0:0:0:0:
54,133,62943,1,4,0:3:0:0:
54,133,63032,2,0,P|16:188|59:224,1,135.000005149842,10|4,0:2|0:3,0:0:0:0:
260,183,63475,1,4,0:3:0:0:
260,183,63564,2,0,P|333:159|402:179,1,135.000005149842,0|10,0:0|0:2,0:0:0:0:
509,211,63918,2,0,L|512:144,1,67.5000025749208,4|0,0:3|2:0,0:0:0:0:
485,242,64095,6,0,L|491:107,1,135.000005149842,10|0,0:3|2:0,0:0:0:0:
397,59,64361,1,2,0:2:0:0:
397,59,64450,2,0,L|321:55,1,67.5000025749208,10|0,0:2|2:0,0:0:0:0:
232,18,64627,2,0,P|157:17|108:65,1,135.000005149842,10|0,0:3|2:0,0:0:0:0:
38,145,64893,1,10,0:3:0:0:
38,145,64981,2,0,P|9:102|0:77,1,67.5000025749208,10|0,0:3|2:0,0:0:0:0:
159,161,65159,6,0,L|152:234,1,67.5000025749208,10|0,0:2|2:0,0:0:0:0:
189,152,65336,2,0,L|182:225,1,67.5000025749208,2|0,0:3|2:0,0:0:0:0:
219,143,65513,6,0,L|204:285,1,135.000005149842,4|0,0:3|2:0,0:0:0:0:
287,355,65779,1,4,0:3:0:0:
287,355,65867,2,0,P|336:365|421:334,1,135.000005149842,10|6,0:2|0:3,0:0:0:0:
497,105,66310,1,6,0:3:0:0:
497,105,66399,2,0,P|442:49|405:91,1,135.000005149842,0|10,0:0|0:2,0:0:0:0:
336,199,66753,2,0,P|291:207|257:203,1,67.5000025749208,4|0,0:3|2:0,0:0:0:0:
369,172,66931,6,0,P|300:158|235:182,1,135.000005149842,8|0,0:3|2:0,0:0:0:0:
145,118,67197,1,8,0:3:0:0:
145,118,67285,2,0,L|137:41,1,67.5000025749208,10|0,0:2|2:0,0:0:0:0:
51,186,67462,2,0,L|36:333,1,135.000005149842,8|0,0:3|2:0,0:0:0:0:
133,364,67728,1,2,0:2:0:0:
133,364,67817,2,0,P|166:351|215:346,1,67.5000025749208,2|0,0:3|2:0,0:0:0:0:
295,323,67994,6,0,L|368:328,1,67.5000025749208,10|0,0:2|2:0,0:0:0:0:
307,284,68171,2,0,L|380:289,1,67.5000025749208,4|0,2:1|2:0,0:0:0:0:
319,245,68348,6,0,B|362:246|362:246|386:243|386:243|415:251|415:251|462:253,1,135.000005149842,0|0,3:0|2:0,0:0:0:0:
161,179,71184,6,0,P|256:99|351:179,1,270.000010299683,4|0,0:3|0:0,0:0:0:0:
256,275,71716,1,4,0:3:0:0:
113,172,71893,2,0,P|256:52|398:172,1,405.000015449525,8|4,0:2|0:3,0:0:0:0:
353,332,72602,6,0,B|244:280|265:380|158:327,3,202.500007724762,8|8|8|8,0:3|0:3|0:3|0:3,0:0:0:0:
118,124,73665,2,0,P|122:76|121:41,1,67.5000025749208,8|0,0:3|2:0,0:0:0:0:
24,91,73842,6,0,B|19:142|19:142|33:177|33:177|14:237|14:237|22:294,1,202.500007724762,8|0,0:3|2:0,0:0:0:0:
67,55,76855,6,0,P|76:166|98:338,1,270.000010299683,8|0,0:3|0:0,0:0:0:0:
191,78,77386,1,4,0:3:0:0:
191,78,77564,2,0,P|200:189|222:361,1,270.000010299683,8|0,0:2|0:0,0:0:0:0:
315,101,78095,1,4,0:3:0:0:
315,101,78273,6,0,P|371:175|437:106,3,202.500007724762,8|8|8|8,0:3|0:3|0:3|0:3,0:0:0:0:
162,67,79336,2,0,P|117:56|89:60,1,67.5000025749208,8|0,0:3|2:0,0:0:0:0:
117,153,79513,6,0,B|129:202|90:214|92:249|136:257|144:297|85:333|132:376,1,202.500007724762,8|0,0:3|2:0,0:0:0:0:
37,100,81994,5,0,3:0:0:0:
37,100,82171,1,0,3:0:0:0:
37,100,82348,1,0,3:0:0:0:
37,100,82526,6,0,B|393:42|119:359|480:283,2,540,6|6|0,0:3|0:3|0:0,0:0:0:0:
1,243,83766,1,6,0:3:0:0:
146,238,83943,6,0,B|324:275|187:116|365:145,3,270,10|10|8|8,0:3|0:3|0:3|0:3,0:0:0:0:
65,306,85007,2,0,P|45:257|47:204,1,90,10|0,0:3|2:0,0:0:0:0:
34,107,85184,6,0,B|85:122|106:83|156:91|166:134|242:118,1,202.500007724762,10|0,0:3|2:0,0:0:0:0:
156,191,88197,6,0,B|225:179|261:115|261:115|279:187|347:215,2,270,10|8|0,0:3|0:3|0:0,0:0:0:0:
267,17,89437,1,10,0:3:0:0:
462,46,89614,6,0,B|352:50|352:50|312:63|312:63|198:67|198:67|163:78|163:78|49:82,1,409.499981254578,6|0,0:3|2:0,0:0:0:0:
6,174,91032,6,0,P|16:284|193:278,1,315,4|0,0:1|0:0,0:0:0:0:
102,221,93868,2,0,P|62:78|198:32,1,315,2|0,0:0|0:0,0:0:0:0:
302,24,96703,6,0,B|375:188|229:162|312:325,1,315,2|0,0:0|0:0,0:0:0:0:
406,240,99538,2,0,B|268:221|268:221|232:250|232:250|97:229,1,315
40,128,102374,6,0,L|38:89,2,33.75,2|2|2,0:0|0:0|0:0,0:0:0:0:
132,70,103171,2,0,L|133:103,2,33.75,2|2|2,0:0|0:0|0:0,0:0:0:0:
232,120,103969,2,0,L|230:81,1,33.75,2|2,0:0|0:0,0:0:0:0:
321,27,104500,2,0,P|324:84|329:110,1,78.75,2|0,0:0|0:0,0:0:0:0:
352,126,105209,6,0,P|382:128|420:120,2,54,2|2|2,0:0|0:0|0:0,0:0:0:0:
268,193,106007,2,0,P|241:189|214:191,2,54,2|2|2,0:0|0:0|0:0,0:0:0:0:
360,248,106804,2,0,P|390:250|428:242,1,54,2|2,0:0|0:0,0:0:0:0:
477,354,107336,2,0,P|430:334|365:365,1,126,2|0,0:0|0:0,0:0:0:0:
337,365,108045,6,0,P|340:324|333:278,2,80.9999975280763,2|2|2,0:0|0:0|0:0,0:0:0:0:
234,331,108842,2,0,P|231:290|238:244,2,80.9999975280763,2|2|2,0:0|0:0|0:0,0:0:0:0:
127,370,109640,2,0,P|128:195|90:24,1,350.99998928833,2|0,0:0|0:0,0:0:0:0:
0,89,110880,6,0,P|25:119|63:134,2,80.9999975280763,2|2|2,0:0|0:0|0:0,0:0:0:0:
142,197,111678,2,0,P|147:237|135:276,2,80.9999975280763,2|2|2,0:0|0:0|0:0,0:0:0:0:
229,65,112475,2,0,P|177:78|150:106,2,80.9999975280763,2|2|2,0:0|0:0|0:0,0:0:0:0:
327,115,113095,6,2,B|370:118|370:118|377:121|377:121|421:125,1,90,2|0,0:1|0:0,0:1:0:0:
414,113,113361,2,2,B|371:116|371:116|364:119|364:119|320:123,1,90,2|0,0:1|0:0,0:1:0:0:
227,175,113716,6,0,P|186:196|127:194,1,101.250003862381,2|2,0:0|0:0,0:0:0:0:
109,188,114247,1,2,0:0:0:0:
302,256,114513,6,0,P|343:277|402:275,1,101.250003862381,2|2,0:0|0:0,0:0:0:0:
420,269,115045,1,2,0:0:0:0:
216,322,115311,6,0,P|175:343|116:341,1,101.250003862381,2|2,0:0|0:0,0:0:0:0:
98,335,115842,2,0,P|117:255|0:185,1,236.250009012223,2|0,0:0|0:0,0:0:0:0:
26,275,116551,6,0,L|172:264,1,135,2|2,0:0|0:0,0:0:0:0:
183,263,117083,1,2,0:0:0:0:
47,165,117349,6,0,L|193:154,1,135,2|2,0:0|0:0,0:0:0:0:
204,153,117880,1,2,0:0:0:0:
68,55,118146,6,0,L|214:44,1,135,2|2,0:0|0:0,0:0:0:0:
225,43,118678,2,0,P|336:20|386:66,1,188.999994232178,2|0,0:0|0:0,0:0:0:0:
367,163,119387,6,0,P|352:216|383:294,1,135,2|2,0:0|0:0,0:0:0:0:
454,219,119918,1,2,0:0:0:0:
224,237,120184,6,0,P|239:290|208:368,1,135,2|2,0:0|0:0,0:0:0:0:
141,292,120716,1,2,0:0:0:0:
144,129,120982,6,0,B|97:68|17:109|27:175|53:236|169:217|248:138,1,350.99998928833,2|0,0:0|0:0,0:0:0:0:
283,52,122222,6,0,B|249:86|261:150|313:160|367:151|372:88|372:88|372:52|375:-5|473:-33|535:56|475:121|475:121|430:172|420:243|445:312|445:312|405:250|321:230|242:288|253:369,1,950.399997099609,2|0,0:0|0:0,3:0:0:0:
56,250,133564,6,0,P|134:278|250:256,1,202.500007724762,4|4,0:3|0:3,0:0:0:0:
277,237,133918,1,2,0:3:0:0:
400,339,134096,2,0,P|395:259|445:147,1,202.500007724762,4|4,0:3|0:3,0:0:0:0:
470,128,134450,1,4,0:3:0:0:
310,9,134627,1,6,0:3:0:0:
222,126,134804,1,4,0:3:0:0:
89,68,134982,6,0,P|40:102|69:235,1,202.500007724762,4|4,0:3|0:3,0:0:0:0:
91,237,135336,1,6,0:3:0:0:
217,187,135513,2,0,P|258:168|352:181,1,135.000005149842,4|2,0:3|3:0,0:0:0:0:
348,207,135779,2,0,P|307:226|213:213,1,135.000005149842,4|0,0:3|2:0,0:0:0:0:
185,315,136045,6,0,P|222:338|263:338,1,67.5000025749208,6|0,0:3|2:0,0:0:0:0:
345,365,136222,2,0,P|382:342|423:342,1,67.5000025749208,4|0,0:3|2:0,0:0:0:0:
469,255,136399,6,0,B|454:199|454:199|459:178|459:178|453:128,1,126,4|0,2:1|0:0,0:0:0:0:
386,68,137817,6,0,P|412:30|491:47,2,135,0|0|0,3:0|3:0|3:0,2:0:0:0:
295,170,138615,1,0,3:0:0:0:
265,176,138703,1,0,0:0:0:0:
134,100,138880,1,8,0:2:0:0:
134,100,139058,1,0,0:0:0:0:
134,100,139235,6,0,P|144:177|139:308,1,202.500007724762,4|4,0:3|0:3,0:0:0:0:
128,333,139589,1,2,0:3:0:0:
33,187,139766,2,0,P|124:203|238:197,1,202.500007724762,4|4,0:3|0:3,0:0:0:0:
265,184,140121,1,4,0:3:0:0:
410,119,140298,1,6,0:3:0:0:
509,239,140475,1,4,0:3:0:0:
405,362,140653,6,0,P|360:320|229:346,1,202.500007724762,4|4,0:3|0:3,0:0:0:0:
203,363,141007,1,6,0:3:0:0:
63,229,141184,2,0,P|69:148|56:71,1,135.000005149842,4|2,0:3|3:0,0:0:0:0:
23,98,141450,2,0,P|17:179|30:256,1,135.000005149842,0|0,0:0|2:0,0:0:0:0:
70,349,141716,6,0,P|110:335|130:312,1,67.5000025749208,6|0,0:3|2:0,0:0:0:0:
165,220,141893,2,0,P|205:234|225:257,1,67.5000025749208,4|0,0:3|2:0,0:0:0:0:
311,268,142070,6,0,B|356:269|356:269|392:278|392:278|396:281|396:281|437:274,1,126,4|0,2:1|3:0,0:0:0:0:
464,117,143488,6,0,B|424:127|424:127|420:126|420:126|391:148|391:148|346:157,1,126,8|0,0:3|3:0,1:0:0:0:
207,139,144906,6,0,B|213:192|213:192|218:197|218:197|208:244|208:244|211:266,1,126,4|0,2:3|3:0,0:0:0:0:
68,344,146323,6,0,L|65:270,1,72,8|0,2:3|3:0,0:0:0:0:
31,243,147210,1,0,3:0:0:0:
26,147,147387,1,8,0:2:0:0:
20,51,147564,1,0,3:0:0:0:
125,112,147741,6,0,B|178:126|178:126|189:121|189:121|252:119,1,126,4|0,2:3|3:0,0:0:0:0:
336,61,149159,6,0,L|414:67,1,72,8|0,2:3|3:0,0:0:0:0:
466,65,150045,1,0,3:0:0:0:
472,161,150222,1,8,0:2:0:0:
478,258,150399,1,0,3:0:0:0:
364,212,150577,6,0,B|376:281|376:281|379:283|379:283|383:339,1,126,4|0,2:3|3:0,0:0:0:0:
259,368,151994,6,0,L|182:354,1,72,8|0,2:3|3:0,0:0:0:0:
139,352,152880,1,0,0:0:0:0:
79,259,153058,1,8,0:2:0:0:
24,168,153235,1,0,0:0:0:0:
170,169,153412,5,0,2:0:0:0:
29,321,156245,6,0,P|99:319|173:327,1,135.000005149842,8|0,3:0|2:0,0:0:0:0:
206,294,156500,1,0,0:0:0:0:
206,294,156585,2,0,P|252:327|321:297,1,135.000005149842,2|4,0:3|0:3,0:0:0:0:
324,115,157012,1,0,0:0:0:0:
324,115,157097,2,0,P|278:82|209:112,1,135.000005149842,4|6,0:3|0:3,0:0:0:0:
264,203,157438,1,4,0:3:0:0:
418,244,157608,6,0,L|425:99,1,135.000005149842,8|0,3:0|2:0,0:0:0:0:
358,37,157864,1,0,0:0:0:0:
358,37,157949,2,0,P|301:42|276:54,1,67.5000025749208,2|0,0:3|2:0,0:0:0:0:
285,152,158120,2,0,P|228:147|194:77,1,135.000005149842,4|2,0:3|3:0,0:0:0:0:
89,61,158375,1,6,0:3:0:0:
89,61,158460,1,6,0:3:0:0:
21,171,158631,1,6,0:3:0:0:
117,268,158801,1,4,0:3:0:0:
49,352,158972,6,0,P|88:312|172:328,1,135.000005149842,8|0,3:0|2:0,0:0:0:0:
197,351,159227,1,0,0:0:0:0:
197,351,159313,2,0,P|236:307|310:313,1,135.000005149842,2|4,0:3|0:3,0:0:0:0:
490,267,159739,1,4,0:3:0:0:
490,267,159824,2,0,P|451:223|377:229,1,135.000005149842,4|6,0:3|0:3,0:0:0:0:
245,167,160165,1,4,0:3:0:0:
98,250,160335,6,0,B|83:209|83:209|94:107,1,135.000005149842,8|0,3:0|2:0,0:0:0:0:
75,22,160591,1,0,0:0:0:0:
75,22,160676,2,0,L|157:32,1,67.5000025749208,2|0,0:3|2:0,0:0:0:0:
233,104,160847,2,0,L|370:86,1,135.000005149842,4|2,0:3|3:0,0:0:0:0:
444,31,161102,1,4,0:3:0:0:
444,31,161188,1,4,0:3:0:0:
512,148,161358,1,6,0:3:0:0:
411,273,161529,1,4,0:3:0:0:
480,362,161699,6,0,L|461:228,1,135.000005149842,8|0,3:0|2:0,0:0:0:0:
426,196,161955,1,0,0:0:0:0:
426,196,162040,2,0,P|362:221|334:171,1,135.000005149842,2|4,0:3|0:3,0:0:0:0:
168,77,162466,1,4,0:3:0:0:
168,77,162551,2,0,P|204:26|260:54,1,135.000005149842,4|6,0:3|0:3,0:0:0:0:
227,175,162892,1,4,0:3:0:0:
94,193,163063,6,0,B|48:182|48:182|33:228|57:283,1,135.000005149842,8|0,3:0|2:0,0:0:0:0:
104,357,163318,1,0,0:0:0:0:
104,357,163404,2,0,P|146:354|185:364,1,67.5000025749208,2|0,0:3|2:0,0:0:0:0:
253,286,163574,2,0,P|288:332|362:336,1,135.000005149842,4|2,0:3|3:0,0:0:0:0:
440,281,163830,1,4,0:3:0:0:
440,281,163915,1,4,0:3:0:0:
502,130,164085,1,6,0:3:0:0:
386,25,164256,1,4,0:3:0:0:
253,105,164426,6,0,B|270:179|270:179|265:200|265:200|280:277,1,176.40000215332,8|0,3:0|0:0,2:0:0:0:
444,343,167154,6,0,P|389:348|304:366,1,135.000005149842,8|0,3:0|3:0,0:0:0:0:
221,330,167409,1,0,0:0:0:0:
221,330,167495,2,0,L|215:256,1,67.5000025749208,2|0,0:3|2:0,0:0:0:0:
173,116,167665,2,0,P|141:173|171:229,1,135.000005149842,4|2,0:3|3:0,0:0:0:0:
33,250,167921,1,4,0:3:0:0:
33,250,168006,2,0,P|65:307|35:363,2,135.000005149842,4|6|4,0:3|0:3|0:3,0:0:0:0:
7,152,168517,6,0,P|46:149|75:158,1,67.5000025749208,8|0,0:3|2:0,0:0:0:0:
31,20,168688,2,0,P|66:36|86:59,1,67.5000025749208,2|4,0:2|0:3,0:0:0:0:
166,118,168858,6,0,P|199:121|231:113,1,67.5000025749208,2|0,0:3|2:0,0:0:0:0:
190,249,169029,2,0,P|220:236|243:211,1,67.5000025749208,4|0,0:3|2:0,0:0:0:0:
332,151,169199,6,0,P|371:148|400:157,1,67.5000025749208,2|4,3:0|0:3,0:0:0:0:
356,19,169370,2,0,P|391:35|411:58,1,67.5000025749208,4|0,0:3|2:0,0:0:0:0:
512,131,169540,5,4,0:3:0:0:
512,131,169710,1,2,0:3:0:0:
512,131,169881,6,0,B|493:182|493:182|501:262,1,135.000005149842,8|0,3:0|3:0,0:0:0:0:
461,366,170137,1,0,0:0:0:0:
461,366,170222,2,0,L|385:362,1,67.5000025749208,2|0,0:3|2:0,0:0:0:0:
300,310,170392,2,0,P|356:320|401:255,1,135.000005149842,4|2,0:3|3:0,0:0:0:0:
296,190,170648,1,4,0:3:0:0:
296,190,170733,2,0,P|240:180|195:245,2,135.000005149842,4|6|4,0:3|0:3|0:3,0:0:0:0:
504,137,171245,6,0,L|512:61,1,67.5000025749208,8|0,0:3|2:0,0:0:0:0:
406,67,171415,2,0,L|414:-9,1,67.5000025749208,2|4,0:2|0:3,0:0:0:0:
361,181,171585,6,0,L|369:105,1,67.5000025749208,2|0,0:3|2:0,0:0:0:0:
263,111,171756,2,0,L|271:35,1,67.5000025749208,4|0,0:3|2:0,0:0:0:0:
206,216,171926,6,0,L|214:140,1,67.5000025749208,2|4,3:0|0:3,0:0:0:0:
108,146,172097,2,0,L|116:70,1,67.5000025749208,4|0,0:3|2:0,0:0:0:0:
54,276,172267,5,2,0:2:0:0:
54,276,172438,1,2,0:3:0:0:
54,276,172608,6,0,B|73:300|84:336|84:336|115:317|162:308,1,135.000005149842,8|0,3:0|3:0,0:0:0:0:
237,360,172864,1,0,0:0:0:0:
237,360,172949,2,0,P|244:312|242:283,1,67.5000025749208,2|0,0:3|2:0,0:0:0:0:
230,169,173120,2,0,P|311:171|370:157,1,135.000005149842,4|2,0:3|3:0,0:0:0:0:
490,222,173375,1,4,0:3:0:0:
490,222,173460,2,0,P|423:208|356:212,2,135.000005149842,4|6|4,0:3|0:3|0:3,0:0:0:0:
500,54,173972,6,0,P|462:72|424:74,1,67.5000025749208,8|0,0:3|2:0,0:0:0:0:
343,49,174142,2,0,P|372:33|405:28,1,67.5000025749208,2|8,0:2|0:3,0:0:0:0:
380,216,174313,6,0,P|338:212|304:195,1,67.5000025749208,10|0,0:3|2:0,0:0:0:0:
246,133,174483,2,0,P|279:133|310:145,1,67.5000025749208,4|0,0:3|2:0,0:0:0:0:
205,329,174654,6,0,P|170:305|149:273,1,67.5000025749208,2|4,3:0|0:3,0:0:0:0:
130,190,174824,2,0,P|158:207|179:233,1,67.5000025749208,2|0,0:2|2:0,0:0:0:0:
54,344,174995,5,6,0:3:0:0:
54,344,175165,1,12,3:0:0:0:
16,231,175335,6,0,P|61:193|66:230,1,126,8|0,3:0|0:0,0:0:0:0:
162,376,178042,6,0,P|256:344|350:376,1,202.500007724762,10|0,0:3|2:0,0:0:0:0:
210,301,178405,2,0,P|173:265|165:205,1,101.250003862381,10|0,0:3|2:0,0:0:0:0:
347,206,178632,1,10,0:3:0:0:
347,216,178769,2,0,P|337:265|301:300,1,101.250003862381,10|0,0:3|2:0,0:0:0:0:
256,221,178996,6,0,L|256:19,1,202.5,2|0,0:2|2:0,0:0:0:0:
350,16,179496,6,0,P|256:48|162:16,1,202.500007724762,10|0,0:3|2:0,0:0:0:0:
302,91,179860,2,0,P|338:126|346:186,1,101.250003862381,10|0,0:3|2:0,0:0:0:0:
164,175,180087,1,10,0:3:0:0:
164,175,180223,2,0,P|174:126|210:91,1,101.250003862381,10|0,0:3|2:0,0:0:0:0:
256,170,180451,6,0,L|256:372,1,202.5,2|0,0:2|2:0,0:0:0:0:
149,362,180951,6,0,P|66:337|64:234,1,202.500007724762,6|0,0:3|2:0,0:0:0:0:
203,178,181314,2,0,P|203:223|169:272,1,101.250003862381,6|0,0:3|2:0,0:0:0:0:
34,124,181542,1,6,0:3:0:0:
34,124,181678,2,0,P|72:101|132:106,1,101.250003862381,6|0,0:3|2:0,0:0:0:0:
262,110,181905,6,0,B|269:141|269:141|219:137|219:137|263:21,1,202.5,2|0,0:2|2:0,0:0:0:0:
361,11,182405,6,0,P|444:36|446:139,1,202.500007724762,6|0,0:3|2:0,0:0:0:0:
307,195,182769,2,0,P|307:150|341:101,1,101.250003862381,6|0,0:3|2:0,0:0:0:0:
476,249,182996,1,6,0:3:0:0:
476,249,183132,2,0,P|437:271|377:266,1,101.250003862381,6|0,0:3|2:0,0:0:0:0:
248,263,183360,6,0,B|241:232|241:232|291:236|291:236|247:352,1,202.5,2|0,0:2|2:0,0:0:0:0:
341,368,183860,6,0,P|411:356|426:236,1,202.500007724762,10|0,0:3|2:0,0:0:0:0:
317,149,184223,2,0,L|328:256,1,101.250003862381,10|0,0:3|2:0,0:0:0:0:
422,128,184451,1,10,0:3:0:0:
422,128,184587,2,0,L|432:27,1,101.250003862381,10|0,0:3|2:0,0:0:0:0:
257,64,184814,6,0,B|224:157|290:187|255:261,1,202.5,2|0,0:2|2:0,0:0:0:0:
171,368,185314,6,0,P|101:356|86:236,1,202.500007724762,10|0,0:3|2:0,0:0:0:0:
195,149,185678,2,0,L|184:256,1,101.250003862381,10|0,0:3|2:0,0:0:0:0:
90,128,185905,1,10,0:3:0:0:
90,128,186042,2,0,L|79:27,1,101.250003862381,10|0,0:3|2:0,0:0:0:0:
255,64,186269,6,0,B|288:157|222:187|257:261,1,202.5,2|0,0:2|2:0,0:0:0:0:
324,356,186769,6,0,P|254:296|187:359,1,202.500007724762,6|0,0:3|2:0,0:0:0:0:
347,270,187132,2,0,B|396:254|396:254|345:229,1,101.250003862381,6|0,0:3|2:0,0:0:0:0:
160,232,187360,1,6,0:3:0:0:
160,232,187496,2,0,B|116:254|116:254|165:270,1,101.250003862381,6|0,0:3|2:0,0:0:0:0:
306,135,187723,6,0,B|321:112|345:92|345:92|256:96|167:92|167:92|190:112|206:134,1,294.524994157677,6|0,0:3|2:0,0:0:0:0:
258,217,188314,6,0,B|268:240|244:248|252:280,1,63,2|2,2:0|2:0,0:0:0:0:
337,367,189678,6,0,B|388:347|407:298|407:298|426:347|477:367,1,202.500007724762,10|0,0:3|2:0,0:0:0:0:
472,173,190042,2,0,P|493:204|503:268,1,101.250003862381,10|0,0:3|2:0,0:0:0:0:
310,266,190269,1,10,0:3:0:0:
310,266,190405,2,0,P|315:216|341:172,1,101.250003862381,10|0,0:3|2:0,0:0:0:0:
242,119,190632,6,0,P|271:175|256:316,1,202.5,2|0,0:2|2:0,0:0:0:0:
175,367,191132,6,0,B|124:347|105:298|105:298|86:347|35:367,1,202.500007724762,10|0,0:3|2:0,0:0:0:0:
40,173,191496,2,0,P|19:204|9:268,1,101.250003862381,10|0,0:3|2:0,0:0:0:0:
202,266,191723,1,10,0:3:0:0:
202,266,191860,2,0,P|196:216|170:172,1,101.250003862381,10|0,0:3|2:0,0:0:0:0:
270,119,192087,6,0,P|241:175|256:316,1,202.5,2|0,0:2|2:0,0:0:0:0:
377,355,192587,6,0,B|474:329|474:329|448:230,1,202.500007724762,6|0,0:3|2:0,0:0:0:0:
471,118,192951,2,0,L|373:144,1,101.250003862381,6|0,0:3|2:0,0:0:0:0:
349,257,193178,1,6,0:3:0:0:
349,257,193314,2,0,L|252:284,1,101.250003862381,6|0,0:3|2:0,0:0:0:0:
169,362,193542,6,0,B|147:277|147:277|154:240|154:240|134:163,1,202.5,2|0,0:2|2:0,0:0:0:0:
100,37,194042,6,0,B|2:63|2:63|28:161,1,202.500007724762,6|0,0:3|2:0,0:0:0:0:
5,273,194405,2,0,L|102:246,1,101.250003862381,6|0,0:3|2:0,0:0:0:0:
127,134,194632,1,6,0:3:0:0:
127,134,194769,2,0,L|224:107,1,101.250003862381,6|0,0:3|2:0,0:0:0:0:
307,30,194996,6,0,B|329:115|329:115|321:151|321:151|342:228,1,202.5,2|0,0:2|2:0,0:0:0:0:
230,241,195496,6,0,P|168:194|107:278,1,202.500007724762,10|0,0:3|2:0,0:0:0:0:
0,345,195860,2,0,P|45:326|111:366,1,101.250003862381,10|0,0:3|2:0,0:0:0:0:
195,343,196087,1,10,0:3:0:0:
195,343,196223,2,0,P|240:361|306:321,1,101.250003862381,10|0,0:3|2:0,0:0:0:0:
243,261,196451,6,0,B|244:171|163:171|162:68,1,202.5,2|0,0:2|2:0,0:0:0:0:
282,55,196951,6,0,P|344:8|405:92,1,202.500007724762,10|0,0:3|2:0,0:0:0:0:
512,159,197314,2,0,P|477:124|401:135,1,101.250003862381,10|0,0:3|2:0,0:0:0:0:
317,157,197542,1,10,0:3:0:0:
317,157,197678,2,0,P|282:192|206:181,1,101.250003862381,10|0,0:3|2:0,0:0:0:0:
230,91,197905,6,0,B|229:181|148:181|149:271,1,202.5,2|0,0:2|2:0,0:0:0:0:
203,364,198405,6,0,L|1:364,1,202.500007724762,6|0,0:3|2:0,0:0:0:0:
53,187,198769,2,0,P|21:150|15:100,1,101.250003862381,6|0,0:3|2:0,0:0:0:0:
190,100,198996,1,6,0:3:0:0:
190,100,199132,2,0,P|184:150|152:188,1,101.250003862381,6|0,0:3|2:0,0:0:0:0:
7,274,199360,6,0,P|102:245|197:274,1,202.5,2|0,0:2|2:0,0:0:0:0:
306,358,199860,6,0,L|508:358,1,202.500007724762,6|0,0:3|2:0,0:0:0:0:
455,172,200223,2,0,P|487:134|493:84,1,101.250003862381,6|0,0:3|2:0,0:0:0:0:
318,85,200451,1,6,0:3:0:0:
318,85,200587,2,0,P|323:134|356:172,1,101.250003862381,6|0,0:3|2:0,0:0:0:0:
502,259,200814,6,0,P|407:230|306:259,1,202.5,8|0,0:3|2:0,0:0:0:0:
324,352,201314,6,0,B|247:404|157:313|204:235|239:218|300:200|340:254|340:254|384:309|485:320|589:217|495:51|376:93|339:141|339:141|361:88|345:26|270:1|199:37|203:110|225:142,1,1053.2249879468,4|0,2:1|0:0,0:0:0:0:
127,185,209314,6,0,B|200:132|146:22|75:53|-16:87|-18:201|-6:275|63:348|225:324|225:324|222:270|256:227|321:237|368:261|368:261|409:286|466:270|506:242|505:113|390:122|390:122|345:131|288:113|287:16|365:-6|405:31,1,1300.1400289643,2|0,2:0|0:0,0:0:0:0:
487,130,217314,6,0,B|501:73|457:38|406:38|355:68|376:141|398:172|398:172|464:271|404:344|322:361|259:327|244:256|244:256|198:294|116:346|-44:276|-53:68|92:-19|234:14|272:125,1,1228.38751686934,2|0,0:0|0:0,0:0:0:0:
320,24,225314,6,0,B|431:112|378:268|216:268|174:166|174:166|149:97|99:69|3:114|24:202|82:228|82:228|130:262|156:340|86:391|14:362|5:312|5:312|-6:251|58:219|105:234|161:315|161:315|206:376|300:350,1,1318.27504123633,2|0,2:0|0:0,0:0:0:0:
378,293,233314,6,0,P|454:273|488:342,1,169.199997418213,2|2,0:0|0:0,0:0:0:0:
342,193,234814,2,0,P|397:248|354:312,1,169.199997418213,2|2,0:0|0:0,0:0:0:0:
414,116,236314,2,0,P|393:192|316:186,1,169.199997418213,2|2,0:0|0:0,0:0:0:0:
508,142,237814,2,0,P|432:162|397:93,1,169.199997418213,2|2,0:0|0:0,0:0:0:0:
397,92,239314,1,2,0:0:0:0:
402,93,241314,6,0,P|374:54|323:129,1,168.75,2|2,0:0|0:0,0:0:0:0:
480,225,242814,2,0,P|412:264|396:194,1,168.75,2|2,0:0|0:0,0:0:0:0:
313,356,244314,2,0,P|279:289|349:272,1,168.75,2|2,0:0|0:0,0:0:0:0:
212,160,245814,2,0,P|176:226|247:245,1,168.75,2|2,0:0|0:0,0:0:0:0:
245,246,247314,1,2,0:0:0:0:
245,246,249314,6,0,P|288:280|320:201,1,168.75,2|2,0:0|0:0,0:0:0:0:
179,188,250814,2,0,P|159:239|244:245,1,168.75,2|2,0:0|0:0,0:0:0:0:
213,107,252314,2,0,P|158:104|178:187,1,168.75,2|2,0:0|0:0,0:0:0:0:
301,118,253814,2,0,P|302:86|213:110,1,168.75,2|2,0:0|0:0,0:0:0:0:
326,207,255314,1,2,0:0:0:0:
369,240,257314,6,0,P|254:236|198:240,1,168.75,2|2,0:0|0:0,0:0:0:0:
232,338,258814,2,0,P|304:291|372:237,1,168.75,2|2,0:0|0:0,0:0:0:0:
286,178,260314,2,0,P|255:258|230:342,1,168.75,2|2,0:0|0:0,0:0:0:0:
339,336,261814,2,0,P|320:255|285:177,1,168.75,2|2,0:0|0:0,0:0:0:0:
200,239,263314,6,0,P|266:286|339:336,1,168.75,2|0,0:0|0:0,0:0:0:0:
448,346,265314,6,0,B|518:341|527:293|529:256|506:221|469:202|419:220|419:220|369:237|264:224|266:148|278:28|317:-18|394:-24|483:-32|493:80|470:139|412:149|358:144|279:132|220:56|220:56|182:-10|92:-10|34:46|49:144|91:187|203:172|203:172|246:245|267:345|173:419|42:414|-5:326|10:232|10:232|68:231|99:268,1,1881.29250401887
