osu file format v14

[General]
AudioFilename: huuuuge.mp3
AudioLeadIn: 0
PreviewTime: 127915
Countdown: 0
SampleSet: Soft
StackLeniency: 0.7
Mode: 0
LetterboxInBreaks: 0
WidescreenStoryboard: 1

[Editor]
Bookmarks: 56584,155679,177552,201171,265162
DistanceSpacing: 0.5
BeatDivisor: 16
GridSize: 4
TimelineZoom: 2.799999

[Metadata]
Title:Huge (DJ GURL POWER REMIX)
TitleUnicode:Huge (DJ GURL POWER REMIX)
Artist:GFOTY
ArtistUnicode:GFOTY
Creator:Ancelysia
Version:196cm
Source:
Tags:ancel silverboxer GFOTYBUCKS RED CUPS ag a g cook pc music english electronic experimental avantgarde avant-garde glitch house bassline hardstyle Girlfriend Of The Year RECORDS
BeatmapID:2354779
BeatmapSetID:1127019

[Difficulty]
HPDrainRate:5.2
CircleSize:3
OverallDifficulty:8.5
ApproachRate:9.4
SliderMultiplier:2
SliderTickRate:1

[Events]
//Background and Video events
0,0,"background.jpg",0,0
//Break Periods
2,34323,36618
2,40879,45125
//Storyboard Layer 0 (Background)
//Storyboard Layer 1 (Fail)
//Storyboard Layer 2 (Pass)
//Storyboard Layer 3 (Foreground)
//Storyboard Layer 4 (Overlay)
//Storyboard Sound Samples

[TimingPoints]
298,354.43187523998,4,2,3,80,1,0
298,-333.333333333333,7,2,3,60,0,0
323,-454.545454545455,7,2,2,40,0,0
3133,-454.545454545455,7,2,2,40,0,0
5968,-333.333333333333,7,2,2,40,0,0
8804,-454.545454545455,7,2,2,40,0,0
11285,-50,7,2,2,40,0,0
11639,-151.515151515152,7,2,2,40,0,0
22627,-50,7,2,2,40,0,0
22981,-400,4,2,2,40,0,0
23779,-200,4,2,2,40,0,0
24576,-133.333333333333,4,2,2,40,0,0
30239,-133.333333333333,4,2,2,50,0,0
31479,-133.333333333333,4,2,2,60,0,0
32275,-133.333333333333,4,2,2,70,0,0
33072,-133.333333333333,4,2,2,80,0,0
37158,-285.714285714286,4,3,0,100,0,0
39639,-100,4,3,0,20,0,0
45665,-133.333333333333,4,1,2,80,0,0
46728,-66.6666666666667,4,1,2,80,0,0
47083,-133.333333333333,4,1,2,80,0,0
48146,-66.6666666666667,4,1,2,80,0,0
48500,-133.333333333333,4,1,2,80,0,0
49564,-66.6666666666667,4,1,2,80,0,0
49918,-133.333333333333,4,1,2,80,0,0
50981,-66.6666666666667,4,1,2,80,0,0
51336,-133.333333333333,4,1,2,80,0,0
52399,-66.6666666666667,4,1,2,80,0,0
52753,-133.333333333333,4,1,2,80,0,0
53817,-66.6666666666667,4,1,2,80,0,0
54171,-133.333333333333,4,1,2,80,0,0
55234,-66.6666666666667,4,1,2,80,0,0
55412,-266.666666666667,4,1,2,80,0,0
57007,-50,4,1,2,80,0,0
68171,-285.714285714286,4,1,3,80,0,0
69766,-500,4,1,2,80,0,0
70475,-111.111111111111,4,1,2,80,0,0
71184,-66.6666666666667,4,1,2,80,0,0
72602,-100,4,1,2,80,0,0
75437,-50,4,1,2,80,0,0
75703,-400,4,1,2,30,0,0
76855,-66.6666666666667,4,1,2,80,0,0
78273,-100,4,1,2,80,0,0
81108,-25,4,2,2,80,0,0
81994,-200,4,2,2,80,0,0
82526,-66.6666666666667,4,1,2,80,0,0
83943,-100,4,1,2,80,0,0
86779,-50,4,1,2,80,0,0
88197,-66.6666666666667,4,1,2,80,0,0
89614,-133.333333333333,4,1,2,80,0,0
90323,-133.333333333333,4,1,0,60,0,0
90559,-133.333333333333,4,1,2,40,0,0
90766,-133.333333333333,4,1,2,20,0,0
91032,-434.782608695652,7,2,2,80,0,0
91076,-434.782608695652,7,2,0,60,0,0
102374,-151.515151515152,4,2,2,80,0,0
108045,-133.333333333333,4,2,2,80,0,0
113716,-151.515151515152,4,2,2,80,0,0
122222,-370.37037037037,7,2,4,80,0,0
126387,-227.272727272727,7,2,4,80,0,0
127893,-200,7,2,4,20,0,0
130728,-59.5947556615018,4,2,0,10,0,0
132146,-59.5238095238095,4,2,0,25,0,0
132501,-59.5238095238095,4,2,0,40,0,0
132855,-59.5238095238095,4,2,0,55,0,0
133121,-59.5238095238095,4,2,0,70,0,0
133564,-33.3333333333333,4,1,2,90,0,0
136399,-1000,4,1,0,80,0,0
139235,-33.3333333333333,4,1,2,90,0,0
142070,-833.333333333333,4,1,0,100,0,0
144905,-400,4,1,0,80,0,0
147741,-250,4,1,0,80,0,0
150576,-200,4,1,0,80,0,0
153411,-200,4,1,0,50,0,0
156245,340.909090909091,4,1,2,100,1,0
156245,-400,4,1,2,100,0,0
156529,-40,4,1,2,100,0,0
157608,-400,4,1,2,100,0,0
157892,-40,4,1,2,100,0,0
158972,-400,4,1,2,100,0,0
159256,-40,4,1,2,100,0,0
160335,-400,4,1,2,100,0,0
160620,-40,4,1,2,100,0,0
161699,-400,4,1,2,100,0,0
161983,-40,4,1,2,100,0,0
163063,-400,4,1,2,100,0,0
163347,-40,4,1,2,100,0,0
164256,-84.0336134453781,4,1,2,100,0,0
164852,-84.0336134453781,4,1,2,50,0,0
167154,-400,4,1,2,100,0,0
167438,-40,4,1,2,100,0,0
169860,-400,4,1,2,100,0,0
170144,-40,4,1,2,100,0,0
172587,-400,4,1,2,100,0,0
172871,-40,4,1,2,100,0,0
175165,-400,4,1,2,100,0,0
175762,-400,4,1,2,20,0,0
178042,363.636363636364,4,1,2,100,1,0
178042,-50,3,1,2,100,0,0
178996,-101.010101010101,3,1,2,100,0,0
179496,-50,3,1,2,100,0,0
180451,-101.010101010101,3,1,2,100,0,0
180951,-50,3,1,2,100,0,0
181905,-101.010101010101,3,1,2,100,0,0
182405,-50,3,1,2,100,0,0
183360,-101.010101010101,3,1,2,100,0,0
183860,-50,3,1,2,100,0,0
184814,-101.010101010101,3,1,2,100,0,0
185314,-50,3,1,2,100,0,0
186269,-101.010101010101,3,1,2,100,0,0
186769,-50,3,1,2,100,0,0
187723,-500,3,1,2,100,0,0
189678,-50,3,1,2,100,0,0
190632,-202.020202020202,3,1,2,100,0,0
191132,-50,3,1,2,100,0,0
192087,-202.020202020202,3,1,2,100,0,0
192587,-50,3,1,2,100,0,0
193542,-202.020202020202,3,1,2,100,0,0
194042,-50,3,1,2,100,0,0
194996,-202.020202020202,3,1,2,100,0,0
195496,-50,3,1,2,100,0,0
196451,-202.020202020202,3,1,2,100,0,0
196951,-50,3,1,2,100,0,0
197905,-202.020202020202,3,1,2,100,0,0
198405,-50,3,1,2,100,0,0
199360,-202.020202020202,3,1,2,100,0,0
199860,-50,3,1,2,100,0,0
200814,-242.130750605327,3,1,2,100,0,0
201087,-242.130750605327,3,1,2,20,0,0
201314,1000,4,2,3,80,1,0
201314,-162.60162601626,3,2,3,80,0,0
201689,-162.60162601626,3,2,0,60,0,0
202189,-162.60162601626,3,2,2,40,0,0
202689,-162.60162601626,3,2,0,20,0,0
203189,-162.60162601626,3,2,2,10,0,0
205689,-162.60162601626,3,2,0,15,0,0
206439,-162.60162601626,3,2,2,20,0,0
207189,-162.60162601626,3,2,0,25,0,0
207939,-162.60162601626,3,2,2,30,0,0
208689,-162.60162601626,3,2,0,30,0,0
209314,-219.78021978022,4,1,2,50,0,0
209439,-219.78021978022,4,1,0,30,0,0
209814,-219.78021978022,4,1,2,35,0,0
210064,-219.78021978022,4,1,3,40,0,0
210314,-219.78021978022,4,1,0,45,0,0
210564,-219.78021978022,4,1,2,50,0,0
210814,-219.78021978022,4,1,3,55,0,0
211064,-219.78021978022,4,1,0,60,0,0
211314,-219.78021978022,4,1,2,65,0,0
211564,-219.78021978022,4,1,3,70,0,0
211814,-219.78021978022,4,1,0,75,0,0
212064,-219.78021978022,4,1,2,80,0,0
212314,-219.78021978022,4,1,3,85,0,0
212564,-219.78021978022,4,1,0,90,0,0
212814,-219.78021978022,4,1,2,95,0,0
213064,-219.78021978022,4,1,3,100,0,0
213314,-219.78021978022,4,2,0,30,0,0
233314,-200,3,2,0,30,0,0
265314,-176.991150442478,3,2,0,50,0,0
268564,-176.991150442478,3,1,3,80,0,0
268714,-176.991150442478,3,2,0,50,0,0
268753,-176.991150442478,3,1,3,80,0,0
268889,-176.991150442478,3,2,0,50,0,0
277314,-176.991150442478,3,2,3,45,0,0
278314,-176.991150442478,3,2,0,40,0,0
279314,-176.991150442478,3,2,3,35,0,0
280314,-176.991150442478,3,2,0,30,0,0
281314,-176.991150442478,3,2,3,25,0,0
282314,-176.991150442478,3,2,0,20,0,0
282939,-176.991150442478,3,2,0,5,0,0

[Colours]
Combo1 : 255,20,55
Combo2 : 74,134,255
Combo3 : 192,190,225
Combo4 : 192,192,192

[HitObjects]
44,252,298,6,0,B|125:200|255:248|176:348|301:374|369:334,1,359.999989013672,4|2,0:0|0:0,0:0:0:0:
291,220,3133,2,0,P|204:207|129:345,1,264.000008056641,2|0,0:0|0:0,0:0:0:0:
336,68,5968,6,0,B|260:54|183:140|183:140|130:40|38:43,1,359.999989013672,2|2,3:2|0:0,0:0:0:0:
43,191,8804,2,0,P|143:167|295:223,1,264.000008056641,2|2,0:0|0:0,0:0:0:0:
500,336,11285,6,2,B|478:368|481:383|481:383|478:368|440:340,1,100,2|0,0:0|0:0,0:0:0:0:
428,248,11639,6,0,P|376:224|272:312,1,197.999999395752,2|2,0:0|0:0,0:0:0:0:
437,257,12437,2,0,P|385:276|280:192,1,197.999999395752,2|2,0:0|0:0,0:0:0:0:
374,98,13234,2,0,P|390:134|374:191,2,98.999999697876,2|2|2,0:0|0:0|0:0,0:0:0:0:
192,44,14475,6,0,P|211:95|128:196,1,197.999999395752,2|2,0:0|0:0,0:0:0:0:
40,220,15272,2,0,P|91:199|193:278,1,197.999999395752,2|2,0:0|0:0,0:0:0:0:
136,336,16070,2,0,P|87:335|50:304,2,98.999999697876,2|2|2,0:0|0:0|0:0,0:0:0:0:
396,336,17310,6,0,P|415:285|320:180,1,197.999999395752,2|2,0:0|0:0,0:0:0:0:
264,252,18108,2,0,P|315:271|417:181,1,197.999999395752,2|2,0:0|0:0,0:0:0:0:
294,93,18905,2,0,P|295:142|326:179,2,98.999999697876,2|2|2,0:0|0:0|0:0,0:0:0:0:
48,104,20146,6,0,P|100:120|201:33,1,197.999999395752,2|2,0:0|0:0,0:0:0:0:
248,160,20943,2,0,P|299:141|401:231,1,197.999999395752,2|2,0:0|0:0,0:0:0:0:
468,128,21741,2,0,P|467:79|436:42,2,98.999999697876,2|2|2,0:0|0:0|0:0,0:0:0:0:
20,56,22627,6,2,B|42:24|39:9|39:9|42:24|80:52,1,100,2|0,0:0|0:0,0:0:0:0:
0,336,22981,6,0,L|4:292,1,37.5,2|2,0:0|0:0,0:0:0:0:
12,288,23513,1,2,0:0:0:0:
140,336,23779,6,0,L|124:256,1,75,2|2,0:0|0:0,0:0:0:0:
108,240,24310,1,2,0:0:0:0:
232,352,24576,6,0,L|252:232,1,112.500004291535,2|2,0:0|0:0,0:0:0:0:
276,212,25108,1,2,0:0:0:0:
464,336,25817,5,2,0:0:0:0:
460,315,26082,1,2,0:0:0:0:
457,294,26348,1,2,0:0:0:0:
308,216,26614,5,2,0:0:0:0:
312,190,26880,1,2,0:0:0:0:
316,165,27146,1,2,0:0:0:0:
472,104,27412,5,2,0:0:0:0:
467,72,27677,1,2,0:0:0:0:
462,42,27943,1,2,0:0:0:0:
256,360,28652,5,2,0:0:0:0:
204,353,28918,1,2,0:0:0:0:
167,323,29184,1,2,0:0:0:0:
184,123,29450,5,2,0:0:0:0:
209,176,29715,1,2,0:0:0:0:
197,236,29981,1,2,0:0:0:0:
0,334,30247,5,2,0:0:0:0:
40,274,30513,1,2,0:0:0:0:
107,251,30779,1,2,0:0:0:0:
432,264,31488,5,2,0:0:0:0:
472,314,31753,1,2,0:0:0:0:
478,381,32019,1,2,0:0:0:0:
319,303,32285,5,2,0:0:0:0:
241,315,32551,1,2,0:0:0:0:
172,282,32817,1,2,0:0:0:0:
340,184,33082,5,2,0:0:0:0:
373,100,33348,1,2,0:0:0:0:
450,50,33614,1,2,0:0:0:0:
450,50,37158,6,0,B|191:58|347:328|89:328,1,489.999985046387,4|0,2:3|0:0,2:0:0:0:
76,349,39994,1,0,0:0:0:0:
44,44,45665,6,0,P|92:64|104:104,1,75,4|0,0:3|2:0,3:0:0:0:
184,88,45931,2,0,P|190:139|162:169,1,75,4|0,0:3|2:0,3:0:0:0:
44,344,46196,2,0,P|85:312|125:322,1,75,4|0,0:3|2:0,3:0:0:0:
152,244,46462,2,0,P|200:264|212:304,1,75,4|0,0:3|2:0,3:0:0:0:
280,340,46728,6,0,L|376:332,1,75.0000028610231,4|0,0:3|2:0,3:0:0:0:
464,244,46905,2,0,L|389:237,1,75.0000028610231,4|0,0:3|2:0,3:0:0:0:
296,120,47083,6,0,L|300:36,1,75.0000028610231,8|0,0:3|2:0,3:0:0:0:
456,136,47348,2,0,L|452:220,1,75.0000028610231,8|0,0:3|2:0,3:0:0:0:
384,48,47614,2,0,L|468:52,1,75.0000028610231,8|0,0:3|2:0,3:0:0:0:
368,208,47880,2,0,L|284:204,1,75.0000028610231,8|0,0:3|2:0,3:0:0:0:
76,116,48146,6,0,P|72:60|100:20,1,75.0000028610231,8|0,0:3|2:0,3:0:0:0:
204,108,48323,2,0,P|208:164|180:204,1,75.0000028610231,8|0,0:3|2:0,3:0:0:0:
112,248,48500,6,0,L|32:244,1,75.0000028610231,4|0,0:3|2:0,3:0:0:0:
208,328,48766,2,0,L|128:332,1,75.0000028610231,4|0,0:3|2:0,3:0:0:0:
304,196,49032,2,0,L|224:192,1,75.0000028610231,4|0,0:3|2:0,3:0:0:0:
364,368,49298,2,0,L|284:372,1,75.0000028610231,4|0,0:3|2:0,3:0:0:0:
440,200,49564,6,0,P|444:256|416:296,1,75.0000028610231,4|0,0:3|2:0,3:0:0:0:
324,288,49741,2,0,P|320:232|348:192,1,75.0000028610231,4|0,0:3|2:0,3:0:0:0:
422,44,49918,6,0,P|430:80|420:115,1,75,8|0,0:3|2:0,3:0:0:0:
249,201,50184,2,0,P|261:166|290:143,1,75,8|0,0:3|2:0,3:0:0:0:
473,173,50450,2,0,P|428:193|395:188,1,75.0000028610231,8|0,0:3|2:0,3:0:0:0:
279,62,50715,2,0,P|317:65|348:85,1,75.0000028610231,8|0,0:3|2:0,3:0:0:0:
378,266,50981,6,0,P|345:247|325:212,1,75.0000028610231,8|0,0:3|2:0,3:0:0:0:
220,140,51158,2,0,P|187:159|167:194,1,75.0000028610231,8|0,0:3|2:0,3:0:0:0:
268,344,51336,6,0,B|192:352,1,75.0000028610231,4|0,0:3|2:0,3:0:0:0:
112,276,51602,2,0,B|36:284,1,75.0000028610231,4|0,0:3|2:0,3:0:0:0:
272,200,51867,2,0,B|196:208,1,75.0000028610231,4|0,0:3|2:0,3:0:0:0:
116,132,52133,2,0,B|40:140,1,75.0000028610231,4|0,0:3|2:0,3:0:0:0:
312,44,52399,6,0,P|320:96|304:132,1,75.0000028610231,4|0,0:3|2:0,3:0:0:0:
204,116,52576,2,0,P|196:64|212:28,1,75.0000028610231,4|0,0:3|2:0,3:0:0:0:
416,40,52753,6,0,L|408:128,1,75.0000028610231,10|0,0:3|2:0,3:0:0:0:
476,168,53019,2,0,L|468:256,1,75.0000028610231,10|0,0:3|2:0,3:0:0:0:
224,144,53285,2,0,L|232:232,1,75.0000028610231,10|0,0:3|2:0,3:0:0:0:
164,272,53551,2,0,L|172:360,1,75.0000028610231,10|0,0:3|2:0,3:0:0:0:
384,344,53817,6,0,L|392:256,1,75.0000028610231,10|0,0:3|2:0,3:0:0:0:
308,260,53994,2,0,L|302:334,1,75.0000028610231,8|2,0:3|2:3,3:0:0:0:
472,252,54171,6,0,P|456:216|404:192,1,75.0000028610231,4|0,0:3|2:0,3:0:0:0:
388,124,54437,2,0,P|348:126|308:167,1,75.0000028610231,4|0,0:3|2:0,3:0:0:0:
176,340,54703,2,0,P|140:324|116:272,1,75.0000028610231,4|0,0:3|2:0,3:0:0:0:
48,256,54969,2,0,P|50:216|91:176,1,75.0000028610231,4|0,0:3|2:0,3:0:0:0:
216,48,55234,6,0,L|304:47,1,75.0000028610231,4|0,0:3|2:0,3:0:0:0:
300,128,55412,2,0,B|262:128|262:128|241:137|241:137|201:137,1,93.7500035762788,4|0,0:3|2:0,3:0:0:0:
328,340,57007,6,0,P|272:252|156:272,1,200,4|0,0:3|2:0,3:0:0:0:
80,336,57272,1,4,0:3:0:0:
80,336,57361,2,0,P|140:308|132:208,1,100,10|0,0:2|2:0,3:0:0:0:
80,64,57538,2,0,B|44:116|44:116|96:312,1,200,4|0,0:3|2:0,3:0:0:0:
328,176,57804,2,0,B|217:181|261:113|133:137,1,200,4|0,0:3|2:0,3:0:0:0:
454,35,58070,6,0,P|469:82|452:128,1,100,10|0,0:2|2:0,3:0:0:0:
256,220,58247,2,0,P|243:173|261:127,1,100,4|0,0:3|2:0,3:0:0:0:
472,332,58424,6,0,P|432:252|308:304,1,200,8|0,0:3|2:0,3:0:0:0:
296,336,58690,1,8,0:3:0:0:
296,336,58779,2,0,P|361:341|405:251,1,100,10|0,0:2|2:0,3:0:0:0:
208,192,58956,2,0,B|92:212|156:284|24:296,1,200,8|0,0:3|2:0,3:0:0:0:
144,348,59222,5,2,0:3:0:0:
144,348,59310,2,0,P|202:305|200:240,1,100,2|0,0:3|2:0,3:0:0:0:
96,132,59488,2,0,P|84:192|128:248,1,100,10|0,0:2|2:0,3:0:0:0:
288,128,59665,2,0,P|289:66|236:19,1,100,8|0,0:3|2:0,3:0:0:0:
36,72,59842,6,0,P|164:120|236:72,1,200,4|0,0:3|2:0,3:0:0:0:
344,112,60108,1,2,0:3:0:0:
344,112,60196,2,0,P|349:177|259:221,1,100,10|0,0:2|2:0,3:0:0:0:
240,232,60374,2,0,P|229:134|276:44,1,200,6|0,0:3|2:0,3:0:0:0:
420,80,60640,2,0,P|436:174|376:280,1,200,6|0,0:3|2:0,3:0:0:0:
330,203,60905,2,0,P|321:154|344:111,1,100,10|0,0:2|2:0,3:0:0:0:
472,312,61083,5,8,0:3:0:0:
472,312,61171,1,0,0:0:0:0:
472,312,61260,2,0,B|364:296|396:380|276:364,1,200,8|0,0:3|2:0,3:0:0:0:
180,236,61526,1,8,0:3:0:0:
180,236,61614,2,0,P|246:221|281:281,1,100,10|0,0:2|2:0,3:0:0:0:
152,340,61791,6,0,P|56:228|136:196,1,200,2|0,0:2|2:0,3:0:0:0:
184,120,62057,1,2,0:3:0:0:
237,204,62146,2,0,L|84:196,1,100,10|0,0:3|2:0,3:0:0:0:
40,64,62323,6,0,P|84:40|140:56,1,100,10|0,0:2|2:0,3:0:0:0:
300,152,62500,2,0,P|260:172|204:148,1,100,10|0,0:3|2:0,3:0:0:0:
308,40,62678,6,0,B|424:60|360:136|488:144,1,200,4|0,0:3|2:0,3:0:0:0:
332,256,62943,1,4,0:3:0:0:
332,256,63032,2,0,P|317:190|377:155,1,100,10|0,0:2|2:0,3:0:0:0:
468,272,63209,2,0,P|380:268|308:372,1,200,4|0,0:3|2:0,3:0:0:0:
412,352,63475,2,0,P|351:276|254:276,1,200,4|0,0:3|2:0,3:0:0:0:
180,336,63741,6,0,L|60:340,1,100,10|0,0:2|2:0,3:0:0:0:
40,236,63918,2,0,L|160:232,1,100,4|0,0:3|2:0,3:0:0:0:
184,96,64095,6,0,P|80:56|40:144,1,200,10|0,0:3|2:0,3:0:0:0:
240,180,64361,1,2,0:2:0:0:
240,180,64450,2,0,P|280:112|272:84,1,100,10|0,0:2|2:0,0:0:0:0:
140,184,64627,2,0,B|88:264|88:264|132:368,1,200,10|0,0:3|2:0,3:0:0:0:
308,280,64893,1,10,0:3:0:0:
308,280,64981,2,0,P|260:268|184:296,1,100,10|0,0:3|2:0,3:0:0:0:
440,368,65159,6,0,P|456:288|432:256,1,100,10|0,0:2|2:0,3:0:0:0:
328,144,65336,2,0,P|316:96|337:51,1,100,2|0,0:3|2:0,3:0:0:0:
419,42,65513,6,0,P|430:178|354:207,1,200,4|0,0:3|2:0,3:0:0:0:
224,251,65779,1,4,0:3:0:0:
224,251,65867,2,0,P|208:203|228:131,1,100,10|0,0:2|2:0,3:0:0:0:
300,283,66045,2,0,P|204:335|136:264,1,200,6|0,0:3|2:0,3:0:0:0:
292,195,66310,2,0,P|360:216|352:356,1,200,6|0,0:3|2:0,3:0:0:0:
224,251,66576,6,0,P|208:203|228:131,1,100,10|0,0:2|2:0,3:0:0:0:
388,40,66753,2,0,P|404:88|376:156,1,100,4|0,0:3|2:0,3:0:0:0:
248,64,66931,6,0,B|132:52|172:120|54:115,1,200,8|0,0:3|2:0,3:0:0:0:
141,206,67197,1,8,0:3:0:0:
141,206,67285,2,0,P|207:176|193:97,1,100,10|0,0:2|2:0,3:0:0:0:
41,212,67462,2,0,P|101:300|233:240,1,200,8|0,0:3|2:0,3:0:0:0:
277,340,67728,1,2,0:2:0:0:
277,340,67817,2,0,P|305:264|353:252,1,100,2|0,0:3|2:0,3:0:0:0:
461,324,67994,6,0,P|401:340|353:320,1,100,10|0,0:2|2:0,3:0:0:0:
401,152,68171,2,0,B|401:192|401:192|410:214|410:214|410:256,1,104.999996795654,4|0,2:1|2:0,3:0:0:0:
460,312,69766,6,0,P|424:312|407:339,1,70,0|0,2:0|2:0,0:0:0:0:
404,346,70475,2,0,B|296:328|296:328|332:112,1,314.999990386963,2|0,2:0|2:0,3:0:0:0:
392,56,71184,6,0,B|412:40|464:44|464:44|484:80|480:148|336:188|232:104,1,375.000014305115,4|0,0:3|2:0,3:0:0:0:
232,96,71716,1,4,0:3:0:0:
40,52,71893,2,0,P|224:112|252:292,1,375.000014305115,8|0,0:2|2:0,3:0:0:0:
228,348,72424,1,4,0:3:0:0:
56,264,72602,6,0,L|44:160,1,100,8|0,0:3|2:0,3:0:0:0:
140,256,72867,2,0,L|128:152,1,100,8|0,0:3|2:0,3:0:0:0:
244,48,73133,6,0,L|232:144,1,50,8|0,0:3|2:0,3:0:0:0:
236,116,73310,1,8,0:2:0:0:
328,56,73399,2,0,L|312:160,1,100,8|0,0:3|2:0,3:0:0:0:
464,340,73665,6,0,L|456:276,1,50,8|0,0:3|2:0,0:0:0:0:
457,290,73842,2,0,B|277:274|338:383|147:370,1,300,8|0,0:3|3:0,3:0:0:0:
72,244,75437,6,0,B|52:295|52:295|204:272,1,200,2|2,3:2|2:0,0:0:0:0:
276,260,75703,2,0,L|272:220,3,37.5,2|2|2|2,0:2|0:2|0:2|0:2,2:0:0:0:
272,222,76678,1,2,0:2:0:0:
464,48,76855,6,0,P|320:160|320:352,1,375.000014305115,8|0,0:3|2:0,3:0:0:0:
314,340,77386,1,4,0:3:0:0:
200,344,77564,2,0,P|194:163|51:52,1,375.000014305115,8|0,0:2|2:0,3:0:0:0:
50,51,78095,1,4,0:3:0:0:
448,44,78273,6,0,L|460:148,1,100,8|0,0:3|2:0,3:0:0:0:
364,52,78538,2,0,L|376:156,1,100,8|0,0:3|2:0,3:0:0:0:
200,234,78804,6,0,L|188:330,1,50,8|0,0:3|2:0,3:0:0:0:
192,302,78981,1,8,0:2:0:0:
284,242,79070,2,0,L|268:346,1,100,8|0,0:3|2:0,3:0:0:0:
464,340,79336,6,0,L|456:276,1,50,8|0,0:3|2:0,0:0:0:0:
457,290,79513,2,0,B|277:274|338:383|147:370,1,300,8|0,0:3|3:0,3:0:0:0:
56,60,81108,6,0,P|106:111|54:63,1,200,2|2,0:0|0:0,0:0:0:0:
256,288,81905,5,0,3:0:0:0:
256,308,81994,2,0,L|256:364,2,50,0|0|0,3:0|3:0|3:0,0:0:0:0:
420,128,82526,6,0,P|257:44|83:125,1,375.000014305115,6|0,0:3|2:0,3:0:0:0:
91,114,83057,1,6,0:3:0:0:
91,255,83235,2,0,P|253:339|420:267,1,375.000014305115,8|0,0:2|2:0,3:0:0:0:
418,268,83766,1,6,0:3:0:0:
364,56,83943,6,0,L|468:44,1,100,10|0,0:3|2:0,3:0:0:0:
467,128,84209,2,0,L|368:140,1,100,10|0,0:3|2:0,3:0:0:0:
200,336,84475,6,0,L|296:331,1,50,8|0,0:3|2:0,3:0:0:0:
268,332,84652,1,8,0:2:0:0:
292,248,84741,2,0,L|192:250,1,100,8|0,0:3|2:0,3:0:0:0:
48,96,85007,6,4,L|56:32,1,50,10|0,0:3|2:0,0:0:0:0:
54,46,85184,2,0,B|233:30|172:139|363:126,1,300,10|0,0:3|3:0,3:0:0:0:
456,208,86779,6,0,B|476:259|476:259|324:236,1,200,0|2,2:0|2:0,0:0:0:0:
40,40,88197,6,0,L|456:72,1,375.000014305115,10|0,0:3|2:0,3:0:0:0:
440,40,88728,2,0,L|428:120,1,75.0000028610231,8|0,0:3|3:0,2:0:0:0:
468,124,88905,2,0,L|52:156,1,375.000014305115,8|0,0:2|2:0,3:0:0:0:
68,172,89437,1,10,0:3:0:0:
16,260,89614,6,0,P|252:299|499:343,1,487.50001859665,6|0,0:3|2:0,3:0:0:0:
370,231,91032,6,0,B|196:219|284:368|92:360,1,321.999989190674,4|0,0:1|0:0,0:0:0:0:
60,141,93868,2,0,P|162:200|36:221,1,321.999989190674,2|0,0:0|0:0,0:0:0:0:
44,44,96703,6,0,B|251:19|162:145|349:125,1,321.999989190674,2|0,0:0|0:0,0:0:0:0:
467,44,99538,2,0,P|374:167|417:316,1,321.999989190674
52,336,102374,6,0,P|50:278|82:234,1,98.999999697876,2|2,0:0|0:0,0:0:0:0:
84,232,102906,1,2,0:0:0:0:
240,336,103171,6,0,P|194:300|181:248,1,98.999999697876,2|2,0:0|0:0,0:0:0:0:
184,240,103703,1,2,0:0:0:0:
363,208,103969,6,0,P|316:220|270:204,1,98.999999697876,2|2,0:0|0:0,0:0:0:0:
256,184,104500,1,2,0:0:0:0:
320,76,105209,5,2,0:0:0:0:
315,133,105475,1,2,0:0:0:0:
300,80,105741,1,2,0:0:0:0:
217,168,106007,5,2,0:0:0:0:
208,52,106273,1,2,0:0:0:0:
179,158,106538,1,2,0:0:0:0:
97,40,106804,5,2,0:0:0:0:
87,179,107070,1,2,0:0:0:0:
52,52,107336,1,2,0:0:0:0:
52,52,108045,6,0,P|108:39|164:65,1,112.500004291535,2|2,0:0|0:0,0:0:0:0:
172,80,108576,1,2,0:0:0:0:
85,237,108842,6,0,P|112:185|170:161,1,112.500004291535,2|2,0:0|0:0,0:0:0:0:
192,176,109374,1,2,0:0:0:0:
260,336,109640,6,0,P|238:281|258:224,1,112.500004291535,2|2,0:0|0:0,0:0:0:0:
284,208,110171,1,2,0:0:0:0:
456,328,110880,5,2,0:0:0:0:
379,321,111146,1,2,0:0:0:0:
449,302,111412,1,2,0:0:0:0:
268,220,111678,5,2,0:0:0:0:
384,229,111944,1,2,0:0:0:0:
278,258,112209,1,2,0:0:0:0:
464,100,112475,5,2,0:0:0:0:
325,110,112741,1,2,0:0:0:0:
452,145,113007,1,2,0:0:0:0:
452,145,113716,6,0,P|464:201|440:250,1,98.999999697876,2|2,0:0|0:0,0:0:0:0:
436,133,114247,1,2,0:0:0:0:
340,296,114513,6,0,P|293:270|273:225,1,98.999999697876,2|2,0:0|0:0,0:0:0:0:
364,280,115045,1,2,0:0:0:0:
260,116,115311,6,0,P|309:85|363:91,1,98.999999697876,2|2,0:0|0:0,0:0:0:0:
248,144,115842,1,2,0:0:0:0:
176,56,116551,5,2,0:0:0:0:
102,65,116817,1,2,0:0:0:0:
172,84,117083,1,2,0:0:0:0:
40,168,117349,5,2,0:0:0:0:
156,177,117614,1,2,0:0:0:0:
50,206,117880,1,2,0:0:0:0:
192,300,118146,5,2,0:0:0:0:
53,310,118412,1,2,0:0:0:0:
180,345,118678,1,2,0:0:0:0:
460,336,119387,6,0,P|462:278|430:234,1,98.999999697876,2|2,0:0|0:0,0:0:0:0:
472,348,119918,1,2,0:0:0:0:
272,336,120184,6,0,P|317:300|330:248,1,98.999999697876,2|2,0:0|0:0,0:0:0:0:
264,360,120716,1,2,0:0:0:0:
148,208,120982,6,0,P|203:219|250:196,1,98.999999697876,2|2,0:0|0:0,0:0:0:0:
128,184,121513,1,2,0:0:0:0:
439,98,122222,6,0,B|315:144|254:42|254:42|190:144|61:96,1,432.000010546875,2|0,0:0|3:0,3:0:0:0:
364,360,126387,6,0,P|276:240|141:375,1,374.000011413575,0|0,0:0|0:0,3:0:0:0:
256,192,130728,12,0,133387,0:0:0:0:
140,84,133564,6,0,B|151:17|-4:-4|-8:144|119:285,1,300.000011444092,4|2,0:3|0:2,3:0:0:0:
224,249,133830,1,4,0:3:0:0:
280,188,133918,2,0,B|248:160|248:160|96:180,1,150.000005722046,2|0,0:3|2:0,3:0:0:0:
40,312,134096,2,0,B|148:304|148:304|204:344|204:344|364:332,1,300.000011444092,4|2,0:3|3:0,3:0:0:0:
433,254,134361,1,4,0:3:0:0:
338,235,134450,6,0,L|360:392,1,150.000005722046,4|0,0:3|2:0,3:0:0:0:
452,328,134627,2,0,L|472:179,1,150.000005722046,6|0,0:3|2:0,3:0:0:0:
320,112,134804,2,0,B|296:144|296:144|412:128,1,150.000005722046,4|0,0:3|2:0,3:0:0:0:
460,48,134982,6,0,B|272:28|368:144|164:124,1,300.000011444092,4|2,0:3|0:2,3:0:0:0:
48,84,135247,1,4,0:3:0:0:
136,48,135336,2,0,B|120:228,1,150.000005722046,6|0,0:3|2:0,3:0:0:0:
88,344,135513,2,0,B|44:284|44:284|312:316,1,300.000011444092,4|2,0:3|3:0,3:0:0:0:
440,276,135779,1,4,0:3:0:0:
387,340,135868,6,0,P|319:317|297:249,1,150.000005722046,2|0,0:2|2:0,3:0:0:0:
219,223,136045,2,0,P|229:152|293:119,1,150.000005722046,6|0,0:3|2:0,3:0:0:0:
324,44,136222,2,0,P|395:53|428:117,1,150.000005722046,4|0,0:3|2:0,3:0:0:0:
372,196,136399,6,0,B|340:196|340:196|329:201|329:201|298:201,1,75,4|0,2:1|2:0,0:0:0:0:
280,188,137817,5,0,3:0:0:0:
136,244,138083,1,0,3:0:0:0:
124,240,138171,5,8,3:2:0:0:
376,308,138349,1,0,3:0:0:0:
232,348,138615,1,0,3:0:0:0:
234,332,138703,5,0,0:0:0:0:
259,190,138880,1,8,0:2:0:0:
282,64,139058,1,0,0:0:0:0:
68,180,139235,6,0,P|112:340|220:220,1,300.000011444092,4|2,0:3|0:2,3:0:0:0:
132,176,139501,1,4,0:3:0:0:
64,236,139589,2,0,P|72:300|184:304,1,150.000005722046,2|0,0:3|2:0,3:0:0:0:
228,220,139766,2,0,B|420:228|300:352|516:364,1,300.000011444092,4|2,0:3|3:0,3:0:0:0:
340,350,140032,1,4,0:3:0:0:
424,292,140121,6,0,P|431:209|384:164,1,150.000005722046,4|0,0:3|2:0,3:0:0:0:
228,220,140298,2,0,P|303:263|379:209,1,150.000005722046,6|0,0:3|2:0,3:0:0:0:
388,84,140475,2,0,P|316:120|320:224,1,150.000005722046,4|0,0:3|2:0,3:0:0:0:
472,40,140653,6,0,B|364:32|364:32|308:72|308:72|148:60,1,300.000011444092,4|2,0:3|0:2,3:0:0:0:
96,168,140918,1,4,0:3:0:0:
40,107,141007,2,0,B|72:79|72:79|224:99,1,150.000005722046,6|0,0:3|2:0,3:0:0:0:
348,232,141184,2,0,B|289:283|289:283|11:246,1,300.000011444092,4|2,0:3|3:0,3:0:0:0:
180,184,141450,1,0,0:0:0:0:
260,200,141539,6,0,L|248:352,1,150.000005722046,4|0,0:3|2:0,3:0:0:0:
52,360,141716,2,0,L|40:208,1,150.000005722046,6|0,0:3|2:0,3:0:0:0:
186,108,141893,2,0,L|174:260,1,150.000005722046,4|0,0:3|2:0,3:0:0:0:
48,52,142070,6,0,B|74:43|74:43|91:43|91:43|120:56,1,72.0000017578126,4|8,2:1|2:0,0:0:0:0:
392,140,143488,6,0,B|408:141|408:141|422:149|422:149|432:148|432:148|440:149|440:149|455:141|455:141|473:135,1,84.0000020507813,8|0,0:3|2:0,0:0:0:0:
364,40,144906,6,0,L|212:48,1,150,4|8,2:3|0:2,0:0:0:0:
124,344,146323,2,0,L|228:336,1,100,8|0,2:3|3:0,0:0:0:0:
312,332,147210,1,0,3:0:0:0:
312,332,147387,1,8,0:2:0:0:
312,332,147564,1,0,3:0:0:0:
146,75,147741,6,0,P|158:191|104:311,1,240,4|8,2:3|0:2,0:0:0:0:
353,345,149159,2,0,P|347:224|361:190,1,160,8|0,2:3|3:0,0:0:0:0:
398,119,150045,1,0,3:0:0:0:
398,119,150222,1,8,0:2:0:0:
398,119,150399,1,0,3:0:0:0:
48,48,150577,6,0,B|96:192|96:192|48:368,1,300.000011444092,4|8,2:3|0:2,0:0:0:0:
454,334,151994,2,0,B|416:191|416:191|434:138,1,200,8|0,2:3|3:0,0:0:0:0:
468,68,152880,1,0,0:0:0:0:
468,68,153058,1,8,0:2:0:0:
468,68,153235,1,0,0:0:0:0:
256,308,153412,5,0,2:0:0:0:
256,308,154121,1,0,2:0:0:0:
256,76,154830,1,0,2:0:0:0:
256,76,155539,1,0,2:0:0:0:
256,76,156245,6,0,L|256:40,1,31.25,8|0,3:0|2:0,2:0:0:0:
48,144,156529,5,4,0:3:0:0:
48,144,156585,2,0,P|119:128|172:144,1,125,2|0,0:3|2:0,0:0:0:0:
424,320,156756,2,0,B|472:208|472:208|424:64,1,250,4|2,0:3|3:0,0:0:0:0:
176,328,157040,1,0,0:0:0:0:
176,328,157097,2,0,P|108:352|50:328,1,125,4|0,0:3|2:0,0:0:0:0:
200,232,157267,2,0,L|325:232,1,125,6|0,0:3|2:0,0:0:0:0:
461,328,157438,2,0,P|393:352|335:328,1,125,4|0,0:3|2:0,0:0:0:0:
256,76,157608,6,0,L|256:40,1,31.25,8|0,3:0|2:0,2:0:0:0:
464,144,157892,5,4,0:3:0:0:
464,144,157949,2,0,L|288:144,1,125,2|0,0:3|2:0,0:0:0:0:
48,240,158120,2,0,B|160:288|160:288|304:240,1,250,4|2,0:3|3:0,0:0:0:0:
196,160,158404,1,6,0:3:0:0:
196,160,158460,2,0,L|20:160,1,125,6|0,0:3|2:0,0:0:0:0:
344,344,158631,2,0,L|469:344,1,125,6|0,0:3|2:0,0:0:0:0:
168,344,158801,2,0,L|43:344,1,125,4|0,0:3|2:0,0:0:0:0:
256,76,158972,6,0,L|256:40,1,31.25,8|0,3:0|2:0,2:0:0:0:
460,160,159256,5,4,0:3:0:0:
460,160,159313,2,0,L|448:356,1,125,2|0,0:3|2:0,0:0:0:0:
148,92,159483,2,0,L|124:372,1,250,4|2,0:3|3:0,0:0:0:0:
374,194,159767,1,4,0:3:0:0:
372,212,159824,2,0,L|360:408,1,125,4|0,0:3|2:0,0:0:0:0:
56,224,159995,2,0,L|40:412,1,125,6|0,0:3|2:0,0:0:0:0:
220,176,160165,2,0,L|204:368,1,125,4|0,0:3|2:0,0:0:0:0:
256,76,160335,6,0,L|256:40,1,31.25,8|0,3:0|2:0,2:0:0:0:
44,164,160620,5,4,0:3:0:0:
44,164,160676,2,0,P|48:234|58:361,1,125,2|0,0:3|2:0,0:0:0:0:
124,100,160847,2,0,P|134:221|148:380,1,250,4|2,0:3|3:0,0:0:0:0:
366,200,161131,1,4,0:3:0:0:
368,220,161188,2,0,P|371:290|380:416,1,125,4|0,0:3|2:0,0:0:0:0:
216,204,161358,2,0,P|220:270|232:392,1,125,6|0,0:3|2:0,0:0:0:0:
460,160,161529,2,0,P|464:231|472:352,1,125,4|0,0:3|2:0,0:0:0:0:
256,76,161699,6,0,L|256:40,1,31.25,8|0,3:0|2:0,2:0:0:0:
460,160,161983,5,4,0:3:0:0:
460,160,162040,2,0,P|368:184|364:264,1,125,2|0,0:3|2:0,0:0:0:0:
460,316,162210,2,0,P|360:220|256:260,1,250,4|2,0:3|3:0,0:0:0:0:
191,346,162495,1,4,0:3:0:0:
228,340,162551,2,0,L|444:320,1,125,4|0,0:3|2:0,0:0:0:0:
60,140,162722,2,0,B|45:203|45:203|77:255,1,125,6|0,0:3|2:0,0:0:0:0:
172,242,162892,2,0,B|188:180|188:180|156:128,1,125,4|0,0:3|2:0,0:0:0:0:
256,76,163063,6,0,L|256:40,1,31.25,8|0,3:0|2:0,2:0:0:0:
60,140,163347,5,4,0:3:0:0:
60,140,163404,2,0,B|45:203|45:203|77:255,1,125,2|0,0:3|2:0,0:0:0:0:
272,348,163574,2,0,B|212:312|212:312|-4:348,1,250,4|2,0:3|3:0,0:0:0:0:
425,124,163858,1,4,0:3:0:0:
448,144,163915,2,0,P|465:202|424:264,1,125,4|0,0:3|2:0,0:0:0:0:
276,232,164085,2,0,P|316:192|382:194,1,125,6|0,0:3|2:0,0:0:0:0:
464,336,164256,6,0,L|48:336,1,416.666666666667,4|0,0:3|3:0,2:0:0:0:
47,336,164938,1,0,3:0:0:0:
256,308,167154,6,0,L|256:344,1,31.25,8|0,3:0|2:0,2:0:0:0:
464,248,167438,5,4,0:3:0:0:
464,248,167495,2,0,L|320:248,1,125,2|0,0:3|2:0,3:0:0:0:
256,128,167665,2,0,P|328:52|420:156,1,250,4|2,0:3|3:0,3:0:0:0:
144,159,167949,1,4,0:3:0:0:
158,149,168006,6,0,P|192:193|186:270,1,125,4|0,0:3|2:3,0:0:0:0:
44,312,168176,2,0,P|58:257|116:226,1,125,6|0,0:3|2:3,3:0:0:0:
234,329,168347,2,0,P|159:335|116:285,1,125,4|0,0:3|2:0,3:0:0:0:
463,234,168517,6,0,P|469:309|415:354,1,125,8|0,0:3|2:0,3:0:0:0:
356,324,168688,2,0,P|350:249|400:206,1,125,2|2,0:2|2:0,3:0:0:0:
210,60,168858,6,0,P|204:135|254:178,1,125,2|0,0:3|2:0,3:0:0:0:
332,144,169029,2,0,P|338:69|288:26,1,125,4|0,0:3|2:0,3:0:0:0:
188,240,169199,6,0,P|194:315|144:358,1,125,2|2,3:0|2:0,3:0:0:0:
52,324,169370,2,0,P|46:249|96:206,1,125,4|0,0:3|2:0,3:0:0:0:
168,40,169540,6,0,L|36:56,1,125,4|0,0:3|2:0,3:0:0:0:
52,136,169710,2,0,L|176:120,1,125,2|0,0:3|2:0,3:0:0:0:
256,76,169881,6,0,L|256:40,1,31.25,8|0,3:0|2:0,2:0:0:0:
208,232,170165,5,4,0:3:0:0:
208,232,170222,2,0,P|272:268|330:243,1,125,2|0,0:3|2:0,3:0:0:0:
133,266,170392,2,0,P|193:326|387:301,1,250,4|2,0:3|3:0,3:0:0:0:
78,191,170676,1,4,0:3:0:0:
64,204,170733,6,0,P|52:316|86:350,1,125,4|0,0:3|2:0,3:0:0:0:
181,341,170904,2,0,P|208:232|177:202,1,125,6|0,0:3|2:0,3:0:0:0:
48,128,171074,2,0,P|116:220|174:204,1,125,4|0,0:3|2:0,3:0:0:0:
248,40,171245,6,0,L|116:56,1,125,8|0,0:3|2:0,3:0:0:0:
132,136,171415,2,0,L|256:120,1,125,2|2,0:2|2:0,3:0:0:0:
344,184,171585,6,0,L|476:200,1,125,2|0,0:3|2:0,3:0:0:0:
456,300,171756,2,0,L|332:284,1,125,4|0,0:3|2:0,3:0:0:0:
160,220,171926,6,0,L|28:236,1,125,2|2,3:0|2:0,3:0:0:0:
52,368,172097,2,0,L|176:352,1,125,4|0,0:3|2:0,3:0:0:0:
304,152,172267,6,0,B|336:96|336:96|304:8,1,125,2|0,0:2|2:0,3:0:0:0:
200,40,172438,2,0,B|179:96|179:96|211:152,1,125,2|0,0:3|2:0,3:0:0:0:
256,308,172608,6,0,L|256:344,1,31.25,8|0,3:0|2:0,2:0:0:0:
121,155,172892,5,4,0:3:0:0:
121,155,172949,2,0,P|97:91|129:27,1,125,2|0,0:3|2:0,3:0:0:0:
257,219,173120,2,0,P|141:211|89:27,1,250,4|2,0:3|3:0,3:0:0:0:
353,100,173404,1,4,0:3:0:0:
340,119,173460,6,0,P|282:135|227:107,1,125,4|0,0:3|2:0,3:0:0:0:
332,284,173631,2,0,P|347:224|398:190,1,125,6|0,0:3|2:0,3:0:0:0:
179,191,173801,2,0,P|230:224|245:283,1,125,4|0,0:3|2:0,3:0:0:0:
40,372,173972,6,0,B|6:317|6:317|20:258,1,125,8|0,0:3|2:0,3:0:0:0:
102,243,174142,2,0,B|135:293|135:293|122:356,1,125,2|2,0:2|2:0,3:0:0:0:
304,72,174313,6,0,B|328:132|328:132|296:212,1,125,10|0,0:3|2:0,3:0:0:0:
208,184,174483,2,0,B|185:127|185:127|209:67,1,125,4|0,0:3|2:0,3:0:0:0:
499,270,174654,6,0,B|513:329|513:329|480:384,1,125,2|2,3:0|2:0,3:0:0:0:
347,353,174824,2,0,B|334:290|334:290|368:240,1,125,2|0,0:2|2:0,3:0:0:0:
464,64,174995,6,0,B|407:42|407:42|347:66,1,125,6|0,0:3|2:0,3:0:0:0:
256,148,175165,2,0,B|256:189|256:189|262:202|262:202|262:241,1,87.5,12|0,3:0|2:0,1:0:0:0:
76,40,178042,6,0,L|42:338,1,300.000011444092,10|0,0:3|2:0,3:0:0:0:
436,40,178405,6,0,L|456:224,1,150.000005722046,10|0,0:3|2:0,3:0:0:0:
374,224,178632,2,0,L|382:288,1,50,10|0,0:3|2:0,3:0:0:0:
302,308,178769,2,0,L|310:372,1,50,10|0,0:3|2:0,3:0:0:0:
309,358,178996,6,0,B|255:328|255:328|201:358,1,123.999995080567,2|0,0:2|2:0,2:0:0:0:
436,40,179496,6,0,L|470:338,1,300.000011444092,10|0,0:3|2:0,3:0:0:0:
76,40,179860,6,0,L|56:224,1,150.000005722046,10|0,0:3|2:0,3:0:0:0:
138,224,180087,2,0,L|130:288,1,50,10|0,0:3|2:0,3:0:0:0:
210,308,180223,2,0,L|202:372,1,50,10|0,0:3|2:0,3:0:0:0:
202,358,180451,6,0,B|256:328|256:328|312:360,1,123.999995080567,2|0,0:2|2:0,2:0:0:0:
412,60,180951,6,0,P|421:224|305:190,1,300.000011444092,6|0,0:3|2:0,3:0:0:0:
304,100,181314,6,0,P|380:104|448:188,1,150.000005722046,6|0,0:3|2:0,3:0:0:0:
452,152,181542,2,0,P|463:182|442:234,1,50,6|0,0:3|2:0,3:0:0:0:
466,237,181678,2,0,P|450:265|397:281,1,50,6|0,0:3|2:0,3:0:0:0:
316,352,181905,6,0,B|240:352|284:316|192:317,1,123.999995080567,2|0,0:2|2:0,2:0:0:0:
100,60,182405,6,0,P|91:224|207:190,1,300.000011444092,6|0,0:3|2:0,3:0:0:0:
208,100,182769,6,0,P|132:104|64:188,1,150.000005722046,6|0,0:3|2:0,3:0:0:0:
60,152,182996,2,0,P|49:182|70:234,1,50,6|0,0:3|2:0,3:0:0:0:
46,237,183132,2,0,P|62:265|115:281,1,50,6|0,0:3|2:0,3:0:0:0:
196,352,183360,6,0,B|272:352|228:316|320:317,1,123.999995080567,2|0,0:2|2:0,2:0:0:0:
408,340,183860,6,0,L|84:332,1,300.000011444092,10|0,0:3|2:0,3:0:0:0:
48,56,184223,6,0,L|212:48,1,150.000005722046,10|0,0:3|2:0,3:0:0:0:
240,126,184451,2,0,L|331:119,1,50,10|0,0:3|2:0,3:0:0:0:
308,205,184587,2,0,L|404:196,1,50,10|0,0:3|2:0,3:0:0:0:
472,144,184814,6,0,B|442:198|442:198|472:252,1,123.999995080567,2|0,0:2|2:0,2:0:0:0:
408,44,185314,6,0,L|84:52,1,300.000011444092,10|0,0:3|2:0,3:0:0:0:
48,328,185678,6,0,L|212:336,1,150.000005722046,10|0,0:3|2:0,3:0:0:0:
240,258,185905,2,0,L|331:265,1,50,10|0,0:3|2:0,3:0:0:0:
308,179,186042,2,0,L|404:188,1,50,10|0,0:3|2:0,3:0:0:0:
472,252,186269,6,0,B|442:198|442:198|472:144,1,123.999995080567,2|0,0:2|2:0,2:0:0:0:
191,44,186769,6,0,P|115:112|215:68,1,300.000011444092,6|0,0:3|2:0,3:0:0:0:
323,124,187132,6,0,P|359:160|301:145,1,150.000005722046,6|0,0:3|2:0,3:0:0:0:
209,234,187360,6,0,P|197:250|219:244,1,50,6|0,0:3|2:0,3:0:0:0:
309,274,187496,2,0,P|322:284|298:284,1,50,6|0,0:3|2:0,3:0:0:0:
241,382,187723,6,0,P|245:365|248:384,1,50,6|0,0:3|2:0,0:0:0:0:
256,192,188223,12,2,189496,2:0:0:0:
232,44,189678,6,0,B|45:44|45:44|45:195,1,300.000011444092,10|0,0:3|2:0,3:0:0:0:
212,208,190042,6,0,B|212:125|212:125|122:125,1,150.000005722046,10|0,0:3|2:0,3:0:0:0:
40,315,190269,6,0,B|40:343|40:343|90:343,1,50,10|0,0:3|2:0,3:0:0:0:
185,345,190405,2,0,B|213:345|213:345|213:295,1,50,10|0,0:3|2:0,3:0:0:0:
124,208,190632,6,0,L|124:280,1,61.9999975402833,2|0,0:2|2:0,2:0:0:0:
280,339,191132,6,0,B|466:339|466:339|466:187,1,300.000011444092,10|0,0:3|2:0,3:0:0:0:
300,176,191496,6,0,B|300:258|300:258|389:258,1,150.000005722046,10|0,0:3|2:0,3:0:0:0:
472,69,191723,6,0,B|472:41|472:41|422:41,1,50,10|0,0:3|2:0,3:0:0:0:
327,39,191860,2,0,B|299:39|299:39|299:89,1,50,10|0,0:3|2:0,3:0:0:0:
388,176,192087,6,0,L|388:104,1,61.9999975402833,2|0,0:2|2:0,2:0:0:0:
208,48,192587,6,0,L|208:352,1,300.000011444092,6|0,0:3|2:0,3:0:0:0:
48,192,192951,6,0,L|48:384,1,150.000005722046,6|0,0:3|2:0,3:0:0:0:
128,112,193178,6,0,L|128:197,1,50,6|0,0:3|2:0,3:0:0:0:
128,252,193314,2,0,L|128:302,1,50,6|0,0:3|2:0,3:0:0:0:
48,48,193542,6,0,L|48:120,1,61.9999975402833,2|0,0:2|2:0,2:0:0:0:
304,48,194042,6,0,L|304:352,1,300.000011444092,6|0,0:3|2:0,3:0:0:0:
464,342,194405,6,0,L|464:192,1,150.000005722046,6|0,0:3|2:0,3:0:0:0:
384,112,194632,6,0,L|384:197,1,50,6|0,0:3|2:0,3:0:0:0:
384,252,194769,2,0,L|384:302,1,50,6|0,0:3|2:0,3:0:0:0:
464,110,194996,6,0,L|464:48,1,61.9999975402833,2|0,0:2|2:0,2:0:0:0:
56,40,195496,6,0,P|152:144|196:16,1,300.000011444092,10|0,0:3|2:0,3:0:0:0:
56,228,195860,6,0,L|236:228,1,150.000005722046,10|0,0:3|2:0,3:0:0:0:
40,348,196087,6,0,B|40:320|40:320|90:320,1,50,10|0,0:3|2:0,3:0:0:0:
185,318,196223,2,0,B|213:318|213:318|213:368,1,50,10|0,0:3|2:0,3:0:0:0:
134,66,196451,6,0,B|134:131,1,61.9999975402833,2|0,0:2|2:0,2:0:0:0:
456,344,196951,6,0,P|360:240|316:368,1,300.000011444092,10|0,0:3|2:0,3:0:0:0:
456,156,197314,6,0,L|276:156,1,150.000005722046,10|0,0:3|2:0,3:0:0:0:
470,68,197542,6,0,B|470:40|470:40|420:40,1,50,10|0,0:3|2:0,3:0:0:0:
300,43,197678,2,0,B|300:71|300:71|350:71,1,50,10|0,0:3|2:0,3:0:0:0:
378,318,197905,6,0,B|378:253,1,61.9999975402833,2|0,0:2|2:0,2:0:0:0:
44,120,198405,6,0,P|172:124|60:152,1,300.000011444092,6|0,0:3|2:0,3:0:0:0:
224,204,198769,6,0,P|136:204|136:276,1,150.000005722046,6|0,0:3|2:0,3:0:0:0:
214,341,198996,6,0,P|170:323|127:344,1,50,6|0,0:3|2:0,3:0:0:0:
41,327,199132,2,0,P|84:344|127:323,1,50,6|0,0:3|2:0,3:0:0:0:
208,48,199360,6,0,L|208:120,1,61.9999975402833,2|0,0:2|2:0,2:0:0:0:
468,120,199860,6,0,P|340:124|452:152,1,300.000011444092,6|0,0:3|2:0,3:0:0:0:
292,204,200223,6,0,P|380:204|380:276,1,150.000005722046,6|0,0:3|2:0,3:0:0:0:
298,341,200451,6,0,P|341:323|384:344,1,50,6|0,0:3|2:0,3:0:0:0:
425,344,200587,2,0,P|450:340|471:327,1,50,6|0,0:3|2:0,3:0:0:0:
307,148,200814,6,0,L|211:148,1,92.9249992485008,8|0,0:3|2:0,2:0:0:0:
213,62,201314,6,0,B|164:0|49:41|19:144|104:299|198:250|256:347|256:347|303:253|392:311|489:162|466:55|351:6|297:65,1,953.250014545441,4|0,2:1|2:0,1:0:0:0:
307,147,209314,6,0,B|295:113|267:89|234:85|234:85|200:81|168:100|153:127|153:127|135:159|139:194|162:222|162:222|192:255|194:309|164:348|164:348|135:384|80:394|40:369|40:369|0:341|-14:290|3:248,1,705.250023674775,2|0,2:0|0:0,0:0:0:0:
61,112,217314,6,0,B|144:39|322:67|180:244|353:269|462:244|518:170|530:80|472:-11|353:-1|345:95,1,705.250023674775,2|0,0:0|0:0,0:0:0:0:
242,371,225314,6,0,B|278:263|365:136|569:78|699:273|516:472|336:347|388:210|482:156,1,705.250023674775,2|0,2:0|0:0,0:0:0:0:
480,156,233314,5,2,0:0:0:0:
421,30,234064,1,2,0:0:0:0:
354,213,234814,1,2,0:0:0:0:
480,156,235564,1,2,0:0:0:0:
296,88,236314,1,2,0:0:0:0:
354,213,237064,1,2,0:0:0:0:
421,30,237814,1,2,0:0:0:0:
294,90,238564,1,2,0:0:0:0:
478,158,239314,1,2,0:0:0:0:
336,384,241314,5,2,0:0:0:0:
411,247,242064,1,2,0:0:0:0:
228,136,242814,1,2,0:0:0:0:
146,268,243564,1,2,0:0:0:0:
395,326,244314,1,2,0:0:0:0:
379,172,245064,1,2,0:0:0:0:
166,189,245814,1,2,0:0:0:0:
174,345,246564,1,2,0:0:0:0:
309,130,247314,1,2,0:0:0:0:
125,3,249314,5,2,0:0:0:0:
106,101,250064,1,2,0:0:0:0:
203,73,250814,1,2,0:0:0:0:
222,171,251564,1,2,0:0:0:0:
19,207,252314,1,2,0:0:0:0:
0,304,253064,1,2,0:0:0:0:
283,285,253814,1,2,0:0:0:0:
297,383,254564,1,2,0:0:0:0:
89,274,255314,1,2,0:0:0:0:
497,170,257314,5,2,0:0:0:0:
453,256,258064,1,2,0:0:0:0:
335,99,258814,1,2,0:0:0:0:
405,165,259564,1,2,0:0:0:0:
218,231,260314,1,2,0:0:0:0:
303,186,261064,1,2,0:0:0:0:
310,383,261814,1,2,0:0:0:0:
292,289,262564,1,2,0:0:0:0:
483,345,263314,1,2,0:0:0:0:
483,345,265314,6,0,B|334:275|196:291|128:310|128:310|126:306|126:306|128:310|128:310|122:309|122:309|120:312|120:312|100:317|80:325|80:325|77:320|77:320|80:325|80:325|55:333|28:350|28:350|10:308|-15:278|-15:278|4:281|27:292|33:300|33:300|44:269|39:237|28:219|28:219|67:229|95:261|105:298|105:298|203:202|203:202|132:135|132:135|214:135|214:135|255:60|255:60|291:135|291:135|377:135|377:135|302:202|302:202|394:298|394:298|399:256|436:223|476:219|476:219|462:248|456:278|470:308|470:308|495:290|523:278|523:278|508:327|512:362,1,1991.62500607796
