osu file format v14

[General]
AudioFilename: audio.mp3
AudioLeadIn: 0
PreviewTime: 64555
Countdown: 0
SampleSet: Soft
StackLeniency: 0.5
Mode: 0
LetterboxInBreaks: 0
WidescreenStoryboard: 0

[Editor]
Bookmarks: 16398,30834,40082,41661,47074
DistanceSpacing: 0.9
BeatDivisor: 4
GridSize: 32
TimelineZoom: 2.999999

[Metadata]
Title:Sabishigariya no Quicksilver
TitleUnicode:寂しがりやのクイックシルバー
Artist:GET IN THE RING
ArtistUnicode:GET IN THE RING
Creator:Cami
Version:Vanished
Source:東方Project
Tags:Ayyri eiri- Touhou Toho みぃ Mie GCHM Jell Arcadia 夢消失 ~ Lost Dream Yume Shoushitsu 東方夢時空 ~ Phantasmagoria of Dimensional Dream. 東方妖々夢 ~ Perfect Cherry Blossom. 幽霊楽団 ~ Phantom Ensemble Ghostly Band
BeatmapID:1774595
BeatmapSetID:848617

[Difficulty]
HPDrainRate:5
CircleSize:4
OverallDifficulty:6.5
ApproachRate:8
SliderMultiplier:1.65
SliderTickRate:1

[Events]
//Background and Video events
0,0,"Sabishi ga riya thanks zhuriel.jpg",0,0
//Break Periods
//Storyboard Layer 0 (Background)
//Storyboard Layer 1 (Fail)
//Storyboard Layer 2 (Pass)
//Storyboard Layer 3 (Foreground)
//Storyboard Sound Samples

[TimingPoints]
1962,451.127819548872,4,2,1,65,1,0
2751,-100,4,2,1,45,0,0
2864,-100,4,2,1,65,0,0
3653,-100,4,2,1,5,0,0
3766,-100,4,2,1,65,0,0
4555,-100,4,2,1,45,0,0
4668,-100,4,2,1,65,0,0
6360,-100,4,2,1,45,0,0
6473,-100,4,2,1,65,0,0
6586,-100,4,2,1,45,0,0
6698,-100,4,2,1,65,0,0
7262,-100,4,2,1,5,0,0
7375,-100,4,2,1,65,0,0
8165,-100,4,2,1,45,0,0
8277,-100,4,2,1,65,0,0
8390,-100,4,2,1,45,0,0
8503,-100,4,2,1,65,0,0
9969,-100,4,2,1,45,0,0
10082,-100,4,2,1,65,0,0
10195,-100,4,2,1,45,0,0
10307,-100,4,2,1,65,0,0
11774,-100,4,2,1,45,0,0
11886,-100,4,2,1,65,0,0
11999,-100,4,2,1,45,0,0
12112,-100,4,2,1,65,0,0
13127,-100,4,2,1,5,0,0
13240,-100,4,2,1,65,0,0
13691,-83.3333333333333,4,2,1,65,0,0
14029,-83.3333333333333,4,2,1,65,0,0
14368,-142.857142857143,4,2,1,65,0,0
16398,-133.333333333333,4,2,1,65,0,0
23616,-121.212121212121,4,2,2,65,0,0
23728,-121.212121212121,4,2,1,65,0,0
24067,-121.212121212121,4,2,2,65,0,0
24292,-121.212121212121,4,2,1,65,0,0
24518,-121.212121212121,4,2,2,65,0,0
24631,-121.212121212121,4,2,1,65,0,0
24969,-121.212121212121,4,2,2,65,0,0
25082,-121.212121212121,4,2,1,65,0,0
25420,-121.212121212121,4,2,2,65,0,0
25533,-121.212121212121,4,2,1,65,0,0
25871,-121.212121212121,4,2,2,65,0,0
25984,-121.212121212121,4,2,1,65,0,0
26322,-121.212121212121,4,2,2,65,0,0
26435,-121.212121212121,4,2,1,65,0,0
26774,-121.212121212121,4,2,2,65,0,0
26886,-121.212121212121,4,2,1,65,0,0
27225,-121.212121212121,4,2,2,65,0,0
27337,-121.212121212121,4,2,1,65,0,0
27676,-121.212121212121,4,2,2,65,0,0
27789,-121.212121212121,4,2,1,65,0,0
28127,-121.212121212121,4,2,2,65,0,0
28240,-121.212121212121,4,2,1,65,0,0
28578,-121.212121212121,4,2,2,65,0,0
28691,-121.212121212121,4,2,1,65,0,0
30157,-121.212121212121,4,2,1,35,0,0
30383,-121.212121212121,4,2,1,85,0,0
30495,-121.212121212121,4,2,1,65,0,0
31623,-121.212121212121,4,2,1,45,0,0
31736,-121.212121212121,4,2,1,65,0,0
33428,-121.212121212121,4,2,1,45,0,0
33540,-121.212121212121,4,2,1,65,0,0
35232,-121.212121212121,4,2,1,45,0,0
35345,-121.212121212121,4,2,1,65,0,0
37037,-121.212121212121,4,2,1,45,0,0
37149,-121.212121212121,4,2,1,65,0,0
38052,-100,4,2,1,65,0,0
38841,-100,4,2,1,45,0,0
38954,-100,4,2,1,65,0,0
39743,-100,4,2,1,45,0,0
39856,-100,4,2,1,65,0,0
41548,-100,4,2,1,45,0,0
41661,-100,4,2,1,65,0,0
42450,-100,4,2,1,45,0,0
42563,-100,4,2,1,65,0,0
44480,-100,4,2,1,45,0,0
44593,-100,4,2,1,65,0,0
45157,-100,4,2,1,45,0,0
45270,-100,4,2,1,65,0,0
45608,-100,4,2,1,5,0,0
45721,-100,4,2,1,65,0,0
45946,-100,4,2,1,45,0,0
46172,-100,4,2,1,85,0,0
47074,-90.9090909090909,4,2,1,70,0,0
48089,-90.9090909090909,4,2,1,45,0,0
48202,-90.9090909090909,4,2,1,70,0,0
48766,-90.9090909090909,4,2,1,5,0,0
48879,-90.9090909090909,4,2,1,70,0,0
49894,-90.9090909090909,4,2,1,45,0,0
50007,-90.9090909090909,4,2,1,70,0,0
51698,-90.9090909090909,4,2,1,45,0,0
51811,-90.9090909090909,4,2,1,70,0,0
55307,-90.9090909090909,4,2,1,45,0,0
55420,-90.9090909090909,4,2,1,70,0,0
57112,-90.9090909090909,4,2,1,45,0,0
57225,-90.9090909090909,4,2,1,70,0,0
59480,-90.9090909090909,4,2,1,45,0,0
59593,-90.9090909090909,4,2,1,70,0,0
60495,-90.9090909090909,4,2,1,45,0,0
60608,-90.9090909090909,4,2,1,70,0,0
60721,-90.9090909090909,4,2,1,45,0,0
60834,-90.9090909090909,4,2,1,70,0,0
63315,-142.857142857143,4,2,1,70,0,0
64668,-100,4,2,1,70,0,0
64894,-86.9565217391304,4,2,1,70,0,0
65119,-76.9230769230769,4,2,1,85,0,1
65909,-76.9230769230769,4,2,1,55,0,1
66022,-76.9230769230769,4,2,1,85,0,1
67713,-76.9230769230769,4,2,1,55,0,1
67826,-76.9230769230769,4,2,1,85,0,1
69405,-76.9230769230769,4,2,1,55,0,1
69518,-76.9230769230769,4,2,1,85,0,1
71322,-76.9230769230769,4,2,1,55,0,1
71435,-76.9230769230769,4,2,1,85,0,1
73127,-76.9230769230769,4,2,1,55,0,1
73240,-76.9230769230769,4,2,1,85,0,1
74931,-76.9230769230769,4,2,1,55,0,1
75044,-76.9230769230769,4,2,1,85,0,1
76736,-76.9230769230769,4,2,1,55,0,1
76849,-76.9230769230769,4,2,1,85,0,1
77751,-71.4285714285714,4,2,1,95,0,1
78428,-66.6666666666667,4,2,1,100,0,1
79104,-66.6666666666667,4,2,1,70,0,1
79555,-76.9230769230769,4,2,1,85,0,1
80345,-76.9230769230769,4,2,1,55,0,1
80458,-76.9230769230769,4,2,1,85,0,1
82149,-76.9230769230769,4,2,1,55,0,1
82262,-76.9230769230769,4,2,1,85,0,1
83954,-76.9230769230769,4,2,1,55,0,1
84067,-76.9230769230769,4,2,1,85,0,1
85758,-76.9230769230769,4,2,1,55,0,1
85871,-76.9230769230769,4,2,1,85,0,1
86774,-71.4285714285714,4,2,1,85,0,1
88578,-76.9230769230769,4,2,1,85,0,1
88916,-76.9230769230769,4,2,1,5,0,1
89029,-76.9230769230769,4,2,1,85,0,1
89368,-76.9230769230769,4,2,1,55,0,1
89480,-76.9230769230769,4,2,1,85,0,1
90383,-76.9230769230769,4,2,1,90,0,1
92977,-76.9230769230769,4,2,1,65,0,1
93089,-76.9230769230769,4,2,1,85,0,1
93202,-76.9230769230769,4,2,1,65,0,1
93315,-76.9230769230769,4,2,1,85,0,1
93540,-111.111111111111,4,2,1,85,0,1
93879,-111.111111111111,4,2,1,5,0,1
93992,-71.4285714285714,4,2,1,95,0,1
94781,-71.4285714285714,4,2,1,65,0,1
94894,-71.4285714285714,4,2,1,95,0,1
95796,-100,4,2,1,65,0,0
96924,-166.666666666667,4,2,1,65,0,0
97488,-166.666666666667,4,2,1,5,0,0
97601,-166.666666666667,4,2,1,35,0,0
100758,-166.666666666667,4,2,1,5,0,0

[Colours]
Combo1 : 255,143,89
Combo2 : 28,255,255
Combo3 : 191,191,191
Combo4 : 146,255,36

[HitObjects]
138,284,1962,6,0,P|183:264|234:256,1,82.5,6|0,1:2|0:0,0:0:0:0:
311,311,2413,1,10,0:0:0:0:
413,272,2638,1,0,1:0:0:0:
413,272,2751,1,8,0:0:0:0:
413,272,2864,1,2,0:0:0:0:
441,375,3089,1,2,1:2:0:0:
511,240,3315,2,0,B|518:204|518:204|509:104,1,123.75,8|0,0:0|0:0,0:0:0:0:
480,92,3766,6,0,B|436:75|399:94|399:94|355:117|306:87,1,165,4|10,1:2|0:0,0:0:0:0:
249,10,4443,1,0,1:0:0:0:
249,10,4555,1,10,0:0:0:0:
249,10,4668,1,2,0:0:0:0:
241,169,4894,1,2,1:2:0:0:
99,80,5119,1,10,0:0:0:0:
195,99,5345,1,2,0:0:0:0:
99,190,5571,6,0,P|78:230|68:273,1,82.5,2|0,1:2|0:0,0:0:0:0:
66,357,6022,1,10,0:0:0:0:
163,321,6247,1,8,0:0:0:0:
169,362,6360,1,2,1:2:0:0:
273,335,6585,1,10,0:0:0:0:
264,374,6698,1,2,3:2:0:0:
342,222,6924,2,0,P|287:250|226:257,1,123.75,8|0,0:0|0:0,0:0:0:0:
181,239,7375,6,0,B|134:220|91:226,1,82.5,2|0,1:2|1:0,0:0:0:0:
53,280,7713,1,2,0:0:0:0:
53,280,7826,1,8,0:0:0:0:
5,181,8052,1,10,0:0:0:0:
5,181,8165,1,8,0:0:0:0:
5,181,8277,2,0,L|1:129,2,41.25,2|8|2,1:2|0:0|0:0,0:0:0:0:
181,239,8728,5,14,0:0:0:0:
135,103,8954,1,4,0:3:0:0:
309,34,9180,6,0,B|349:53|349:53|379:104|372:168,1,165,6|8,1:2|0:0,0:0:0:0:
302,263,9856,1,2,1:2:0:0:
260,267,9968,1,8,0:0:0:0:
168,180,10194,1,10,0:0:0:0:
126,183,10307,1,2,3:2:0:0:
82,290,10533,2,0,L|89:331,1,41.25,10|2,0:0|0:0,0:0:0:0:
2,370,10758,2,0,L|9:329,1,41.25,2|2,0:0|0:0,0:0:0:0:
126,363,10984,5,2,1:2:0:0:
194,227,11210,2,0,L|241:228,1,41.25,2|2,0:0|0:0,0:0:0:0:
210,315,11435,1,8,0:0:0:0:
101,179,11661,1,2,1:2:0:0:
63,165,11773,1,10,0:0:0:0:
20,269,11999,1,2,0:0:0:0:
55,255,12112,1,8,0:0:0:0:
182,243,12337,2,0,L|178:284,1,41.25,10|2,0:0|0:0,0:0:0:0:
260,303,12563,2,0,L|264:344,1,41.25,2|2,0:0|0:0,0:0:0:0:
208,204,12789,6,0,B|243:222|290:215|290:215|333:184,1,123.75,2|0,1:2|0:0,0:0:0:0:
400,175,13240,2,0,L|392:240,1,41.25,10|0,0:0|0:0,0:0:0:0:
329,306,13465,1,4,0:3:0:0:
331,326,13577,1,8,0:3:0:0:
334,346,13691,6,0,P|287:334|221:347,1,98.9999969787599,10|0,0:0|1:0,0:0:0:0:
191,358,14029,2,0,P|225:323|247:260,1,98.9999969787599,10|0,0:0|1:0,0:0:0:0:
147,271,14368,6,0,B|106:288|91:359|91:359|68:324|40:321|40:321|5:313|6:273,1,230.99999295044,6|0,0:0|0:0,0:0:0:0:
16,258,15383,1,0,0:0:0:0:
21,229,15495,2,0,L|19:191,3,28.874999118805,2|0|0|0,0:0|0:0|1:2|0:0,0:0:0:0:
67,97,15946,1,10,0:0:0:0:
67,97,16059,1,0,0:0:0:0:
67,97,16172,2,0,L|76:138,1,28.874999118805,2|0,0:0|0:0,0:0:0:0:
171,92,16398,6,0,P|184:129|188:188,1,92.812503540516,2|2,1:2|0:0,0:0:0:0:
286,108,17074,1,2,0:0:0:0:
337,182,17300,2,0,P|386:211|458:221,1,123.750004720688,2|0,0:0|0:0,0:0:0:0:
512,129,17977,1,8,1:2:0:0:
512,129,18089,1,0,0:0:0:0:
512,129,18202,6,0,P|519:88|507:31,1,92.812503540516,2|2,1:2|0:0,0:0:0:0:
391,10,18879,1,2,0:0:0:0:
334,84,19104,2,0,B|309:102|275:89|275:89|236:72|192:103,1,123.750004720688,2|0,0:0|0:0,0:0:0:0:
198,176,19781,2,0,L|201:226,1,30.937501180172,2|0,0:0|0:0,0:0:0:0:
113,214,20007,6,0,P|92:171|90:116,1,92.812503540516,2|2,1:2|0:0,0:0:0:0:
162,26,20683,1,2,0:0:0:0:
215,89,20909,2,0,P|263:70|322:66,1,92.812503540516,2|2,0:0|0:0,0:0:0:0:
392,194,21586,1,8,1:2:0:0:
392,194,21698,1,0,0:0:0:0:
392,194,21811,6,0,P|408:234|462:269,1,92.812503540516,2|2,1:2|0:0,0:0:0:0:
331,309,22488,1,2,0:0:0:0:
284,239,22713,2,0,L|202:237,1,61.875002360344,2|2,1:2|0:0,0:0:0:0:
184,252,23052,2,0,L|102:250,1,61.875002360344,2|2,1:2|0:0,0:0:0:0:
84,273,23390,2,0,L|41:273,1,30.937501180172,10|2,1:2|0:2,0:0:0:0:
177,369,23616,6,0,P|230:360|282:326,1,102.093750973642,10|2,1:2|0:0,0:0:0:0:
271,335,24067,1,8,0:0:0:0:
362,349,24292,1,2,0:0:0:0:
473,301,24518,2,0,P|408:285|376:228,1,136.125001298189,10|8,0:0|0:0,0:0:0:0:
395,116,25195,2,0,L|396:158,1,34.0312503245473,2|2,1:2|0:2,0:0:0:0:
293,117,25420,6,0,P|321:84|335:22,1,102.093750973642,10|2,1:2|0:0,0:0:0:0:
335,28,25871,2,0,P|303:7|265:-1,1,68.0625006490946,8|2,0:0|0:0,0:0:0:0:
189,73,26322,2,0,P|141:83|92:162,1,136.125001298189,10|10,0:0|0:0,0:0:0:0:
98,239,26999,1,2,0:0:0:0:
181,163,27225,6,0,P|217:163|291:177,1,102.093750973642,10|2,1:2|0:0,0:0:0:0:
281,174,27676,1,8,0:0:0:0:
370,138,27901,1,2,0:0:0:0:
464,206,28127,2,0,P|453:142|464:79,1,102.093750973642,10|2,0:0|0:0,0:0:0:0:
456,105,28578,1,8,0:0:0:0:
357,27,28804,1,2,1:2:0:0:
305,165,29029,6,0,B|272:221|314:258|314:258|364:303|335:358|335:358|300:360|276:372,1,272.250002596378,2|0,1:2|0:0,0:0:0:0:
149,364,30157,1,10,0:2:0:0:
115,361,30269,1,10,0:2:0:0:
81,358,30383,2,0,P|101:296|151:292,1,102.093750973642,10|0,0:0|0:0,0:0:0:0:
200,243,30834,6,0,P|173:200|122:177,1,102.093750973642,6|2,1:2|0:0,0:0:0:0:
89,173,31285,1,8,0:0:0:0:
164,106,31510,1,2,0:0:0:0:
164,106,31623,1,8,0:0:0:0:
164,106,31736,1,2,0:0:0:0:
74,75,31961,1,2,1:3:0:0:
210,30,32187,2,0,P|243:27|277:30,1,68.0625006490946,10|2,0:0|0:0,0:0:0:0:
322,95,32525,1,2,0:0:0:0:
331,118,32638,6,0,P|315:171|317:223,1,102.093750973642,2|2,1:2|0:0,0:0:0:0:
336,246,33089,1,8,0:0:0:0:
295,324,33315,1,2,0:0:0:0:
295,324,33428,1,8,0:0:0:0:
295,324,33540,2,0,P|252:329|221:329,1,68.0625006490946,2|2,0:0|1:3,0:0:0:0:
91,355,33992,2,0,P|133:327|152:293,1,68.0625006490946,10|2,0:0|0:0,0:0:0:0:
165,220,34330,1,2,0:0:0:0:
149,206,34443,6,0,P|140:150|140:100,1,102.093750973642,2|2,1:2|0:0,0:0:0:0:
154,62,34894,1,8,0:0:0:0:
234,106,35119,1,2,0:0:0:0:
234,106,35232,1,8,0:0:0:0:
234,106,35345,1,2,0:0:0:0:
250,18,35571,1,2,1:3:0:0:
360,58,35796,2,0,P|398:51|438:51,1,68.0625006490946,10|2,0:0|1:2,0:0:0:0:
472,123,36134,1,2,0:0:0:0:
481,144,36247,6,0,P|477:201|488:261,1,102.093750973642,2|2,1:2|0:0,0:0:0:0:
505,283,36698,1,8,0:0:0:0:
480,368,36924,1,2,0:0:0:0:
480,368,37037,1,8,0:0:0:0:
480,368,37149,2,0,P|432:365|394:365,1,68.0625006490946,2|2,0:0|1:3,0:0:0:0:
276,382,37601,1,10,0:0:0:0:
326,313,37826,2,0,L|320:279,1,34.0312503245473,4|4,0:3|0:3,0:0:0:0:
200,335,38052,6,0,P|224:295|232:207,1,123.75,6|2,1:2|0:0,0:0:0:0:
216,181,38503,1,8,3:2:0:0:
115,230,38728,1,2,0:0:0:0:
115,230,38841,1,8,0:0:0:0:
115,230,38954,1,2,1:2:0:0:
66,159,39180,1,0,1:0:0:0:
161,49,39405,2,0,P|146:88|148:129,1,82.5,10|2,0:0|0:0,0:0:0:0:
216,181,39743,1,10,0:0:0:0:
250,178,39856,5,2,1:2:0:0:
403,83,40082,1,8,0:3:0:0:
361,86,40195,2,0,B|320:99|320:99|266:95,1,82.5,8|2,1:2|1:2,0:2:0:0:
243,98,40533,1,8,0:0:0:0:
390,178,40758,6,0,P|395:232|431:300,1,123.75,6|2,0:0|0:0,0:0:0:0:
458,307,41210,1,8,0:0:0:0:
363,371,41435,2,0,L|322:366,1,41.25,2|8,0:0|0:0,0:0:0:0:
165,291,41661,6,0,P|245:306|320:274,1,165,2|8,1:2|0:0,0:0:0:0:
394,138,42337,1,2,1:2:0:0:
390,158,42449,1,8,0:0:0:0:
390,178,42562,1,2,0:0:0:0:
487,215,42789,1,2,1:2:0:0:
495,65,43014,1,10,0:0:0:0:
402,121,43240,1,2,0:0:0:0:
239,38,43465,6,0,B|197:25|157:51|157:51|119:77|59:55,1,165,6|8,1:2|0:0,0:0:0:0:
0,6,44142,1,2,0:0:0:0:
17,128,44368,1,2,0:0:0:0:
17,128,44480,1,8,0:0:0:0:
17,128,44593,1,2,1:2:0:0:
160,68,44819,2,0,P|175:105|175:159,1,82.5,10|2,0:0|0:0,0:0:0:0:
117,224,45157,1,0,1:0:0:0:
136,265,45270,6,0,P|190:285|266:273,1,123.75,2|0,1:2|0:2,0:0:0:0:
307,215,45721,1,8,0:0:0:0:
430,358,45946,1,8,0:0:0:0:
427,319,46058,1,8,0:0:0:0:
426,285,46171,1,8,0:0:0:0:
426,285,47074,6,0,P|353:339|249:349,1,181.500005538941,6|8,1:2|0:0,0:0:0:0:
172,289,47751,1,2,0:0:0:0:
172,289,47864,1,2,0:0:0:0:
172,289,47977,2,0,L|116:293,2,45.3750013847352,2|8|0,0:0|0:0|1:2,0:0:0:0:
266,239,48315,1,2,0:0:0:0:
290,218,48428,2,0,B|297:190|294:165|294:165|282:138|282:138|278:108|281:70,1,136.125004154205,8|0,0:0|0:0,0:0:0:0:
307,44,48879,6,0,L|355:39,1,45.3750013847352,2|0,1:2|0:0,0:0:0:0:
411,122,49104,2,0,L|365:117,1,45.3750013847352,2|0,0:0|0:0,0:0:0:0:
492,9,49330,1,8,0:0:0:0:
499,101,49555,1,2,0:0:0:0:
499,101,49668,1,2,0:0:0:0:
499,101,49781,2,0,L|504:150,1,45.3750013847352,2|8,0:0|0:0,0:0:0:0:
487,248,50007,5,2,1:2:0:0:
441,250,50119,1,2,0:0:0:0:
403,230,50232,1,10,0:0:0:0:
363,233,50344,1,0,0:0:0:0:
328,231,50457,1,2,0:0:0:0:
309,221,50570,1,0,0:0:0:0:
265,232,50683,5,6,1:2:0:0:
299,321,50909,1,2,0:0:0:0:
363,141,51134,1,10,0:0:0:0:
395,261,51360,1,2,0:0:0:0:
403,230,51473,1,2,1:2:0:0:
512,229,51698,1,8,0:0:0:0:
504,198,51811,1,2,1:2:0:0:
434,88,52037,2,0,P|401:61|345:54,1,90.7500027694703,10|2,0:0|0:0,0:0:0:0:
258,150,52488,6,0,P|209:175|123:179,1,136.125004154205,2|2,0:2|0:0,0:0:0:0:
93,147,52939,1,8,0:0:0:0:
14,235,53165,1,4,0:3:0:0:
15,257,53277,1,8,0:3:0:0:
16,280,53390,5,6,0:0:0:0:
164,343,53616,1,8,0:0:0:0:
277,300,53841,1,2,0:0:0:0:
293,283,53954,1,2,0:0:0:0:
308,268,54066,1,10,0:0:0:0:
349,284,54179,1,10,0:0:0:0:
393,276,54292,6,0,P|442:207|382:149,1,181.500005538941,6|10,1:2|0:0,0:0:0:0:
291,181,54969,1,2,0:0:0:0:
254,173,55082,1,2,0:0:0:0:
188,79,55307,1,8,0:0:0:0:
225,71,55420,1,2,1:2:0:0:
339,25,55646,2,0,L|396:33,2,45.3750013847352,10|0|2,0:0|0:0|0:0,0:0:0:0:
459,0,56097,5,2,1:2:0:0:
405,152,56322,1,2,0:0:0:0:
225,71,56548,1,10,0:0:0:0:
288,155,56774,1,2,1:2:0:0:
286,195,56886,1,2,0:2:0:0:
160,179,57112,1,8,0:2:0:0:
158,139,57224,1,2,1:2:0:0:
242,267,57450,2,0,P|308:278|365:243,1,136.125004154205,8|0,0:0|0:0,0:0:0:0:
380,166,57901,5,8,1:3:0:0:
288,155,58127,1,2,0:0:0:0:
259,185,58240,1,4,0:3:0:0:
111,194,58465,1,10,0:0:0:0:
106,153,58577,1,2,1:2:0:0:
127,122,58690,1,2,0:0:0:0:
131,80,58804,6,0,P|191:42|225:47,1,90.7500027694703,12|2,1:2|0:0,0:0:0:0:
237,76,59142,1,2,0:0:0:0:
277,71,59255,1,2,1:2:0:0:
301,38,59367,1,2,0:0:0:0:
339,23,59480,1,10,0:0:0:0:
379,21,59593,1,2,0:0:0:0:
416,37,59706,5,2,1:2:0:0:
368,149,59931,1,2,0:0:0:0:
459,34,60157,1,10,0:0:0:0:
501,152,60383,1,2,1:2:0:0:
460,146,60495,1,10,0:0:0:0:
477,246,60721,1,8,0:0:0:0:
512,233,60834,1,2,1:2:0:0:
387,279,61059,2,0,P|336:256|275:246,1,90.7500027694703,10|2,0:0|0:0,0:0:0:0:
132,295,61510,6,0,P|161:239|154:106,1,181.500005538941,2|8,1:2|0:0,0:0:0:0:
72,22,62187,1,4,0:3:0:0:
67,44,62299,1,8,0:3:0:0:
63,66,62412,1,8,0:0:0:0:
82,165,62638,1,0,0:0:0:0:
82,165,62751,2,0,P|123:181|169:181,1,90.7500027694703,4|0,0:3|0:0,0:0:0:0:
242,136,63089,1,10,0:0:0:0:
309,260,63315,6,0,L|301:325,2,57.7499982376099,6|4|8,1:2|0:3|0:3,0:0:0:0:
393,263,63992,2,0,L|394:277,2,14.4374995594025,2|2|2,0:0|0:0|0:0,0:0:0:0:
425,298,64217,5,6,1:2:0:0:
400,178,64443,1,2,1:2:0:0:
400,178,64555,1,2,1:2:0:0:
400,178,64668,2,0,L|396:125,1,41.25,10|2,0:0|0:0,0:0:0:0:
277,58,64894,2,0,L|273:107,1,47.4375009047985,10|2,0:0|0:0,0:0:0:0:
226,285,65119,6,0,P|211:206|150:140,1,160.874992635727,6|2,1:2|0:0,0:0:0:0:
111,148,65571,1,8,0:0:0:0:
170,46,65796,1,2,1:2:0:0:
170,46,65909,1,8,0:0:0:0:
170,46,66022,2,0,L|284:58,1,107.249995090485,2|2,0:0|0:3,0:0:0:0:
360,206,66473,2,0,P|351:146|433:92,1,160.874992635727,10|0,0:0|0:0,0:0:0:0:
469,101,66924,6,0,B|495:124|495:124|516:173|481:212|481:212|451:249|480:313,1,214.49999018097,2|8,1:2|0:0,0:0:0:0:
370,359,67601,1,2,1:2:0:0:
343,357,67713,1,8,0:0:0:0:
316,355,67826,1,2,0:0:0:0:
356,255,68052,1,2,0:3:0:0:
209,362,68277,1,8,0:0:0:0:
177,259,68503,1,2,0:0:0:0:
317,133,68728,5,2,1:2:0:0:
267,225,68954,1,2,1:2:0:0:
221,94,69180,2,0,P|173:63|112:46,1,107.249995090485,10|2,0:0|1:2,0:0:0:0:
87,56,69518,2,0,B|53:87|69:135|69:135|87:178|69:236,1,160.874992635727,10|2,1:2|0:3,0:0:0:0:
23,359,70082,1,10,0:0:0:0:
115,304,70307,1,2,0:0:0:0:
263,366,70533,6,0,B|295:378|332:376|332:376|392:327|381:225,1,214.49999018097,2|8,1:2|0:0,0:0:0:0:
326,153,71210,2,0,L|328:99,1,53.6249975452424,2|8,1:2|0:0,0:0:0:0:
228,192,71435,1,0,1:0:0:0:
229,218,71547,1,4,0:3:0:0:
230,245,71660,1,8,0:3:0:0:
170,375,71886,1,10,0:0:0:0:
343,315,72112,1,8,0:0:0:0:
395,307,72224,1,8,0:0:0:0:
448,318,72337,6,0,P|501:260|503:181,1,160.874992635727,6|2,1:2|0:0,0:0:0:0:
472,143,72789,1,8,0:0:0:0:
396,216,73014,1,2,1:2:0:0:
369,214,73126,1,8,0:0:0:0:
341,214,73239,1,2,0:0:0:0:
343,315,73465,1,2,0:3:0:0:
205,266,73691,2,0,B|191:228|206:199|206:199|240:160|212:96,1,160.874992635727,10|0,0:0|0:0,0:0:0:0:
185,75,74142,6,0,P|108:70|62:137,1,160.874992635727,2|2,1:2|0:0,0:0:0:0:
82,180,74593,1,8,0:0:0:0:
203,214,74819,1,2,1:2:0:0:
229,213,74931,1,8,0:0:0:0:
256,213,75044,1,2,0:0:0:0:
306,135,75270,1,2,0:3:0:0:
368,311,75495,1,8,0:0:0:0:
273,318,75721,1,2,0:0:0:0:
273,318,75834,1,2,0:0:0:0:
273,318,75946,6,0,P|218:326|170:360,1,107.249995090485,2|0,1:2|0:0,0:0:0:0:
24,274,76398,1,10,0:0:0:0:
113,305,76623,1,2,1:2:0:0:
113,305,76736,1,10,0:0:0:0:
113,305,76849,1,2,0:0:0:0:
92,177,77074,1,2,0:3:0:0:
44,363,77300,1,10,0:0:0:0:
171,372,77525,1,2,0:0:0:0:
214,177,77751,6,0,P|254:131|311:105,1,115.49999647522,6|0,1:2|1:0,0:0:0:0:
392,114,78089,2,0,P|353:33|313:18,1,115.49999647522,10|0,0:2|1:0,0:0:0:0:
196,15,78428,6,0,P|229:36|261:39,1,61.875002360344,6|0,0:0|0:0,0:0:0:0:
467,13,78653,2,0,P|392:109|440:227,1,247.500009441376,12|2,0:0|1:2,0:0:0:0:
512,127,79330,1,10,0:0:0:0:
499,326,79555,6,0,P|423:345|347:320,1,160.874992635727,6|2,1:2|0:0,0:0:0:0:
325,279,80007,1,8,0:0:0:0:
202,361,80232,1,2,1:2:0:0:
202,361,80345,1,8,0:0:0:0:
202,361,80458,2,0,P|223:287|223:223,1,107.249995090485,2|0,0:0|1:0,0:0:0:0:
167,81,80909,2,0,B|186:66|208:67|208:67|263:91|329:63,1,160.874992635727,10|0,0:0|0:0,0:0:0:0:
361,41,81360,6,0,B|390:45|409:63|409:63|436:109|424:177,1,160.874992635727,2|2,1:2|0:0,0:0:0:0:
392,205,81811,1,8,0:0:0:0:
290,273,82037,1,2,1:2:0:0:
290,299,82149,1,8,0:0:0:0:
291,326,82262,2,0,L|183:339,1,107.249995090485,2|2,0:2|0:3,0:0:0:0:
0,343,82713,2,0,B|25:333|41:310|41:310|19:253|40:173,1,160.874992635727,10|0,0:0|0:0,0:0:0:0:
67,161,83165,5,2,1:2:0:0:
148,245,83390,1,2,2:2:0:0:
151,80,83616,1,10,0:0:0:0:
238,170,83841,1,2,0:0:0:0:
238,170,83954,1,8,0:0:0:0:
238,170,84067,1,2,1:2:0:0:
328,84,84292,1,2,0:3:0:0:
392,205,84518,2,0,P|407:254|409:318,1,107.249995090485,10|0,0:0|0:0,0:0:0:0:
236,339,84969,6,0,P|186:310|75:299,1,160.874992635727,2|2,1:2|0:0,0:0:0:0:
43,321,85420,1,8,0:0:0:0:
13,195,85646,1,2,1:2:0:0:
14,168,85758,1,8,0:0:0:0:
15,141,85871,2,0,P|32:85|71:32,1,107.249995090485,2|2,0:0|0:3,0:0:0:0:
229,95,86322,1,12,0:0:0:0:
125,125,86548,1,2,0:0:0:0:
298,214,86774,6,0,P|318:267|324:325,1,115.49999647522,14|0,1:2|0:0,0:0:0:0:
208,273,87112,2,0,P|187:326|181:384,1,115.49999647522,10|0,0:2|0:0,0:0:0:0:
70,313,87450,2,0,P|48:204|124:124,1,230.99999295044,14|2,0:0|1:2,0:0:0:0:
301,111,88127,2,0,P|364:109|411:83,1,115.49999647522,10|0,0:0|0:0,0:0:0:0:
173,25,88578,6,0,B|144:75|165:110|165:110|187:149|166:215,1,160.874992635727,6|0,1:2|0:0,0:0:0:0:
114,265,89029,2,0,P|76:221|79:169,1,107.249995090485,10|2,0:0|0:0,0:0:0:0:
85,164,89368,1,8,0:0:0:0:
92,155,89480,1,2,1:2:0:0:
0,84,89706,1,0,1:0:0:0:
173,25,89931,2,0,L|288:34,1,107.249995090485,10|0,0:0|1:0,0:0:0:0:
428,20,90383,6,0,P|402:65|391:138,1,107.249995090485,8|4,1:2|0:3,0:0:0:0:
366,143,90721,1,8,0:3:0:0:
393,247,90946,1,2,1:2:0:0:
385,287,91059,1,4,0:3:0:0:
218,190,91285,6,0,P|204:147|220:73,1,107.249995090485,14|0,0:0|0:0,0:0:0:0:
155,17,91623,2,0,P|124:51|52:74,1,107.249995090485,2|0,1:2|0:0,0:0:0:0:
36,159,91961,1,10,0:0:0:0:
128,268,92187,6,0,B|128:291|115:324|115:324|167:361|242:348,1,160.874992635727,6|0,0:0|0:0,0:0:0:0:
259,325,92638,1,8,0:0:0:0:
214,202,92864,1,2,1:2:0:0:
209,150,92976,1,8,0:0:0:0:
126,86,93202,1,10,0:0:0:0:
114,131,93315,1,0,1:0:0:0:
0,237,93540,6,0,P|18:194|29:115,1,111.374996601105,10|0,0:0|0:0,0:0:0:0:
14,35,93992,6,0,B|62:30|98:62|98:62|161:15|244:38,1,230.99999295044,6|8,1:2|0:0,0:0:0:0:
371,172,94668,1,2,1:2:0:0:
333,144,94780,1,8,0:0:0:0:
323,101,94894,6,0,P|280:139|225:153,1,115.49999647522,4|0,0:0|0:0,0:0:0:0:
136,195,95232,2,0,P|178:233|234:247,1,115.49999647522,10|0,0:0|0:0,0:0:0:0:
323,290,95571,1,10,0:0:0:0:
81,374,95796,5,6,1:2:0:0:
81,374,96924,5,0,1:0:0:0:
175,316,97149,2,0,L|101:276,1,74.2499977340699,10|0,0:0|0:0,0:0:0:0:
109,281,97601,1,2,0:0:0:0:
256,192,97713,12,0,100758,0:0:0:0:
