osu file format v14

[General]
AudioFilename: audio.mp3
AudioLeadIn: 0
PreviewTime: 64555
Countdown: 0
SampleSet: Soft
StackLeniency: 0.5
Mode: 0
LetterboxInBreaks: 0
WidescreenStoryboard: 1

[Editor]
Bookmarks: 16398,30834,40082,41661,47074
DistanceSpacing: 1
BeatDivisor: 4
GridSize: 32
TimelineZoom: 1.4

[Metadata]
Title:Sabishigariya no Quicksilver
TitleUnicode:寂しがりやのクイックシルバー
Artist:GET IN THE RING
ArtistUnicode:GET IN THE RING
Creator:Cami
Version:Normal
Source:東方Project
Tags:Ayyri eiri- Touhou Toho みぃ Mie GCHM Jell Arcadia 夢消失 ~ Lost Dream Yume Shoushitsu 東方夢時空 ~ Phantasmagoria of Dimensional Dream. 東方妖々夢 ~ Perfect Cherry Blossom. 幽霊楽団 ~ Phantom Ensemble Ghostly Band
BeatmapID:1775109
BeatmapSetID:848617

[Difficulty]
HPDrainRate:3
CircleSize:2
OverallDifficulty:4
ApproachRate:5
SliderMultiplier:1.15
SliderTickRate:1

[Events]
//Background and Video events
0,0,"Sabishi ga riya thanks zhuriel.jpg",0,0
//Break Periods
//Storyboard Layer 0 (Background)
//Storyboard Layer 1 (Fail)
//Storyboard Layer 2 (Pass)
//Storyboard Layer 3 (Foreground)
//Storyboard Sound Samples

[TimingPoints]
1962,451.127819548872,4,2,1,65,1,0
23616,-100,4,2,2,65,0,0
23728,-100,4,2,1,65,0,0
24067,-100,4,2,2,65,0,0
24631,-100,4,2,1,65,0,0
24969,-100,4,2,2,65,0,0
25533,-100,4,2,1,65,0,0
25871,-100,4,2,2,65,0,0
26886,-100,4,2,1,65,0,0
27225,-100,4,2,2,65,0,0
27337,-100,4,2,1,65,0,0
27676,-100,4,2,2,65,0,0
28240,-100,4,2,1,65,0,0
28578,-100,4,2,2,65,0,0
28691,-100,4,2,1,65,0,0
30383,-100,4,2,1,85,0,0
30495,-100,4,2,1,65,0,0
45946,-100,4,2,1,45,0,0
46172,-100,4,2,1,85,0,0
47074,-100,4,2,1,70,0,0
59480,-100,4,2,1,45,0,0
59706,-100,4,2,1,70,0,0
60495,-100,4,2,1,45,0,0
60608,-100,4,2,1,70,0,0
65119,-90.9090909090909,4,2,1,85,0,1
69518,-90.9090909090909,4,2,1,55,0,1
69631,-90.9090909090909,4,2,1,85,0,1
76736,-90.9090909090909,4,2,1,55,0,1
76849,-90.9090909090909,4,2,1,85,0,1
77751,-90.9090909090909,4,2,1,95,0,1
78428,-90.9090909090909,4,2,1,100,0,1
79104,-90.9090909090909,4,2,1,70,0,1
79555,-90.9090909090909,4,2,1,85,0,1
83954,-90.9090909090909,4,2,1,55,0,1
84067,-90.9090909090909,4,2,1,85,0,1
90383,-90.9090909090909,4,2,1,90,0,1
93992,-90.9090909090909,4,2,1,95,0,1
95796,-100,4,2,1,65,0,0
100758,-100,4,2,1,5,0,0

[Colours]
Combo1 : 255,143,89
Combo2 : 28,255,255
Combo3 : 191,191,191
Combo4 : 146,255,36

[HitObjects]
225,287,1962,6,0,P|254:254|325:235,1,115,6|10,1:2|0:0,0:0:0:0:
423,288,2864,2,0,L|424:227,1,57.5,2|2,0:0|1:2,0:0:0:0:
418,173,3315,1,8,0:0:0:0:
321,234,3766,2,0,B|263:235|263:235|204:203,1,115,2|8,1:2|0:0,0:0:0:0:
115,146,4668,2,0,L|109:216,1,57.5,2|2,0:0|1:2,0:0:0:0:
104,260,5119,1,8,0:0:0:0:
186,340,5571,6,0,B|213:353|241:342|241:342|272:329|310:343,1,115,2|8,1:2|0:0,0:0:0:0:
409,368,6473,2,0,L|472:362,1,57.5,2|2,0:0|1:2,0:0:0:0:
496,311,6924,1,8,0:0:0:0:
405,240,7375,2,0,P|396:184|408:120,1,115,2|8,1:2|0:0,0:0:0:0:
427,73,8052,1,2,0:0:0:0:
427,73,8277,2,0,L|384:19,1,57.5,2|2,1:2|1:2,0:0:0:0:
334,15,8728,1,14,0:0:0:0:
244,87,9180,6,0,B|228:116|228:116|237:208,1,115,6|8,1:2|0:0,0:0:0:0:
262,309,10082,2,0,L|198:296,1,57.5,2|2,0:0|1:2,0:0:0:0:
151,278,10533,1,10,0:0:0:0:
235,197,10984,2,0,B|294:199|294:199|349:229,1,115,2|8,1:2|0:0,0:0:0:0:
392,329,11886,2,0,L|447:287,1,57.5,2|2,0:0|1:2,0:0:0:0:
455,239,12337,1,8,0:0:0:0:
361,171,12789,6,0,P|356:125|409:78,1,115,2|8,1:2|0:0,0:0:0:0:
507,127,13691,2,0,P|512:85|505:18,2,86.25,10|8|4,0:0|0:0|1:2,0:0:0:0:
512,131,15721,1,0,1:0:0:0:
512,131,15946,1,8,0:0:0:0:
452,229,16398,6,0,P|417:252|333:251,1,115,2|2,1:2|0:0,0:0:0:0:
374,144,17300,1,2,0:0:0:0:
288,67,17751,2,0,L|218:78,1,57.5,2|10,0:0|1:2,0:0:0:0:
180,102,18202,2,0,P|202:154|190:216,1,115,2|2,1:2|0:0,0:0:0:0:
87,165,19104,1,2,0:0:0:0:
34,267,19555,2,0,L|41:341,1,57.5,2|2,0:0|0:0,0:0:0:0:
89,353,20007,6,0,P|138:335|203:342,1,115,2|2,1:2|0:0,0:0:0:0:
309,374,20909,1,2,0:0:0:0:
389,291,21360,2,0,L|385:233,1,57.5,2|10,0:0|1:2,0:0:0:0:
407,180,21811,2,0,P|462:167|510:118,1,115,2|2,1:2|0:0,0:0:0:0:
403,72,22713,2,0,P|359:56|335:20,2,86.25,2|2|10,1:2|1:2|0:0,0:0:0:0:
384,126,23616,6,0,P|342:156|279:160,1,115,10|10,1:2|0:0,0:0:0:0:
171,122,24518,2,0,P|165:173|186:231,1,115,10|10,0:2|0:0,0:0:0:0:
236,261,25195,1,2,1:2:0:0:
236,261,25420,2,0,P|257:310|251:388,1,115,10|10,1:2|0:0,0:0:0:0:
145,339,26322,1,10,0:0:0:0:
128,224,26774,2,0,P|148:195|164:178,1,57.5,10|2,0:0|0:0,0:0:0:0:
214,208,27225,6,0,P|261:228|327:221,1,115,10|10,1:2|0:0,0:0:0:0:
398,134,28127,2,0,P|392:82|356:28,1,115,10|10,0:2|0:0,0:0:0:0:
300,28,28804,1,2,1:2:0:0:
300,28,29029,1,2,1:2:0:0:
300,28,30383,1,8,0:0:0:0:
193,71,30834,6,0,P|161:120|164:181,1,115,6|10,1:2|0:0,0:0:0:0:
262,231,31736,2,0,P|231:267|154:288,1,115,2|8,0:0|0:0,0:0:0:0:
111,279,32413,1,2,0:0:0:0:
111,279,32638,2,0,B|69:244|69:244|63:180,1,115,2|8,1:2|0:0,0:0:0:0:
161,123,33540,2,0,L|162:42,1,57.5,2|2,1:2|1:3,0:0:0:0:
174,9,33992,1,10,0:0:0:0:
274,64,34443,6,0,P|323:75|392:45,1,115,2|8,1:2|0:0,0:0:0:0:
489,11,35345,1,2,1:2:0:0:
473,124,35796,1,8,0:0:0:0:
365,165,36247,2,0,P|347:213|357:277,1,115,2|8,1:2|0:0,0:0:0:0:
267,348,37149,2,0,L|189:354,1,57.5,2|2,1:2|1:3,0:0:0:0:
152,344,37601,1,10,0:0:0:0:
199,239,38052,6,0,P|183:189|129:137,1,115,6|10,1:2|0:0,0:0:0:0:
29,172,38954,2,0,P|31:119|75:56,1,115,10|8,0:0|0:0,0:0:0:0:
117,50,39631,1,2,0:0:0:0:
117,50,39856,2,0,B|144:55|164:79|164:79|196:66|235:76,1,115,10|8,1:2|0:0,0:0:0:0:
280,98,40533,1,10,0:0:0:0:
280,98,40758,2,0,P|329:80|394:85,1,115,6|10,1:2|0:0,0:0:0:0:
476,157,41661,6,0,B|496:207|496:207|485:287,1,115,2|8,1:2|0:0,0:0:0:0:
390,330,42563,1,2,0:0:0:0:
307,249,43014,2,0,L|243:253,1,57.5,10|2,0:0|0:0,0:0:0:0:
192,261,43465,2,0,P|149:276|100:336,1,115,6|10,1:2|0:0,0:0:0:0:
210,369,44368,2,0,P|253:354|297:297,1,115,2|10,0:2|0:0,0:0:0:0:
307,249,45044,1,2,0:0:0:0:
307,249,45270,6,0,P|304:203|341:147,1,115,2|10,1:2|0:0,0:0:0:0:
397,140,45946,1,0,1:0:0:0:
397,140,46172,1,8,0:0:0:0:
397,140,47074,5,4,0:0:0:0:
355,32,47525,2,0,L|296:32,1,57.5,8|2,0:0|0:0,0:0:0:0:
258,74,47977,2,0,P|205:72|160:56,2,86.25,2|2|2,0:0|0:0|0:0,0:0:0:0:
281,126,48879,2,0,L|273:196,1,57.5,2|0,1:2|0:0,0:0:0:0:
271,241,49330,2,0,P|306:303|335:323,2,86.25,10|2|2,0:0|1:2|0:0,0:0:0:0:
214,254,50232,1,8,0:0:0:0:
108,298,50683,6,0,L|48:290,1,57.5,6|0,1:2|0:0,0:0:0:0:
4,256,51134,2,0,P|2:198|8:134,1,115,10|2,0:0|1:2,0:0:0:0:
108,87,52037,1,10,0:0:0:0:
208,142,52488,1,2,1:2:0:0:
319,112,52939,1,10,0:0:0:0:
418,169,53390,6,0,L|402:251,2,57.5,6|8|2,1:2|0:0|0:0,0:0:0:0:
368,139,54067,1,10,0:0:0:0:
368,139,54292,6,0,B|342:151|323:169|323:169|291:158|257:166,1,115,6|8,1:2|0:0,0:0:0:0:
159,215,55195,2,0,P|109:221|68:207,2,86.25,2|2|2,1:2|0:0|0:0,0:0:0:0:
197,171,56097,2,0,L|190:113,1,57.5,2|0,1:2|0:0,0:0:0:0:
221,64,56548,2,0,L|326:80,2,86.25,10|2|2,0:0|0:0|1:2,0:0:0:0:
184,19,57450,1,8,0:0:0:0:
77,61,57901,6,0,B|66:86|66:86|61:188,1,115,8|10,1:3|0:0,0:0:0:0:
97,227,58578,1,4,0:3:0:0:
97,227,58804,2,0,B|120:241|120:241|227:238,1,115,4|2,1:2|0:0,0:0:0:0:
311,187,59706,1,2,0:0:0:0:
399,113,60157,2,0,L|410:24,2,86.25,10|10|2,0:0|0:0|1:2,0:0:0:0:
433,164,61059,2,0,L|436:225,1,57.5,10|2,0:0|0:0,0:0:0:0:
414,275,61510,5,2,1:2:0:0:
247,253,62187,1,4,0:3:0:0:
247,253,62413,2,0,B|193:239|193:239|158:246,2,86.25,10|8|10,0:0|0:3|0:0,0:0:0:0:
270,201,63315,1,4,0:0:0:0:
270,201,64217,5,2,1:2:0:0:
378,240,64668,2,0,P|383:197|382:164,1,57.5,10|10,0:0|0:0,0:0:0:0:
341,136,65119,6,0,P|349:64|390:26,1,126.500003860474,6|8,1:2|0:0,0:0:0:0:
449,31,65796,1,2,1:2:0:0:
449,31,66022,2,0,L|510:55,1,63.2500019302369,2|2,0:0|0:3,0:0:0:0:
509,118,66473,1,10,0:0:0:0:
441,225,66924,2,0,P|438:283|456:359,1,126.500003860474,2|8,1:2|0:0,0:0:0:0:
389,354,67601,2,0,P|336:384|250:378,1,126.500003860474,0|2,1:3|1:2,0:0:0:0:
237,333,68277,2,0,L|168:337,1,63.2500019302369,10|2,0:0|0:0,0:0:0:0:
110,340,68728,5,2,1:2:0:0:
123,214,69180,2,0,B|80:188|80:188|21:180,2,94.8750028953553,10|10|2,0:0|0:0|1:2,0:0:0:0:
174,178,70082,2,0,L|177:105,1,63.2500019302369,10|2,0:0|0:0,0:0:0:0:
206,59,70533,2,0,P|256:31|330:37,1,126.500003860474,2|8,1:2|0:0,0:0:0:0:
282,161,71435,1,2,0:0:0:0:
328,279,71886,2,0,L|407:282,1,63.2500019302369,10|8,0:0|0:0,0:0:0:0:
443,318,72337,6,0,P|455:362|506:385,2,94.8750028953553,6|2|2,1:2|0:0|1:2,0:0:0:0:
485,271,73240,2,0,P|487:233|483:201,1,63.2500019302369,2|2,0:0|0:3,0:0:0:0:
439,163,73691,1,10,0:0:0:0:
476,43,74142,2,0,B|455:22|455:22|383:14,2,94.8750028953553,2|2|2,1:2|0:0|1:2,0:0:0:0:
506,99,75044,2,0,P|500:134|485:161,1,63.2500019302369,2|2,0:0|0:3,0:0:0:0:
426,176,75495,1,8,0:0:0:0:
300,194,75946,6,0,L|232:176,1,63.2500019302369,2|0,1:2|0:0,0:0:0:0:
180,152,76398,2,0,L|76:157,2,94.8750028953553,10|10|2,0:0|0:0|1:2,0:0:0:0:
221,105,77300,1,8,0:0:0:0:
340,65,77751,6,0,B|376:66|376:66|404:80|404:80|445:83,2,94.8750028953553,10|10|6,1:2|0:0|0:0,0:0:0:0:
279,85,78653,1,6,0:0:0:0:
317,206,79104,2,0,L|316:276,1,63.2500019302369,2|8,1:2|0:0,0:0:0:0:
313,333,79555,6,0,P|266:372|189:363,1,126.500003860474,6|8,1:2|0:0,0:0:0:0:
168,318,80232,1,2,1:2:0:0:
168,318,80458,2,0,L|175:250,1,63.2500019302369,2|2,0:0|0:3,0:0:0:0:
174,192,80909,1,10,0:0:0:0:
53,231,81360,2,0,P|49:163|79:102,1,126.500003860474,2|8,1:2|0:0,0:0:0:0:
127,81,82037,2,0,P|173:92|254:67,1,126.500003860474,2|2,1:2|1:2,0:0:0:0:
292,27,82713,2,0,L|361:31,1,63.2500019302369,8|2,0:0|0:0,0:0:0:0:
418,36,83165,5,2,1:2:0:0:
478,148,83616,2,0,P|489:205|511:243,2,94.8750028953553,10|10|2,0:0|0:0|1:2,0:0:0:0:
415,139,84518,2,0,L|340:147,1,63.2500019302369,10|2,0:0|0:0,0:0:0:0:
312,195,84969,2,0,P|301:241|261:291,2,94.8750028953553,2|0|2,1:2|0:2|1:2,0:2:0:0:
258,161,85871,1,2,0:0:0:0:
204,47,86322,2,0,L|124:42,1,63.2500019302369,10|8,0:0|0:3,0:0:0:0:
89,81,86773,6,0,P|70:140|36:175,2,94.8750028953553,6|10|6,1:2|0:0|1:2,0:0:0:0:
194,157,87901,1,0,1:0:0:0:
194,157,88127,2,0,L|262:162,1,63.2500019302369,10|0,0:0|0:0,0:0:0:0:
311,195,88578,2,0,P|372:196|437:154,2,126.500003860474,6|10|2,1:2|0:0|0:0,0:0:0:0:
343,73,89931,1,10,0:0:0:0:
225,28,90383,6,0,P|184:37|110:22,2,94.8750028953553,12|8|4,1:2|0:3|1:3,0:0:0:0:
282,55,91285,2,0,B|292:101|292:101|284:129|288:158,2,94.8750028953553,10|4|6,0:0|0:3|0:3,0:0:0:0:
325,9,92187,1,4,0:0:0:0:
256,192,92413,12,4,93992,0:0:0:0:
304,190,94894,6,0,B|303:156|303:156|315:134|315:134|313:85,2,94.8750028953553,12|10|2,0:0|0:0|1:2,0:0:0:0:
322,246,95796,1,4,0:0:0:0:
322,246,97149,1,10,0:0:0:0:
210,272,97601,1,2,0:0:0:0:
256,192,97826,12,0,100758,0:0:0:0:
