osu file format v14

[General]
AudioFilename: audio.mp3
AudioLeadIn: 0
PreviewTime: 114084
Countdown: 0
SampleSet: Soft
StackLeniency: 0.5
Mode: 0
LetterboxInBreaks: 0
WidescreenStoryboard: 0

[Editor]
Bookmarks: 122584
DistanceSpacing: 1.5
BeatDivisor: 4
GridSize: 4
TimelineZoom: 2.2

[Metadata]
Title:Rebirth
TitleUnicode:Rebirth
Artist:GET IN THE RING
ArtistUnicode:GET IN THE RING
Creator:Metaku
Version:Paradise Tries to Be Reborn Again
Source:東方Project
Tags:みぃ c85 comiket 85 東方幻奏響UROBOROS ~fANTASIAsPIRALoVERdRIVE~ touhou Hakurei Reimu 少女綺想曲 ~ Capriccio 春色小径~Colorful Path 二色蓮花蝶 ~ Ancients 東方妖恋談
BeatmapID:1271343
BeatmapSetID:601865

[Difficulty]
HPDrainRate:6
CircleSize:4
OverallDifficulty:8
ApproachRate:8.7
SliderMultiplier:1.6
SliderTickRate:1

[Events]
//Background and Video events
0,0,"reimu.jpg",0,0
//Break Periods
2,139182,148737
//Storyboard Layer 0 (Background)
//Storyboard Layer 1 (Fail)
//Storyboard Layer 2 (Pass)
//Storyboard Layer 3 (Foreground)
//Storyboard Sound Samples

[TimingPoints]
582,400,4,2,1,20,1,0
3782,-100,4,2,1,30,0,0
6982,-100,4,2,1,40,0,0
10182,-100,4,2,1,50,0,0
12182,-142.857142857143,4,2,1,50,0,0
12582,-142.857142857143,4,2,1,5,0,0
12782,-142.857142857143,4,2,1,50,0,0
13382,-83.3333333333333,4,2,1,60,0,0
26182,-125,4,2,1,40,0,0
38582,-125,4,2,1,50,0,0
38982,-125,4,2,1,40,0,0
47582,-125,4,2,1,50,0,0
48582,-90.9090909090909,4,2,1,60,0,0
48882,-90.9090909090909,4,2,1,5,0,0
48982,-90.9090909090909,4,2,1,60,0,0
49282,-90.9090909090909,4,2,1,5,0,0
49382,-90.9090909090909,4,2,1,60,0,0
55282,-90.9090909090909,4,2,1,5,0,0
55382,-90.9090909090909,4,2,1,60,0,0
55682,-90.9090909090909,4,2,1,5,0,0
55782,-90.9090909090909,4,2,1,60,0,0
61382,-100,4,2,1,50,0,0
109382,-100,4,2,1,60,0,0
114182,-71.4285714285714,4,2,1,60,0,1
114482,-71.4285714285714,4,2,1,5,0,1
114582,-71.4285714285714,4,2,1,60,0,1
120482,-71.4285714285714,4,2,1,5,0,1
120582,-71.4285714285714,4,2,1,60,0,1
120882,-71.4285714285714,4,2,1,5,0,1
120982,-71.4285714285714,4,2,1,60,0,1
127282,-71.4285714285714,4,2,1,5,0,1
127382,-71.4285714285714,4,2,1,60,0,1
133282,-71.4285714285714,4,2,1,5,0,1
133382,-71.4285714285714,4,2,1,60,0,1
136582,-166.666666666667,4,2,1,40,0,0
149382,-166.666666666667,4,2,1,20,0,0
172582,-111.111111111111,4,2,1,50,0,0
173382,-83.3333333333333,4,2,1,60,0,1
174482,-83.3333333333333,4,2,1,5,0,1
174582,-83.3333333333333,4,2,1,60,0,1
176482,-83.3333333333333,4,2,1,5,0,1
176582,-83.3333333333333,4,2,1,60,0,1
179682,-83.3333333333333,4,2,1,5,0,1
179782,-83.3333333333333,4,2,1,60,0,1
180882,-83.3333333333333,4,2,1,5,0,1
180982,-83.3333333333333,4,2,1,60,0,1
189282,-83.3333333333333,4,2,1,5,0,1
189382,-83.3333333333333,4,2,1,60,0,1
192482,-83.3333333333333,4,2,1,5,0,1
192582,-83.3333333333333,4,2,1,60,0,1
195782,-83.3333333333333,4,2,1,60,0,0
196082,-83.3333333333333,4,2,1,5,0,0
196182,-83.3333333333333,4,2,1,60,0,0
196482,-83.3333333333333,4,2,1,5,0,0
196582,-83.3333333333333,4,2,1,60,0,0
200482,-83.3333333333333,4,2,1,5,0,0
200582,-83.3333333333333,4,2,1,60,0,0
202482,-83.3333333333333,4,2,1,5,0,0
202582,-83.3333333333333,4,2,1,60,0,0
202882,-83.3333333333333,4,2,1,5,0,0
202982,-83.3333333333333,4,2,1,60,0,0
206882,-83.3333333333333,4,2,1,5,0,0
206982,-83.3333333333333,4,2,1,60,0,0
208882,-83.3333333333333,4,2,1,5,0,0
208982,-83.3333333333333,4,2,1,60,0,0
209282,-83.3333333333333,4,2,1,5,0,0
209382,-83.3333333333333,4,2,1,60,0,0
213282,-83.3333333333333,4,2,1,5,0,0
213382,-83.3333333333333,4,2,1,60,0,0
221382,-166.666666666667,4,2,1,30,0,0
240582,-142.857142857143,4,2,1,40,0,0
248582,-71.4285714285714,4,2,1,60,0,1
248882,-71.4285714285714,4,2,1,5,0,1
248982,-71.4285714285714,4,2,1,60,0,1
254882,-71.4285714285714,4,2,1,5,0,1
254982,-71.4285714285714,4,2,1,60,0,1
255282,-71.4285714285714,4,2,1,5,0,1
255382,-71.4285714285714,4,2,1,60,0,1
261682,-71.4285714285714,4,2,1,5,0,1
261782,-71.4285714285714,4,2,1,60,0,1
267682,-71.4285714285714,4,2,1,5,0,1
267782,-71.4285714285714,4,2,1,60,0,1
270782,-71.4285714285714,4,2,1,60,0,0
270982,-71.4285714285714,4,2,1,60,0,1
271282,-71.4285714285714,4,2,1,5,0,1
271382,-71.4285714285714,4,2,1,60,0,1
277278,-71.4285714285714,4,2,1,5,0,1
277382,-71.4285714285714,4,2,1,60,0,1
277682,-71.4285714285714,4,2,1,5,0,1
277782,-71.4285714285714,4,2,1,60,0,1
284082,-71.4285714285714,4,2,1,5,0,1
284182,-71.4285714285714,4,2,1,60,0,1
290082,-71.4285714285714,4,2,1,5,0,1
290182,-71.4285714285714,4,2,1,60,0,1
296582,-83.3333333333333,4,2,1,60,0,0
297282,-83.3333333333333,4,2,1,5,0,0
297382,-83.3333333333333,4,2,1,60,0,0
301282,-83.3333333333333,4,2,1,5,0,0
301382,-83.3333333333333,4,2,1,60,0,0
303282,-83.3333333333333,4,2,1,5,0,0
303382,-83.3333333333333,4,2,1,60,0,0
303682,-83.3333333333333,4,2,1,5,0,0
303782,-83.3333333333333,4,2,1,60,0,0
307682,-83.3333333333333,4,2,1,5,0,0
307782,-83.3333333333333,4,2,1,60,0,0
309413,400,4,2,1,30,1,0
309413,-142.857142857143,4,2,1,30,0,0

[Colours]
Combo1 : 87,9,89
Combo2 : 128,0,0
Combo3 : 192,154,214
Combo4 : 131,65,65
Combo5 : 164,167,193

[HitObjects]
147,262,582,21,0,0:0:0:0:
151,274,982,1,0,0:0:0:0:
259,86,1382,22,0,P|277:160|228:221,1,160,2|0,0:0|0:0,0:0:0:0:
198,142,1982,1,0,0:0:0:0:
363,170,2182,37,0,0:0:0:0:
367,182,2582,1,0,0:0:0:0:
79,126,2982,21,2,0:0:0:0:
75,142,3182,1,0,0:0:0:0:
191,122,3382,1,2,0:0:0:0:
196,136,3582,1,0,0:0:0:0:
132,28,3782,37,0,0:0:0:0:
136,40,4182,1,0,0:0:0:0:
350,52,4582,22,0,P|283:90|217:53,1,160,2|0,0:0|0:0,0:0:0:0:
284,8,5182,1,0,0:0:0:0:
424,48,5382,37,0,0:0:0:0:
424,65,5582,1,0,0:0:0:0:
422,81,5782,1,0,0:0:0:0:
379,238,6182,21,2,0:0:0:0:
375,218,6382,1,0,0:0:0:0:
464,164,6582,1,2,0:0:0:0:
468,144,6782,1,0,0:0:0:0:
414,346,6982,37,0,0:0:0:0:
418,358,7382,1,0,0:0:0:0:
468,160,7782,22,0,P|500:229|463:296,1,160,2|0,0:0|0:0,0:0:0:0:
420,225,8382,1,0,0:0:0:0:
220,312,8582,38,0,L|379:298,1,160
192,132,9382,21,2,0:0:0:0:
204,152,9582,1,0,0:0:0:0:
196,352,9782,1,2,0:0:0:0:
208,332,9982,1,0,0:0:0:0:
259,241,10182,37,0,0:0:0:0:
269,256,10382,1,0,0:0:0:0:
275,273,10582,1,0,0:0:0:0:
355,52,10982,22,0,P|370:128|323:190,1,160,2|0,0:0|0:0,0:0:0:0:
285,107,11582,1,0,0:0:0:0:
447,154,11782,37,2,0:0:0:0:
471,158,11982,1,0,0:0:0:0:
323,190,12182,22,0,B|212:199|212:199|235:169,1,139.999995727539,2|0,0:0|0:0,0:0:0:0:
277,121,12782,2,0,L|279:93,1,27.9999991455078,2|0,2:0|2:0,2:0:0:0:
203,105,12982,53,0,0:0:0:0:
203,105,13082,1,0,0:0:0:0:
203,105,13182,2,0,L|200:77,1,27.9999991455078,2|0,2:0|2:0,2:0:0:0:
135,200,13382,6,0,P|141:257|105:310,1,95.9999970703126,4|0,1:2|0:0,0:0:0:0:
265,347,13782,2,0,P|218:339|174:356,1,95.9999970703126,0|0,1:2|0:0,0:0:0:0:
64,237,14182,1,8,0:0:0:0:
52,217,14382,1,0,0:0:0:0:
14,376,14582,1,0,1:0:0:0:
12,133,14782,54,0,B|70:127|70:127|133:151|133:151|203:145,1,191.999994140625,12|8,0:0|0:0,0:0:0:0:
51,217,15382,2,0,P|40:269|67:325,1,95.9999970703126,0|0,1:0|0:0,0:0:0:0:
190,166,15782,1,8,0:0:0:0:
123,259,15982,1,0,1:0:0:0:
239,89,16182,6,0,B|288:31|288:31|269:253,1,287.999991210938,4|8,1:2|0:0,0:0:0:0:
190,166,16982,2,0,P|142:150|94:166,1,95.9999970703126,0|0,1:0|0:0,0:0:0:0:
219,302,17382,1,8,0:0:0:0:
142,232,17582,1,0,1:0:0:0:
318,322,17782,2,0,L|223:314,1,95.9999970703126,4|0,0:0|0:0,0:0:0:0:
142,232,18182,53,4,1:2:0:0:
16,320,18382,1,8,0:0:0:0:
148,367,18582,1,4,0:3:0:0:
162,369,18782,1,0,1:0:0:0:
109,142,18982,5,12,0:0:0:0:
270,246,19182,1,0,1:0:0:0:
70,220,19382,1,0,1:0:0:0:
217,78,19582,1,8,0:0:0:0:
452,224,19782,54,0,B|402:223|402:223|362:245,1,95.9999970703126,4|0,1:2|0:0,0:0:0:0:
377,100,20182,2,0,B|352:142|352:142|312:166,1,95.9999970703126,0|0,1:2|0:0,0:0:0:0:
415,325,20582,1,8,0:0:0:0:
421,303,20782,1,0,0:0:0:0:
270,246,20982,1,0,1:0:0:0:
470,99,21182,6,0,B|422:112|422:112|377:100|377:100|352:142|352:142|312:165,1,191.999994140625,12|8,0:0|0:0,0:0:0:0:
200,81,21782,2,0,P|245:67|290:81,1,95.9999970703126,0|0,1:0|0:0,0:0:0:0:
270,246,22182,1,8,0:0:0:0:
295,70,22382,1,8,0:3:0:0:
335,283,22582,54,0,B|393:332|393:332|171:313,1,287.999991210938,4|8,1:2|0:0,0:0:0:0:
270,246,23382,2,0,P|310:212|374:225,1,95.9999970703126,0|0,1:0|0:0,0:0:0:0:
397,344,23782,1,8,0:0:0:0:
335,283,23982,1,0,1:0:0:0:
431,162,24182,2,0,L|423:258,1,95.9999970703126,4|0,0:0|0:0,0:0:0:0:
265,321,24582,5,12,0:0:0:0:
351,212,24782,1,8,0:3:0:0:
397,344,24982,1,4,0:3:0:0:
401,356,25182,1,0,1:0:0:0:
347,200,25382,53,12,0:0:0:0:
493,108,25582,1,0,1:1:0:0:
351,212,25782,2,0,P|295:197|246:224,1,95.9999970703126,8|0,0:0|0:0,0:0:0:0:
174,367,26182,54,0,L|189:221,1,128,4|0,3:2|0:0,0:0:0:0:
180,220,26782,1,0,1:0:0:0:
122,170,26982,1,2,0:0:0:0:
266,146,27382,2,0,L|261:210,1,64,0|0,1:0|0:0,0:0:0:0:
306,272,27782,22,0,L|311:335,2,64,0|0|0,1:2|0:0|0:0,0:0:0:0:
320,256,28382,1,0,1:0:0:0:
384,299,28582,1,2,0:0:0:0:
436,140,28982,1,0,1:0:0:0:
432,161,29182,1,0,1:0:0:0:
428,181,29382,38,0,L|416:47,1,128,0|0,1:2|0:0,0:0:0:0:
401,41,29982,1,0,1:0:0:0:
347,96,30182,1,2,0:0:0:0:
215,65,30582,2,0,L|279:60,1,64,0|0,1:0|0:0,0:0:0:0:
347,96,30982,22,0,L|339:183,2,64,0|0|0,1:0|0:0|0:0,0:0:0:0:
358,78,31582,1,0,1:0:0:0:
436,140,31782,1,2,0:0:0:0:
394,315,32182,1,0,1:0:0:0:
390,295,32382,1,0,1:0:0:0:
386,275,32582,38,0,P|326:251|266:280,1,128,0|0,1:0|0:0,0:0:0:0:
259,292,33182,1,0,1:0:0:0:
328,325,33382,1,2,0:0:0:0:
201,342,33782,2,0,L|121:335,1,64,0|0,1:0|0:0,0:0:0:0:
89,277,34182,22,0,L|80:193,2,64,0|0|0,1:0|0:0|0:0,0:0:0:0:
80,296,34782,1,0,1:0:0:0:
13,258,34982,1,2,0:0:0:0:
143,154,35382,1,0,1:0:0:0:
164,150,35582,1,0,1:0:0:0:
184,146,35782,38,0,L|50:134,1,128,0|0,1:0|0:0,0:0:0:0:
42,119,36382,1,0,1:0:0:0:
95,63,36582,1,2,0:0:0:0:
82,213,36982,2,0,L|18:207,1,64,0|0,1:0|0:0,0:0:0:0:
130,273,37382,21,2,0:0:0:0:
126,294,37582,1,0,1:0:0:0:
122,315,37782,1,0,1:0:0:0:
190,225,38182,54,0,L|185:173,3,32,2|0|0|0,1:2|1:0|1:0|1:0,0:0:0:0:
248,291,38582,2,0,L|245:322,3,32,2|0|0|0,1:2|1:0|1:0|1:0,0:0:0:0:
316,232,38982,54,0,P|396:216|452:256,1,128,4|0,1:2|1:0,0:0:0:0:
442,256,39582,1,0,1:0:0:0:
491,184,39782,2,0,L|502:48,1,128,2|0,0:0|1:0,0:0:0:0:
493,37,40382,1,0,1:0:0:0:
427,76,40582,21,2,0:0:0:0:
407,82,40782,1,0,1:0:0:0:
387,76,40982,1,0,1:0:0:0:
194,48,41382,2,0,L|322:35,1,128,2|0,0:0|1:0,0:0:0:0:
338,21,41982,1,0,1:0:0:0:
293,113,42182,38,0,P|274:168|315:239,1,128,2|0,0:0|1:0,0:0:0:0:
319,241,42782,1,0,1:0:0:0:
263,294,42982,2,0,L|111:280,1,128,2|0,0:0|1:0,0:0:0:0:
119,296,43582,1,0,1:0:0:0:
88,226,43782,21,2,0:0:0:0:
81,206,43982,1,0,1:0:0:0:
85,185,44182,1,0,1:0:0:0:
271,147,44582,2,0,L|144:136,1,128,2|0,0:0|1:0,0:0:0:0:
132,119,45182,1,0,1:0:0:0:
201,219,45382,38,0,P|221:271|184:338,1,128,6|0,1:2|1:0,0:0:0:0:
172,342,45982,1,0,1:0:0:0:
276,348,46182,2,0,L|408:359,1,128,2|0,0:0|1:0,0:0:0:0:
416,376,46782,1,0,1:0:0:0:
477,310,46982,22,0,L|470:246,2,64,2|0|0,0:0|0:0|1:0,0:0:0:0:
416,376,47582,1,0,1:0:0:0:
425,176,47782,53,8,0:3:0:0:
477,310,47982,1,4,0:3:0:0:
356,222,48182,1,0,1:0:0:0:
474,109,48382,1,0,1:0:0:0:
336,312,48582,38,0,B|260:303|260:303|205:316,1,132.00000402832,4|0,1:2|0:0,0:0:0:0:
202,327,48982,2,0,B|211:251|211:251|198:197,1,132.00000402832,4|0,1:2|0:0,0:0:0:0:
188,191,49382,1,8,0:0:0:0:
99,228,49782,22,0,B|274:213|274:213|179:189,1,264.000008056641,4|8,1:2|0:0,0:0:0:0:
144,115,50582,1,0,1:0:0:0:
56,296,50982,1,8,0:0:0:0:
51,306,51382,38,0,B|137:298|137:298|214:343|214:343|304:335|304:335|212:320,1,352.000010742188,4|0,1:2|1:0,0:0:0:0:
417,216,52582,1,8,0:0:0:0:
421,228,52982,1,0,1:0:0:0:
364,322,53182,1,8,0:0:0:0:
348,173,53382,21,0,1:0:0:0:
366,96,53582,1,8,0:0:0:0:
448,91,53782,1,0,1:0:0:0:
464,99,53982,1,0,0:0:0:0:
291,115,54182,38,0,P|245:127|188:102,1,88.000002685547,8|0,0:0|0:0,0:0:0:0:
140,24,54582,1,0,1:0:0:0:
101,200,54782,1,8,0:0:0:0:
264,352,54982,22,0,B|281:284|281:284|264:219,1,132.00000402832,4|0,1:2|0:0,0:0:0:0:
261,212,55382,2,0,B|329:229|329:229|394:212,1,132.00000402832,4|0,1:2|0:0,0:0:0:0:
394,203,55782,1,8,0:0:0:0:
357,114,56182,38,0,B|372:289|372:289|396:194,1,264.000008056641,4|8,1:2|0:0,0:0:0:0:
472,164,56982,1,0,1:0:0:0:
278,100,57382,1,8,0:0:0:0:
266,96,57782,22,0,B|273:182|273:182|228:259|228:259|236:349|236:349|251:257,1,352.000010742188,4|0,1:2|1:0,0:0:0:0:
394,232,58982,1,8,0:0:0:0:
398,244,59382,1,0,1:0:0:0:
253,252,59582,1,8,0:0:0:0:
457,191,59782,37,0,1:0:0:0:
488,118,59982,1,8,0:0:0:0:
440,54,60182,1,0,1:0:0:0:
423,57,60382,1,0,0:0:0:0:
398,244,60582,22,0,L|405:331,1,88.000002685547,8|0,0:0|0:0,0:0:0:0:
457,191,60982,1,0,1:0:0:0:
277,139,61182,1,8,0:0:0:0:
245,334,61382,54,0,P|308:289|308:213,1,160,4|2,1:2|0:0,0:0:0:0:
235,252,61982,1,0,1:0:0:0:
398,243,62182,2,0,L|404:163,1,80,8|0,0:0|0:0,0:0:0:0:
373,89,62582,1,0,1:0:0:0:
281,146,62782,22,0,P|205:178|129:119,1,160,2|2,0:0|0:0,0:0:0:0:
61,90,63382,2,0,L|54:169,1,80,0|0,1:0|0:0,0:0:0:0:
212,90,63782,1,8,0:0:0:0:
143,143,63982,2,0,L|136:222,1,80,0|0,1:0|0:0,0:0:0:0:
79,280,64382,1,2,0:0:0:0:
216,191,64582,38,0,P|290:171|348:221,1,160,0|2,1:2|0:0,0:0:0:0:
272,250,65182,1,0,1:0:0:0:
164,132,65382,2,0,L|171:48,1,80,8|0,0:0|0:0,0:0:0:0:
234,3,65782,1,0,1:0:0:0:
79,77,65982,22,0,L|94:246,1,160,2|2,0:0|0:0,0:0:0:0:
172,174,66582,1,0,1:0:0:0:
176,186,66982,2,0,L|258:178,1,80,8|0,0:0|1:0,0:0:0:0:
327,238,67382,1,0,0:0:0:0:
330,254,67582,1,2,0:0:0:0:
451,96,67782,38,0,P|378:69|316:114,1,160,4|2,1:2|0:0,0:0:0:0:
390,151,68382,1,0,1:0:0:0:
282,33,68582,2,0,L|198:25,1,80,8|0,0:0|0:0,0:0:0:0:
133,66,68982,1,0,1:0:0:0:
198,162,69182,22,0,P|210:243|136:301,1,160,2|2,0:0|0:0,0:0:0:0:
128,377,69782,2,0,L|207:370,1,80,0|0,1:0|0:0,0:0:0:0:
10,296,70182,1,8,0:0:0:0:
51,222,70382,2,0,L|130:215,1,80,0|0,1:0|0:0,0:0:0:0:
198,162,70782,1,2,0:0:0:0:
161,295,70982,38,0,P|230:336|299:300,1,160,0|2,1:2|0:0,0:0:0:0:
232,253,71582,1,0,1:0:0:0:
346,365,71782,2,0,L|433:357,1,80,8|0,0:0|0:0,0:0:0:0:
488,308,72182,1,0,1:0:0:0:
424,216,72382,22,0,L|437:56,1,160,2|2,0:0|0:0,0:0:0:0:
508,104,72982,1,0,1:0:0:0:
512,116,73382,53,8,0:0:0:0:
352,151,73582,1,8,0:3:0:0:
504,202,73782,1,4,0:3:0:0:
344,237,73982,1,0,1:0:0:0:
150,90,74182,54,0,L|310:77,1,160,4|2,1:2|0:0,0:0:0:0:
368,23,74782,1,0,1:0:0:0:
292,155,74982,2,0,P|269:218|312:299,1,160,8|0,0:0|1:0,0:0:0:0:
331,311,75582,1,2,0:0:0:0:
408,254,75782,21,0,1:0:0:0:
427,337,75982,1,2,0:0:0:0:
412,242,76182,1,0,1:0:0:0:
499,172,76582,38,0,L|339:157,1,160,8|0,0:0|1:0,0:0:0:0:
290,94,77182,1,2,0:0:0:0:
309,231,77382,22,0,P|223:239|183:156,1,160,0|2,1:0|0:0,0:0:0:0:
260,168,77982,1,0,1:0:0:0:
135,268,78182,2,0,L|127:351,1,80,8|0,0:0|0:0,0:0:0:0:
49,293,78582,2,0,L|41:205,1,80,0|2,1:0|0:0,0:0:0:0:
97,149,78982,37,0,1:0:0:0:
14,136,79182,1,2,0:0:0:0:
101,137,79382,1,0,1:0:0:0:
171,83,79782,21,8,0:0:0:0:
152,210,79982,1,0,1:0:0:0:
222,171,80182,2,0,P|264:163|304:171,1,80,0|2,0:0|0:0,0:0:0:0:
397,328,80582,38,0,B|382:165|382:165|357:247,1,240,4|0,1:2|1:0,0:0:0:0:
455,135,81382,2,0,P|467:87|455:35,1,80,8|0,0:0|0:0,0:0:0:0:
306,78,81782,2,0,P|354:90|406:78,1,80,0|2,1:0|0:0,0:0:0:0:
232,28,82182,21,0,1:0:0:0:
243,127,82382,1,2,0:0:0:0:
228,40,82582,1,0,1:0:0:0:
148,99,82982,37,8,0:0:0:0:
224,52,83182,2,0,L|238:222,1,160,0|2,1:0|0:0,0:0:0:0:
317,163,83782,22,0,P|396:149|450:217,1,160,0|2,1:0|0:0,0:0:0:0:
369,227,84382,1,0,1:0:0:0:
302,82,84582,2,0,L|308:2,1,80,8|0,0:0|0:0,0:0:0:0:
317,163,84982,1,0,1:0:0:0:
218,108,85182,54,0,L|224:28,1,80,8|0,0:0|0:0,0:0:0:0:
157,160,85582,1,8,0:0:0:0:
234,240,85782,1,0,1:0:0:0:
237,260,85982,1,0,1:0:0:0:
301,125,86182,5,8,0:0:0:0:
161,172,86382,1,0,1:0:0:0:
327,205,86582,1,8,0:0:0:0:
218,108,86782,1,8,0:0:0:0:
382,56,86982,38,0,L|374:135,2,80,4|0|2,1:2|0:0|0:2,0:0:0:0:
298,83,87582,1,0,1:0:0:0:
327,205,87782,2,0,P|365:219|417:206,1,80,8|0,0:0|0:0,0:0:0:0:
374,135,88182,1,0,1:0:0:0:
249,140,88382,1,2,0:0:0:0:
255,154,88582,22,0,L|246:245,1,80,0|2,1:0|0:0,0:0:0:0:
170,290,88982,2,0,L|163:210,1,80,0|0,1:0|0:0,0:0:0:0:
232,340,89382,1,8,0:0:0:0:
298,295,89582,1,0,1:0:0:0:
364,340,89782,2,0,P|404:352|444:344,1,80,0|2,0:0|0:0,0:0:0:0:
344,228,90182,38,0,L|357:68,1,160,0|2,1:0|0:0,0:0:0:0:
424,24,90782,1,0,1:0:0:0:
279,94,90982,2,0,P|235:104|182:81,1,80,8|0,0:0|0:0,3:0:0:0:
239,23,91382,1,0,1:0:0:0:
347,49,91582,1,2,0:0:0:0:
354,67,91782,22,0,P|358:106|344:146,1,80,0|2,1:0|0:0,0:0:0:0:
271,171,92182,2,0,P|267:131|279:94,1,80,0|0,1:0|0:0,0:0:0:0:
220,233,92582,1,8,0:0:0:0:
299,246,92782,1,0,1:0:0:0:
371,215,92982,2,0,P|378:254|364:291,1,80,0|2,0:0|0:0,0:0:0:0:
140,261,93382,38,0,L|303:245,1,160,4|2,1:2|0:0,0:0:0:0:
364,291,93982,1,0,1:0:0:0:
308,164,94182,2,0,P|304:120|320:84,1,80,8|0,0:0|0:0,0:0:0:0:
373,29,94582,1,0,1:0:0:0:
245,38,94782,1,2,0:0:0:0:
237,56,94982,22,0,L|228:147,1,80,0|2,1:0|0:0,0:0:0:0:
152,192,95382,2,0,L|145:112,1,80,0|0,1:0|0:0,0:0:0:0:
159,271,95782,1,8,0:0:0:0:
224,225,95982,2,0,P|265:214|308:231,2,80,0|0|2,1:0|0:0|0:0,0:0:0:0:
368,352,96582,38,0,L|382:193,1,160,0|2,1:0|0:0,0:0:0:0:
300,225,97182,1,0,1:0:0:0:
459,226,97382,2,0,P|466:185|453:148,1,80,8|0,0:0|0:0,0:0:0:0:
380,101,97782,1,0,1:0:0:0:
308,207,97982,1,2,0:0:0:0:
300,225,98182,22,0,L|204:216,1,80,0|2,1:0|0:0,0:0:0:0:
134,239,98582,1,0,1:0:0:0:
130,254,98782,1,0,0:0:0:0:
180,112,98982,53,8,0:0:0:0:
305,119,99182,1,0,1:0:0:0:
85,163,99382,1,4,0:0:0:0:
392,75,99782,54,0,L|378:234,1,160,4|2,1:2|0:0,0:0:0:0:
432,293,100382,1,0,1:0:0:0:
305,183,100582,2,0,P|264:173|219:188,1,80,8|0,0:0|0:0,0:0:0:0:
267,253,100982,1,0,1:0:0:0:
158,251,101182,1,2,0:0:0:0:
152,232,101382,22,0,L|145:144,1,80,0|2,1:0|0:0,0:0:0:0:
235,102,101782,2,0,L|229:182,1,80,0|0,1:0|0:0,0:0:0:0:
294,48,102182,1,8,0:0:0:0:
365,84,102382,1,0,1:0:0:0:
433,42,102582,2,0,P|473:34|519:50,1,80,0|2,0:0|0:0,0:0:0:0:
352,244,102982,38,0,L|365:84,1,160,4|2,1:2|0:0,0:0:0:0:
442,126,103582,1,0,1:0:0:0:
276,185,103782,2,0,P|238:197|192:177,1,80,8|0,0:0|0:0,0:0:0:0:
135,127,104182,1,0,1:0:0:0:
44,227,104382,1,2,0:0:0:0:
53,245,104582,22,0,P|61:281|53:328,1,80,0|2,1:0|0:0,0:0:0:0:
142,335,104982,1,0,1:0:0:0:
145,351,105182,1,0,0:0:0:0:
44,227,105382,1,8,0:0:0:0:
202,186,105582,2,0,P|272:218|344:182,1,160,2|2,1:2|0:0,0:0:0:0:
137,53,106182,38,0,L|122:216,1,160,4|2,1:2|0:0,0:0:0:0:
44,172,106782,1,0,1:0:0:0:
180,269,106982,2,0,P|185:308|166:356,1,80,8|0,0:0|0:0,0:0:0:0:
250,366,107382,2,0,L|341:357,1,80,0|2,1:0|0:0,0:0:0:0:
270,207,107782,21,0,1:0:0:0:
279,286,107982,1,2,0:0:0:0:
266,195,108182,2,0,L|272:115,1,80,0|0,1:0|0:0,0:0:0:0:
283,298,108582,1,8,0:0:0:0:
192,228,108782,1,0,1:0:0:0:
346,164,108982,1,4,0:0:0:0:
100,92,109382,53,4,1:2:0:0:
350,176,109782,1,0,1:2:0:0:
100,260,110182,1,8,0:0:0:0:
96,272,110582,5,0,1:0:0:0:
244,247,110782,1,8,0:0:0:0:
49,203,110982,53,4,1:2:0:0:
84,351,111182,1,8,0:0:0:0:
162,221,111382,1,0,1:0:0:0:
188,332,111582,1,0,1:0:0:0:
376,313,111782,6,0,L|297:307,1,80,12|0,0:0|1:2,0:0:0:0:
261,118,112182,1,8,0:0:0:0:
192,344,112382,1,8,0:0:0:0:
256,192,112582,12,0,113982,0:0:0:0:
402,113,114182,22,0,B|280:123|280:123|335:179,1,167.999994873047,4|0,1:2|0:0,0:0:0:0:
325,171,114582,2,0,L|334:59,1,111.999996582031,0|0,0:0|1:0,0:0:0:0:
247,207,114982,2,0,L|256:318,1,111.999996582031,8|0,0:0|0:0,0:0:0:0:
337,258,115382,1,0,1:0:0:0:
148,384,115582,22,0,B|161:311|161:311|141:233|141:233|155:160,1,223.999993164063,8|0,0:0|0:0,0:0:0:0:
61,297,116182,2,0,L|50:178,1,111.999996582031,0|0,1:3|0:3,0:3:0:0:
346,220,116582,2,0,B|229:230|229:230|269:266,2,167.999994873047,8|0|0,0:0|0:0|1:0,0:0:0:0:
500,121,117382,38,0,P|445:125|410:167,1,111.999996582031,0|0,1:0|0:0,0:0:0:0:
251,343,117782,2,0,P|306:338|341:297,1,111.999996582031,0|0,1:0|0:0,0:0:0:0:
330,134,118182,1,8,0:0:0:0:
419,364,118382,2,0,L|428:252,1,111.999996582031,0|0,0:0|1:0,0:0:0:0:
284,44,118782,22,0,B|228:53|223:121|223:121|250:149|250:194|227:232,1,223.999993164063,8|0,0:2|0:0,0:0:0:0:
160,175,119382,2,0,L|48:165,1,111.999996582031,0|0,1:0|0:0,0:0:0:0:
180,303,119782,1,8,0:0:0:0:
156,163,119982,1,0,1:0:0:0:
253,352,120182,2,0,B|439:335,1,167.999994873047
453,382,120582,38,0,B|429:308|429:308|449:214,1,167.999994873047,4|0,1:2|0:0,0:0:0:0:
458,204,120982,2,0,L|467:315,1,111.999996582031,0|0,0:0|1:0,0:0:0:0:
325,226,121382,2,0,P|304:169|345:106,1,111.999996582031,8|0,0:0|0:0,0:0:0:0:
384,174,121782,1,0,1:0:0:0:
179,286,121982,22,0,B|216:304|260:278|260:278|290:315|349:321|383:285,1,223.999993164063,8|0,0:0|0:0,0:0:0:0:
322,123,122582,2,0,P|303:175|325:226,1,111.999996582031,0|0,1:0|0:0,0:0:0:0:
200,94,122982,2,0,B|211:217|211:217|228:166,2,167.999994873047,8|0|0,0:0|0:0|1:0,0:0:0:0:
458,204,123782,37,4,1:2:0:0:
304,171,123982,1,0,0:0:0:0:
386,263,124182,2,0,L|375:385,1,111.999996582031,0|0,1:0|0:0,0:0:0:0:
308,159,124582,1,8,0:0:0:0:
428,129,124782,1,0,0:0:0:0:
445,126,124982,1,0,1:0:0:0:
202,307,125182,22,0,B|210:263|188:231|188:231|208:191|208:191|178:144|200:94,1,223.999993164063,8|8,0:0|0:0,0:0:0:0:
123,185,125782,1,0,1:0:0:0:
118,201,125982,1,0,0:0:0:0:
273,134,126182,1,8,0:0:0:0:
196,318,126382,2,0,P|141:300|81:320,2,111.999996582031
416,268,126982,38,0,B|389:241|337:241|311:272|311:272|331:225,1,167.999994873047,4|0,1:2|0:0,0:0:0:0:
355,213,127382,2,0,L|366:348,1,111.999996582031,0|0,0:0|1:0,0:0:0:0:
247,199,127782,2,0,P|267:139|252:88,1,111.999996582031,8|0,0:0|0:0,0:0:0:0:
185,141,128182,1,0,1:0:0:0:
156,380,128382,22,0,B|169:220|169:220|133:278,1,223.999993164063,8|0,0:0|0:0,0:0:0:0:
238,354,128982,2,0,L|353:343,1,111.999996582031,0|0,1:0|0:0,0:0:0:0:
244,152,129382,2,0,B|254:270|254:270|278:214,2,167.999994873047,8|0|0,0:0|0:0|1:0,0:0:0:0:
66,211,130182,38,0,P|112:233|177:216,1,111.999996582031,0|0,1:0|0:0,0:0:0:0:
302,96,130582,2,0,P|251:73|198:86,1,111.999996582031,0|0,1:0|0:0,0:0:0:0:
253,261,130982,2,0,B|259:210|259:210|244:152,1,111.999996582031,8|0,0:0|0:0,0:0:0:0:
160,216,131382,1,0,1:0:0:0:
404,329,131582,22,0,B|334:322|334:322|272:350|272:350|179:341,1,223.999993164063,8|0,0:0|0:0,0:0:0:0:
245,156,132182,2,0,P|265:207|253:261,1,111.999996582031,0|0,1:0|0:0,0:0:0:0:
222,73,132582,1,8,0:0:0:0:
343,173,132782,1,0,1:0:0:0:
179,210,132982,2,0,B|58:219|58:219|103:184,1,167.999994873047
119,163,133382,38,0,B|113:249|113:249|148:302|148:302|142:381,1,223.999993164063,4|0,1:2|0:0,0:0:0:0:
59,327,133982,1,0,1:0:0:0:
235,253,134182,2,0,L|221:404,1,111.999996582031,8|0,0:0|0:0,0:0:0:0:
307,204,134582,1,0,1:0:0:0:
120,164,134782,1,8,0:0:0:0:
276,82,134982,22,0,P|223:69|173:92,1,111.999996582031,0|0,1:0|0:0,0:0:0:0:
231,152,135382,1,0,1:0:0:0:
356,66,135582,1,0,0:0:0:0:
146,172,135782,2,0,B|131:341|131:341|109:291,1,223.999993164063,8|0,0:0|0:0,0:0:0:0:
88,107,136382,1,0,1:0:0:0:
60,220,136582,53,2,0:0:0:0:
256,192,136682,12,0,138982,0:0:0:0:
40,206,149382,70,0,P|121:178|185:249,1,191.999994140625,2|2,0:0|0:0,0:0:0:0:
104,259,150582,1,0,0:0:0:0:
254,334,150982,22,0,L|267:182,1,143.999995605469,2|0,0:0|0:0,0:0:0:0:
285,175,151782,1,2,0:0:0:0:
192,153,152182,1,0,0:0:0:0:
361,115,152582,38,0,P|383:184|341:261,1,143.999995605469,2|0,0:0|0:0,0:0:0:0:
343,268,153382,2,0,L|458:257,1,95.9999970703126,2|0,0:0|0:0,0:0:0:0:
286,175,154182,21,2,0:0:0:0:
289,187,154982,2,0,L|291:234,1,47.9999985351563,2|0,0:0|0:0,0:0:0:0:
300,257,155382,1,0,0:0:0:0:
369,167,155782,38,0,P|282:104|211:159,1,191.999994140625,2|2,0:0|0:0,0:0:0:0:
289,187,156982,1,0,0:0:0:0:
209,354,157382,22,0,P|187:287|214:222,1,143.999995605469,2|0,0:0|0:0,0:0:0:0:
233,207,158182,2,0,L|121:197,1,95.9999970703126,2|0,0:0|0:0,0:0:0:0:
64,246,158982,38,0,P|78:292|65:338,2,95.9999970703126,2|0|2,0:0|0:0|0:0,0:0:0:0:
0,291,160182,1,0,0:0:0:0:
159,294,160582,21,2,0:0:0:0:
163,306,161382,1,2,0:0:0:0:
65,247,161782,1,0,0:0:0:0:
173,130,162182,38,0,B|206:210|137:240|167:318,1,191.999994140625,2|2,0:0|0:0,0:0:0:0:
240,271,163382,2,0,L|307:265,1,47.9999985351563
308,280,163782,22,0,P|337:206|301:135,1,143.999995605469,2|0,0:0|0:0,0:0:0:0:
296,128,164582,2,0,L|391:119,1,95.9999970703126,2|0,0:0|0:0,0:0:0:0:
413,131,165182,1,0,0:0:0:0:
434,142,165382,38,0,P|415:211|453:293,1,143.999995605469,2|0,0:0|0:0,0:0:0:0:
453,296,166182,1,2,0:0:0:0:
372,325,166582,1,0,0:0:0:0:
304,161,166982,22,0,P|321:230|291:294,1,143.999995605469,2|0,0:0|0:0,0:0:0:0:
271,307,167782,1,2,0:0:0:0:
332,368,168182,1,0,0:0:0:0:
408,295,168582,37,2,0:0:0:0:
163,212,170182,21,2,0:0:0:0:
308,112,171782,37,2,0:0:0:0:
204,336,172582,5,2,0:0:0:0:
173,212,172782,1,0,1:0:0:0:
304,360,172982,1,8,0:0:0:0:
94,346,173182,1,0,0:0:0:0:
94,346,173282,1,0,0:0:0:0:
94,346,173382,22,0,B|82:308|99:278|99:278|81:219|81:219|88:140,1,191.999994140625,4|0,1:2|2:0,0:0:0:0:
173,212,173982,1,0,1:0:0:0:
380,200,174182,2,0,B|324:176|270:190|270:190|302:215,1,143.999995605469,8|0,0:0|0:0,0:0:0:0:
310,226,174582,1,0,0:0:0:0:
182,27,174782,6,0,B|186:74|186:74|176:112|176:112|196:148|196:191|162:225,1,191.999994140625,4|0,1:2|1:0,0:3:0:0:
263,107,175382,1,8,0:0:0:0:
104,161,175582,1,0,1:0:0:0:
104,161,175682,1,8,0:0:0:0:
104,161,175782,1,8,0:0:0:0:
102,61,175982,1,0,1:0:0:0:
55,245,176182,2,0,B|89:262|119:262|152:245|152:245|133:283,1,143.999995605469,8|0,0:0|0:0,0:0:0:0:
122,320,176582,53,4,1:2:0:0:
232,184,176782,2,0,B|318:154|337:220|430:184,1,191.999994140625,0|0,0:0|1:0,0:0:0:0:
277,268,177382,1,8,0:0:0:0:
376,104,177582,1,0,0:0:0:0:
359,334,177782,1,0,1:0:0:0:
139,172,177982,6,0,B|198:147|278:159|278:159|233:183,1,191.999994140625,12|8,0:0|0:0,0:0:0:0:
182,248,178582,1,8,3:0:0:0:
236,68,178782,1,4,0:3:0:0:
302,239,178982,53,8,0:0:0:0:
103,295,179182,1,0,1:0:0:0:
314,235,179382,2,0,B|375:211|421:236|421:236|389:260,1,143.999995605469,12|0,0:0|0:0,0:0:0:0:
364,283,179782,6,0,B|382:200|382:200|368:168|368:168|385:131|367:91,1,191.999994140625,4|0,1:2|0:0,0:0:0:0:
278,127,180382,1,0,1:0:0:0:
483,217,180582,2,0,B|492:168|474:110|474:110|455:148,1,143.999995605469,8|0,0:0|0:0,0:0:0:0:
451,159,180982,1,0,0:0:0:0:
192,192,181182,54,0,B|214:204|259:194|259:194|320:212|320:212|380:201,1,191.999994140625,4|8,1:2|0:0,0:0:0:0:
254,275,181782,1,0,1:0:0:0:
249,294,181982,1,0,0:0:0:0:
325,132,182182,1,8,0:0:0:0:
371,289,182382,1,0,1:0:0:0:
321,120,182582,2,0,L|326:53,2,47.9999985351563,8|0|0,0:0|0:0|0:0,0:0:0:0:
461,300,182982,6,0,P|458:331|444:360,2,63.9999980468751,4|0|0,1:2|0:0|0:0,0:0:0:0:
380,201,183382,1,0,1:0:0:0:
375,301,183582,1,0,0:0:0:0:
399,82,183782,2,0,P|401:49|430:7,2,63.9999980468751,8|0|0,0:2|0:0|0:0,0:0:0:0:
390,223,184182,1,0,1:0:0:0:
166,155,184382,54,0,B|207:161|207:161|249:145|249:145|274:165|329:169|360:145,1,191.999994140625,12|0,0:0|1:0,0:0:0:0:
196,74,184982,1,8,0:0:0:0:
245,238,185182,1,0,1:0:0:0:
256,19,185382,1,8,0:0:0:0:
147,152,185582,1,0,1:0:0:0:
337,59,185782,1,8,0:0:0:0:
104,76,185982,1,8,0:0:0:0:
104,76,186082,1,8,0:0:0:0:
104,76,186182,5,12,1:2:0:0:
55,240,186382,1,0,1:0:0:0:
196,74,186582,53,8,0:0:0:0:
147,238,186782,1,0,1:0:0:0:
312,132,186982,5,8,0:0:0:0:
121,142,187182,1,0,1:0:0:0:
370,193,187382,1,8,0:0:0:0:
215,26,187582,54,0,B|219:63|208:91|208:91|222:133|222:133|213:165|214:192|231:223,1,191.999994140625,4|0,1:2|1:0,0:0:0:0:
302,85,188182,1,8,0:0:0:0:
137,137,188382,1,0,1:0:0:0:
137,137,188482,1,8,0:0:0:0:
137,137,188582,1,8,0:0:0:0:
308,171,188782,1,0,1:0:0:0:
32,239,188982,2,0,B|80:252|133:247|133:247|96:217,1,143.999995605469,8|0,0:0|0:0,0:0:0:0:
83,205,189382,5,4,1:2:0:0:
239,111,189582,2,0,B|269:197|203:216|239:309,1,191.999994140625,8|0,0:0|1:0,0:0:0:0:
168,156,190182,1,8,0:0:0:0:
311,253,190382,1,0,1:0:0:0:
99,220,190582,1,8,0:0:0:0:
354,151,190782,54,0,B|308:164|280:148|280:148|236:168|236:168|168:156,1,191.999994140625,4|0,1:2|1:0,0:0:0:0:
288,234,191382,1,8,0:0:0:0:
402,79,191582,1,8,0:0:0:0:
402,79,191682,1,8,0:0:0:0:
402,79,191782,1,8,0:0:0:0:
408,216,191982,1,0,1:0:0:0:
223,84,192182,2,0,B|169:64|122:88|122:88|140:50,1,143.999995605469,8|0,0:0|0:0,0:0:0:0:
165,29,192582,5,12,0:0:0:0:
177,164,192782,1,8,0:3:0:0:
40,64,192982,1,4,0:3:0:0:
57,164,193182,1,0,1:0:0:0:
239,92,193382,53,12,0:0:0:0:
59,176,193582,1,8,0:3:0:0:
140,51,193782,1,4,0:3:0:0:
304,176,193982,1,8,0:0:0:0:
304,176,194082,1,8,0:0:0:0:
304,176,194182,6,0,L|309:111,1,47.9999985351563,4|0,1:2|0:0,0:0:0:0:
230,214,194382,2,0,L|224:149,1,47.9999985351563,0|0,1:2|0:0,0:0:0:0:
300,260,194582,54,0,L|295:307,1,47.9999985351563,8|0,0:0|0:0,0:0:0:0:
374,298,194782,2,0,L|378:345,1,47.9999985351563,0|0,1:2|0:0,0:0:0:0:
191,297,194982,6,0,L|143:292,1,47.9999985351563,4|0,1:2|0:0,0:0:0:0:
230,213,195182,2,0,L|182:217,1,47.9999985351563,0|0,1:2|0:0,0:0:0:0:
100,146,195382,53,8,0:0:0:0:
90,123,195482,1,8,0:0:0:0:
88,100,195582,1,8,0:0:0:0:
92,76,195682,1,8,0:0:0:0:
103,55,195782,54,0,L|89:208,1,143.999995605469,6|0,1:2|0:0,0:0:0:0:
88,221,196182,2,0,P|150:189|216:210,1,143.999995605469,2|0,1:2|0:0,0:0:0:0:
231,230,196582,2,0,L|135:238,1,95.9999970703126,8|0,0:0|0:0,0:0:0:0:
280,160,196982,1,0,1:0:0:0:
364,384,197182,54,0,B|370:312|370:312|350:257|350:257|356:195,1,191.999994140625,12|8,0:0|0:0,0:0:0:0:
282,374,197782,2,8,L|273:272,1,95.9999970703126,0|0,1:0|0:0,0:0:0:0:
434,241,198182,1,8,0:0:0:0:
217,210,198382,1,0,1:0:0:0:
403,87,198582,6,0,B|452:29|452:29|433:251,1,287.999991210938,4|8,1:2|0:0,0:0:0:0:
354,157,199382,2,0,P|309:144|251:160,1,95.9999970703126,0|0,1:0|0:0,0:0:0:0:
206,333,199782,1,8,0:0:0:0:
307,229,199982,1,0,1:0:0:0:
106,223,200182,2,0,B|208:231|208:231|155:267,1,143.999995605469,4|0,0:0|0:0,0:0:0:0:
153,267,200582,53,4,1:2:0:0:
190,94,200782,1,8,0:0:0:0:
311,264,200982,1,8,0:3:0:0:
337,138,201182,1,4,0:3:0:0:
153,267,201382,5,12,0:0:0:0:
333,126,201582,1,0,1:0:0:0:
243,308,201782,1,0,1:0:0:0:
249,73,201982,1,8,0:0:0:0:
473,126,202182,54,0,L|313:112,1,143.999995605469,6|0,1:2|0:0,0:0:0:0:
337,138,202582,2,0,P|359:200|309:278,1,143.999995605469,2|0,1:2|0:0,0:0:0:0:
317,291,202982,2,0,L|428:281,1,95.9999970703126,8|0,0:0|0:0,0:0:0:0:
266,197,203382,1,0,1:0:0:0:
169,368,203582,6,0,B|164:289|164:289|182:239|182:239|177:179,1,191.999994140625,12|8,0:0|0:0,0:0:0:0:
78,333,204182,2,0,L|88:217,1,95.9999970703126,0|0,1:0|0:0,0:0:0:0:
248,303,204582,1,8,0:0:0:0:
96,156,204782,1,0,1:0:0:0:
331,148,204982,54,0,B|389:197|389:197|167:178,1,287.999991210938,4|8,1:2|0:0,0:0:0:0:
259,98,205782,2,0,P|274:54|265:7,1,95.9999970703126,0|0,1:0|0:0,0:0:0:0:
174,191,206182,1,8,0:0:0:0:
187,48,206382,1,0,1:0:0:0:
115,273,206582,2,0,B|227:283|227:283|187:313,1,143.999995605469,4|0,0:0|0:0,0:0:0:0:
172,314,206982,5,8,0:0:0:0:
273,211,207182,1,8,0:3:0:0:
311,349,207382,1,4,0:3:0:0:
317,367,207582,1,0,1:0:0:0:
330,152,207782,53,12,0:0:0:0:
174,191,207982,1,0,1:0:0:0:
402,222,208182,1,8,0:0:0:0:
315,10,208382,1,8,0:0:0:0:
315,10,208482,1,8,0:0:0:0:
315,10,208582,6,0,P|284:71|335:152,1,143.999995605469,6|0,1:2|0:0,0:0:0:0:
330,152,208982,2,0,L|174:138,1,143.999995605469,2|0,1:2|0:0,0:0:0:0:
168,123,209382,2,0,P|184:79|171:34,1,95.9999970703126,8|0,0:0|0:0,0:0:0:0:
90,177,209782,1,0,1:0:0:0:
341,237,209982,54,0,B|269:231|269:231|214:251|214:251|154:246,1,191.999994140625,12|8,0:0|0:0,0:0:0:0:
311,136,210582,2,0,L|191:146,1,95.9999970703126,0|0,1:0|0:3,0:3:0:0:
282,319,210982,1,8,0:0:0:0:
394,169,211182,1,0,1:0:0:0:
166,79,211382,6,0,B|100:117|100:117|311:136,1,287.999991210938,4|8,1:2|0:0,0:0:0:0:
403,84,212182,2,0,P|447:67|492:81,1,95.9999970703126,0|0,1:0|0:0,0:0:0:0:
268,215,212582,1,8,0:0:0:0:
308,52,212782,1,0,1:0:0:0:
339,295,212982,2,0,B|227:305|227:305|267:335,1,143.999995605469,4|0,0:0|0:0,0:0:0:0:
284,336,213382,53,4,1:2:0:0:
388,176,213582,1,8,0:0:0:0:
391,361,213782,1,8,3:0:0:0:
466,255,213982,1,4,3:0:0:0:
272,214,214182,5,12,0:0:0:0:
470,267,214382,1,0,1:0:0:0:
384,164,214582,1,0,1:0:0:0:
284,336,214782,1,8,0:0:0:0:
182,194,214982,53,4,1:2:0:0:
318,223,215382,1,0,1:2:0:0:
129,132,215782,1,0,1:0:0:0:
371,161,216182,1,0,1:0:0:0:
76,70,216582,1,0,1:2:0:0:
424,99,216982,1,0,1:2:0:0:
23,8,217382,1,0,1:0:0:0:
477,37,217782,5,8,0:0:0:0:
299,41,217982,1,8,0:0:0:0:
299,41,218082,1,8,0:0:0:0:
299,41,218182,54,0,B|287:183|287:183|266:132,1,191.999994140625,12|8,0:0|0:0,0:3:0:0:
360,234,218782,2,0,B|229:295|229:295|263:252,1,191.999994140625,12|8,0:0|0:0,0:3:0:0:
372,152,219382,1,8,0:3:0:0:
195,197,219582,5,4,1:2:0:0:
256,192,219682,12,2,221382,0:0:0:0:
80,270,222182,38,0,P|119:289|182:276,1,95.9999970703126,2|0,0:0|0:0,0:0:0:0:
257,242,222982,1,2,0:0:0:0:
257,242,223782,2,0,L|246:357,1,95.9999970703126,2|0,0:0|0:0,0:0:0:0:
169,282,224582,21,2,0:0:0:0:
169,282,225382,2,0,P|158:231|177:187,1,95.9999970703126,2|0,0:0|0:0,0:0:0:0:
240,122,226182,2,0,B|316:95|350:154|431:125,1,191.999994140625,2|2,0:0|0:0,0:0:0:0:
381,42,227382,1,0,0:0:0:0:
280,196,227782,37,2,0:0:0:0:
280,196,228582,2,0,L|270:303,1,95.9999970703126,2|0,0:0|0:0,0:0:0:0:
349,339,229382,1,2,0:0:0:0:
348,339,230182,2,0,P|339:292|356:247,1,95.9999970703126,2|0,0:0|0:0,0:0:0:0:
439,112,230982,22,0,B|401:195|469:216|436:300,1,191.999994140625,2|2,0:0|0:0,0:0:0:0:
512,160,232182,1,0,0:0:0:0:
364,250,232582,1,2,0:0:0:0:
364,250,233382,2,0,P|311:266|266:250,1,95.9999970703126,2|0,0:0|0:0,0:0:0:0:
197,197,234182,37,2,0:0:0:0:
197,197,234982,2,0,L|187:300,1,95.9999970703126,2|0,0:0|0:0,0:0:0:0:
113,233,235782,1,2,0:0:0:0:
113,233,236582,2,0,P|125:178|110:129,1,95.9999970703126,2|0,0:0|0:0,0:0:0:0:
55,66,237382,21,2,0:0:0:0:
55,66,238182,2,0,L|169:55,1,95.9999970703126,2|0,0:0|0:0,0:0:0:0:
231,5,238982,1,2,0:0:0:0:
307,138,239782,1,2,0:0:0:0:
161,262,240582,38,0,B|257:220|285:297|379:263,1,223.999993164063,2|2,0:0|0:0,0:0:0:0:
331,179,241782,1,0,0:0:0:0:
215,331,242182,22,0,P|241:226|153:174,1,223.999993164063,2|2,0:0|0:0,0:0:0:0:
161,262,243382,1,0,0:0:0:0:
324,98,243782,38,0,B|228:127|199:51|95:97,1,223.999993164063,2|2,0:0|0:0,0:0:0:0:
159,178,244982,1,0,0:0:0:0:
274,26,245382,21,2,0:0:0:0:
256,192,245482,12,0,248382,0:0:0:0:
60,52,248582,22,0,B|70:174|70:174|126:119,1,167.999994873047,4|0,1:2|0:0,0:0:0:0:
118,129,248982,2,0,L|6:120,1,111.999996582031,0|0,0:0|1:0,0:0:0:0:
147,211,249382,2,0,L|262:201,1,111.999996582031,8|0,0:0|0:0,0:0:0:0:
339,148,249782,1,0,1:0:0:0:
323,365,249982,22,0,B|315:281|315:281|345:221|345:221|339:148,1,223.999993164063,8|0,0:0|0:0,0:3:0:0:
428,292,250582,2,0,L|438:168,1,111.999996582031,0|0,1:0|0:0,0:0:0:0:
258,201,250982,2,0,B|139:212|139:212|199:249,2,167.999994873047,8|0|0,0:0|0:0|1:0,0:0:0:0:
68,267,251782,38,0,P|51:207|84:139,1,111.999996582031,0|0,1:0|0:0,0:0:0:0:
149,15,252182,2,0,P|167:68|152:122,1,111.999996582031,0|0,1:0|0:0,0:0:0:0:
141,311,252582,1,8,0:0:0:0:
258,201,252782,2,0,B|272:146|272:146|265:91,1,111.999996582031,0|0,0:0|1:0,0:0:0:0:
412,308,253182,22,0,B|248:322|248:322|317:269,1,223.999993164063,8|0,0:0|0:0,0:0:0:0:
476,251,253782,2,0,P|500:302|476:367,1,111.999996582031,0|0,1:0|0:0,0:0:0:0:
370,220,254182,1,8,0:0:0:0:
428,68,254382,1,0,1:0:0:0:
366,232,254582,2,0,L|196:216,1,167.999994873047
176,200,254982,38,0,B|209:166|209:166|199:286,1,167.999994873047,4|0,1:2|0:0,0:0:0:0:
182,309,255382,2,0,B|233:292|233:292|291:307,1,111.999996582031,0|0,0:0|1:0,0:0:0:0:
110,254,255782,2,0,P|92:197|117:140,1,111.999996582031,8|0,0:0|0:0,0:0:0:0:
176,200,256182,1,0,1:0:0:0:
81,360,256382,22,0,B|155:353|155:353|200:313|200:313|290:306,1,223.999993164063,8|0,0:0|0:0,0:0:0:0:
108,150,256982,2,0,P|91:203|110:255,1,111.999996582031,0|0,1:0|0:0,0:0:0:0:
296,190,257382,2,0,B|175:200|175:200|223:171,2,167.999994873047,8|0|0,0:2|0:0|1:0,0:0:0:0:
470,232,258182,37,4,1:2:0:0:
285,273,258382,1,0,0:0:0:0:
378,161,258582,2,0,L|389:29,1,111.999996582031,0|0,1:0|0:0,0:0:0:0:
289,285,258982,1,8,0:0:0:0:
381,356,259182,1,0,0:2:0:0:
391,369,259382,1,0,1:0:0:0:
296,190,259582,22,0,B|259:208|215:182|215:182|185:219|126:225|92:189,1,223.999993164063,8|8,0:0|0:0,0:0:0:0:
265,110,260182,1,0,1:0:0:0:
281,106,260382,1,0,0:0:0:0:
229,283,260582,1,8,0:0:0:0:
150,131,260782,2,0,P|138:75|159:19,2,111.999996582031
300,295,261382,38,0,B|327:268|327:216|296:190|296:190|343:210,1,167.999994873047,4|0,1:2|0:0,0:0:0:0:
354,234,261782,2,0,L|219:245,1,111.999996582031,0|0,0:0|1:0,0:0:0:0:
400,136,262182,2,0,L|511:126,1,111.999996582031,8|0,0:0|0:0,0:0:0:0:
463,215,262582,1,0,1:0:0:0:
149,148,262782,22,0,B|309:161|309:161|251:125,1,223.999993164063,8|0,0:0|0:0,0:0:0:0:
88,91,263382,2,0,P|67:139|88:206,1,111.999996582031,0|0,1:0|0:0,0:0:0:0:
149,382,263782,2,0,B|139:262|139:262|164:302,2,167.999994873047,8|0|0,0:0|0:0|1:0,0:0:0:0:
80,195,264582,38,0,P|131:173|185:187,1,111.999996582031,0|0,1:0|0:0,0:0:0:0:
340,336,264982,2,0,P|289:357|235:343,1,111.999996582031,0|0,1:0|0:0,0:0:0:0:
293,155,265382,2,0,L|284:267,1,111.999996582031,8|0,0:0|0:0,0:0:0:0:
189,199,265782,1,0,1:0:0:0:
454,331,265982,22,0,B|373:323|373:323|310:350|310:350|228:343,1,223.999993164063,8|8,0:0|0:0,0:0:0:0:
293,155,266582,2,0,P|303:209|285:261,1,111.999996582031,0|0,1:0|0:0,0:0:0:0:
232,90,266982,1,8,0:0:0:0:
392,181,267182,1,0,1:0:0:0:
208,199,267382,2,0,B|87:186|87:186|137:160,1,167.999994873047
168,144,267782,38,0,B|175:230|175:230|143:286|143:286|151:379,1,223.999993164063,4|0,1:2|0:0,0:3:0:0:
242,316,268382,1,0,1:0:0:0:
64,221,268582,2,0,L|54:332,1,111.999996582031,8|0,0:0|0:0,0:0:0:0:
12,146,268982,1,0,1:0:0:0:
227,82,269182,1,8,0:0:0:0:
167,250,269382,22,0,P|153:197|168:143,1,111.999996582031,0|0,1:0|0:0,0:0:0:0:
253,198,269782,1,0,1:0:0:0:
145,346,269982,1,0,0:0:0:0:
257,186,270182,2,0,L|369:176,1,111.999996582031,8|0,0:0|0:0,0:0:0:0:
448,97,270582,1,0,0:0:0:0:
253,198,270782,1,0,1:0:0:0:
457,340,270982,38,0,B|447:218|447:218|391:273,1,167.999994873047,4|0,1:2|0:0,0:0:0:0:
399,263,271382,2,0,L|511:272,1,111.999996582031,0|0,0:0|1:0,0:0:0:0:
369,176,271782,2,0,L|254:186,1,111.999996582031,8|0,0:0|0:0,0:0:0:0:
172,244,272182,1,0,1:0:0:0:
188,28,272382,22,0,B|196:112|196:112|165:172|165:172|171:243,1,223.999993164063,8|0,0:0|0:0,0:3:0:0:
76,99,272982,2,0,L|66:222,1,111.999996582031,0|0,1:0|0:0,0:0:0:0:
257,185,273382,2,0,B|378:175|378:175|316:210,2,167.999994873047,8|0|0,0:0|0:0|1:0,0:0:0:0:
450,228,274182,38,0,P|466:177|448:122,1,111.999996582031,0|0,1:0|0:0,0:0:0:0:
282,270,274582,2,0,P|266:323|284:376,1,111.999996582031,0|0,1:0|0:0,0:0:0:0:
379,176,274982,1,8,0:0:0:0:
329,0,275182,2,0,L|320:112,1,111.999996582031,0|0,0:0|1:0,0:0:0:0:
130,210,275582,22,0,B|293:195|293:195|241:167,1,223.999993164063,8|0,0:0|0:0,0:0:0:0:
63,159,276182,2,0,P|44:213|82:281,1,111.999996582031,0|0,1:0|0:0,0:0:0:0:
157,114,276582,1,8,0:0:0:0:
0,53,276782,1,0,1:0:0:0:
161,126,276982,2,0,L|328:111,1,167.999994873047
344,88,277382,38,0,B|367:162|367:162|347:256,1,167.999994873047,4|0,1:2|0:0,0:0:0:0:
339,266,277782,2,0,L|330:154,1,111.999996582031,0|0,0:0|1:0,0:0:0:0:
492,260,278182,2,0,P|512:311|493:363,1,111.999996582031,8|0,0:0|0:0,0:0:0:0:
421,312,278582,1,0,1:0:0:0:
181,369,278782,22,0,B|341:354|341:354|245:324,1,223.999993164063,8|0,0:0|0:0,0:0:0:0:
217,168,279382,2,0,P|200:219|221:288,1,111.999996582031,0|0,1:0|0:0,0:0:0:0:
142,20,279782,2,0,B|129:148|129:148|96:81,2,167.999994873047,8|0|0,0:0|0:0|1:0,0:0:0:0:
82,239,280582,37,4,0:0:0:0:
48,40,280782,1,0,0:0:0:0:
130,148,280982,2,0,L|249:135,1,111.999996582031,0|0,1:0|0:0,0:0:0:0:
44,28,281382,1,8,0:0:0:0:
7,146,281582,1,0,0:0:0:0:
5,163,281782,1,0,1:0:0:0:
297,133,281982,22,0,B|130:147|130:147|186:170,1,223.999993164063,8|8,0:0|0:0,0:0:0:0:
254,55,282582,1,0,1:0:0:0:
260,39,282782,1,0,0:0:0:0:
250,228,282982,1,8,0:0:0:0:
168,64,283182,2,0,P|114:46|58:65,2,111.999996582031
101,289,283782,38,0,B|110:160|110:160|66:220,1,167.999994873047,4|0,1:2|0:0,0:0:0:0:
62,205,284182,2,0,P|114:195|169:225,1,111.999996582031,0|0,0:0|1:0,0:0:0:0:
34,124,284582,2,0,L|44:11,1,111.999996582031,8|0,0:0|0:0,0:0:0:0:
127,80,284982,1,0,1:0:0:0:
177,241,285182,22,0,B|10:226|10:226|66:203,1,223.999993164063,8|0,0:0|0:0,0:0:0:0:
242,192,285782,2,0,P|257:253|232:302,1,111.999996582031,0|0,1:0|0:0,0:0:0:0:
181,22,286182,2,0,B|168:150|168:150|150:114,2,167.999994873047,8|0|0,0:0|0:0|1:0,0:0:0:0:
241,192,286982,38,0,P|293:212|345:196,1,111.999996582031,0|0,1:0|0:0,0:0:0:0:
151,114,287382,2,0,P|98:98|47:118,1,111.999996582031,0|0,1:0|0:0,0:0:0:0:
298,123,287782,2,0,L|307:11,1,111.999996582031,8|0,0:0|0:0,0:0:0:0:
217,55,288182,1,0,1:0:0:0:
460,192,288382,22,0,B|379:184|379:184|316:211|316:211|234:204,1,223.999993164063,8|0,0:0|0:0,0:0:0:0:
393,271,288982,2,0,P|404:324|386:376,1,111.999996582031,0|0,1:0|0:0,0:0:0:0:
298,123,289382,1,8,0:0:0:0:
452,73,289582,1,0,1:0:0:0:
294,135,289782,2,0,B|267:108|215:108|189:139|189:139|209:92,1,167.999994873047,0|0,0:2|0:0,0:0:0:0:
230,74,290182,38,0,B|237:164|237:164|214:207|214:207|223:309,1,223.999993164063,4|0,1:2|0:0,0:0:0:0:
318,232,290782,1,0,1:0:0:0:
125,143,290982,2,0,L|115:254,1,111.999996582031,8|0,0:0|0:0,0:0:0:0:
72,68,291382,1,0,0:1:0:0:
283,13,291582,1,8,0:0:0:0:
232,176,291782,22,0,P|213:124|229:71,1,111.999996582031,0|0,1:0|0:0,0:0:0:0:
320,220,292182,2,0,P|338:271|322:324,1,111.999996582031,0|0,1:0|0:0,0:0:0:0:
434,113,292582,2,0,B|306:124|306:124|347:147,2,167.999994873047,8|0|0,0:0|0:0|1:0,0:0:0:0:
227,275,293382,38,0,B|234:191|234:191|210:148|210:148|218:57,1,223.999993164063,4|0,1:2|1:0,0:0:0:0:
306,124,293982,1,0,0:0:0:0:
144,214,294182,1,8,0:0:0:0:
281,342,294382,2,0,L|402:331,1,111.999996582031,0|0,0:0|1:0,0:0:0:0:
227,275,294782,1,8,0:0:0:0:
307,124,294982,21,0,1:0:0:0:
144,214,295182,1,8,0:0:0:0:
311,112,295382,2,0,L|434:101,1,111.999996582031,0|0,1:0|0:0,0:0:0:0:
140,226,295782,2,0,B|185:304|185:304|209:38,1,335.999989746094,8|0,0:0|0:2,0:0:0:0:
111,135,296582,5,6,1:2:0:0:
209,43,296782,1,0,0:0:0:0:
52,69,296982,2,0,P|25:123|60:209,1,143.999995605469,2|0,1:2|0:0,0:0:0:0:
67,215,297382,2,0,L|77:99,1,95.9999970703126,8|0,0:0|0:0,0:0:0:0:
4,272,297782,1,0,1:0:0:0:
279,300,297982,54,0,B|207:294|207:294|152:314|152:314|90:308,1,191.999994140625,12|8,0:0|0:0,0:0:0:0:
243,205,298582,2,8,L|140:213,1,95.9999970703126,0|0,1:0|0:0,0:0:0:0:
222,374,298982,1,8,0:0:0:0:
312,160,299182,1,0,0:3:0:0:
62,266,299382,6,0,B|4:315|4:315|215:296,1,287.999991210938,4|8,1:2|0:0,0:0:0:0:
132,220,300182,2,0,P|125:173|149:118,1,95.9999970703126,0|0,1:0|0:0,0:0:0:0:
341,89,300582,1,8,0:0:0:0:
209,183,300782,1,0,1:0:0:0:
423,25,300982,2,0,B|432:132|432:132|450:91,1,143.999995605469,4|0,0:0|0:0,0:0:0:0:
460,80,301382,53,0,1:2:0:0:
285,166,301582,1,8,0:0:0:0:
476,196,301782,1,8,0:3:0:0:
370,250,301982,1,4,0:3:0:0:
340,60,302182,5,8,0:0:0:0:
374,262,302382,1,0,1:0:0:0:
433,133,302582,1,0,1:0:0:0:
230,102,302782,1,8,0:0:0:0:
283,326,302982,54,0,L|296:182,1,143.999995605469,6|0,1:2|0:0,0:0:0:0:
300,159,303382,2,0,P|233:188|158:155,1,143.999995605469,2|0,1:2|0:0,0:0:0:0:
147,157,303782,2,0,L|138:268,1,95.9999970703126,8|0,0:0|0:0,0:0:0:0:
230,102,304182,1,0,1:0:0:0:
512,55,304382,6,0,B|436:48|436:48|383:68|383:68|323:63,1,191.999994140625,12|8,0:0|0:0,0:0:0:0:
505,140,304982,2,0,L|377:151,1,95.9999970703126,0|0,1:0|0:0,0:0:0:0:
290,286,305382,1,8,0:0:0:0:
324,63,305582,1,0,1:0:0:0:
95,136,305782,54,0,B|29:174|29:174|240:192,1,287.999991210938,4|8,1:2|0:0,0:0:0:0:
176,103,306582,2,0,P|164:54|179:9,1,95.9999970703126,0|0,1:0|0:0,0:0:0:0:
430,33,306982,1,8,0:0:0:0:
252,58,307182,1,0,1:0:0:0:
451,221,307382,2,0,B|461:109|461:109|491:149,1,143.999995605469,4|0,0:0|0:0,0:0:0:0:
495,153,307782,5,8,0:0:0:0:
320,115,307982,1,8,0:3:0:0:
472,20,308182,1,4,0:3:0:0:
486,15,308382,1,0,1:0:0:0:
252,58,308582,53,8,0:0:0:0:
479,134,308782,1,0,1:0:0:0:
201,144,308982,1,8,0:0:0:0:
396,24,309182,1,8,0:0:0:0:
396,24,309282,1,8,0:0:0:0:
396,24,309413,54,0,L|384:145,1,111.999996582031,6|0,0:0|0:0,0:0:0:0:
197,156,310213,2,0,P|264:135|317:170,1,111.999996582031,2|0,0:0|0:0,0:0:0:0:
308,167,310813,1,0,0:0:0:0:
385,136,311013,22,0,L|389:80,2,55.9999982910157,2|0|2,0:0|0:0|0:0,0:0:0:0:
324,284,311813,1,0,0:0:0:0:
420,205,312213,38,0,B|349:233|321:179|255:201,1,167.999994873047,2|2,0:0|0:0,0:0:0:0:
251,213,313013,2,0,P|232:263|251:333,2,111.999996582031,2|2|2,0:0|0:0|0:0,0:0:0:0:
263,199,314013,1,0,0:0:0:0:
276,186,314213,22,0,L|281:127,2,55.9999982910157,2|0|2,0:0|0:0|0:0,0:0:0:0:
196,140,315013,2,0,L|190:84,2,55.9999982910157,2|0|2,0:0|0:0|0:0,0:0:0:0:
389,177,315813,38,0,P|336:193|283:177,1,111.999996582031,2|0,0:0|0:0,0:0:0:0:
207,113,316613,2,0,L|195:240,1,111.999996582031,2|2,0:0|0:0,0:0:0:0:
203,242,317213,22,0,P|150:224|99:243,1,111.999996582031,2|2,0:0|0:0,0:0:0:0:
90,260,317813,1,0,0:0:0:0:
125,144,318213,1,2,0:0:0:0:
242,319,318613,38,0,B|307:340|335:286|406:314,1,167.999994873047,2|2,0:0|0:0,0:0:0:0:
421,326,319413,1,2,0:0:0:0:
256,192,319513,12,0,322213,0:0:0:0:
