osu file format v14

[General]
AudioFilename: audio.mp3
AudioLeadIn: 0
PreviewTime: 81989
Countdown: 0
SampleSet: Normal
StackLeniency: 0.7
Mode: 0
LetterboxInBreaks: 0
WidescreenStoryboard: 1

[Editor]
DistanceSpacing: 1
BeatDivisor: 4
GridSize: 8
TimelineZoom: 1

[Metadata]
Title:Lunatic Kaleidoscope
TitleUnicode:東方ボーカル
Artist:GET IN THE RING
ArtistUnicode:GET IN THE RING
Creator:FlanniScarlet
Version:Insane
Source:Touhou Project
Tags:
BeatmapID:993455
BeatmapSetID:462865

[Difficulty]
HPDrainRate:8
CircleSize:4
OverallDifficulty:7
ApproachRate:7
SliderMultiplier:2.2
SliderTickRate:1

[Events]
//Background and Video events
0,0,"Lunatic Kaleidoscope BG.jpg",0,0
//Break Periods
//Storyboard Layer 0 (Background)
//Storyboard Layer 1 (Fail)
//Storyboard Layer 2 (Pass)
//Storyboard Layer 3 (Foreground)
//Storyboard Sound Samples

[TimingPoints]
966.305052630726,454.545454545455,4,1,2,70,1,0
30057,-100,4,1,1,100,0,0
82784,-66.6666666666667,4,1,1,100,0,1
111875,-100,4,2,1,75,0,0
130057,-100,4,1,1,75,0,0
140739,-100,4,1,1,100,0,0
166420,-100,4,1,1,100,0,1
195625,-100,4,1,1,75,0,0
237329,-100,4,1,1,80,0,0
237784,-100,4,1,1,85,0,0
238239,-100,4,1,1,90,0,0
238693,-100,4,1,1,95,0,0
239148,-100,4,1,1,100,0,1
268239,-100,4,1,1,100,0,0

[Colours]
Combo1 : 254,210,80
Combo2 : 64,0,128
Combo3 : 96,251,119
Combo4 : 51,247,237

[HitObjects]
72,168,13693,5,0,0:0:0:0:
104,272,13920,1,0,0:0:0:0:
216,272,14148,1,0,0:0:0:0:
248,168,14375,2,0,P|242:99|120:120,1,220
120,224,15057,1,0,0:0:0:0:
192,304,15284,1,0,0:0:0:0:
288,256,15511,6,0,P|320:246|384:192,1,110
424,96,15966,2,0,B|440:64|424:24|424:24|336:24,1,110
280,24,16307,2,0,P|240:64|272:160,1,165
192,304,16875,1,0,0:0:0:0:
39,358,17102,1,0,0:0:0:0:
70,196,17329,1,0,0:0:0:0:
70,196,17443,1,0,0:0:0:0:
70,196,17557,1,0,0:0:0:0:
192,304,17784,2,0,P|230:322|281:286,1,110
288,232,18125,2,0,P|340:200|308:261,1,165
232,200,18693,1,0,0:0:0:0:
224,312,18920,1,0,0:0:0:0:
112,320,19148,6,0,P|112:256|80:200,1,110
40,120,19602,2,0,P|24:64|104:40,1,110
160,72,19943,2,0,P|216:88|328:80,1,165
424,120,20511,1,0,0:0:0:0:
424,120,20625,1,0,0:0:0:0:
424,120,20739,1,0,0:0:0:0:
376,216,20966,2,0,L|368:272,2,55
288,144,21420,2,0,P|224:144|168:160,1,110
128,176,21761,2,0,P|72:176|120:88,1,165
176,48,22329,1,0,0:0:0:0:
288,40,22557,1,0,0:0:0:0:
400,56,22784,5,0,0:0:0:0:
400,56,22898,1,0,0:0:0:0:
400,56,23011,1,0,0:0:0:0:
336,144,23239,2,0,P|312:200|312:248,1,110
216,304,23579,2,0,P|153:300|176:216,1,165
64,168,24148,2,0,P|54:111|73:60,1,110
184,64,24602,2,0,P|240:80|296:80,2,110
160,168,25284,1,0,0:0:0:0:
160,168,25398,2,0,P|208:208|312:224,1,165
296,112,25966,2,0,P|368:128|400:160,1,110
400,264,26420,5,0,0:0:0:0:
264,320,26648,1,0,0:0:0:0:
112,224,26875,1,0,0:0:0:0:
200,32,27102,1,0,0:0:0:0:
200,32,27216,2,0,P|272:40|360:80,1,165
360,184,27784,1,0,0:0:0:0:
296,272,28011,1,0,0:0:0:0:
256,376,28239,1,0,0:0:0:0:
216,272,28466,1,0,0:0:0:0:
152,184,28693,1,0,0:0:0:0:
256,144,28920,1,0,0:0:0:0:
256,144,29034,2,0,L|256:312,1,165
200,216,29602,1,0,0:0:0:0:
312,216,29829,1,0,0:0:0:0:
256,120,30057,6,0,P|208:88|112:80,1,110
104,88,30398,1,0,0:0:0:0:
64,128,30511,2,0,P|96:176|112:240,1,110
272,272,30966,1,0,0:0:0:0:
232,112,31193,1,0,0:0:0:0:
392,152,31420,1,0,0:0:0:0:
440,320,31648,1,0,0:0:0:0:
272,272,31875,2,0,P|200:256|176:224,1,110
152,184,32216,1,0,0:0:0:0:
136,136,32329,1,0,0:0:0:0:
192,40,32557,2,0,L|248:32,1,55
296,192,32898,2,0,L|240:200,1,55
144,144,33239,2,0,P|104:192|112:256,1,110
200,288,33693,5,0,0:0:0:0:
296,232,33920,1,0,0:0:0:0:
296,232,34034,1,0,0:0:0:0:
296,232,34148,1,0,0:0:0:0:
397,193,34375,1,0,0:0:0:0:
397,193,34489,1,0,0:0:0:0:
391,84,34716,1,0,0:0:0:0:
391,84,34829,1,0,0:0:0:0:
283,118,35057,1,0,0:0:0:0:
176,128,35284,2,0,L|64:88,1,110
88,256,35739,2,0,L|200:296,1,110
248,296,36079,1,0,0:0:0:0:
304,280,36193,1,0,0:0:0:0:
376,200,36420,1,0,0:0:0:0:
376,200,36534,2,0,P|344:144|360:40,1,165
248,24,37102,1,0,0:0:0:0:
144,64,37329,6,0,P|112:112|104:168,1,110
168,256,37784,1,0,0:0:0:0:
168,256,37898,1,0,0:0:0:0:
168,256,38011,1,0,0:0:0:0:
272,296,38239,2,0,P|325:305|370:336,1,110
464,280,38693,2,0,B|456:224|456:224|408:184,1,110
360,176,39034,1,0,0:0:0:0:
304,184,39148,2,0,P|240:192|184:184,1,110
88,152,39602,2,0,L|48:104,2,55
112,200,39943,1,0,0:0:0:0:
112,256,40057,2,0,P|112:312|200:344,1,110
256,328,40511,2,0,P|312:320|368:336,1,110
424,240,40966,5,0,0:0:0:0:
232,88,41307,1,0,0:0:0:0:
192,336,41648,2,0,P|112:336|48:224,1,220
88,120,42329,1,0,0:0:0:0:
188,76,42557,1,0,0:0:0:0:
296,72,42784,2,0,P|192:188|108:148,1,220
80,96,43466,1,0,0:0:0:0:
136,88,43579,1,0,0:0:0:0:
188,76,43693,2,0,P|244:84|296:72,1,110
400,64,44148,1,0,0:0:0:0:
472,152,44375,1,0,0:0:0:0:
472,264,44602,6,0,P|412:288|384:328,1,110
280,336,45057,1,0,0:0:0:0:
176,288,45284,1,0,0:0:0:0:
152,240,45398,1,0,0:0:0:0:
124,192,45511,2,0,L|72:172,2,55
216,136,45966,1,0,0:0:0:0:
264,112,46079,1,0,0:0:0:0:
312,88,46193,2,0,B|392:152|392:152|360:208|368:264,1,220
208,312,46875,1,0,0:0:0:0:
56,248,47102,1,0,0:0:0:0:
56,80,47329,1,0,0:0:0:0:
208,16,47557,1,0,0:0:0:0:
360,80,47784,2,0,L|280:160,1,110
216,72,48239,6,0,P|128:80|96:200,1,220
168,272,48920,1,0,0:0:0:0:
168,272,49034,2,0,L|336:304,1,165
384,296,49489,1,0,0:0:0:0:
440,280,49602,2,0,P|454:228|440:176,1,110
408,128,49943,1,0,0:0:0:0:
384,80,50057,2,0,L|224:32,1,165
288,88,50511,2,0,L|128:136,1,165
104,56,50966,2,0,L|4:189,1,165
78,148,51420,2,0,L|72:304,1,110
168,312,51875,6,0,P|200:248|200:192,1,110
176,104,52329,1,0,0:0:0:0:
176,104,52443,1,0,0:0:0:0:
176,104,52557,1,0,0:0:0:0:
280,128,52784,2,0,P|336:128|392:112,2,110
176,104,53466,1,0,0:0:0:0:
136,208,53693,2,0,L|104:320,1,110
200,176,54148,2,0,L|247:282,1,110
232,112,54602,2,0,L|336:162,1,110
224,40,55057,2,0,L|336:11,1,110
432,64,55511,5,0,0:0:0:0:
472,168,55739,1,0,0:0:0:0:
472,168,55852,1,0,0:0:0:0:
472,168,55966,1,0,0:0:0:0:
424,264,56193,2,0,L|376:296,1,55
328,192,56534,2,0,L|280:160,1,55
200,232,56875,1,0,0:0:0:0:
88,232,57102,1,0,0:0:0:0:
88,120,57329,1,0,0:0:0:0:
232,40,57557,1,0,0:0:0:0:
376,120,57784,1,0,0:0:0:0:
232,192,58011,2,0,L|232:320,2,110
176,96,58693,1,0,0:0:0:0:
288,96,58920,1,0,0:0:0:0:
392,64,59148,6,0,P|376:120|392:216,1,110
392,224,59489,1,0,0:0:0:0:
416,272,59602,2,0,P|416:332|347:330,1,110
264,336,60057,1,0,0:0:0:0:
168,280,60284,1,0,0:0:0:0:
128,176,60511,2,0,P|128:120|112:64,1,110
216,32,60966,2,0,P|264:59|320:74,1,110
360,176,61420,1,0,0:0:0:0:
320,280,61648,1,0,0:0:0:0:
272,304,61761,1,0,0:0:0:0:
216,208,61989,1,0,0:0:0:0:
168,232,62102,1,0,0:0:0:0:
104,144,62329,2,0,P|120:80|160:40,1,110
256,64,62784,6,0,P|304:96|416:136,2,165
152,104,63693,1,0,0:0:0:0:
104,200,63920,1,0,0:0:0:0:
152,296,64148,1,0,0:0:0:0:
256,336,64375,1,0,0:0:0:0:
360,296,64602,2,0,B|320:256|320:256|320:192,1,110
152,296,65057,2,0,B|192:256|192:256|256:256,1,110
152,88,65511,2,0,B|192:128|192:128|192:192,1,110
360,88,65966,2,0,B|320:128|320:128|256:128,1,110
120,120,66420,6,0,B|120:176|120:176|152:224,1,110
208,280,66875,1,0,0:0:0:0:
296,280,67102,1,0,0:0:0:0:
456,137,67329,2,0,P|416:96|352:80,1,110
280,80,67784,1,0,0:0:0:0:
200,104,68011,1,0,0:0:0:0:
152,176,68239,2,0,P|104:208|88:256,1,110
176,260,68693,2,0,P|224:292|240:340,1,110
328,336,69148,2,0,P|346:285|391:256,1,110
479,252,69602,2,0,P|460:201|415:172,1,110
328,168,70057,5,0,0:0:0:0:
264,112,70284,1,0,0:0:0:0:
224,88,70398,1,0,0:0:0:0:
184,80,70511,1,0,0:0:0:0:
96,192,70739,2,0,P|152:176|192:144,1,110
272,208,71193,2,0,P|216:224|176:256,1,110
240,312,71648,2,0,P|296:296|336:264,1,110
384,192,72102,1,0,0:0:0:0:
392,104,72329,1,0,0:0:0:0:
360,24,72557,1,0,0:0:0:0:
280,64,72784,2,0,B|224:80|64:72|64:72|64:144|96:200,1,330
104,224,73579,1,0,0:0:0:0:
128,264,73693,5,0,0:0:0:0:
216,240,73920,1,0,0:0:0:0:
304,248,74148,1,0,0:0:0:0:
392,224,74375,1,0,0:0:0:0:
408,184,74489,1,0,0:0:0:0:
424,144,74602,1,0,0:0:0:0:
384,64,74829,2,0,L|272:64,1,110
200,112,75284,1,0,0:0:0:0:
160,192,75511,2,0,P|160:248|152:304,1,110
352,192,75966,2,0,P|352:136|360:80,1,110
256,97,76420,2,0,B|207:146|256:194|256:194|304:242|256:290|256:290,1,220
168,320,77102,1,0,0:0:0:0:
104,264,77329,6,0,P|96:208|72:160,1,110
184,56,77784,2,0,P|192:112|216:160,1,110
296,224,78239,2,0,P|320:273|328:328,1,110
439,223,78694,2,0,P|415:174|408:120,1,110
336,64,79148,2,0,P|264:48|160:48,2,165
256,192,80057,12,0,81875,0:0:0:0:
160,328,82102,5,0,0:0:0:0:
112,256,82329,1,0,0:0:0:0:
104,168,82557,1,0,0:0:0:0:
104,128,82670,1,0,0:0:0:0:
112,80,82784,2,0,P|207:100|273:147,1,165.000006294251
208,256,83239,2,0,P|277:298|358:313,1,165.000006294251
440,208,83693,1,0,0:0:0:0:
416,80,83920,1,0,0:0:0:0:
288,112,84148,2,0,P|204:120|120:112,1,165.000006294251
72,152,84489,1,0,0:0:0:0:
56,216,84602,6,0,P|208:192|392:216,1,330.000012588501
488,128,85284,1,0,0:0:0:0:
512,256,85511,2,0,P|349:280|186:258,1,330.000012588501
144,208,86079,1,0,0:0:0:0:
104,152,86193,1,0,0:0:0:0:
144,24,86420,2,0,P|224:48|280:112,1,165.000006294251
368,360,86875,2,0,P|288:336|232:272,1,165.000006294251
424,80,87329,2,0,P|400:160|336:216,1,165.000006294251
88,304,87784,2,0,P|112:224|176:168,1,165.000006294251
288,112,88239,5,0,0:0:0:0:
336,224,88466,1,0,0:0:0:0:
224,272,88693,1,0,0:0:0:0:
176,160,88920,1,0,0:0:0:0:
256,56,89148,1,0,0:0:0:0:
373,260,89375,1,0,0:0:0:0:
138,260,89602,1,0,0:0:0:0:
256,184,89829,1,0,0:0:0:0:
256,56,90057,2,0,P|248:56|248:312,2,330.000012588501
384,56,91193,1,0,0:0:0:0:
320,168,91420,2,0,P|288:248|288:336,1,165.000006294251
248,200,91875,6,0,P|216:120|160:64,1,165.000006294251
104,40,92216,1,0,0:0:0:0:
40,56,92329,2,0,P|69:132|126:191,1,165.000006294251
184,216,92670,1,0,0:0:0:0:
240,248,92784,2,0,P|328:234|352:133,1,165.000006294251
312,16,93239,1,0,0:0:0:0:
144,16,93466,1,0,0:0:0:0:
56,160,93693,2,0,P|77:289|18:230,2,330.000012588501
136,16,94829,1,0,0:0:0:0:
304,16,95057,1,0,0:0:0:0:
384,160,95284,6,0,P|362:289|421:230,1,330.000012588501
352,96,95966,1,0,0:0:0:0:
192,48,96193,2,0,P|170:177|229:118,1,330.000012588501
336,8,96875,1,0,0:0:0:0:
480,88,97102,1,0,0:0:0:0:
480,256,97329,2,0,L|352:368,1,165.000006294251
312,208,97784,2,0,L|200:80,1,165.000006294251
