osu file format v14

[General]
AudioFilename: audio.mp3
AudioLeadIn: 0
PreviewTime: 73745
Countdown: 0
SampleSet: Normal
StackLeniency: 0.7
Mode: 0
LetterboxInBreaks: 0
WidescreenStoryboard: 0

[Editor]
DistanceSpacing: 2
BeatDivisor: 4
GridSize: 32
TimelineZoom: 1.9

[Metadata]
Title:Aria
TitleUnicode:Aria
Artist:GET IN THE RING
ArtistUnicode:GET IN THE RING
Creator:AdveNt
Version:Hopeless Masquerade
Source:東方Project
Tags:touhou project 東方心綺楼 亡失のエモーション 聖徳伝説 True Administrator 感情の摩天楼 Cosmic Mind 暁雲 みぃ GCHM Jell 博麗神社例大祭14
BeatmapID:1313867
BeatmapSetID:623376

[Difficulty]
HPDrainRate:5
CircleSize:4
OverallDifficulty:8
ApproachRate:9.2
SliderMultiplier:1.6
SliderTickRate:1

[Events]
//Background and Video events
0,0,"hijimikokoro.png",0,0
//Break Periods
2,219026,227780
//Storyboard Layer 0 (Background)
//Storyboard Layer 1 (Fail)
//Storyboard Layer 2 (Pass)
//Storyboard Layer 3 (Foreground)
//Storyboard Sound Samples

[TimingPoints]
414,317.460317460317,4,1,0,60,1,0
20729,-100,4,2,0,60,0,0
29461,-133.333333333333,4,2,0,60,0,0
30572,-100,4,2,0,60,0,0
35969,-90.9090909090909,4,1,0,60,0,0
53747,-100,4,1,0,60,0,0
73747,-133.333333333333,4,2,0,40,0,0
74064,-66.6666666666667,4,1,0,80,0,1
104540,-133.333333333333,4,1,0,80,0,1
109461,-133.333333333333,4,2,0,40,0,1
111683,-100,4,2,0,40,0,0
114064,-90.9090909090909,4,1,0,60,0,0
124858,-100,4,2,0,60,0,0
140096,-90.9090909090909,4,1,0,60,0,0
142636,-100,4,1,0,60,0,0
162318,-90.9090909090909,4,1,0,60,0,0
162953,-66.6666666666667,4,1,0,80,0,1
193429,-133.333333333333,4,1,0,80,0,1
198350,-83.3333333333333,4,1,0,80,0,1
200731,-83.3333333333333,4,1,0,60,0,0
202794,-133.333333333333,4,1,0,60,0,0
203429,-100,4,1,0,60,0,0
206445,-83.3333333333333,4,1,0,60,0,0
207874,-100,4,1,0,60,0,0
208509,-83.3333333333333,4,1,0,60,0,0
216445,-83.3333333333333,4,1,0,5,0,0
216525,-83.3333333333333,4,1,0,60,0,0
216683,-83.3333333333333,4,1,0,5,0,0
216763,-83.3333333333333,4,1,0,60,0,0
216842,-83.3333333333333,4,1,0,5,0,0
216921,-83.3333333333333,4,1,0,60,0,0
217080,-83.3333333333333,4,1,0,5,0,0
217160,-83.3333333333333,4,1,0,60,0,0
217318,-83.3333333333333,4,1,0,5,0,0
217398,-83.3333333333333,4,1,0,60,0,0
217477,-83.3333333333333,4,1,0,5,0,0
217556,-83.3333333333333,4,1,0,60,0,0
218826,-100,4,2,0,40,0,0
228985,-133.333333333333,4,1,0,40,0,0
239144,-90.9090909090909,4,1,0,50,0,0
245493,-100,4,1,0,60,0,0
246763,-133.333333333333,4,1,0,60,0,0
248191,-133.333333333333,4,1,0,5,0,0
248271,-133.333333333333,4,1,0,60,0,0
248429,-133.333333333333,4,1,0,5,0,0
248509,-133.333333333333,4,1,0,60,0,0
248588,-133.333333333333,4,1,0,5,0,0
248667,-100,4,1,0,60,0,0
248826,-100,4,1,0,5,0,0
248906,-100,4,1,0,60,0,0
249064,-100,4,1,0,5,0,0
249144,-100,4,1,0,60,0,0
249937,317.460317460317,4,1,0,60,1,0
249937,-66.6666666666667,4,1,0,80,0,1
280413,-133.333333333333,4,1,0,80,0,1
285493,-133.333333333333,4,2,0,60,0,1
287556,-133.333333333333,4,2,0,60,0,0
287874,-100,4,1,0,60,0,0
309619,-100,4,1,0,40,0,0
310889,-100,4,1,0,30,0,0
312159,-100,4,1,0,20,0,0
313349,-100,4,2,0,5,0,0

[HitObjects]
312,117,414,5,4,0:0:0:0:
242,239,572,1,0,0:0:0:0:
160,143,731,2,0,L|59:141,1,80,8|0,0:0|0:0,0:0:0:0:
242,239,1048,2,0,L|336:237,1,80
160,143,1366,1,8,0:0:0:0:
98,277,1525,1,0,0:0:0:0:
384,296,1683,6,0,B|406:254|406:254|395:194,1,80
263,73,2001,2,0,B|241:115|241:115|252:175,1,80,8|0,0:0|0:0,0:0:0:0:
482,281,2318,1,0,0:0:0:0:
466,127,2477,2,0,P|409:136|358:131,1,80,0|8,0:0|0:0,0:0:0:0:
108,82,2794,6,0,P|183:60|271:76,1,160,4|0,0:0|0:0,0:0:0:0:
386,135,3271,1,8,0:0:0:0:
272,224,3429,1,0,0:0:0:0:
395,279,3588,2,0,L|402:370,1,80
272,224,3906,2,0,L|281:120,1,80,8|0,0:0|0:0,0:0:0:0:
121,309,4223,5,0,0:0:0:0:
288,308,4382,1,0,0:0:0:0:
177,183,4540,1,8,0:0:0:0:
364,183,4699,1,0,0:0:0:0:
325,66,4858,5,0,0:0:0:0:
255,232,5017,1,0,0:0:0:0:
224,83,5175,1,8,0:0:0:0:
353,272,5334,1,0,0:0:0:0:
440,129,5493,5,4,0:0:0:0:
281,156,5652,1,0,0:0:0:0:
353,272,5810,2,0,P|411:275|450:242,1,80,8|0,0:0|0:0,0:0:0:0:
196,164,6128,1,0,0:0:0:0:
256,314,6287,1,0,0:0:0:0:
383,187,6445,2,0,L|391:90,1,80,8|0,0:0|0:0,0:0:0:0:
121,73,6763,6,0,L|126:177,1,80
28,40,7080,1,8,0:0:0:0:
208,30,7239,1,0,0:0:0:0:
47,221,7398,1,0,0:0:0:0:
279,188,7556,2,0,P|326:221|342:270,2,80,0|8|0,0:0|0:0|0:0,0:0:0:0:
192,266,8033,5,4,0:0:0:0:
171,231,8112,1,0,0:0:0:0:
165,192,8191,1,0,0:0:0:0:
172,153,8271,1,0,0:0:0:0:
193,119,8350,1,8,0:0:0:0:
224,94,8429,1,0,0:0:0:0:
262,82,8509,1,0,0:0:0:0:
302,84,8588,1,0,0:0:0:0:
338,100,8667,6,0,P|362:104|398:92,3,40,8|0|0|0,0:0|0:0|0:0|0:0,0:0:0:0:
152,38,8985,2,0,P|128:34|92:46,3,40,8|0|0|0,0:0|0:0|0:0|0:0,0:0:0:0:
279,188,9302,1,4,0:0:0:0:
279,188,9937,6,0,P|306:132|262:70,1,120
283,83,10255,2,0,L|351:80,1,40,8|0,0:0|0:0,0:0:0:0:
310,272,10413,6,0,P|224:255|199:166,1,160,4|0,0:0|0:0,0:0:0:0:
156,98,10890,2,0,P|108:83|65:90,1,80,8|0,0:0|0:0,0:0:0:0:
69,274,11207,2,0,P|103:234|105:192,1,80
79,85,11525,1,8,0:0:0:0:
279,188,11683,6,0,P|361:176|462:209,1,160
418,94,12160,2,0,P|348:85|323:89,1,80,8|0,0:0|0:0,0:0:0:0:
165,108,12477,2,0,L|151:202,2,80,0|0|8,0:0|0:0|0:0,0:0:0:0:
64,194,12953,6,0,P|91:265|182:280,1,160
342,291,13429,2,0,B|388:281|388:281|433:295,1,80,8|0,0:0|0:0,0:0:0:0:
268,339,13747,1,0,0:0:0:0:
253,218,13906,1,0,0:0:0:0:
268,339,14064,1,8,0:0:0:0:
173,138,14223,6,0,L|255:119,1,80
250,119,14540,1,0,0:0:0:0:
135,242,14699,2,0,L|62:198,1,80,8|0,0:0|0:0,0:0:0:0:
331,189,15017,2,0,L|344:281,2,80,0|0|8,0:0|0:0|0:0,0:0:0:0:
331,189,15493,6,0,P|416:186|482:119,1,160
377,33,15969,2,0,P|367:78|385:112,1,80,8|0,0:0|0:0,0:0:0:0:
448,260,16287,2,0,P|462:302|452:346,1,80
456,336,16604,1,8,0:0:0:0:
278,248,16763,6,0,P|205:270|127:210,1,160
122,109,17239,1,8,0:0:0:0:
137,229,17398,1,0,0:0:0:0:
149,344,17556,2,0,P|191:357|247:354,2,80,0|0|8,0:0|0:0|0:0,0:0:0:0:
41,307,18033,6,0,B|31:246|31:246|52:203|52:203|46:140,1,160,4|0,0:0|0:0,0:0:0:0:
231,133,18509,1,8,0:0:0:0:
85,57,18667,1,0,0:0:0:0:
154,211,18826,1,8,0:0:0:0:
189,36,18985,1,0,0:0:0:0:
47,152,19144,1,8,0:0:0:0:
294,230,19302,1,0,0:0:0:0:
294,230,19382,1,0,0:0:0:0:
294,230,19461,6,0,L|297:161,1,40,4|0,0:0|0:0,0:0:0:0:
208,267,19620,2,0,L|217:363,1,80,2|8,0:0|0:0,0:0:0:0:
373,143,19937,2,0,P|334:116|300:105,1,80,2|0,0:0|0:0,0:0:0:0:
67,259,20255,1,2,0:0:0:0:
67,259,20413,2,0,P|106:286|140:297,1,80,8|0,0:0|0:0,0:0:0:0:
356,333,20731,5,4,0:0:0:0:
404,214,20890,1,0,0:0:0:0:
455,314,21048,1,8,0:0:0:0:
284,276,21207,1,0,0:0:0:0:
284,276,21366,2,0,P|263:214|268:173,2,80,0|0|8,0:0|0:0|0:0,0:0:0:0:
342,136,21842,6,0,P|274:97|195:120,1,160
112,200,22318,2,0,P|62:200|30:180,1,80,8|0,0:0|0:0,0:0:0:0:
217,209,22636,2,0,P|257:243|267:295,2,80,0|0|8,0:0|0:0|0:0,0:0:0:0:
148,340,23112,6,0,B|200:332|200:332|249:354|249:354|339:348,1,160
441,337,23588,2,0,B|463:298|463:298|454:252,1,80,8|0,0:0|0:0,0:0:0:0:
402,62,23906,1,0,0:0:0:0:
402,62,24064,2,0,B|379:102|379:102|383:143,1,80,0|8,0:0|0:0,0:0:0:0:
456,263,24382,2,0,L|389:263,1,40
260,201,24541,6,0,L|358:200,1,80,2|0,0:0|0:0,0:0:0:0:
199,104,24858,1,8,0:0:0:0:
178,298,25017,1,0,0:0:0:0:
106,188,25175,1,0,0:0:0:0:
260,201,25334,1,0,0:0:0:0:
59,267,25493,2,0,P|17:210|29:150,1,120,8|0,0:0|0:0,0:0:0:0:
70,89,25810,6,0,B|106:106|106:106|169:103,1,80
358,56,26128,2,0,B|322:39|322:39|259:42,1,80,8|0,0:0|0:0,0:0:0:0:
303,174,26445,1,0,0:0:0:0:
461,113,26604,2,0,P|477:72|474:26,1,80,0|8,0:0|0:0,0:0:0:0:
303,174,26921,6,0,P|272:237|302:343,1,160
368,257,27398,1,8,0:0:0:0:
167,227,27556,1,0,0:0:0:0:
368,257,27715,2,0,P|400:200|396:166,2,80,0|0|8,0:0|0:0|0:0,0:0:0:0:
356,84,28191,6,0,P|454:94|500:155,1,160
262,146,28667,2,0,P|203:162|156:156,1,80,8|0,0:0|0:0,0:0:0:0:
60,159,28985,2,0,L|49:250,1,80
118,322,29223,2,0,L|125:228,1,80,2|0,0:0|0:0,0:0:0:0:
128,211,29461,2,0,B|254:142|292:311|412:229,1,300.000011444092
408,231,30572,5,8,0:0:0:0:
385,85,30731,1,0,0:0:0:0:
229,42,30890,2,0,P|197:97|213:192,1,160,0|8,0:0|0:0,0:0:0:0:
385,85,31366,1,0,0:0:0:0:
211,188,31525,2,0,P|137:194|35:150,1,160,0|8,0:0|0:0,0:0:0:0:
57,166,32001,1,0,0:0:0:0:
289,136,32160,6,0,B|295:201|295:201|281:238|281:238|286:319,1,160,0|8,0:0|0:0,0:0:0:0:
160,316,32636,1,0,0:0:0:0:
289,136,32794,2,0,P|369:115|455:144,1,160,0|8,0:0|0:0,0:0:0:0:
441,135,33271,1,0,0:0:0:0:
172,206,33429,6,0,P|142:157|192:59,1,160,0|8,0:0|0:0,0:0:0:0:
231,138,33906,1,0,0:0:0:0:
231,138,34064,2,0,L|56:117,1,160,0|8,0:0|0:0,0:0:0:0:
72,118,34540,1,4,0:0:0:0:
368,40,35175,5,0,0:0:0:0:
391,217,35334,1,0,0:0:0:0:
302,171,35493,2,0,P|369:121|466:139,1,160
223,292,35969,6,0,P|173:294|126:269,1,88.000002685547,4|0,0:0|0:0,0:0:0:0:
62,233,36287,1,8,0:0:0:0:
309,240,36445,2,0,P|326:295|319:330,2,88.000002685547
309,240,37080,6,0,P|384:240|448:159,1,176.000005371094
336,61,37556,2,0,P|334:111|355:154,1,88.000002685547,8|0,0:0|0:0,0:0:0:0:
436,83,37874,1,0,0:0:0:0:
224,69,38033,1,0,0:0:0:0:
224,69,38350,6,0,P|146:128|56:99,1,176.000005371094
131,39,38826,1,8,0:0:0:0:
223,222,38985,1,0,0:0:0:0:
131,39,39144,1,0,0:0:0:0:
223,222,39302,2,0,B|269:211|269:211|320:225,1,88.000002685547,0|8,0:0|0:0,0:0:0:0:
224,340,39620,2,0,P|135:313|123:156,1,264.000008056641,0|8,0:0|0:0,0:0:0:0:
280,72,40255,1,0,0:0:0:0:
280,72,40413,2,0,P|380:102|449:74,1,176.000005371094,0|8,0:0|0:0,0:0:0:0:
443,77,41048,5,0,0:0:0:0:
458,228,41207,1,0,0:0:0:0:
318,168,41366,1,8,0:0:0:0:
443,77,41525,1,0,0:0:0:0:
458,228,41683,2,0,L|464:326,2,88.000002685547,0|0|8,0:0|0:0|0:0,0:0:0:0:
318,168,42160,6,0,P|219:130|144:136,1,176.000005371094
396,115,42636,2,0,P|409:161|396:211,1,88.000002685547,8|0,0:0|0:0,0:0:0:0:
224,337,42953,2,0,P|211:291|224:239,2,88.000002685547,0|0|8,0:0|0:0|0:0,0:0:0:0:
224,337,43429,6,0,B|150:344|150:344|110:330|110:330|34:338,1,176.000005371094
51,336,43906,1,8,0:0:0:0:
309,277,44064,1,0,0:0:0:0:
120,149,44223,2,0,P|105:195|117:243,1,88.000002685547
199,201,44461,2,0,P|214:155|202:107,1,88.000002685547
154,49,44699,2,0,L|342:31,1,176.000005371094
329,32,45175,5,8,0:0:0:0:
390,188,45334,1,0,0:0:0:0:
444,56,45493,1,0,0:0:0:0:
287,140,45652,1,0,0:0:0:0:
481,158,45810,1,8,0:0:0:0:
329,32,45969,1,0,0:0:0:0:
317,298,46128,6,0,P|373:313|479:270,1,176.000005371094,4|8,0:0|0:0,0:0:0:0:
478,270,46604,1,0,0:0:0:0:
248,190,46763,2,0,B|212:256|212:256|228:355,1,176.000005371094,0|8,0:0|0:0,0:0:0:0:
228,355,47239,1,0,0:0:0:0:
142,207,47398,6,0,B|178:141|178:141|162:42,1,176.000005371094,0|8,0:0|0:0,0:0:0:0:
161,41,47874,1,0,0:0:0:0:
59,126,48033,1,0,0:0:0:0:
276,131,48191,1,0,0:0:0:0:
59,126,48350,2,0,B|35:171|35:171|37:221,1,88.000002685547,8|0,0:0|0:0,0:0:0:0:
133,318,48667,6,0,P|240:282|310:296,1,176.000005371094,0|8,0:0|0:0,0:0:0:0:
405,338,49144,1,0,0:0:0:0:
133,318,49302,2,0,B|122:259|99:212|99:212|132:176|132:176|111:122|128:65,1,264.000008056641
211,122,49937,5,0,0:0:0:0:
43,153,50096,1,0,0:0:0:0:
194,34,50255,1,8,0:0:0:0:
188,227,50413,1,0,0:0:0:0:
49,60,50572,1,0,0:0:0:0:
49,60,50652,1,0,0:0:0:0:
49,60,50731,1,0,0:0:0:0:
277,180,50890,1,8,0:0:0:0:
101,250,51048,2,0,L|96:195,1,44.0000013427735
188,227,51207,6,0,L|184:326,1,88.000002685547,4|0,0:0|0:0,0:0:0:0:
28,320,51525,1,8,0:0:0:0:
28,320,51683,1,0,0:0:0:0:
277,180,51842,1,8,0:0:0:0:
90,154,52001,1,0,0:0:0:0:
184,314,52160,1,8,0:0:0:0:
210,112,52318,1,0,0:0:0:0:
70,252,52477,5,4,0:0:0:0:
362,201,52636,1,0,0:0:0:0:
256,41,52794,2,0,P|222:75|212:142,1,88.000002685547,8|0,0:0|0:0,0:0:0:0:
137,83,53112,2,0,P|137:131|177:185,1,88.000002685547,8|0,0:0|0:0,0:0:0:0:
81,197,53429,2,0,P|115:230|182:241,1,88.000002685547,8|0,0:0|0:0,0:0:0:0:
125,321,53747,6,0,P|173:320|233:227,1,160,4|8,0:0|0:0,0:0:0:0:
88,98,54223,1,0,0:0:0:0:
233,235,54382,2,0,P|308:202|415:234,1,160,0|8,0:0|0:0,0:0:0:0:
319,302,54858,1,0,0:0:0:0:
288,118,55017,5,0,0:0:0:0:
319,302,55175,1,0,0:0:0:0:
474,254,55334,2,0,P|480:193|458:156,1,80,8|0,0:0|0:0,0:0:0:0:
208,75,55652,2,0,P|202:136|224:173,1,80
288,118,55969,1,8,0:0:0:0:
102,161,56128,1,0,0:0:0:0:
278,262,56287,6,0,L|353:235,1,80
190,326,56604,2,0,L|268:358,1,80,8|0,0:0|0:0,0:0:0:0:
163,234,56921,2,0,P|90:251|49:239,2,120,0|8|0,0:0|0:0|0:0,0:0:0:0:
274,133,57556,6,0,P|354:112|437:135,1,160,0|8,0:0|0:0,0:0:0:0:
427,129,58033,1,0,0:0:0:0:
162,161,58191,2,0,L|154:77,1,80
355,219,58509,2,0,L|356:314,1,80,8|0,0:0|0:0,0:0:0:0:
268,337,58826,6,0,P|211:311|97:323,1,160,0|8,0:0|0:0,0:0:0:0:
115,315,59302,1,0,0:0:0:0:
267,229,59461,2,0,P|300:141|287:61,1,160,0|8,0:0|0:0,0:0:0:0:
205,138,59937,1,0,0:0:0:0:
442,128,60096,5,0,0:0:0:0:
442,128,60255,1,0,0:0:0:0:
147,202,60413,2,0,P|117:161|118:125,1,80,8|0,0:0|0:0,0:0:0:0:
267,229,60731,2,0,P|328:232|380:209,1,80
205,138,61048,1,8,0:0:0:0:
178,295,61207,1,0,0:0:0:0:
413,297,61366,6,0,P|434:237|397:138,2,160,0|8|0,0:0|0:0|0:0,0:0:0:0:
238,236,62160,1,0,0:0:0:0:
238,236,62318,2,0,P|203:297|288:248,1,240,8|0,0:0|0:0,0:0:0:0:
238,236,62953,2,0,P|180:228|137:223,1,80,8|0,0:0|0:0,0:0:0:0:
379,139,63271,1,8,0:0:0:0:
384,178,63350,1,0,0:0:0:0:
390,218,63429,1,0,0:0:0:0:
185,135,63588,1,8,0:0:0:0:
190,95,63667,1,0,0:0:0:0:
196,55,63746,1,0,0:0:0:0:
273,200,63906,5,4,0:0:0:0:
86,192,64064,1,0,0:0:0:0:
196,55,64223,1,8,0:0:0:0:
177,258,64382,1,0,0:0:0:0:
87,96,64540,1,8,0:0:0:0:
289,105,64699,1,0,0:0:0:0:
177,258,64858,1,8,0:0:0:0:
196,55,65017,1,0,0:0:0:0:
177,258,65175,6,0,L|63:252,2,80,8|0|8,0:0|0:0|0:0,0:0:0:0:
379,277,65652,1,0,0:0:0:0:
289,105,65810,1,8,0:0:0:0:
177,258,65969,1,0,0:0:0:0:
379,277,66128,2,0,P|393:220|387:181,1,80,8|0,0:0|0:0,0:0:0:0:
277,262,66445,5,8,0:0:0:0:
466,290,66604,1,0,0:0:0:0:
391,114,66763,1,8,0:0:0:0:
277,262,66921,1,0,0:0:0:0:
474,189,67080,1,8,0:0:0:0:
286,148,67239,1,0,0:0:0:0:
351,325,67398,1,8,0:0:0:0:
474,189,67556,1,0,0:0:0:0:
254,48,67715,6,0,P|212:81|197:138,1,80,8|0,0:0|0:0,0:0:0:0:
234,244,67953,2,0,P|287:179|283:139,1,120,8|0,0:0|0:0,0:0:0:0:
136,183,68350,1,8,0:0:0:0:
328,296,68509,1,0,0:0:0:0:
330,98,68667,1,8,0:0:0:0:
157,271,68826,1,0,0:0:0:0:
157,271,68985,6,0,P|237:353|301:334,1,160,4|8,0:0|0:0,0:0:0:0:
399,291,69461,2,0,P|442:288|392:332,1,160,4|0,0:0|0:0,0:0:0:0:
399,291,69937,2,0,P|371:221|409:135,1,160,4|0,0:0|0:0,0:0:0:0:
398,144,70413,2,0,B|348:122|348:122|279:154|231:123,1,160,4|0,0:0|0:0,0:0:0:0:
283,67,70890,5,0,0:0:0:0:
312,93,70969,1,0,0:0:0:0:
323,131,71048,1,0,0:0:0:0:
314,170,71128,1,0,0:0:0:0:
287,199,71207,1,8,0:0:0:0:
250,210,71286,1,0,0:0:0:0:
211,201,71366,1,0,0:0:0:0:
182,174,71445,1,0,0:0:0:0:
171,136,71525,1,0,0:0:0:0:
171,136,72477,6,0,B|113:117|113:117|48:137,1,120
57,134,72794,6,0,L|48:216,1,80,8|0,0:0|0:0,0:0:0:0:
120,282,73033,6,0,L|129:203,1,80,8|0,0:0|0:0,0:0:0:0:
200,274,73271,6,0,L|191:356,1,80,8|0,0:0|0:0,0:0:0:0:
191,353,73747,6,0,P|239:343|298:365,1,90.0000034332277
278,352,74064,6,0,P|331:304|344:245,1,120.000004577637,4|0,0:0|0:0,0:0:0:0:
358,92,74382,1,8,0:0:0:0:
241,256,74540,1,0,0:0:0:0:
451,193,74699,1,0,0:0:0:0:
216,99,74858,1,0,0:0:0:0:
216,99,74938,1,0,0:0:0:0:
216,99,75017,2,0,P|141:100|84:138,1,120.000004577637,8|0,0:0|0:0,0:0:0:0:
98,314,75334,6,0,B|153:292|165:283|182:225,1,120.000004577637
404,52,75652,2,0,P|436:98|442:191,1,120.000004577637,8|0,0:0|0:0,0:0:0:0:
273,292,75969,1,0,0:0:0:0:
152,117,76128,1,0,0:0:0:0:
152,117,76207,1,0,0:0:0:0:
152,117,76287,1,8,0:0:0:0:
319,145,76445,1,0,0:0:0:0:
98,244,76604,6,0,P|33:209|22:133,1,120.000004577637
232,91,76921,1,8,0:0:0:0:
240,316,77080,1,0,0:0:0:0:
102,163,77239,1,0,0:0:0:0:
347,263,77398,1,0,0:0:0:0:
347,263,77477,1,0,0:0:0:0:
347,263,77556,2,0,P|412:244|453:195,1,120.000004577637,8|0,0:0|0:0,0:0:0:0:
391,45,77874,6,0,P|357:117|366:180,1,120.000004577637
226,176,78191,2,0,P|201:113|150:71,1,120.000004577637,8|0,0:0|0:0,0:0:0:0:
124,173,78509,1,0,0:0:0:0:
448,117,78667,1,0,0:0:0:0:
448,117,78747,1,0,0:0:0:0:
448,117,78826,1,8,0:0:0:0:
254,56,78985,1,0,0:0:0:0:
275,308,79144,6,0,P|361:254|360:122,1,240.000009155274,0|8,0:0|0:0,0:0:0:0:
362,125,79620,1,0,0:0:0:0:
93,92,79779,1,0,0:0:0:0:
256,176,79937,1,0,0:0:0:0:
256,176,80017,1,0,0:0:0:0:
256,176,80096,2,0,P|273:104|263:29,1,120.000004577637,8|0,0:0|0:0,0:0:0:0:
144,205,80413,6,0,B|160:280|160:280|205:307,1,120.000004577637
453,301,80731,2,0,B|437:226|437:226|392:199,1,120.000004577637,8|0,0:0|0:0,0:0:0:0:
144,205,81048,1,0,0:0:0:0:
295,342,81207,1,0,0:0:0:0:
295,342,81287,1,0,0:0:0:0:
295,342,81366,1,8,0:0:0:0:
399,203,81525,1,0,0:0:0:0:
211,287,81683,6,0,P|114:300|39:181,1,240.000009155274,0|8,0:0|0:0,0:0:0:0:
199,81,82160,1,0,0:0:0:0:
53,80,82318,1,0,0:0:0:0:
283,198,82477,1,0,0:0:0:0:
283,198,82556,1,0,0:0:0:0:
283,198,82636,2,0,P|369:163|389:125,1,120.000004577637,8|0,0:0|0:0,0:0:0:0:
159,233,82953,6,0,P|146:324|169:361,1,120.000004577637
205,127,83271,2,0,P|131:70|88:71,1,120.000004577637,8|0,0:0|0:0,0:0:0:0:
33,227,83588,1,0,0:0:0:0:
285,234,83747,1,0,0:0:0:0:
304,233,83826,1,0,0:0:0:0:
324,232,83905,1,0,0:0:0:0:
344,231,83985,1,0,0:0:0:0:
364,230,84064,1,0,0:0:0:0:
384,229,84143,1,0,0:0:0:0:
405,230,84223,6,0,P|438:158|334:34,1,240.000009155274,4|8,0:0|0:0,0:0:0:0:
353,37,84699,1,0,0:0:0:0:
249,269,84858,1,0,0:0:0:0:
218,100,85017,1,0,0:0:0:0:
218,100,85097,1,0,0:0:0:0:
218,100,85175,2,0,B|294:100|294:100|348:143,1,120.000004577637,8|0,0:0|0:0,0:0:0:0:
111,178,85493,6,0,P|84:116|114:26,1,120.000004577637
237,219,85810,1,8,0:0:0:0:
43,241,85969,1,0,0:0:0:0:
218,100,86128,1,0,0:0:0:0:
228,312,86287,1,0,0:0:0:0:
228,312,86366,1,0,0:0:0:0:
228,312,86446,1,8,0:0:0:0:
111,178,86604,1,0,0:0:0:0:
367,118,86763,6,0,B|389:219|389:219|349:355,1,240.000009155274,0|8,0:0|0:0,0:0:0:0:
256,225,87239,1,0,0:0:0:0:
477,309,87398,1,0,0:0:0:0:
483,115,87556,1,0,0:0:0:0:
483,115,87636,1,0,0:0:0:0:
483,115,87715,2,0,B|428:102|428:102|367:118,1,120.000004577637,8|0,0:0|0:0,0:0:0:0:
145,277,88033,6,0,P|248:290|288:263,1,120.000004577637
217,84,88350,2,0,L|208:210,1,120.000004577637,8|0,0:0|0:0,0:0:0:0:
323,141,88667,1,0,0:0:0:0:
124,112,88826,1,0,0:0:0:0:
124,112,88906,1,0,0:0:0:0:
124,112,88985,1,8,0:0:0:0:
323,141,89144,1,0,0:0:0:0:
33,97,89302,6,0,L|22:260,1,120.000004577637
292,354,89620,2,0,L|284:227,1,120.000004577637,8|0,0:0|0:0,0:0:0:0:
277,81,89937,1,0,0:0:0:0:
284,234,90096,1,0,0:0:0:0:
284,234,90176,1,0,0:0:0:0:
284,234,90255,2,0,P|362:246|419:219,1,120.000004577637,8|0,0:0|0:0,0:0:0:0:
202,77,90572,5,0,0:0:0:0:
169,239,90731,1,0,0:0:0:0:
372,342,90890,2,0,B|405:290|405:290|397:211,1,120.000004577637,8|0,0:0|0:0,0:0:0:0:
312,47,91207,2,0,B|250:44|250:44|186:90,1,120.000004577637
86,246,91525,2,0,B|114:300|114:300|186:333,1,120.000004577637,8|0,0:0|0:0,0:0:0:0:
277,123,91842,5,8,0:0:0:0:
169,239,92001,1,0,0:0:0:0:
324,273,92160,1,0,0:0:0:0:
208,134,92318,5,8,0:0:0:0:
214,292,92477,1,0,0:0:0:0:
348,208,92636,1,0,0:0:0:0:
168,192,92794,5,8,0:0:0:0:
284,299,92953,1,0,0:0:0:0:
318,144,93112,2,0,B|341:53|341:53|291:83,1,120.000004577637
247,224,93429,1,8,0:0:0:0:
276,221,93508,1,0,0:0:0:0:
306,218,93587,1,0,0:0:0:0:
336,215,93667,1,0,0:0:0:0:
366,212,93747,2,0,P|401:269|395:331,1,120.000004577637
148,212,94064,2,0,P|113:155|119:93,1,120.000004577637,8|0,0:0|0:0,0:0:0:0:
317,111,94382,6,4,B|260:142|260:142|184:135,1,120.000004577637,4|0,0:0|0:0,0:0:0:0:
49,57,94699,1,8,0:0:0:0:
239,64,94858,1,0,0:0:0:0:
112,227,95017,1,0,0:0:0:0:
49,57,95175,1,0,0:0:0:0:
49,57,95255,1,0,0:0:0:0:
49,57,95334,2,0,B|106:26|106:26|182:33,1,120.000004577637,8|0,0:0|0:0,0:0:0:0:
420,227,95652,6,0,P|326:228|278:197,1,120.000004577637
224,345,95969,2,0,P|196:283|197:221,1,120.000004577637,8|0,0:0|0:0,0:0:0:0:
246,98,96287,1,0,0:0:0:0:
339,312,96445,1,0,0:0:0:0:
339,312,96524,1,0,0:0:0:0:
339,312,96604,1,8,0:0:0:0:
96,296,96763,1,0,0:0:0:0:
246,98,96921,6,0,B|259:165|259:165|248:237,1,120.000004577637
372,214,97239,2,0,B|380:163|380:163|367:96,1,120.000004577637,8|0,0:0|0:0,0:0:0:0:
181,167,97556,1,0,0:0:0:0:
456,210,97715,1,0,0:0:0:0:
456,210,97794,1,0,0:0:0:0:
456,210,97874,1,8,0:0:0:0:
291,42,98033,1,0,0:0:0:0:
265,309,98191,6,0,L|389:341,1,120.000004577637
157,246,98509,2,0,L|269:205,1,120.000004577637,8|0,0:0|0:0,0:0:0:0:
96,173,98826,1,0,0:0:0:0:
350,130,98984,1,0,0:0:0:0:
350,130,99064,1,0,0:0:0:0:
350,130,99144,2,0,L|355:267,1,120.000004577637,8|0,0:0|0:0,0:0:0:0:
256,83,99461,6,0,P|353:34|459:102,1,240.000009155274,0|8,0:0|0:0,0:0:0:0:
456,96,99937,1,0,0:0:0:0:
256,83,100096,1,0,0:0:0:0:
354,249,100254,1,0,0:0:0:0:
354,249,100334,1,0,0:0:0:0:
354,249,100413,1,8,0:0:0:0:
456,96,100572,1,0,0:0:0:0:
234,247,100731,6,0,B|237:314|237:314|277:358,1,120.000004577637
140,174,101048,2,0,B|137:107|137:107|97:63,1,120.000004577637,8|0,0:0|0:0,0:0:0:0:
46,215,101366,1,0,0:0:0:0:
288,157,101524,1,0,0:0:0:0:
288,157,101604,1,0,0:0:0:0:
288,157,101683,2,0,P|344:139|414:159,1,120.000004577637,8|0,0:0|0:0,0:0:0:0:
357,349,102001,6,0,L|346:218,1,120.000004577637
183,107,102318,2,0,L|171:231,1,120.000004577637,8|0,0:0|0:0,0:0:0:0:
288,157,102636,1,0,0:0:0:0:
83,77,102794,1,0,0:0:0:0:
83,77,102873,1,0,0:0:0:0:
83,77,102953,1,8,0:0:0:0:
341,236,103112,6,0,P|416:173|353:44,1,240.000009155274
373,53,103588,1,8,0:0:0:0:
232,118,103747,1,0,0:0:0:0:
341,236,103906,1,0,0:0:0:0:
219,338,104064,1,0,0:0:0:0:
219,338,104143,1,0,0:0:0:0:
219,338,104223,1,8,0:0:0:0:
219,338,104540,6,0,P|328:318|349:330,1,120.000004577637,4|8,0:0|0:0,0:0:0:0:
430,293,105017,1,0,0:0:0:0:
371,212,105175,2,0,L|389:84,1,120.000004577637,0|8,0:0|0:0,0:0:0:0:
462,49,105652,1,0,0:0:0:0:
387,93,105810,6,0,P|299:108|254:83,1,120.000004577637,0|8,0:0|0:0,0:0:0:0:
184,49,106287,1,0,0:0:0:0:
327,29,106445,1,4,0:0:0:0:
319,277,106604,1,0,0:0:0:0:
159,139,106763,1,8,0:0:0:0:
387,93,106921,1,0,0:0:0:0:
396,306,107080,6,0,P|384:229|339:195,1,120.000004577637,4|8,0:0|0:0,0:0:0:0:
159,139,107556,1,0,0:0:0:0:
159,139,107715,2,0,L|141:43,2,90.0000034332277,0|8|0,0:0|0:0|0:0,0:0:0:0:
177,260,108350,6,0,P|117:276|97:269,1,60.0000022888184,4|0,0:0|0:0,0:0:0:0:
335,124,108667,2,0,P|395:108|415:115,1,60.0000022888184,8|0,0:0|0:0,0:0:0:0:
251,199,108985,2,0,L|252:65,1,120.000004577637,0|8,0:0|0:0,0:0:0:0:
332,314,109461,6,0,L|365:195,1,120.000004577637
390,107,109937,1,0,0:0:0:0:
256,192,110017,12,0,111684,0:0:0:0:
184,134,114064,5,8,0:0:0:0:
184,134,114223,1,8,0:0:0:0:
184,134,114540,6,0,B|242:132|242:132|297:159|297:159|390:159,1,176.000005371094,4|0,0:0|0:0,0:0:0:0:
418,79,115017,2,0,L|305:81,1,88.000002685547,8|0,0:0|0:0,0:0:0:0:
211,245,115334,1,0,0:0:0:0:
353,159,115493,1,0,0:0:0:0:
196,53,115652,2,0,L|178:157,1,88.000002685547,8|0,0:0|0:0,0:0:0:0:
300,344,115969,6,0,L|288:241,1,88.000002685547
472,227,116287,2,0,L|369:218,1,88.000002685547,8|0,0:0|0:0,0:0:0:0:
196,198,116604,1,0,0:0:0:0:
384,219,116763,2,0,B|407:168|407:168|398:102,1,88.000002685547,0|8,0:0|0:0,0:0:0:0:
196,53,117080,6,0,P|228:134|326:150,1,176.000005371094
290,62,117556,1,8,0:0:0:0:
131,144,117715,1,0,0:0:0:0:
298,242,117874,2,0,L|309:133,1,88.000002685547
114,265,118191,2,0,L|126:365,1,88.000002685547,8|0,0:0|0:0,0:0:0:0:
182,197,118509,6,0,B|148:173|148:173|92:174,1,88.000002685547
248,309,118826,2,0,B|282:333|282:333|338:332,1,88.000002685547,8|0,0:0|0:0,0:0:0:0:
475,326,119144,1,0,0:0:0:0:
328,332,119302,1,0,0:0:0:0:
475,326,119461,1,8,0:0:0:0:
328,332,119620,6,0,B|319:255|319:255|340:221|340:221|332:148,1,176.000005371094
249,108,120096,2,0,L|258:208,1,88.000002685547,8|0,0:0|0:0,0:0:0:0:
396,278,120413,2,0,P|441:280|487:260,1,88.000002685547
249,108,120731,2,0,P|204:106|158:126,1,88.000002685547,8|0,0:0|0:0,0:0:0:0:
322,235,121048,5,0,0:0:0:0:
120,223,121207,1,0,0:0:0:0:
322,235,121366,2,0,B|338:281|338:281|330:342,1,88.000002685547,8|0,0:0|0:0,0:0:0:0:
237,338,121683,1,0,0:0:0:0:
263,143,121842,2,0,L|379:128,1,88.000002685547,0|8,0:0|0:0,0:0:0:0:
247,49,122160,6,0,L|61:35,1,176.000005371094,4|0,0:0|0:0,0:0:0:0:
350,131,122636,2,0,P|381:86|382:43,1,88.000002685547,8|0,0:0|0:0,0:0:0:0:
197,168,122953,1,0,0:0:0:0:
324,277,123112,1,0,0:0:0:0:
350,131,123271,1,8,0:0:0:0:
164,285,123429,1,4,0:0:0:0:
183,141,123588,5,0,0:0:0:0:
336,296,123747,1,0,0:0:0:0:
369,113,123906,1,8,0:0:0:0:
140,308,124064,1,0,0:0:0:0:
183,141,124223,6,0,L|242:137,1,44.0000013427735
191,227,124382,1,0,0:0:0:0:
169,227,124461,1,0,0:0:0:0:
147,228,124540,1,8,0:0:0:0:
125,229,124620,1,0,0:0:0:0:
103,230,124699,2,0,L|84:166,1,44.0000013427735
65,81,124858,5,4,0:0:0:0:
302,46,125017,2,0,B|322:76|322:76|322:128,2,80,0|8|0,0:0|0:0|0:0,0:0:0:0:
239,105,125493,1,0,0:0:0:0:
435,71,125652,1,0,0:0:0:0:
222,208,125969,6,0,P|152:166|144:85,1,160
141,93,126445,1,8,0:0:0:0:
103,282,126604,1,0,0:0:0:0:
222,207,126763,1,0,0:0:0:0:
32,165,126921,1,0,0:0:0:0:
242,321,127239,6,0,B|289:306|289:306|343:335|343:335|419:321,1,160
396,179,127715,2,0,P|369:225|361:258,1,80,8|0,0:0|0:0,0:0:0:0:
391,326,128033,1,0,0:0:0:0:
312,139,128191,2,0,P|259:125|220:121,1,80,0|8,0:0|0:0,0:0:0:0:
76,267,128509,2,0,P|125:295|256:182,1,240,0|8,0:0|0:0,0:0:0:0:
256,201,129144,1,0,0:0:0:0:
154,115,129302,2,0,L|152:206,1,80
86,65,129620,2,0,P|117:36|188:43,1,80,8|0,0:0|0:0,0:0:0:0:
464,139,129937,5,0,0:0:0:0:
381,190,130096,1,0,0:0:0:0:
297,138,130255,1,8,0:0:0:0:
214,189,130414,1,0,0:0:0:0:
126,135,130572,2,0,B|81:122|81:122|40:133,2,80,0|0|8,0:0|0:0|0:0,0:0:0:0:
214,189,131048,6,0,P|267:95|234:42,1,160
98,257,131525,1,8,0:0:0:0:
231,320,131683,1,0,0:0:0:0:
214,189,131842,1,0,0:0:0:0:
98,257,132001,2,0,P|92:311|96:350,1,80,0|8,0:0|0:0,0:0:0:0:
298,252,132318,6,0,B|342:232|342:232|392:278|470:247,1,160
406,172,132794,1,8,0:0:0:0:
341,337,132953,1,0,0:0:0:0:
341,337,133112,2,0,P|265:332|244:315,1,80
264,331,133350,2,0,L|250:237,1,80,8|0,0:0|0:0,0:0:0:0:
252,252,133588,2,0,P|265:187|217:260,1,240,2|8,0:0|0:0,0:0:0:0:
352,267,134223,1,0,0:0:0:0:
155,336,134382,2,0,P|117:294|110:257,1,80
354,77,134699,2,0,P|345:136|322:155,1,80,8|0,0:0|0:0,0:0:0:0:
107,108,135017,6,0,L|276:97,1,160,4|8,0:0|0:0,0:0:0:0:
266,97,135493,1,0,0:0:0:0:
225,285,135652,2,0,B|195:257|195:257|189:203,1,80
174,37,135969,1,8,0:0:0:0:
288,212,136128,1,0,0:0:0:0:
58,216,136287,6,0,B|37:130|37:130|58:39,1,160,0|8,0:0|0:0,0:0:0:0:
53,60,136763,1,0,0:0:0:0:
135,268,136921,2,0,P|82:301|31:298,1,80
183,170,137239,2,0,P|262:169|293:177,1,80,8|0,0:0|0:0,0:0:0:0:
377,210,137556,6,0,P|463:168|482:79,1,160,0|8,0:0|0:0,0:0:0:0:
484,112,138033,1,0,0:0:0:0:
281,50,138191,2,0,B|249:108|249:108|275:187|275:187|250:247|164:210,1,240,2|0,0:0|0:0,0:0:0:0:
108,180,138826,1,0,0:0:0:0:
108,180,139144,6,0,L|100:311,1,120,8|0,0:0|0:0,0:0:0:0:
100,299,139461,2,0,P|150:309|202:303,1,80
379,290,139779,1,8,0:0:0:0:
178,307,139937,1,0,0:0:0:0:
379,290,140096,6,0,B|398:241|398:241|391:171,1,88.000002685547,4|0,0:0|0:0,0:0:0:0:
341,72,140413,1,8,0:0:0:0:
341,72,140572,1,0,0:0:0:0:
303,230,140731,1,8,0:0:0:0:
478,277,140890,1,0,0:0:0:0:
303,230,141048,1,8,0:0:0:0:
467,111,141207,1,0,0:0:0:0:
355,344,141366,5,8,0:0:0:0:
355,344,141445,1,0,0:0:0:0:
355,344,141525,2,0,L|283:338,1,44.0000013427735
136,298,141683,1,8,0:0:0:0:
136,298,141762,1,0,0:0:0:0:
136,298,141842,2,0,L|208:292,1,44.0000013427735
398,253,142001,5,8,0:0:0:0:
398,253,142080,1,0,0:0:0:0:
398,253,142160,2,0,L|326:247,1,44.0000013427735
108,206,142318,1,8,0:0:0:0:
108,206,142397,1,0,0:0:0:0:
108,206,142477,2,0,L|180:200,1,44.0000013427735
389,167,142636,6,0,B|411:95|411:95|373:68|368:11,1,160,4|8,0:0|0:0,0:0:0:0:
450,26,143112,1,0,0:0:0:0:
314,120,143271,2,0,P|250:147|163:116,1,160,4|8,0:0|0:0,0:0:0:0:
240,49,143747,5,0,0:0:0:0:
260,228,143906,1,0,0:0:0:0:
85,170,144064,1,0,0:0:0:0:
240,49,144223,1,8,0:0:0:0:
260,228,144382,1,0,0:0:0:0:
85,170,144540,2,0,B|64:124|64:124|75:71,1,80
260,228,144858,2,0,B|281:274|281:274|270:327,1,80,8|0,0:0|0:0,0:0:0:0:
109,284,145175,6,0,L|192:279,1,80
407,173,145493,2,0,L|320:174,1,80,8|0,0:0|0:0,0:0:0:0:
468,237,145810,2,0,P|491:180|472:113,2,120,0|8|0,0:0|0:0|0:0,0:0:0:0:
340,301,146445,6,0,P|275:269|183:284,1,160,0|8,0:0|0:0,0:0:0:0:
190,280,146921,1,0,0:0:0:0:
346,127,147080,2,0,L|350:215,1,80
119,348,147398,2,0,L|111:248,1,80,8|0,0:0|0:0,0:0:0:0:
213,118,147715,5,0,0:0:0:0:
213,118,147874,2,0,P|158:180|75:175,1,160
161,45,148350,2,0,P|243:38|305:95,1,160,0|8,0:0|0:0,0:0:0:0:
340,264,148826,1,0,0:0:0:0:
412,196,148985,6,0,B|372:172|372:172|317:175,1,80
176,194,149302,1,8,0:0:0:0:
299,84,149461,1,0,0:0:0:0:
340,264,149620,1,0,0:0:0:0:
340,264,149937,2,0,L|355:360,1,80,8|0,0:0|0:0,0:0:0:0:
261,224,150255,6,0,P|298:187|347:178,1,80
400,145,150572,2,0,P|356:104|304:100,1,80,8|0,0:0|0:0,0:0:0:0:
389,240,150890,2,0,P|445:226|472:193,1,80
323,178,151207,2,0,P|298:233|305:270,1,80,8|0,0:0|0:0,0:0:0:0:
471,134,151525,5,0,0:0:0:0:
239,79,151683,1,0,0:0:0:0:
239,79,151763,1,0,0:0:0:0:
239,79,151842,2,0,L|235:170,1,80,8|0,0:0|0:0,0:0:0:0:
381,360,152160,1,0,0:0:0:0:
383,320,152239,1,0,0:0:0:0:
386,280,152318,1,0,0:0:0:0:
389,240,152398,1,0,0:0:0:0:
392,200,152477,1,8,0:0:0:0:
278,309,152794,5,4,0:0:0:0:
493,303,152953,1,0,0:0:0:0:
278,309,153112,1,8,0:0:0:0:
493,303,153271,1,0,0:0:0:0:
277,110,153429,1,8,0:0:0:0:
278,309,153588,1,0,0:0:0:0:
399,176,153747,1,8,0:0:0:0:
153,128,153906,1,0,0:0:0:0:
199,304,154064,6,0,L|295:309,1,80,8|0,0:0|0:0,0:0:0:0:
87,212,154382,1,8,0:0:0:0:
63,352,154540,1,0,0:0:0:0:
244,205,154699,2,0,L|242:114,1,80,8|0,0:0|0:0,0:0:0:0:
241,30,155017,1,8,0:0:0:0:
241,30,155175,1,0,0:0:0:0:
323,196,155334,6,0,L|218:207,1,80,8|0,0:0|0:0,0:0:0:0:
28,332,155652,2,0,L|124:344,1,80,8|0,0:0|0:0,0:0:0:0:
278,361,155969,1,8,0:0:0:0:
206,160,156128,1,0,0:0:0:0:
107,341,156287,1,8,0:0:0:0:
346,271,156445,1,0,0:0:0:0:
106,263,156604,6,0,P|98:306|115:356,1,80,8|0,0:0|0:0,0:0:0:0:
187,297,156842,2,0,P|189:234|132:181,1,120,8|0,0:0|0:0,0:0:0:0:
24,348,157239,1,8,0:0:0:0:
256,357,157398,1,0,0:0:0:0:
24,348,157556,1,8,0:0:0:0:
256,357,157715,1,0,0:0:0:0:
134,112,157874,6,0,P|81:165|119:263,1,160,4|8,0:0|0:0,0:0:0:0:
273,275,158350,2,4,P|225:206|132:196,1,160,4|0,0:0|0:0,0:0:0:0:
48,317,158826,2,0,P|134:326|182:269,1,160,4|0,0:0|0:0,0:0:0:0:
228,90,159302,2,0,P|241:153|254:85,1,160,4|0,0:0|0:0,0:0:0:0:
228,90,159779,6,0,L|170:79,1,40
242,277,159937,1,0,0:0:0:0:
268,274,160016,1,0,0:0:0:0:
295,272,160095,1,8,0:0:0:0:
321,270,160175,1,0,0:0:0:0:
348,268,160254,1,0,0:0:0:0:
374,266,160333,1,0,0:0:0:0:
401,264,160413,6,0,L|399:216,1,40,4|0,0:0|0:0,0:0:0:0:
277,102,160572,1,0,0:0:0:0:
277,102,160652,1,0,0:0:0:0:
277,102,160731,2,0,L|282:191,1,80,8|0,0:0|0:0,0:0:0:0:
413,32,161048,1,0,0:0:0:0:
413,32,161128,1,0,0:0:0:0:
413,32,161207,1,0,0:0:0:0:
164,52,161366,1,8,0:0:0:0:
413,32,161525,1,0,0:0:0:0:
413,32,162318,6,0,L|420:151,1,88.000002685547,8|0,0:0|0:0,0:0:0:0:
418,119,162556,6,0,P|351:110|304:124,1,88.000002685547,8|0,0:0|0:0,0:0:0:0:
331,113,162794,6,0,L|329:177,1,44.0000013427735,8|0,0:0|0:0,0:0:0:0:
236,279,162953,6,0,L|227:156,1,120.000004577637,4|0,0:0|0:0,0:0:0:0:
94,263,163271,1,8,0:0:0:0:
363,306,163429,1,0,0:0:0:0:
166,343,163588,1,0,0:0:0:0:
402,216,163747,1,0,0:0:0:0:
402,216,163826,1,0,0:0:0:0:
402,216,163906,2,0,P|449:254|471:319,1,120.000004577637,8|0,0:0|0:0,0:0:0:0:
210,222,164223,6,0,P|166:168|175:91,1,120.000004577637
419,69,164540,2,0,P|371:123|323:132,1,120.000004577637,8|0,0:0|0:0,0:0:0:0:
58,137,164858,1,0,0:0:0:0:
260,55,165017,1,0,0:0:0:0:
260,55,165096,1,0,0:0:0:0:
260,55,165175,1,8,0:0:0:0:
48,25,165334,1,0,0:0:0:0:
326,132,165493,6,0,P|352:86|351:9,1,120.000004577637
204,176,165810,1,8,0:0:0:0:
378,272,165969,1,0,0:0:0:0:
326,132,166128,1,0,0:0:0:0:
202,326,166287,1,0,0:0:0:0:
202,326,166366,1,0,0:0:0:0:
202,326,166445,2,0,B|133:330|133:330|66:292,1,120.000004577637,8|0,0:0|0:0,0:0:0:0:
459,206,166763,6,0,B|475:274|475:274|463:330,1,120.000004577637
150,161,167080,2,0,B|134:93|134:93|146:37,1,120.000004577637,8|0,0:0|0:0,0:0:0:0:
288,99,167398,1,0,0:0:0:0:
156,274,167556,1,0,0:0:0:0:
156,274,167636,1,0,0:0:0:0:
156,274,167715,1,8,0:0:0:0:
36,107,167874,1,0,0:0:0:0:
288,99,168033,6,0,B|320:212|320:212|284:337,1,240.000009155274,0|8,0:0|0:0,0:0:0:0:
159,197,168509,1,0,0:0:0:0:
412,97,168667,1,0,0:0:0:0:
394,303,168826,1,0,0:0:0:0:
394,303,168906,1,0,0:0:0:0:
394,303,168985,2,0,P|317:337|278:326,1,120.000004577637,8|0,0:0|0:0,0:0:0:0:
75,182,169302,5,0,0:0:0:0:
328,255,169461,1,0,0:0:0:0:
137,297,169620,1,8,0:0:0:0:
163,81,169779,1,0,0:0:0:0:
265,320,169937,1,0,0:0:0:0:
41,254,170095,1,0,0:0:0:0:
41,254,170175,1,0,0:0:0:0:
41,254,170255,1,8,0:0:0:0:
246,120,170413,1,0,0:0:0:0:
209,241,170572,6,0,P|133:174|151:32,1,240.000009155274,0|8,0:0|0:0,0:0:0:0:
394,88,171048,1,0,0:0:0:0:
246,120,171207,1,0,0:0:0:0:
470,157,171366,1,0,0:0:0:0:
470,157,171445,1,0,0:0:0:0:
470,157,171525,2,0,P|496:94|482:32,1,120.000004577637,8|0,0:0|0:0,0:0:0:0:
349,220,171842,6,0,P|330:279|352:357,1,120.000004577637
342,131,172160,2,0,L|213:117,1,120.000004577637,8|0,0:0|0:0,0:0:0:0:
101,103,172477,1,0,0:0:0:0:
201,267,172636,1,0,0:0:0:0:
201,267,172715,1,0,0:0:0:0:
201,267,172794,1,8,0:0:0:0:
271,40,172953,1,0,0:0:0:0:
93,281,173112,6,0,P|224:366|317:302,1,240.000009155274,4|8,0:0|0:0,0:0:0:0:
418,188,173588,1,0,0:0:0:0:
456,346,173747,1,0,0:0:0:0:
262,196,173906,1,0,0:0:0:0:
262,196,173985,1,0,0:0:0:0:
262,196,174064,2,0,B|246:137|246:137|264:66,1,120.000004577637,8|0,0:0|0:0,0:0:0:0:
285,297,174382,6,0,L|162:281,1,120.000004577637
350,139,174699,2,0,L|483:109,2,120.000004577637,8|0|0,0:0|0:0|0:0,0:0:0:0:
125,194,175175,1,0,0:0:0:0:
125,194,175255,1,0,0:0:0:0:
125,194,175334,1,8,0:0:0:0:
350,139,175493,1,0,0:0:0:0:
80,297,175652,6,0,P|13:195|66:92,1,240.000009155274,0|8,0:0|0:0,0:0:0:0:
263,214,176128,1,0,0:0:0:0:
80,297,176287,1,0,0:0:0:0:
277,349,176445,1,0,0:0:0:0:
277,349,176525,1,0,0:0:0:0:
277,349,176604,2,0,B|351:349|351:349|395:318,1,120.000004577637,8|0,0:0|0:0,0:0:0:0:
298,66,176921,6,0,L|296:202,1,120.000004577637
157,304,177239,2,0,L|154:185,1,120.000004577637,8|0,0:0|0:0,0:0:0:0:
318,270,177556,1,0,0:0:0:0:
157,304,177715,1,0,0:0:0:0:
157,304,177794,1,0,0:0:0:0:
157,304,177874,1,8,0:0:0:0:
463,338,178033,1,0,0:0:0:0:
318,270,178191,6,0,B|288:202|288:202|315:106|315:106|293:15,1,240.000009155274,0|8,0:0|0:0,0:0:0:0:
102,163,178667,1,0,0:0:0:0:
386,219,178826,1,0,0:0:0:0:
299,41,178985,1,0,0:0:0:0:
299,41,179064,1,0,0:0:0:0:
299,41,179144,2,0,P|249:83|226:145,1,120.000004577637,8|0,0:0|0:0,0:0:0:0:
262,325,179461,5,0,0:0:0:0:
386,219,179620,1,0,0:0:0:0:
102,163,179779,1,8,0:0:0:0:
394,322,179937,1,0,0:0:0:0:
227,132,180096,1,0,0:0:0:0:
127,338,180255,1,0,0:0:0:0:
127,338,180334,1,0,0:0:0:0:
127,338,180413,1,8,0:0:0:0:
334,167,180572,1,0,0:0:0:0:
95,189,180731,6,0,B|122:243|122:243|181:271,1,120.000004577637,8|0,0:0|0:0,0:0:0:0:
304,315,181048,1,0,0:0:0:0:
309,72,181207,2,0,B|248:68|248:68|194:105,1,120.000004577637,8|0,0:0|0:0,0:0:0:0:
95,189,181524,1,0,0:0:0:0:
304,315,181683,2,0,B|337:264|337:264|332:199,1,120.000004577637,8|0,0:0|0:0,0:0:0:0:
309,72,182001,5,0,0:0:0:0:
95,189,182160,1,0,0:0:0:0:
304,315,182318,1,8,0:0:0:0:
309,72,182477,1,0,0:0:0:0:
95,189,182636,6,0,L|98:251,1,60.0000022888184
221,307,182794,1,0,0:0:0:0:
220,267,182873,1,0,0:0:0:0:
219,227,182952,1,8,0:0:0:0:
218,187,183032,1,0,0:0:0:0:
217,147,183111,1,0,0:0:0:0:
216,107,183190,1,0,0:0:0:0:
215,67,183271,6,0,L|79:52,1,120.000004577637,4|0,0:0|0:0,0:0:0:0:
97,248,183588,1,8,0:0:0:0:
418,233,183747,1,0,0:0:0:0:
221,307,183906,1,0,0:0:0:0:
289,124,184064,1,0,0:0:0:0:
289,124,184144,1,0,0:0:0:0:
289,124,184223,2,0,B|348:115|348:115|431:146,1,120.000004577637,8|0,0:0|0:0,0:0:0:0:
380,311,184540,6,0,P|338:250|349:180,1,120.000004577637
452,36,184858,2,0,P|494:97|483:167,1,120.000004577637,8|0,0:0|0:0,0:0:0:0:
253,199,185175,2,0,L|107:186,1,120.000004577637
51,329,185413,1,0,0:0:0:0:
51,329,185493,2,0,L|176:317,1,120.000004577637,8|0,0:0|0:0,0:0:0:0:
345,243,185810,6,0,B|358:178|358:178|331:112,1,120.000004577637
253,199,186128,1,8,0:0:0:0:
448,152,186287,1,0,0:0:0:0:
145,68,186445,2,0,L|131:209,1,120.000004577637
261,318,186683,1,0,0:0:0:0:
261,318,186763,2,0,L|252:190,1,120.000004577637,8|0,0:0|0:0,0:0:0:0:
256,54,187080,6,0,B|342:35|342:35|399:64|399:64|512:41,2,240.000009155274,0|8|0,0:0|0:0|0:0,0:0:0:0:
326,230,187874,1,0,0:0:0:0:
326,230,187953,1,0,0:0:0:0:
326,230,188033,1,8,0:0:0:0:
485,46,188191,1,0,0:0:0:0:
206,175,188350,6,0,B|125:163|125:163|61:80|139:9,1,240.000009155274,0|8,0:0|0:0,0:0:0:0:
326,230,188826,1,0,0:0:0:0:
326,230,188985,2,0,L|332:355,1,120.000004577637
407,175,189223,1,0,0:0:0:0:
407,175,189302,2,0,P|333:140|276:143,1,120.000004577637,8|0,0:0|0:0,0:0:0:0:
111,218,189620,5,0,0:0:0:0:
251,342,189779,1,0,0:0:0:0:
296,139,189937,2,0,P|284:65|225:19,1,120.000004577637,8|0,0:0|0:0,0:0:0:0:
109,83,190255,2,0,B|149:113|149:113|233:110,1,120.000004577637
364,60,190493,1,0,0:0:0:0:
364,60,190572,2,0,B|324:30|324:30|240:33,1,120.000004577637,8|0,0:0|0:0,0:0:0:0:
230,228,190890,6,0,P|264:319|269:219,1,240.000009155274,0|8,0:0|0:0,0:0:0:0:
127,223,191366,1,0,0:0:0:0:
372,160,191525,1,0,0:0:0:0:
191,47,191683,1,0,0:0:0:0:
191,47,191763,1,0,0:0:0:0:
191,47,191842,1,8,0:0:0:0:
299,237,192001,1,0,0:0:0:0:
352,52,192160,5,0,0:0:0:0:
352,52,192318,1,0,0:0:0:0:
86,153,192477,2,0,P|149:198|191:201,1,120.000004577637,8|0,0:0|0:0,0:0:0:0:
475,208,192794,2,0,P|412:163|370:160,1,120.000004577637
282,353,193112,2,0,B|315:261|315:261|291:163,1,180.000006866455,8|0,0:0|0:0,0:0:0:0:
262,112,193429,6,0,B|213:101|213:101|176:109|176:109|118:100,1,120.000004577637,4|8,0:0|0:0,0:0:0:0:
49,80,193906,1,0,0:0:0:0:
144,104,194064,2,0,P|172:171|158:230,1,120.000004577637,0|8,0:0|0:0,0:0:0:0:
93,324,194540,1,0,0:0:0:0:
164,216,194699,6,0,B|249:177|292:293|415:248,1,240.000009155274,0|4,0:0|0:0,0:0:0:0:
477,157,195493,1,0,0:0:0:0:
392,254,195652,1,8,0:0:0:0:
333,137,195810,1,0,0:0:0:0:
486,301,195969,6,0,P|442:343|370:349,1,120.000004577637,4|8,0:0|0:0,0:0:0:0:
254,328,196445,1,0,0:0:0:0:
207,147,196604,2,0,L|206:67,1,60.0000022888184
239,50,196842,2,0,L|238:166,1,90.0000034332277,8|0,0:0|0:0,0:0:0:0:
189,237,197239,6,0,P|141:277|124:281,1,60.0000022888184,4|0,0:0|0:0,0:0:0:0:
116,179,197556,2,0,P|69:172|54:161,1,60.0000022888184,8|0,0:0|0:0,0:0:0:0:
119,93,197874,2,0,P|99:54|156:73,1,120.000004577637,0|8,0:0|0:0,0:0:0:0:
154,51,198350,6,0,B|213:97|285:52|285:52|294:80|328:96,1,191.999994140625,4|0,0:0|0:0,0:0:0:0:
489,30,198826,1,0,0:0:0:0:
256,192,198906,12,0,200731,0:0:0:0:
377,290,200890,6,0,B|317:277|317:277|263:300|263:300|175:291,1,191.999994140625,2|0,0:0|0:0,0:0:0:0:
39,282,201366,1,8,0:0:0:0:
191,292,201525,1,0,0:0:0:0:
39,282,201683,1,2,0:0:0:0:
136,170,201842,1,0,0:0:0:0:
39,282,202001,1,8,0:0:0:0:
191,292,202160,1,0,0:0:0:0:
42,178,202318,5,2,0:0:0:0:
224,210,202477,1,0,0:0:0:0:
106,353,202636,1,8,0:0:0:0:
42,178,202794,2,2,B|29:128|29:128|68:130|68:130|72:71|131:59,1,180.000006866455,2|8,0:0|0:0,0:0:0:0:
150,133,203429,6,0,P|189:157|309:148,1,160,4|0,0:0|0:0,0:0:0:0:
355,66,203906,1,8,0:0:0:0:
220,72,204064,1,0,0:0:0:0:
355,66,204223,1,0,0:0:0:0:
194,270,204382,2,0,P|137:235|128:217,2,80,0|8|0,0:0|0:0|0:0,0:0:0:0:
384,232,204858,6,0,P|421:262|440:303,1,80
321,331,205175,1,8,0:0:0:0:
413,143,205334,2,0,P|434:158|453:187,1,40
295,144,205493,2,0,P|274:129|255:100,3,40,2|0|0|0,0:0|0:0|0:0|0:0,0:0:0:0:
351,37,205810,2,0,L|351:94,3,40,2|0|0|0,0:0|0:0|0:0|0:0,0:0:0:0:
264,35,206128,5,0,0:0:0:0:
452,81,206287,1,0,0:0:0:0:
260,280,206445,2,0,P|198:281|130:212,1,143.999995605469,2|0,0:0|0:0,0:0:0:0:
153,203,206763,1,0,0:0:0:0:
165,169,206842,1,0,0:0:0:0:
168,134,206921,1,0,0:0:0:0:
162,98,207001,1,0,0:0:0:0:
147,66,207080,5,8,0:0:0:0:
108,93,207159,1,0,0:0:0:0:
96,138,207238,1,0,0:0:0:0:
114,182,207318,1,0,0:0:0:0:
155,205,207397,5,0,0:0:0:0:
201,197,207476,1,0,0:0:0:0:
233,161,207556,1,0,0:0:0:0:
275,139,207635,1,0,0:0:0:0:
322,131,207714,1,8,0:0:0:0:
369,140,207794,1,0,0:0:0:0:
411,164,207874,6,0,B|364:217|408:301,1,120
444,349,208191,1,0,0:0:0:0:
464,327,208270,1,0,0:0:0:0:
477,300,208349,1,8,0:0:0:0:
481,270,208429,1,0,0:0:0:0:
477,241,208509,6,0,P|375:209|275:245,1,191.999994140625,4|0,0:0|0:0,0:0:0:0:
44,255,208985,2,0,P|93:268|143:253,1,95.9999970703126,8|0,0:0|0:0,0:0:0:0:
120,68,209302,2,0,B|93:112|93:112|94:177,2,95.9999970703126,0|0|8,0:0|0:0|0:0,0:0:0:0:
120,68,209779,6,0,B|228:106|228:106|331:95,1,191.999994140625
452,71,210255,1,8,0:0:0:0:
452,71,210572,2,0,L|459:186,1,95.9999970703126
326,257,210810,2,0,L|339:142,1,95.9999970703126,8|0,0:0|0:0,0:0:0:0:
477,269,211048,2,0,L|482:334,1,47.9999985351563
247,294,211207,6,0,L|270:86,1,191.999994140625,0|8,0:0|0:0,0:0:0:0:
71,141,211683,1,0,0:0:0:0:
71,141,211763,1,0,0:0:0:0:
71,141,211842,2,0,P|82:235|280:273,1,287.999991210938
434,125,212477,6,0,P|437:83|433:54,2,63.9999980468751
411,223,212794,2,0,P|416:264|426:291,2,63.9999980468751,8|0|0,0:0|0:0|0:0,0:0:0:0:
319,119,213112,2,0,P|313:77|303:50,2,63.9999980468751
280,218,213429,2,8,P|276:259|280:288,2,63.9999980468751,8|0|0,0:0|0:0|0:0,0:0:0:0:
232,102,213747,6,0,P|170:79|51:139,1,191.999994140625,2|8,0:0|0:0,0:0:0:0:
280,282,214223,1,0,0:0:0:0:
280,282,214302,1,0,0:0:0:0:
280,282,214382,2,0,P|342:305|461:245,1,191.999994140625,2|8,0:0|0:0,0:0:0:0:
452,257,214858,1,0,0:0:0:0:
349,70,215017,6,0,B|360:206|360:206|393:143,1,191.999994140625,2|8,0:0|0:0,0:0:0:0:
251,63,215493,1,0,0:0:0:0:
251,63,215572,1,0,0:0:0:0:
251,63,215652,2,0,B|165:28|165:28|68:72,1,191.999994140625,2|0,0:0|0:0,0:0:0:0:
74,68,216128,1,0,0:0:0:0:
190,322,216287,6,0,P|183:211|169:200,1,95.9999970703126,2|0,0:0|0:0,0:0:0:0:
265,168,216525,2,0,P|332:152|379:165,1,95.9999970703126,2|0,0:0|0:0,0:0:0:0:
354,277,216763,2,0,P|332:268|308:240,1,47.9999985351563,2|0,0:0|0:3,0:0:0:0:
434,235,216921,2,0,P|444:287|416:343,1,95.9999970703126,2|0,0:0|0:0,0:0:0:0:
357,156,217160,2,0,P|347:104|375:48,1,95.9999970703126,2|0,0:0|0:0,0:0:0:0:
477,109,217398,2,0,B|400:115,1,47.9999985351563,2|0,0:0|0:0,0:0:0:0:
253,124,217556,1,4,0:0:0:0:
256,192,217636,12,0,218826,0:0:0:0:
332,263,228350,5,0,0:0:0:0:
332,263,228667,2,0,L|333:132,1,120,2|0,0:0|0:0,0:0:0:0:
333,107,228985,5,4,0:0:0:0:
207,269,229302,1,8,0:0:0:0:
435,246,229620,1,0,0:0:0:0:
166,121,229937,1,8,0:0:0:0:
346,29,230255,2,0,L|360:172,1,120.000004577637,0|8,0:0|0:0,0:0:0:0:
82,289,230890,2,0,L|87:150,1,120.000004577637,0|8,0:0|0:0,0:0:0:0:
93,44,231525,5,0,0:0:0:0:
93,44,231842,2,0,B|154:30|154:30|234:43,2,120.000004577637,8|0|8,0:0|0:0|0:0,0:0:0:0:
58,204,232636,1,0,0:0:0:0:
58,204,232794,2,0,P|120:238|39:218,1,240.000009155274
29,240,233747,1,8,0:0:0:0:
29,240,234064,6,0,L|166:234,1,120.000004577637,0|8,0:0|0:0,0:0:0:0:
379,338,234699,2,0,L|246:338,1,120.000004577637,0|8,0:0|0:0,0:0:0:0:
351,136,235334,1,0,0:0:0:0:
379,338,235652,1,8,0:0:0:0:
351,136,235969,1,0,0:0:0:0:
175,228,236287,1,8,0:0:0:0:
433,203,236604,6,0,P|455:170|436:78,1,120.000004577637,0|8,0:0|0:0,0:0:0:0:
410,278,237239,2,0,B|375:270|355:229|355:229|311:251,1,120.000004577637,0|8,0:0|0:0,0:0:0:0:
200,251,237715,1,0,0:0:0:0:
200,251,237874,2,0,B|191:199|217:163|217:163|195:119|195:119|231:71|198:24,1,240.000009155274
200,27,238826,1,8,0:0:0:0:
200,27,239144,6,0,P|132:41|102:65,1,88.000002685547,4|0,0:0|0:0,0:0:0:0:
160,153,239461,2,0,P|179:114|181:101,3,44.0000013427735,8|0|0|0,0:0|0:0|0:0|0:0,0:0:0:0:
87,209,239779,2,0,P|74:260|91:321,1,88.000002685547
194,275,240096,2,0,L|129:249,3,44.0000013427735,8|0|0|0,0:0|0:0|0:0|0:0,0:0:0:0:
293,238,240413,6,0,P|361:231|397:239,1,88.000002685547
354,343,240731,2,0,P|339:317|337:296,3,44.0000013427735,8|0|0|0,0:0|0:0|0:0|0:0,0:0:0:0:
350,159,241048,2,0,P|371:107|365:52,1,88.000002685547
249,104,241366,2,0,L|299:98,3,44.0000013427735,8|0|0|0,0:0|0:0|0:0|0:0,0:0:0:0:
191,189,241683,6,0,P|152:141|155:91,1,88.000002685547
276,212,242001,2,0,P|283:237|281:271,3,44.0000013427735,8|0|0|0,0:0|0:0|0:0|0:0,0:0:0:0:
371,302,242318,2,0,P|436:313|488:296,1,88.000002685547
419,192,242636,2,0,L|416:268,3,44.0000013427735,8|0|0|0,0:0|0:0|0:0|0:0,0:0:0:0:
476,134,242953,6,0,P|421:112|384:118,1,88.000002685547
305,160,243271,2,0,P|282:163|245:153,3,44.0000013427735,8|0|0|0,0:0|0:0|0:0|0:0,0:0:0:0:
181,129,243588,2,0,L|187:250,1,88.000002685547
88,263,243906,2,0,L|99:191,3,44.0000013427735,8|0|0|0,0:0|0:0|0:0|0:0,0:0:0:0:
151,325,244223,6,0,B|202:309|202:309|259:331,1,88.000002685547
359,336,244540,2,0,L|361:276,3,44.0000013427735,8|0|0|0,0:0|0:0|0:0|0:0,0:0:0:0:
277,185,244858,2,0,L|281:282,1,88.000002685547
191,177,245175,2,0,L|122:179,3,44.0000013427735,8|0|0|0,0:0|0:0|0:0|0:0,0:0:0:0:
292,94,245493,5,8,0:0:0:0:
292,94,245572,1,0,0:0:0:0:
292,94,245652,2,0,L|359:90,1,40
160,260,245810,1,8,0:0:0:0:
160,260,245889,1,0,0:0:0:0:
160,260,245969,2,0,L|93:264,1,40
212,362,246128,5,0,0:0:0:0:
242,335,246207,1,0,0:0:0:0:
262,301,246286,1,0,0:0:0:0:
270,262,246366,1,0,0:0:0:0:
266,223,246445,5,0,0:0:0:0:
249,187,246524,1,0,0:0:0:0:
222,158,246604,1,0,0:0:0:0:
187,139,246683,1,0,0:0:0:0:
147,132,246763,5,4,0:0:0:0:
256,192,246842,12,0,247715,0:0:0:0:
239,150,248033,6,0,P|291:151|314:162,1,60.0000022888184,8|0,0:0|0:0,0:0:0:0:
328,226,248271,2,0,P|310:280|292:295,1,60.0000022888184,8|0,0:0|0:0,0:0:0:0:
212,263,248509,2,0,L|187:214,1,30.0000011444092,8|0,0:0|0:0,0:0:0:0:
313,74,248667,6,8,P|362:105|376:152,1,80
379,305,248906,2,0,P|341:349|299:353,1,80,8|0,0:0|0:0,0:0:0:0:
124,217,249144,1,8,0:0:0:0:
124,217,249937,6,0,P|71:169|58:110,1,120.000004577637,4|0,0:0|0:0,0:0:0:0:
188,120,250255,1,8,0:0:0:0:
68,300,250413,1,0,0:0:0:0:
58,124,250572,1,0,0:0:0:0:
263,231,250731,1,0,0:0:0:0:
263,231,250811,1,0,0:0:0:0:
263,231,250890,2,0,P|235:300|177:336,1,120.000004577637,8|0,0:0|0:0,0:0:0:0:
188,120,251207,6,0,P|247:96|317:114,1,120.000004577637
399,23,251525,2,0,P|431:69|410:166,1,120.000004577637,8|0,0:0|0:0,0:0:0:0:
273,292,251842,1,0,0:0:0:0:
188,120,252001,1,0,0:0:0:0:
188,120,252080,1,0,0:0:0:0:
188,120,252160,1,8,0:0:0:0:
436,247,252318,1,0,0:0:0:0:
151,331,252477,6,0,P|86:296|75:220,1,120.000004577637
148,44,252794,1,8,0:0:0:0:
159,254,252953,1,0,0:0:0:0:
27,147,253112,1,0,0:0:0:0:
290,36,253271,1,0,0:0:0:0:
290,36,253350,1,0,0:0:0:0:
290,36,253429,2,0,P|355:55|396:104,1,120.000004577637,8|0,0:0|0:0,0:0:0:0:
353,319,253747,6,0,P|319:247|328:184,1,120.000004577637
512,102,254064,2,0,P|487:165|436:207,1,120.000004577637,8|0,0:0|0:0,0:0:0:0:
206,148,254382,1,0,0:0:0:0:
512,102,254540,1,0,0:0:0:0:
512,102,254620,1,0,0:0:0:0:
512,102,254699,1,8,0:0:0:0:
302,42,254858,1,0,0:0:0:0:
275,308,255016,6,0,P|361:254|360:122,1,240.000009155274,0|8,0:0|0:0,0:0:0:0:
362,125,255493,1,0,0:0:0:0:
82,108,255652,1,0,0:0:0:0:
255,185,255810,1,0,0:0:0:0:
255,185,255890,1,0,0:0:0:0:
255,185,255969,2,0,P|280:115|257:43,1,120.000004577637,8|0,0:0|0:0,0:0:0:0:
82,108,256286,6,0,B|139:137|139:137|205:116,1,120.000004577637
477,204,256604,2,0,B|420:175|420:175|354:196,1,120.000004577637,8|0,0:0|0:0,0:0:0:0:
207,291,256921,1,0,0:0:0:0:
414,292,257080,1,0,0:0:0:0:
414,292,257160,1,0,0:0:0:0:
414,292,257239,1,8,0:0:0:0:
207,291,257398,1,0,0:0:0:0:
414,292,257556,6,0,P|441:156|347:80,1,240.000009155274,0|8,0:0|0:0,0:0:0:0:
199,81,258033,1,0,0:0:0:0:
432,34,258191,1,0,0:0:0:0:
207,186,258350,1,0,0:0:0:0:
207,186,258429,1,0,0:0:0:0:
207,186,258508,2,0,P|121:151|101:113,1,120.000004577637,8|0,0:0|0:0,0:0:0:0:
320,247,258826,6,0,P|333:338|310:375,1,120.000004577637
303,129,259144,2,0,P|377:72|420:73,1,120.000004577637,8|0,0:0|0:0,0:0:0:0:
400,229,259461,1,0,0:0:0:0:
207,186,259620,1,0,0:0:0:0:
207,186,259699,1,0,0:0:0:0:
207,186,259779,1,8,0:0:0:0:
400,229,259937,1,0,0:0:0:0:
187,311,260095,6,0,P|101:256|106:121,1,240.000009155274,4|8,0:0|0:0,0:0:0:0:
400,229,260572,1,0,0:0:0:0:
187,311,260731,1,0,0:0:0:0:
241,60,260889,1,0,0:0:0:0:
241,60,260968,1,0,0:0:0:0:
241,60,261048,2,0,B|301:43|301:43|371:66,1,120.000004577637,8|0,0:0|0:0,0:0:0:0:
312,247,261366,6,0,P|285:185|308:125,1,120.000004577637
409,321,261683,1,8,0:0:0:0:
183,325,261842,1,0,0:0:0:0:
298,137,262001,1,0,0:0:0:0:
409,321,262159,1,0,0:0:0:0:
409,321,262238,1,0,0:0:0:0:
409,321,262317,1,8,0:0:0:0:
209,204,262477,1,0,0:0:0:0:
352,65,262636,6,0,B|396:134|353:208|353:208|394:229|456:208,1,240.000009155274,0|8,0:0|0:0,0:0:0:0:
488,116,263112,1,0,0:0:0:0:
209,204,263271,1,0,0:0:0:0:
436,329,263430,1,0,0:0:0:0:
436,329,263509,1,0,0:0:0:0:
436,329,263588,2,0,B|452:268|452:268|438:211,1,120.000004577637,8|0,0:0|0:0,0:0:0:0:
148,271,263906,6,0,B|209:287|209:287|266:273,1,120.000004577637
217,84,264223,2,0,L|208:210,1,120.000004577637,8|0,0:0|0:0,0:0:0:0:
317,164,264540,1,0,0:0:0:0:
116,89,264699,1,0,0:0:0:0:
116,89,264779,1,0,0:0:0:0:
116,89,264858,1,8,0:0:0:0:
148,271,265017,1,0,0:0:0:0:
317,164,265175,6,0,L|328:1,1,120.000004577637
227,234,265493,2,0,L|220:354,1,120.000004577637,8|0,0:0|0:0,0:0:0:0:
116,163,265810,1,0,0:0:0:0:
349,279,265969,1,0,0:0:0:0:
349,279,266049,1,0,0:0:0:0:
349,279,266128,2,0,P|427:284|482:252,1,120.000004577637,8|0,0:0|0:0,0:0:0:0:
325,44,266445,5,0,0:0:0:0:
182,237,266604,1,0,0:0:0:0:
386,345,266763,2,0,B|419:293|419:293|411:214,1,120.000004577637,8|0,0:0|0:0,0:0:0:0:
325,44,267080,2,0,B|263:41|263:41|199:87,1,120.000004577637
99,243,267398,2,0,B|127:297|127:297|199:330,1,120.000004577637,8|0,0:0|0:0,0:0:0:0:
288,125,267715,5,8,0:0:0:0:
195,238,267874,1,0,0:0:0:0:
343,259,268033,1,0,0:0:0:0:
186,146,268191,1,8,0:0:0:0:
262,324,268350,1,0,0:0:0:0:
373,179,268509,1,0,0:0:0:0:
121,274,268667,1,8,0:0:0:0:
406,299,268826,1,0,0:0:0:0:
289,72,268984,1,8,0:0:0:0:
121,274,269144,1,0,0:0:0:0:
406,299,269302,5,0,0:0:0:0:
408,269,269381,1,0,0:0:0:0:
411,239,269460,1,0,0:0:0:0:
414,209,269540,1,0,0:0:0:0:
416,179,269620,2,0,L|422:116,1,60.0000022888184
177,51,269779,1,0,0:0:0:0:
177,51,269858,1,0,0:0:0:0:
177,51,269937,2,0,L|185:175,1,120.000004577637,8|0,0:0|0:0,0:0:0:0:
290,303,270255,6,0,P|358:314|412:295,1,120.000004577637,4|0,0:0|0:0,0:0:0:0:
262,171,270572,1,8,0:0:0:0:
217,347,270731,1,0,0:0:0:0:
114,171,270890,1,0,0:0:0:0:
58,338,271048,1,0,0:0:0:0:
58,338,271128,1,0,0:0:0:0:
58,338,271207,1,8,0:0:0:0:
340,224,271366,1,0,0:0:0:0:
114,171,271524,6,0,B|101:237|101:237|134:289,1,120.000004577637
378,336,271841,1,8,0:0:0:0:
190,223,272000,1,0,0:0:0:0:
404,134,272159,1,0,0:0:0:0:
229,39,272317,1,0,0:0:0:0:
229,39,272397,1,0,0:0:0:0:
229,39,272476,2,0,L|98:32,1,120.000004577637,8|0,0:0|0:0,0:0:0:0:
317,130,272794,6,0,P|357:72|345:7,1,120.000004577637
190,223,273111,2,0,P|150:281|162:346,1,120.000004577637,8|0,0:0|0:0,0:0:0:0:
337,215,273429,1,0,0:0:0:0:
109,147,273587,1,0,0:0:0:0:
109,147,273667,1,0,0:0:0:0:
109,147,273746,1,8,0:0:0:0:
153,327,273905,1,0,0:0:0:0:
337,215,274063,6,0,L|343:78,1,120.000004577637
489,37,274381,2,0,L|493:189,1,120.000004577637,8|0,0:0|0:0,0:0:0:0:
132,221,274698,1,0,0:0:0:0:
310,314,274857,1,0,0:0:0:0:
310,314,274936,1,0,0:0:0:0:
310,314,275016,2,0,P|380:310|431:278,1,120.000004577637,8|0,0:0|0:0,0:0:0:0:
240,228,275333,6,0,B|182:290|217:361|217:361|171:338|133:297,1,240.000009155274,0|8,0:0|0:0,0:0:0:0:
27,210,275810,1,0,0:0:0:0:
310,314,275968,1,0,0:0:0:0:
55,336,276127,1,0,0:0:0:0:
55,336,276206,1,0,0:0:0:0:
55,336,276286,1,8,0:0:0:0:
198,111,276444,1,0,0:0:0:0:
372,271,276603,6,0,B|353:334|353:334|305:359,1,120.000004577637
373,173,276921,2,0,B|437:157|437:157|482:187,1,120.000004577637,8|0,0:0|0:0,0:0:0:0:
286,231,277238,2,0,B|240:183|240:183|243:128,1,120.000004577637
170,39,277476,1,0,0:0:0:0:
170,39,277556,2,0,L|163:162,1,120.000004577637,8|0,0:0|0:0,0:0:0:0:
122,283,277873,6,0,P|54:293|126:236,1,240.000009155274,0|8,0:0|0:0,0:0:0:0:
278,346,278349,1,0,0:0:0:0:
122,283,278508,1,0,0:0:0:0:
340,172,278667,1,0,0:0:0:0:
340,172,278746,1,0,0:0:0:0:
340,172,278825,2,0,L|362:299,1,120.000004577637,8|0,0:0|0:0,0:0:0:0:
263,94,279143,6,0,B|345:76|345:76|408:100|408:100|510:81,1,240.000009155274,0|8,0:0|0:0,0:0:0:0:
496,84,279619,1,0,0:0:0:0:
265,256,279778,1,0,0:0:0:0:
161,105,279936,1,0,0:0:0:0:
453,195,280095,1,8,0:0:0:0:
453,195,280413,6,0,P|418:264|377:309,1,120.000004577637,4|8,0:0|0:0,0:0:0:0:
280,324,280889,1,0,0:0:0:0:
390,296,281048,2,0,P|349:226|307:204,1,120.000004577637,0|8,0:0|0:0,0:0:0:0:
212,206,281524,1,0,0:0:0:0:
271,114,281683,6,0,P|341:94|398:113,1,120.000004577637,0|8,0:0|0:0,0:0:0:0:
385,105,282159,1,0,0:0:0:0:
167,69,282317,1,8,0:0:0:0:
373,194,282476,1,0,0:0:0:0:
151,206,282635,1,8,0:0:0:0:
327,44,282794,1,0,0:0:0:0:
69,143,282952,6,0,P|56:218|79:272,1,120.000004577637,4|8,0:0|0:0,0:0:0:0:
69,257,283429,1,0,0:0:0:0:
205,229,283587,2,0,P|155:206|127:203,1,60.0000022888184
225,317,283825,2,0,P|281:286|294:242,1,90.0000034332277,8|0,0:0|0:0,0:0:0:0:
340,198,284222,6,0,P|371:206|422:198,1,60.0000022888184,4|0,0:0|0:0,0:0:0:0:
160,90,284540,2,0,P|129:82|78:90,1,60.0000022888184,8|0,0:0|0:0,0:0:0:0:
252,182,284857,2,0,L|252:60,1,120.000004577637,0|8,0:0|0:0,0:0:0:0:
147,323,285333,2,0,L|123:205,1,120.000004577637
101,83,285810,1,0,0:0:0:0:
256,192,285889,12,0,287556,0:0:0:0:
158,135,287873,5,4,0:0:0:0:
158,135,288032,2,0,L|147:241,2,80,0|0|8,0:0|0:0|0:0,0:0:0:0:
168,41,288508,1,0,0:0:0:0:
72,236,288667,2,0,P|111:285|134:292,1,80
385,292,288984,2,0,P|346:243|323:236,1,80,8|0,0:0|0:0,0:0:0:0:
287,338,289302,5,0,0:0:0:0:
455,235,289460,1,0,0:0:0:0:
265,145,289619,2,0,L|260:252,1,80,8|0,0:0|0:0,0:0:0:0:
397,121,289936,1,0,0:0:0:0:
261,224,290095,2,0,P|208:227|161:202,1,80,0|8,0:0|0:0,0:0:0:0:
397,121,290413,6,0,P|426:180|429:284,1,160
330,341,290889,1,8,0:0:0:0:
431,272,291048,1,0,0:0:0:0:
298,181,291206,2,0,L|295:279,1,80
373,111,291524,2,0,P|325:85|270:84,1,80,8|0,0:0|0:0,0:0:0:0:
148,225,291841,5,0,0:0:0:0:
362,225,292000,1,0,0:0:0:0:
158,145,292159,2,0,L|146:240,1,80,8|0,0:0|0:0,0:0:0:0:
129,348,292476,1,0,0:0:0:0:
158,145,292635,1,0,0:0:0:0:
27,268,292794,1,8,0:0:0:0:
257,337,292952,6,0,P|326:341|406:264,1,160
445,176,293429,1,8,0:0:0:0:
395,288,293587,1,0,0:0:0:0:
348,154,293746,2,0,P|365:117|398:92,1,80
220,51,294063,2,0,P|261:89|267:123,1,80,8|0,0:0|0:0,0:0:0:0:
174,119,294381,5,0,0:0:0:0:
440,163,294540,1,0,0:0:0:0:
174,119,294698,1,8,0:0:0:0:
440,163,294857,1,0,0:0:0:0:
218,267,295016,1,0,0:0:0:0:
391,343,295175,2,0,P|392:285|380:237,1,80,0|8,0:0|0:0,0:0:0:0:
126,235,295492,6,0,P|166:347|232:355,1,160
297,270,295889,1,0,0:0:0:0:
297,270,295968,2,0,L|217:266,1,80,8|0,0:0|0:0,0:0:0:0:
282,173,296286,1,0,0:0:0:0:
321,175,296365,1,0,0:0:0:0:
361,177,296444,1,0,0:0:0:0:
401,179,296524,1,0,0:0:0:0:
441,181,296603,2,0,L|451:100,1,80,8|0,0:0|0:0,0:0:0:0:
124,148,296921,6,0,L|135:250,1,80
248,84,297238,1,8,0:0:0:0:
37,69,297397,1,0,0:0:0:0:
244,215,297556,1,2,0:0:0:0:
155,40,297714,1,0,0:0:0:0:
47,258,297873,1,8,0:0:0:0:
316,299,298032,6,0,B|347:245|347:245|344:145,1,160,4|0,0:0|0:0,0:0:0:0:
433,67,298508,2,0,L|436:175,1,80,8|0,0:0|0:0,0:0:0:0:
244,215,298825,2,0,L|240:117,2,80,0|0|8,0:0|0:0|0:0,0:0:0:0:
200,304,299302,6,0,P|98:329|22:298,1,160
115,166,299778,1,8,0:0:0:0:
200,304,299936,1,0,0:0:0:0:
47,314,300095,1,0,0:0:0:0:
115,166,300254,2,0,P|162:142|203:143,1,80,0|8,0:0|0:0,0:0:0:0:
364,144,300571,6,0,P|468:106|487:38,1,160
375,48,301048,1,8,0:0:0:0:
470,206,301206,1,0,0:0:0:0:
237,248,301365,1,0,0:0:0:0:
470,206,301524,1,0,0:0:0:0:
263,102,301683,1,8,0:0:0:0:
359,309,301841,1,0,0:0:0:0:
465,90,302000,6,0,L|381:72,1,80
157,253,302317,2,0,L|250:247,1,80,8|0,0:0|0:0,0:0:0:0:
393,241,302635,1,0,0:0:0:0:
248,348,302794,1,0,0:0:0:0:
220,150,302952,1,8,0:0:0:0:
386,335,303111,1,0,0:0:0:0:
133,335,303270,6,0,L|42:330,2,80,0|0|8,0:0|0:0|0:0,0:0:0:0:
386,335,303746,1,0,0:0:0:0:
133,335,303905,2,0,P|108:279|115:234,1,80
110,130,304222,1,8,0:0:0:0:
402,196,304381,6,0,P|353:258|264:250,1,160
308,85,304857,2,0,L|317:183,1,80,8|0,0:0|0:0,0:0:0:0:
190,234,305175,2,0,L|199:129,2,80,0|0|8,0:0|0:0|0:0,0:0:0:0:
174,343,305651,6,0,B|134:334|134:334|86:346|86:346|41:326|29:277,1,160,4|0,0:0|0:0,0:0:0:0:
51,159,306127,1,8,0:0:0:0:
288,343,306286,1,0,0:0:0:0:
416,216,306444,1,8,0:0:0:0:
112,261,306603,1,0,0:0:0:0:
281,146,306762,1,8,0:0:0:0:
281,146,306841,1,0,0:0:0:0:
281,146,306921,1,0,0:0:0:0:
281,146,307000,1,0,0:0:0:0:
281,146,307079,6,0,L|290:186,1,40,4|0,0:0|0:0,0:0:0:0:
175,121,307238,2,0,L|185:23,1,80,2|8,0:0|0:0,0:0:0:0:
177,227,307556,2,0,L|64:214,1,80,2|0,0:0|0:0,0:0:0:0:
433,98,307873,1,0,0:0:0:0:
258,297,308032,1,8,0:0:0:0:
183,41,308190,1,4,0:0:0:0:
256,192,308270,12,0,313349,0:0:0:0:
