osu file format v14

[General]
AudioFilename: DRAMAtical Murder -retro.game.music- Tears.mp3
AudioLeadIn: 0
PreviewTime: 59302
Countdown: 1
SampleSet: Soft
StackLeniency: 0.7
Mode: 0
LetterboxInBreaks: 0
WidescreenStoryboard: 1

[Editor]
Bookmarks: 44609
DistanceSpacing: 0.8
BeatDivisor: 2
GridSize: 4
TimelineZoom: 0.6999999

[Metadata]
Title:Tears
TitleUnicode:Tears
Artist:GEORIDE
ArtistUnicode:GEORIDE
Creator:Kei
Version:Easy
Source:DRAMAtical Murder re:connect
Tags:ドラマティカル マーダー リコネクト visual novel vn BL aoba koujaku shiroba -retro.game.music- 8 bit Nitro+CHiRAL DMMd
BeatmapID:891498
BeatmapSetID:410748

[Difficulty]
HPDrainRate:1
CircleSize:3
OverallDifficulty:1
ApproachRate:3
SliderMultiplier:1.2
SliderTickRate:1

[Events]
//Background and Video events
0,0,"bg1.jpg",0,0
//Break Periods
//Storyboard Layer 0 (Background)
//Storyboard Layer 1 (Fail)
//Storyboard Layer 2 (Pass)
//Storyboard Layer 3 (Foreground)
//Storyboard Sound Samples

[TimingPoints]
528,408.163265306122,4,2,1,65,1,0
59915,-100,4,2,1,75,0,1
72364,-100,4,2,1,75,0,0
72976,-100,4,2,1,75,0,1
86242,-100,4,2,1,75,0,0
98078,-100,4,2,1,45,0,0

[Colours]
Combo1 : 223,223,223
Combo2 : 164,0,0
Combo3 : 248,208,88

[HitObjects]
384,88,528,5,8,0:0:0:0:
328,164,936,1,8,0:0:0:0:
236,184,1344,6,0,B|120:164|120:164|48:56,1,240,4|8,0:0|0:0,0:0:0:0:
240,40,2976,1,0,0:0:0:0:
336,52,3385,2,0,B|396:76|396:76|428:124,1,120,0|8,0:0|0:0,0:0:0:0:
432,312,4609,6,0,B|348:288|348:288|292:232|292:232|212:196,1,240,0|8,0:0|0:0,0:0:0:0:
44,136,6242,1,0,0:0:0:0:
128,88,6650,2,0,B|212:60|212:60|372:104,1,240,0|8,0:0|0:0,0:0:0:0:
444,140,7874,5,4,0:0:0:0:
328,292,8691,1,8,0:0:0:0:
156,208,9507,2,0,B|104:176|104:176|36:184,1,120
84,272,10323,1,8,0:0:0:0:
268,328,11140,6,0,B|304:256|304:256|368:216|368:216|408:136,1,240,0|8,0:0|0:0,0:0:0:0:
348,64,12364,1,8,0:0:0:0:
252,60,12772,6,0,B|192:100|192:100|168:192|168:192|112:240,1,240,4|8,0:0|0:0,0:0:0:0:
56,56,14405,5,0,0:0:0:0:
252,60,15221,2,0,B|324:76|324:76|392:128|392:128|476:148,1,240,8|0,0:0|0:0,0:0:0:0:
356,300,16854,1,8,0:0:0:0:
164,284,17670,6,0,L|92:184,1,120
40,108,18487,2,0,B|144:56|144:56|272:96,1,240,8|0,0:0|0:0,0:0:0:0:
444,156,20119,1,8,0:0:0:0:
260,216,20936,6,0,B|104:292|104:292|60:352,1,240,0|8,0:0|0:0,0:0:0:0:
160,360,22160,2,0,L|276:304,1,120
428,200,23385,5,8,0:0:0:0:
352,136,23793,2,0,L|252:52,1,120
68,40,25017,1,8,0:0:0:0:
44,232,25834,2,0,B|176:284|176:284|276:288,1,240,0|8,0:0|0:0,0:0:0:0:
428,176,27466,5,0,0:0:0:0:
268,68,28283,2,0,B|156:104|156:104|80:212,1,240,8|0,0:0|0:0,0:0:0:0:
272,252,29915,1,8,0:0:0:0:
440,160,30732,5,0,0:0:0:0:
268,76,31548,2,0,B|228:76|228:76|84:112|84:112|8:112,1,240,8|0,0:0|0:0,0:0:0:0:
16,208,32772,2,0,L|140:208,1,120,0|8,0:0|0:0,0:0:0:0:
328,232,33997,6,0,B|264:320|264:320|120:324,1,240,0|8,0:0|0:0,0:0:0:0:
240,164,35630,2,0,L|320:52,1,120
400,32,36446,1,8,0:0:0:0:
432,220,37262,2,0,B|324:216|324:216|276:256|276:256|200:252,1,240,0|8,0:0|0:0,0:0:0:0:
20,204,38895,1,0,0:0:0:0:
84,132,39303,2,0,B|132:96|132:96|192:84,1,120,0|8,0:0|0:0,0:0:0:0:
384,76,40527,6,4,B|356:224|356:224|304:296,1,240,4|0,0:0|0:0,0:0:0:0:
120,236,42160,2,0,B|148:88|148:88|200:16,1,240
244,204,43793,2,0,B|184:316|184:316|72:352,1,240
12,172,45425,2,0,B|72:60|72:60|179:25,1,240
348,120,47058,5,4,0:0:0:0:
264,296,47874,1,8,0:0:0:0:
172,276,48283,2,0,B|68:220|68:220|24:104,1,240
64,20,49507,1,8,0:0:0:0:
256,36,50323,6,0,B|352:108|352:108|392:268,1,240,0|8,0:0|0:0,0:0:0:0:
220,328,51956,2,0,L|124:196,1,120
88,156,52772,1,8,0:0:0:0:
248,48,53589,6,0,B|300:40|300:40|400:124|400:124|392:188,1,240,0|8,0:0|0:0,0:0:0:0:
260,320,55221,1,0,0:0:0:0:
92,228,56038,6,0,L|40:52,2,180,8|4|0,0:0|0:0|0:0,0:0:0:0:
108,272,57466,2,0,B|176:272|176:272|332:304|332:304|408:304,1,300,0|4,0:0|0:0,0:0:0:0:
420,112,59303,1,2,0:0:0:0:
284,68,59915,6,0,L|128:192,1,180,4|0,0:0|0:0,0:0:0:0:
68,240,60936,1,8,0:0:0:0:
200,300,61548,2,0,L|344:180,1,180,2|0,0:0|0:0,0:0:0:0:
412,120,62568,1,8,0:0:0:0:
280,64,63181,6,0,B|192:68|192:68|144:152,1,180,2|0,0:0|0:0,0:0:0:0:
244,152,64201,1,8,0:0:0:0:
220,292,64813,2,0,B|304:328|304:328|380:280,1,180,2|0,0:0|0:0,0:0:0:0:
296,228,65834,1,8,0:0:0:0:
156,252,66446,6,0,B|140:208|140:208|92:152|92:152|80:88,1,180,2|0,0:0|0:0,0:0:0:0:
136,16,67466,1,8,0:0:0:0:
256,96,68079,2,0,B|364:152|364:152|436:140,1,180,2|0,0:0|0:0,0:0:0:0:
380,56,69099,1,8,0:0:0:0:
244,8,69711,6,0,B|164:48|164:48|176:152,1,180,2|0,0:0|0:0,0:0:0:0:
196,232,70732,2,0,B|96:332|96:332|4:372,2,240,8|0|8,0:0|0:0|0:0,0:0:0:0:
336,204,72976,6,0,B|292:164|292:164|268:100|268:100|216:52,1,180,4|0,0:0|0:0,0:0:0:0:
144,20,73997,1,8,0:0:0:0:
72,144,74609,2,0,B|40:228|40:228|96:300,1,180,2|0,0:0|0:0,0:0:0:0:
140,212,75630,1,8,0:0:0:0:
268,144,76242,6,0,L|444:56,1,180,2|0,0:0|0:0,0:0:0:0:
484,140,77262,1,8,0:0:0:0:
356,208,77874,2,0,L|184:292,1,180,2|0,0:0|0:0,0:0:0:0:
104,324,78895,1,8,0:0:0:0:
128,184,79507,6,0,B|164:140|164:140|224:144|224:144|272:100,1,180,4|0,0:0|0:0,0:0:0:0:
344,40,80527,1,8,0:0:0:0:
412,168,81140,2,0,B|396:252|396:252|324:324,1,180,2|0,0:0|0:0,0:0:0:0:
236,348,82160,1,8,0:0:0:0:
112,276,82772,6,0,B|80:228|80:228|84:92,1,180,2|0,0:0|0:0,0:0:0:0:
180,88,83793,2,0,B|220:208|220:208|200:276,2,180,8|0|0,0:0|0:0|0:0,0:0:0:0:
268,48,85425,1,8,0:0:0:0:
256,192,86242,12,0,89507,0:0:0:0:
236,124,90323,5,8,0:0:0:0:
92,252,91140,2,0,B|220:296|220:296|352:300,1,240,0|8,0:0|0:0,0:0:0:0:
496,216,92772,6,0,B|460:116|460:116|400:148|400:148|360:88|360:88|300:124|300:124|256:68|256:68|184:128,2,480,4|0|0,0:0|0:0|0:0,0:0:0:0:
484,312,96446,1,0,0:0:0:0:
392,336,96854,2,0,B|336:340|336:340|220:312|220:312|156:312,1,240,8|0,0:0|0:0,0:0:0:0:
116,224,98079,6,0,L|220:136,1,120,8|8,0:0|0:0,0:0:0:0:
304,144,98895,2,0,L|360:204,1,60,8|8,0:0|0:0,0:0:0:0:
