osu file format v14

[General]
AudioFilename: Hard knock days.mp3
AudioLeadIn: 0
PreviewTime: 2813
Countdown: 0
SampleSet: Soft
StackLeniency: 0.7
Mode: 0
LetterboxInBreaks: 0
WidescreenStoryboard: 0

[Editor]
Bookmarks: 35911
DistanceSpacing: 1.1
BeatDivisor: 2
GridSize: 4
TimelineZoom: 1

[Metadata]
Title:Hard Knock Days
TitleUnicode:Hard Knock Days
Artist:GENERATIONS from EXILE TRIBE
ArtistUnicode:GENERATIONS from EXILE TRIBE
Creator:Atsuro
Version:Easy
Source:ONE PIECE
Tags:Opening 18 Toei Animation Dressrosa arc Pirates Eiichiro Oda iYiyo
BeatmapID:693310
BeatmapSetID:310224

[Difficulty]
HPDrainRate:2
CircleSize:2
OverallDifficulty:2
ApproachRate:3
SliderMultiplier:0.9
SliderTickRate:1

[Events]
//Background and Video events
Video,70,"vid.avi"
0,0,"Chapter_612.png",0,0
//Break Periods
2,26980,33167
//Storyboard Layer 0 (Background)
//Storyboard Layer 1 (Fail)
//Storyboard Layer 2 (Pass)
//Storyboard Layer 3 (Foreground)
//Storyboard Sound Samples

[TimingPoints]
694,326.086956521739,4,2,1,70,1,0
3302,-100,4,2,1,70,0,1
24172,-100,4,2,1,70,0,0
86780,-100,4,2,1,70,0,1
106346,-100,4,2,1,70,0,0
107650,-100,4,2,1,70,0,1
128520,-100,4,2,1,70,0,0

[Colours]
Combo1 : 173,201,110
Combo2 : 251,202,86
Combo3 : 119,201,143
Combo4 : 255,140,94
Combo5 : 60,184,192
Combo6 : 115,137,235

[HitObjects]
176,284,1998,6,0,P|152:200|180:104,1,180,8|4,0:3|0:3,0:0:0:0:
256,52,2976,1,8,0:3:0:0:
328,120,3302,6,0,P|368:152|428:176,2,90,4|8|0,0:0|0:0|0:0,0:0:0:0:
256,52,4280,1,8,0:0:0:0:
184,120,4607,2,0,P|144:152|84:176,1,90,0|8,0:0|0:0,0:0:0:0:
40,240,5259,2,0,P|80:272|140:296,1,90,0|8,0:0|0:0,0:0:0:0:
208,324,5911,6,0,B|280:346|280:305|340:322,2,135,4|2|8,0:0|0:0|0:0,0:0:0:0:
184,228,7215,2,0,P|176:184|184:140,1,90,0|8,0:0|0:0,0:0:0:0:
256,72,7867,1,2,0:0:0:0:
428,168,8520,6,0,L|464:268,1,90,4|8,0:0|0:0,0:0:0:0:
384,316,9172,2,0,L|348:216,1,90,0|8,0:0|0:0,0:0:0:0:
288,156,9824,2,0,P|232:216|100:224,1,180,0|0,0:0|0:0,0:0:0:0:
52,188,10802,1,8,0:0:0:0:
84,96,11128,6,0,L|208:40,2,135,4|2|0,0:0|0:0|0:0,0:0:0:0:
52,188,12433,2,0,L|84:336,2,135,4|2|2,0:0|0:0|0:0,0:0:0:0:
152,200,13737,6,0,P|216:220|256:216,1,90,4|8,0:0|0:0,0:0:0:0:
320,164,14389,2,0,L|348:56,1,90,0|8,0:0|0:0,0:0:0:0:
440,56,15041,2,0,L|394:230,1,180,0|0,0:0|0:0,0:0:0:0:
364,324,16020,1,8,0:0:0:0:
288,260,16346,6,0,P|228:220|164:224,1,135,4|2,0:0|0:0,0:0:0:0:
88,284,17161,1,0,0:0:0:0:
14,218,17487,2,4,P|17:132|95:98,1,180
280,268,18954,6,0,L|356:180,1,90,4|8,0:0|0:0,0:0:0:0:
344,100,19607,2,0,L|256:24,1,90,0|8,0:0|0:0,0:0:0:0:
180,64,20259,2,0,P|152:144|192:252,1,180,2|0,0:0|0:0,0:0:0:0:
256,292,21237,1,8,0:0:0:0:
335,233,21563,6,0,P|360:148|344:84,2,135,4|2|8,0:0|0:0|0:0,0:0:0:0:
256,292,22867,2,0,B|169:292|169:192|225:192|225:92|133:92|133:92,1,270,8|8,0:3|0:0,0:0:0:0:
256,192,24172,12,4,26780,0:3:0:0:
200,296,34607,6,0,P|144:236|160:140,1,180,2|8,0:0|0:0,0:0:0:0:
355,144,35911,2,0,P|369:230|312:296,1,180,0|8,0:0|0:0,0:0:0:0:
116,324,37215,6,0,B|60:292|60:292|20:228,2,135,2|2|0,0:0|0:0|0:0,0:0:0:0:
212,296,38520,2,0,B|300:256|300:340|384:296,1,180,0|8,0:0|0:0,0:0:0:0:
468,116,39824,6,0,P|411:50|325:59,1,180,2|8,0:0|0:0,0:0:0:0:
188,204,41128,2,0,P|102:213|45:147,1,180,0|8,0:0|0:0,0:0:0:0:
240,116,42433,6,0,L|332:216,2,135,2|2|0,0:0|0:0|0:0,0:0:0:0:
296,32,43737,2,0,L|434:182,1,180,0|8,0:0|0:0,0:0:0:0:
336,344,45041,6,0,P|236:340|208:268,1,180,4|8,0:0|0:0,0:0:0:0:
244,184,46020,1,0,0:0:0:0:
284,96,46346,2,0,P|240:22|155:28,1,180,0|8,0:0|0:0,0:0:0:0:
80,92,47324,1,0,0:0:0:0:
131,175,47650,6,0,P|156:237|132:299,2,135,2|2|0,0:0|0:0|0:0,0:0:0:0:
56,240,48954,2,0,L|272:240,1,180,0|8,0:0|0:0,0:0:0:0:
336,240,49933,1,0,0:0:0:0:
436,240,50259,6,0,P|404:164|304:144,1,180,2|8,0:0|0:0,0:0:0:0:
336,240,51237,1,0,0:0:0:0:
372,332,51563,2,0,B|284:364|284:288|188:336,1,180,0|8,0:0|0:0,0:0:0:0:
104,368,52541,1,0,0:0:0:0:
60,280,52867,6,0,P|36:192|60:108,1,180,2|8,0:0|0:0,0:0:0:0:
140,52,53846,1,0,0:0:0:0:
204,128,54172,2,0,L|260:208,1,90,0|0,0:0|0:0,0:0:0:0:
344,152,54824,2,0,L|400:232,1,90,8|8,0:0|0:0,0:0:0:0:
376,324,55476,6,0,B|288:352|288:292|200:324,1,180,4|0,0:0|0:0,0:0:0:0:
108,356,56454,2,0,P|32:324|48:212,1,180,12|8,0:0|0:0,0:0:0:0:
104,172,57433,2,0,L|196:112,1,90,2|8,0:0|0:0,0:0:0:0:
268,76,58085,6,0,P|344:68|436:164,1,180,2|0,0:0|0:0,0:0:0:0:
464,216,59063,1,8,0:0:0:0:
384,276,59389,2,0,L|288:276,1,90,0|8,0:0|0:0,0:0:0:0:
224,348,60041,2,0,L|128:348,1,90,2|8,0:0|0:0,0:0:0:0:
48,296,60693,6,0,P|104:224|92:128,1,180,4|0,0:0|0:0,0:0:0:0:
56,48,61672,2,0,L|240:48,1,180,12|8,0:0|0:0,0:0:0:0:
312,112,62650,2,0,L|412:112,1,90,2|8,0:0|0:0,0:0:0:0:
480,172,63302,6,0,P|472:240|368:312,1,180,2|0,0:0|0:0,0:0:0:0:
292,328,64280,1,8,0:0:0:0:
216,264,64607,2,0,P|156:236|68:224,2,135,0|0|2,0:0|0:0|0:0,0:0:0:0:
292,328,65911,6,0,P|352:300|440:288,2,135,4|2|2,0:0|0:0|0:0,0:0:0:0:
200,360,67215,2,0,P|112:340|64:268,1,180,0|2,0:0|0:0,0:0:0:0:
56,172,68193,1,8,0:0:0:0:
116,92,68520,6,0,L|256:92,2,135,2|2|2,0:0|0:0|0:0,0:0:0:0:
140,288,70150,2,0,L|245:288,1,90,8|2,0:0|0:0,0:0:0:0:
328,288,70802,1,8,0:0:0:0:
404,224,71128,6,0,P|416:156|404:88,2,135,4|2|2,0:0|0:0|0:0,0:0:0:0:
236,328,72759,2,0,L|132:328,1,90,8|2,0:0|0:0,0:0:0:0:
48,324,73411,1,8,0:0:0:0:
24,228,73737,6,0,P|12:164|24:92,2,135,2|2|2,0:0|0:0|0:0,0:0:0:0:
120,256,75041,2,0,L|220:256,1,90,2|8,0:0|0:0,0:0:0:0:
276,328,75693,2,0,L|376:328,1,90,2|8,0:0|0:0,0:0:0:0:
438,260,76346,6,0,P|460:197|439:134,2,135,4|2|8,0:0|0:0|0:0,0:0:0:0:
363,195,77650,2,0,P|321:184|277:194,1,90,0|8,0:0|0:0,0:0:0:0:
200,256,78302,2,0,P|156:266|113:254,1,90,2|8,0:0|0:0,0:0:0:0:
48,180,78954,6,0,B|36:116|36:116|48:48,2,135,2|2|8,0:0|0:0|0:0,0:0:0:0:
184,324,80585,2,0,P|256:320|296:296,1,90,8|2,0:0|0:0,0:0:0:0:
356,260,81237,1,8,0:0:0:0:
387,165,81563,6,0,P|388:85|307:87,1,180,2|8,0:0|0:0,0:0:0:0:
127,169,82867,2,0,P|135:81|219:113,1,180,0|8,0:0|0:0,0:0:0:0:
268,280,84172,6,0,B|320:335|390:327|429:255|413:202|357:172|357:172|301:141|285:88|323:16|393:8|446:64,1,540,4|2,0:3|0:0,0:0:0:0:
492,252,86780,6,0,P|480:304|456:344,1,90,4|8,0:0|0:0,0:0:0:0:
364,348,87433,2,0,L|264:328,1,90,0|8,0:0|0:0,0:0:0:0:
180,304,88085,2,0,P|140:228|176:144,1,180,0|0,0:0|0:0,0:0:0:0:
256,92,89063,1,8,0:0:0:0:
336,152,89389,6,0,P|412:180|476:176,2,135,4|2|8,0:0|0:0|0:0,0:0:0:0:
256,92,90693,2,0,P|198:71|150:74,1,90,0|8,0:0|0:0,0:0:0:0:
80,112,91346,2,0,L|56:208,1,90,2|8,0:0|0:0,0:0:0:0:
84,296,91998,6,0,P|144:292|192:276,1,90,4|8,0:0|0:0,0:0:0:0:
272,284,92650,2,0,P|315:294|360:296,1,90,0|8,0:0|0:0,0:0:0:0:
436,232,93302,2,0,P|420:148|348:88,1,180,0|2,0:0|0:0,0:0:0:0:
256,64,94280,1,8,0:0:0:0:
180,128,94607,6,0,P|108:160|31:159,2,135,4|2|0,0:0|0:0|0:0,0:0:0:0:
256,64,95911,2,0,P|327:31|404:32,2,135,4|2|2,0:0|0:0|0:0,0:0:0:0:
244,164,97215,6,0,L|244:272,1,90,4|8,0:0|0:0,0:0:0:0:
336,292,97867,2,0,L|336:184,1,90,0|8,0:0|0:0,0:0:0:0:
320,104,98520,2,0,P|243:63|166:104,1,180
132,196,99498,1,8,0:0:0:0:
152,292,99824,6,0,P|220:244|224:176,1,135,4|2,0:0|0:0,0:0:0:0:
132,196,100639,1,0,0:0:0:0:
48,252,100965,2,0,L|48:364,2,90,4|0|4,0:0|0:0|0:0,0:0:0:0:
180,40,102433,6,0,P|266:18|344:60,1,180,4|0,0:0|0:0,0:0:0:0:
396,144,103411,1,8,0:0:0:0:
430,236,103737,2,0,P|482:193|492:127,2,135,2|2|8,0:0|0:0|0:0,0:0:0:0:
340,276,105041,6,0,L|247:277,1,90,4|8,0:0|0:0,0:0:0:0:
176,344,105693,2,0,L|83:345,1,90,0|8,0:0|0:0,0:0:0:0:
50,254,106346,2,0,P|154:189|142:40,1,270,2|8,0:0|0:0,0:0:0:0:
55,77,107650,6,0,P|24:132|21:174,1,90,4|8,0:0|0:0,0:0:0:0:
50,254,108302,2,0,P|91:302|130:318,1,90,0|8,0:0|0:0,0:0:0:0:
211,295,108954,2,0,B|297:251|297:327|385:295,1,180,0|0,0:0|0:0,0:0:0:0:
444,217,109933,1,8,0:0:0:0:
472,125,110259,6,0,P|400:130|355:181,2,135,4|2|8,0:0|0:0|0:0,0:0:0:0:
444,217,111563,2,0,L|444:307,1,90,0|8,0:0|0:0,0:0:0:0:
362,363,112215,2,0,P|329:334|287:321,1,90,2|8,0:0|0:0,0:0:0:0:
188,321,112867,6,0,P|103:288|85:179,1,180,4|0,0:0|0:0,0:0:0:0:
94,111,113846,1,8,0:0:0:0:
163,35,114172,2,0,P|205:23|248:35,1,90,2|8,0:0|0:0,0:0:0:0:
303,117,114824,2,0,P|345:128|388:116,1,90,2|8,0:0|0:0,0:0:0:0:
441,33,115476,6,0,P|482:86|478:152,2,135,4|2|0,0:0|0:0|0:0,0:0:0:0:
388,116,116780,2,0,P|384:182|424:234,2,135,4|2|2,0:0|0:0|0:0,0:0:0:0:
328,36,118085,6,0,L|205:37,1,90,4|8,0:0|0:0,0:0:0:0:
174,112,118737,2,0,L|51:113,1,90,0|8,0:0|0:0,0:0:0:0:
43,202,119389,2,0,P|125:233|207:202,1,180,0|0,0:0|0:0,0:0:0:0:
274,129,120367,1,8,0:0:0:0:
340,204,120693,6,0,B|388:264|476:232,1,135,4|2,0:0|0:0,0:0:0:0:
420,148,121509,1,0,0:0:0:0:
388,56,121835,2,0,L|272:28,2,90,4|0|4,0:0|0:0|0:0,0:0:0:0:
460,292,123302,6,0,P|430:325|389:342,1,90,4|8,0:0|0:0,0:0:0:0:
292,352,123954,2,0,P|247:347|210:323,1,90,0|8,0:0|0:0,0:0:0:0:
148,244,124607,2,0,P|94:284|69:345,2,135,2|2|8,0:0|0:0|0:0,0:0:0:0:
240,208,125911,6,0,P|280:177|299:131,1,90,4|8,0:0|0:0,0:0:0:0:
256,52,126563,2,0,L|138:52,1,90,0|8,0:0|0:0,0:0:0:0:
76,92,127215,2,0,B|28:176|112:176|76:264,1,180,8|2,0:3|0:0,0:0:0:0:
28,348,128193,1,8,0:0:0:0:
128,348,128520,6,0,P|212:336|292:284,1,180,4|8,0:0|0:0,0:0:0:0:
436,152,129824,2,0,P|352:140|272:88,1,180,0|8,0:0|0:0,0:0:0:0:
204,20,130802,1,0,0:0:0:0:
136,92,131128,6,0,L|40:204,2,135,2|2|0,0:0|0:0|0:0,0:0:0:0:
184,180,132433,2,0,P|242:245|330:256,1,180,0|8,0:0|0:0,0:0:0:0:
452,100,133737,6,0,P|369:73|303:128,1,180,4|8,0:0|0:0,0:0:0:0:
212,304,135041,2,0,P|145:359|63:332,1,180,0|8,0:0|0:0,0:0:0:0:
28,240,136020,1,0,0:0:0:0:
56,144,136346,6,0,P|136:88|192:92,2,135,2|2|0,0:0|0:0|0:0,0:0:0:0:
76,240,137650,2,0,P|163:228|229:168,1,180,0|8,0:0|0:0,0:0:0:0:
364,24,138954,6,0,P|429:82|477:178,1,180,4|8,0:0|0:0,0:0:0:0:
433,355,140259,2,0,P|367:296|319:200,1,180,0|8,0:0|0:0,0:0:0:0:
300,120,141237,1,0,0:0:0:0:
224,180,141563,6,0,L|100:264,2,135,2|2|0,0:0|0:0|0:0,0:0:0:0:
300,120,142867,2,0,P|244:84|140:128,1,180,0|8,0:0|0:0,0:0:0:0:
170,317,144172,6,0,B|256:360|256:284|344:316,1,180,4|8,0:0|0:0,0:0:0:0:
435,352,145150,2,0,P|471:251|442:178,1,180,0|0,0:0|0:0,0:0:0:0:
368,126,146128,2,0,L|292:188,1,90,8|0,0:0|0:0,0:0:0:0:
210,228,146780,6,0,P|169:184|180:83,2,135,2|2|0,0:0|0:0|0:0,0:0:0:0:
301,228,148085,2,0,P|345:178|349:114,2,90,2|0|8,0:0|0:0|0:0,0:0:0:0:
256,143,149063,1,8,0:0:0:0:
