osu file format v14

[General]
AudioFilename: Hard knock days.mp3
AudioLeadIn: 0
PreviewTime: 2813
Countdown: 0
SampleSet: Soft
StackLeniency: 0.5
Mode: 0
LetterboxInBreaks: 0
WidescreenStoryboard: 0

[Editor]
Bookmarks: 14715,15367,17161,54009,63628,107650
DistanceSpacing: 1.6
BeatDivisor: 4
GridSize: 4
TimelineZoom: 1.4

[Metadata]
Title:Hard Knock Days
TitleUnicode:Hard Knock Days
Artist:GENERATIONS from EXILE TRIBE
ArtistUnicode:GENERATIONS from EXILE TRIBE
Creator:Atsuro
Version:Collab Insane
Source:ONE PIECE
Tags:Opening 18 Toei Animation Dressrosa arc Pirates Eiichiro Oda iYiyo
BeatmapID:693312
BeatmapSetID:310224

[Difficulty]
HPDrainRate:6
CircleSize:4
OverallDifficulty:7
ApproachRate:9
SliderMultiplier:1.4
SliderTickRate:1

[Events]
//Background and Video events
Video,70,"vid.avi"
0,0,"Chapter_612.png",0,0
//Break Periods
2,26980,33354
//Storyboard Layer 0 (Background)
//Storyboard Layer 1 (Fail)
//Storyboard Layer 2 (Pass)
//Storyboard Layer 3 (Foreground)
//Storyboard Sound Samples

[TimingPoints]
694,326.086956521739,4,2,1,70,1,0
694,-200,4,2,1,70,0,0
1998,-125,4,2,1,70,0,0
2976,-83.3333333333333,4,2,1,70,0,0
3302,-83.3333333333333,4,2,1,70,0,1
22867,-83.3333333333333,4,2,1,70,0,0
34607,-99.9999999999999,4,2,1,70,0,0
55476,-83.3333333333333,4,2,1,70,0,0
56454,-71.4285714285714,4,2,1,70,0,0
56780,-83.3333333333333,4,2,1,70,0,0
61672,-71.4285714285714,4,2,1,70,0,0
61998,-83.3333333333333,4,2,1,70,0,0
65911,-99.9999999999999,4,2,1,70,0,0
76346,-90.9090909090909,4,2,1,70,0,0
86780,-83.3333333333333,4,2,1,70,0,1
106346,-83.3333333333333,4,2,1,70,0,0
107650,-83.3333333333333,4,2,1,70,0,1
128520,-100,4,2,1,70,0,0

[Colours]
Combo1 : 173,201,110
Combo2 : 251,202,86
Combo3 : 119,201,143
Combo4 : 255,140,94
Combo5 : 60,184,192
Combo6 : 115,137,235

[HitObjects]
203,128,694,6,0,P|241:216|151:182,1,245,8|0,0:3|0:0,0:0:0:0:
126,106,1998,2,0,L|47:98,1,56,8|4,0:3|0:3,0:0:0:0:
46,26,2324,1,2,0:0:0:0:
150,180,2487,1,8,0:3:0:0:
258,108,2650,1,4,0:3:0:0:
285,110,2731,1,0,0:0:0:0:
313,112,2813,1,2,0:0:0:0:
341,114,2894,1,0,0:0:0:0:
369,116,2976,2,0,P|426:105|464:82,1,83.9999974365235,8|0,0:3|0:0,0:0:0:0:
258,108,3302,6,0,L|245:223,1,83.9999974365235,4|0,0:0|0:0,0:0:0:0:
313,323,3628,2,0,P|284:294|245:273,1,83.9999974365235,8|2,0:0|0:0,0:0:0:0:
99,263,3954,2,0,P|138:252|176:229,1,83.9999974365235,0|2,0:0|0:0,0:0:0:0:
225,24,4280,1,8,0:0:0:0:
169,95,4443,1,2,0:0:0:0:
258,108,4607,6,0,L|373:121,1,83.9999974365235,0|2,0:0|0:0,0:0:0:0:
487,218,4933,2,0,P|444:225|399:247,1,83.9999974365235,8|2,0:0|0:0,0:0:0:0:
256,360,5259,1,0,0:0:0:0:
360,352,5422,1,2,0:0:0:0:
256,260,5585,1,8,0:0:0:0:
152,352,5748,1,0,0:0:0:0:
332,276,5911,6,0,P|378:235|406:124,1,167.999994873047,4|8,0:0|0:0,0:0:0:0:
318,0,6400,2,0,B|322:44|322:44|337:80,1,83.9999974365235,2|0,0:0|0:0,0:0:0:0:
478,80,6726,2,0,B|494:44|494:44|498:0,1,83.9999974365235,2|8,0:0|0:0,0:0:0:0:
407,135,7052,6,0,P|424:216|482:275,1,167.999994873047,4|2,0:0|0:0,0:0:0:0:
476,45,7541,2,0,L|379:60,1,83.9999974365235,8|0,0:0|0:0,0:0:0:0:
237,82,7867,1,2,0:0:0:0:
334,109,8030,1,2,0:0:0:0:
178,133,8193,2,0,L|94:145,1,83.9999974365235,8|2,0:0|0:0,0:0:0:0:
7,171,8438,1,2,0:0:0:0:
7,171,8520,6,0,P|39:199|60:241,1,83.9999974365235,4|0,0:0|0:0,0:0:0:0:
81,370,8846,2,0,P|100:333|132:305,1,83.9999974365235,8|2,0:0|0:0,0:0:0:0:
155,171,9172,2,0,P|174:207|206:235,1,83.9999974365235,0|2,0:0|0:0,0:0:0:0:
368,300,9498,1,8,0:0:0:0:
272,300,9661,1,2,0:0:0:0:
433,235,9824,5,0,0:0:0:0:
272,171,9987,1,2,0:0:0:0:
409,64,10150,2,0,P|446:48|489:47,1,83.9999974365235,8|0,0:0|0:0,0:0:0:0:
433,235,10476,1,0,0:0:0:0:
272,171,10639,1,2,0:0:0:0:
296,342,10802,1,8,0:0:0:0:
333,249,10965,1,0,0:0:0:0:
135,277,11128,5,4,0:0:0:0:
135,277,11617,2,0,L|51:289,1,83.9999974365235,2|0,0:0|0:0,0:0:0:0:
166,373,11943,2,0,P|231:306|211:212,1,167.999994873047,2|0,0:0|0:0,0:0:0:0:
202,189,12352,1,0,0:0:0:0:
202,189,12433,5,4,0:0:0:0:
202,189,12922,2,0,L|286:201,1,83.9999974365235,2|0,0:0|0:0,0:0:0:0:
206,110,13248,2,0,P|179:113|159:125,1,41.9999987182618,4|0,0:3|0:0,0:0:0:0:
124,184,13411,2,0,P|126:210|138:230,1,41.9999987182618,2|0,0:0|0:0,0:0:0:0:
199,268,13574,2,0,L|241:274,1,41.9999987182618,2|0,0:0|0:0,0:0:0:0:
360,280,13737,6,0,L|444:268,1,83.9999974365235,4|0,0:0|0:0,0:0:0:0:
490,128,14063,2,0,P|450:157|435:200,1,83.9999974365235,8|2,0:0|0:0,0:0:0:0:
306,339,14389,2,0,P|346:310|361:267,1,83.9999974365235,0|2,0:0|0:0,0:0:0:0:
232,121,14715,1,8,0:0:0:0:
175,192,14878,1,2,0:0:0:0:
266,206,15041,2,0,P|306:177|321:134,1,83.9999974365235,0|2,0:0|0:0,0:0:0:0:
131,24,15367,6,0,L|143:108,1,83.9999974365235,8|2,0:0|0:0,0:0:0:0:
176,287,15693,1,0,0:0:0:0:
69,214,15857,1,2,0:0:0:0:
249,180,16020,1,8,0:0:0:0:
283,360,16183,1,0,0:0:0:0:
422,241,16346,6,0,P|433:195|437:145,1,83.9999974365235,4|0,0:0|0:0,0:0:0:0:
345,68,16672,1,8,0:0:0:0:
346,281,16835,2,0,P|380:313|421:341,1,83.9999974365235,2|0,0:0|0:0,0:0:0:0:
349,195,17161,2,0,P|303:208|258:230,1,83.9999974365235,2|8,0:0|0:0,0:0:0:0:
153,332,17487,6,0,P|107:318|62:296,1,83.9999974365235,4|0,0:0|0:0,0:0:0:0:
1,141,17813,1,4,0:3:0:0:
0,238,17976,1,8,0:0:0:0:
75,75,18139,2,0,P|113:58|154:47,1,83.9999974365235,4|0,0:0|0:0,0:0:0:0:
357,46,18465,1,4,0:3:0:0:
256,144,18628,1,8,0:0:0:0:
256,123,18709,1,0,0:0:0:0:
256,102,18791,1,2,0:0:0:0:
256,81,18872,1,0,0:0:0:0:
256,60,18954,6,0,B|284:140|232:140|256:224,1,167.999994873047,4|8,0:0|0:0,0:0:0:0:
317,348,19443,2,0,P|323:269|256:224,1,167.999994873047,2|2,0:0|0:0,0:0:0:0:
195,347,19933,1,8,0:0:0:0:
70,286,20096,1,0,0:0:0:0:
255,223,20259,6,0,B|291:203|334:167,1,83.9999974365235,2|0,0:0|0:0,0:0:0:0:
363,21,20585,1,8,0:0:0:0:
205,105,20748,2,0,B|289:129|289:77|369:105,1,167.999994873047,2|2,0:0|0:0,0:0:0:0:
490,220,21237,2,0,B|454:200|411:164,1,83.9999974365235,8|0,0:0|0:0,0:0:0:0:
369,105,21482,1,0,0:0:0:0:
369,105,21563,6,0,B|336:132|300:152,1,83.9999974365235,4|0,0:0|0:0,0:0:0:0:
148,173,21889,1,8,0:0:0:0:
210,57,22052,2,0,P|226:138|212:221,1,167.999994873047,2|2,0:0|0:0,0:0:0:0:
141,362,22541,1,8,0:0:0:0:
106,255,22704,1,0,0:0:0:0:
247,327,22867,5,8,0:3:0:0:
247,327,23520,1,4,0:3:0:0:
363,356,23683,1,4,0:3:0:0:
276,212,23846,1,8,0:0:0:0:
132,299,24009,1,4,0:3:0:0:
128,130,24172,5,4,0:3:0:0:
256,192,24253,12,4,26780,0:3:0:0:
64,216,33954,6,0,L|104:228,3,41.9999987182618,8|0|0|0,0:0|0:0|0:0|0:0,0:0:0:0:
128,264,34280,2,0,L|168:276,3,41.9999987182618,2|0|0|0,0:0|0:0|0:0|0:0,0:0:0:0:
224,324,34607,6,0,L|290:303,1,70,4|0,0:3|0:0,0:0:0:0:
372,276,34933,1,0,0:0:0:0:
308,221,35096,1,2,0:0:0:0:
341,143,35259,1,8,0:0:0:0:
425,149,35422,1,0,0:0:0:0:
445,233,35585,1,0,0:0:0:0:
171,209,35911,5,0,0:0:0:0:
244,166,36074,1,2,0:0:0:0:
308,221,36237,1,0,0:0:0:0:
275,299,36400,1,2,0:0:0:0:
191,293,36563,2,0,P|139:306|53:344,1,140,8|0,0:0|0:0,0:0:0:0:
5,275,37052,1,0,0:0:0:0:
114,191,37215,6,0,P|136:156|146:125,1,70,2|0,0:0|0:0,0:0:0:0:
148,45,37541,1,0,0:0:0:0:
74,85,37704,1,2,0:0:0:0:
219,88,37867,2,0,P|288:77|352:51,1,140,8|0,0:0|0:0,0:0:0:0:
450,13,38357,6,0,P|424:77|415:147,2,140,2|2|2,0:0|0:0|0:0,0:0:0:0:
488,192,39172,1,8,0:0:0:0:
488,192,39661,1,0,0:0:0:0:
380,260,39824,6,0,L|313:239,1,70,2|0,0:0|0:0,0:0:0:0:
232,212,40150,1,0,0:0:0:0:
296,160,40313,1,2,0:0:0:0:
304,77,40476,1,8,0:0:0:0:
252,13,40639,1,0,0:0:0:0:
169,4,40802,1,0,0:0:0:0:
232,212,41128,5,0,0:0:0:0:
149,203,41291,1,2,0:0:0:0:
97,139,41454,1,0,0:0:0:0:
105,56,41617,1,2,0:0:0:0:
169,4,41780,2,0,P|212:56|288:80,1,140,8|0,0:0|0:0,0:0:0:0:
360,60,42270,1,0,0:0:0:0:
280,184,42433,6,0,L|348:168,1,70,2|0,0:0|0:0,0:0:0:0:
428,148,42759,1,0,0:0:0:0:
508,128,42922,1,2,0:0:0:0:
460,284,43085,2,0,L|428:148,1,140,8|0,0:0|0:0,0:0:0:0:
385,305,43574,2,0,P|428:356|496:353,2,140,2|2|2,0:0|0:0|0:0,0:0:0:0:
427,147,44389,1,8,0:0:0:0:
327,204,44552,1,0,0:0:0:0:
327,204,44634,1,0,0:0:0:0:
327,204,44715,1,4,0:3:0:0:
327,88,44878,1,4,0:3:0:0:
151,89,45041,6,0,P|105:111|83:128,1,70,4|0,0:0|0:0,0:0:0:0:
32,183,45367,1,0,0:0:0:0:
8,102,45530,1,2,0:0:0:0:
117,203,45693,2,0,P|150:214|264:199,1,140,8|0,0:0|0:0,0:0:0:0:
324,159,46183,1,2,0:0:0:0:
271,58,46346,6,0,P|256:89|249:123,1,70,0|2,0:0|0:0,0:0:0:0:
370,210,46672,2,0,P|350:181|323:158,1,70,0|2,0:0|0:0,0:0:0:0:
117,203,46998,2,0,P|150:214|264:199,1,140,8|0,0:0|0:0,0:0:0:0:
145,124,47487,1,0,0:0:0:0:
89,282,47650,6,0,L|60:368,1,70,2|0,0:0|0:0,0:0:0:0:
116,203,47976,1,0,0:0:0:0:
116,203,48139,1,2,0:0:0:0:
176,312,48302,1,8,0:0:0:0:
176,312,48465,1,0,0:0:0:0:
285,252,48628,1,0,0:0:0:0:
285,252,48791,1,2,0:0:0:0:
345,361,48954,6,0,L|431:332,1,70,0|2,0:0|0:0,0:0:0:0:
285,252,49280,2,0,L|373:269,1,70,0|2,0:0|0:0,0:0:0:0:
287,127,49607,2,0,L|355:186,1,70,8|0,0:0|0:0,0:0:0:0:
351,20,49933,2,0,L|379:106,1,70,0|2,0:0|0:0,0:0:0:0:
161,20,50259,6,0,L|132:106,1,70,2|0,0:0|0:0,0:0:0:0:
94,230,50585,1,0,0:0:0:0:
44,136,50748,1,2,0:0:0:0:
188,180,50911,1,8,0:0:0:0:
282,130,51074,2,0,P|351:115|436:137,1,140,0|2,0:0|0:0,0:0:0:0:
512,177,51563,1,0,0:0:0:0:
418,43,51726,1,2,0:0:0:0:
418,128,51889,1,0,0:0:0:0:
503,43,52052,1,2,0:0:0:0:
333,128,52215,2,0,B|264:152|264:104|196:128,1,140,8|0,0:0|0:0,0:0:0:0:
132,180,52704,1,0,0:0:0:0:
74,42,52867,6,0,L|118:97,1,70,2|0,0:0|0:0,0:0:0:0:
212,212,53193,1,0,0:0:0:0:
132,180,53357,1,2,0:0:0:0:
292,244,53520,1,8,0:0:0:0:
224,297,53684,1,0,0:0:0:0:
359,190,53845,1,0,0:0:0:0:
371,276,54009,1,2,0:0:0:0:
347,104,54172,6,0,L|336:28,1,70,0|2,0:0|0:0,0:0:0:0:
440,168,54498,2,0,L|429:92,1,70,0|2,0:0|0:0,0:0:0:0:
371,276,54824,1,8,0:0:0:0:
256,208,54987,1,2,0:0:0:0:
141,276,55150,1,8,0:0:0:0:
73,161,55313,1,2,0:0:0:0:
256,208,55476,6,0,L|344:192,1,83.9999974365235,4|0,0:0|0:0,0:0:0:0:
420,176,55802,1,8,0:0:0:0:
251,131,55965,2,0,P|186:177|215:273,1,167.999994873047,2|2,0:0|0:0,0:0:0:0:
333,317,56454,6,0,B|241:265|241:365|149:317,1,195.999994018555,12|0,0:0|0:0,0:0:0:0:
82,264,56943,1,2,0:0:0:0:
224,192,57107,1,8,0:0:0:0:
117,157,57270,1,0,0:0:0:0:
200,81,57433,1,2,0:0:0:0:
200,81,57596,1,0,0:0:0:0:
41,74,57759,1,8,0:0:0:0:
124,8,57922,1,0,0:0:0:0:
117,157,58085,5,2,0:0:0:0:
224,192,58248,2,0,L|308:185,1,83.9999974365235,0|8,0:0|0:0,0:0:0:0:
390,178,58574,1,2,0:0:0:0:
308,285,58737,2,0,L|224:278,1,83.9999974365235,0|2,0:0|0:0,0:0:0:0:
390,292,59063,1,8,0:0:0:0:
224,192,59226,6,0,L|140:199,1,83.9999974365235,2|0,0:0|0:0,0:0:0:0:
56,204,59552,1,2,0:0:0:0:
224,192,59715,1,8,0:0:0:0:
94,129,59878,1,0,0:0:0:0:
102,273,60041,1,2,0:0:0:0:
102,273,60204,1,2,0:0:0:0:
94,129,60367,1,8,0:0:0:0:
204,292,60530,1,0,0:0:0:0:
204,292,60612,1,0,0:0:0:0:
204,292,60693,6,0,L|304:276,1,83.9999974365235,4|0,0:0|0:0,0:0:0:0:
372,264,61020,1,8,0:0:0:0:
285,129,61183,2,0,P|253:204|286:278,1,167.999994873047,2|2,0:0|0:0,0:0:0:0:
377,128,61672,6,0,B|285:180|285:80|193:128,1,195.999994018555,12|0,0:0|0:0,0:0:0:0:
130,185,62161,1,2,0:0:0:0:
130,185,62242,1,0,0:0:0:0:
130,185,62324,1,8,0:0:0:0:
114,102,62487,1,0,0:0:0:0:
145,268,62650,2,0,P|104:265|67:246,1,83.9999974365235,2|2,0:0|0:0,0:0:0:0:
192,128,62976,1,8,0:0:0:0:
210,210,63139,1,0,0:0:0:0:
376,178,63302,6,0,P|426:162|460:142,1,83.9999974365235,2|0,0:0|0:0,0:0:0:0:
383,286,63628,2,0,P|333:270|299:250,1,83.9999974365235,8|2,0:0|0:0,0:0:0:0:
164,117,63954,1,0,0:0:0:0:
256,73,64117,1,2,0:0:0:0:
210,210,64280,1,8,0:0:0:0:
73,164,64443,6,0,P|20:132|39:18,1,167.999994873047,2|2,0:0|0:0,0:0:0:0:
83,85,64933,1,8,0:0:0:0:
63,243,65096,1,0,0:0:0:0:
152,174,65259,1,2,0:0:0:0:
255,307,65422,1,8,0:3:0:0:
255,307,65503,1,2,0:0:0:0:
255,307,65585,2,0,L|288:340,1,41.9999987182618,2|0,0:0|0:0,0:0:0:0:
334,270,65748,2,0,L|367:303,1,41.9999987182618,2|0,0:0|0:0,0:0:0:0:
411,227,65911,6,0,L|460:276,1,70,4|0,0:0|0:0,0:0:0:0:
498,198,66237,1,0,0:0:0:0:
372,140,66400,2,0,B|304:159|304:115|236:139,1,140,2|0,0:0|0:0,0:0:0:0:
132,192,66889,2,0,P|92:212|60:220,1,70,2|0,0:0|0:0,0:0:0:0:
16,144,67215,1,0,0:0:0:0:
132,102,67378,2,0,P|101:86|68:76,1,70,2|8,0:0|0:0,0:0:0:0:
16,12,67704,5,0,0:0:0:0:
138,9,67867,1,2,0:0:0:0:
138,9,68030,1,2,0:0:0:0:
216,98,68193,2,0,P|235:137|245:179,1,70,8|0,0:0|0:0,0:0:0:0:
292,306,68520,6,0,P|348:318|430:264,1,140,2|0,0:0|0:0,0:0:0:0:
479,202,69009,1,2,0:0:0:0:
342,226,69172,2,0,P|308:189|300:160,1,70,8|0,0:0|0:0,0:0:0:0:
302,39,69498,2,0,P|322:104|302:170,1,140,2|0,0:0|0:0,0:0:0:0:
301,170,69987,1,2,0:0:0:0:
396,105,70150,1,8,0:0:0:0:
206,104,70313,5,0,0:0:0:0:
206,237,70476,1,2,0:0:0:0:
139,170,70639,1,2,0:0:0:0:
187,328,70802,1,8,0:0:0:0:
120,261,70965,1,0,0:0:0:0:
273,304,71128,6,0,B|380:324|380:280|480:304,1,210,4|2,0:0|0:0,0:0:0:0:
376,220,71780,1,8,0:0:0:0:
376,220,72107,6,0,B|320:220|320:220|276:176|276:112|324:52,1,210,2|2,0:0|0:0,0:0:0:0:
376,0,72759,1,8,0:0:0:0:
376,0,73085,1,2,0:0:0:0:
306,78,73248,1,2,0:0:0:0:
172,49,73411,2,0,L|99:32,1,70,8|0,0:0|0:0,0:0:0:0:
185,131,73737,6,0,L|39:97,1,140,2|0,0:0|0:0,0:0:0:0:
177,207,74226,2,0,P|234:191|259:111,1,140,2|0,0:0|0:0,0:0:0:0:
172,49,74715,1,2,0:0:0:0:
113,276,75041,5,2,0:0:0:0:
340,335,75367,1,8,0:0:0:0:
399,107,75693,1,2,0:0:0:0:
381,108,75774,1,0,0:0:0:0:
365,114,75856,1,0,0:0:0:0:
352,126,75937,1,0,0:0:0:0:
345,141,76019,1,8,0:0:0:0:
343,159,76100,1,0,0:0:0:0:
348,175,76182,1,0,0:0:0:0:
359,189,76264,1,0,0:0:0:0:
374,198,76346,6,0,L|456:189,1,77.0000023498536,4|0,0:0|0:0,0:0:0:0:
267,139,76672,1,8,0:0:0:0:
343,281,76835,2,0,L|425:272,1,77.0000023498536,2|0,0:0|0:0,0:0:0:0:
398,120,77161,1,2,0:0:0:0:
260,216,77324,6,0,P|212:196|193:157,1,77.0000023498536,8|0,0:0|0:0,0:0:0:0:
267,139,77650,1,0,0:0:0:0:
179,269,77813,1,2,0:0:0:0:
110,127,77976,1,8,0:0:0:0:
198,176,78139,1,0,0:0:0:0:
22,258,78302,1,2,0:0:0:0:
22,258,78465,1,2,0:0:0:0:
198,176,78628,1,8,0:0:0:0:
259,308,78791,1,0,0:0:0:0:
435,226,78954,6,0,P|475:177|475:86,1,154.000004699707,2|8,0:0|0:0,0:0:0:0:
314,42,79443,2,0,P|274:91|274:182,1,154.000004699707,2|2,0:0|0:0,0:0:0:0:
331,287,79933,2,0,L|405:43,1,231.000007049561,8|2,0:0|0:0,0:0:0:0:
441,200,80585,1,8,0:0:0:0:
287,154,80748,5,0,0:0:0:0:
213,222,80911,1,2,0:0:0:0:
117,191,81074,1,2,0:0:0:0:
95,92,81237,1,8,0:0:0:0:
169,24,81400,1,0,0:0:0:0:
117,191,81563,6,0,P|87:246|15:310,1,154.000004699707,2|0,0:0|0:0,0:0:0:0:
20,209,82052,1,2,0:0:0:0:
142,307,82215,2,0,B|221:284|221:337|291:309,1,154.000004699707,8|0,0:0|0:0,0:0:0:0:
368,264,82704,1,2,0:0:0:0:
295,219,82867,5,0,0:0:0:0:
368,264,83030,1,2,0:0:0:0:
373,176,83193,1,2,0:0:0:0:
373,176,83357,1,0,0:0:0:0:
366,351,83520,1,8,0:0:0:0:
457,267,83683,1,0,0:0:0:0:
368,264,83846,2,0,L|281:261,1,77.0000023498536,0|0,0:0|0:0,0:0:0:0:
137,256,84172,6,0,L|290:261,1,154.000004699707,12|0,0:3|0:0,0:0:0:0:
83,175,84661,2,0,L|236:180,1,154.000004699707,0|0,0:0|0:0,0:0:0:0:
29,94,85150,1,0,0:0:0:0:
105,96,85313,1,0,0:0:0:0:
182,99,85476,1,0,0:0:0:0:
108,19,85802,1,0,0:0:0:0:
103,173,86128,6,0,L|102:221,3,38.5000011749268,2|0|0|0,0:0|0:0|0:0|0:0,0:0:0:0:
126,235,86454,1,8,0:0:0:0:
154,232,86535,1,0,0:0:0:0:
183,229,86617,1,0,0:0:0:0:
212,226,86698,1,0,0:0:0:0:
239,223,86780,6,0,P|281:219|325:234,1,83.9999974365235,4|0,0:0|0:0,0:0:0:0:
479,177,87107,2,0,P|437:180|393:166,1,83.9999974365235,8|2,0:0|0:0,0:0:0:0:
295,47,87433,2,0,P|291:88|305:132,1,83.9999974365235,0|2,0:0|0:0,0:0:0:0:
321,232,87759,1,8,0:0:0:0:
397,168,87922,1,2,0:0:0:0:
397,297,88085,6,0,B|347:273|347:273|318:278,1,83.9999974365235,0|2,0:0|0:0,0:0:0:0:
190,332,88411,2,0,B|240:356|240:356|268:350,1,83.9999974365235,8|2,0:0|0:0,0:0:0:0:
225,245,88737,1,0,0:0:0:0:
129,257,88900,1,2,0:0:0:0:
262,155,89063,1,8,0:0:0:0:
166,167,89226,1,0,0:0:0:0:
320,232,89389,6,0,P|362:232|406:221,1,83.9999974365235,6|0,0:0|0:0,0:0:0:0:
368,128,89715,1,8,0:0:0:0:
262,155,89878,2,0,P|220:155|176:143,1,83.9999974365235,2|0,0:0|0:0,0:0:0:0:
104,80,90204,1,2,0:0:0:0:
200,48,90367,1,8,0:0:0:0:
79,179,90530,6,0,B|92:300|92:300|122:265,1,167.999994873047,4|2,0:0|0:0,0:0:0:0:
216,227,91020,2,0,P|257:220|298:225,1,83.9999974365235,8|0,0:0|0:0,0:0:0:0:
437,273,91346,1,2,0:0:0:0:
402,145,91509,1,2,0:0:0:0:
299,309,91672,2,0,P|258:317|217:312,1,83.9999974365235,8|2,0:0|0:0,0:0:0:0:
141,189,91916,1,2,0:0:0:0:
141,189,91998,6,0,B|128:160|128:160|138:108,1,83.9999974365235,4|0,0:0|0:0,0:0:0:0:
52,3,92324,2,0,B|65:32|65:32|54:83,1,83.9999974365235,8|2,0:0|0:0,0:0:0:0:
7,182,92650,1,0,0:0:0:0:
76,265,92813,1,2,0:0:0:0:
10,347,92976,2,0,P|51:352|92:344,1,83.9999974365235,8|2,0:0|0:0,0:0:0:0:
188,302,93302,6,0,P|229:293|270:298,1,83.9999974365235,0|2,0:0|0:0,0:0:0:0:
377,278,93628,2,0,P|373:237|383:196,1,83.9999974365235,8|0,0:0|0:0,0:0:0:0:
416,91,93954,1,2,0:0:0:0:
324,30,94118,1,2,0:0:0:0:
238,98,94281,1,8,0:0:0:0:
275,200,94444,1,2,0:0:0:0:
384,197,94607,6,0,B|371:235|375:275|375:275|386:316|386:316|391:289|405:275,1,167.999994873047,4|0,0:0|0:0,0:0:0:0:
275,200,95096,2,0,P|266:241|268:282,1,83.9999974365235,2|0,0:0|0:0,0:0:0:0:
238,98,95422,2,0,P|202:120|174:151,1,83.9999974365235,2|0,0:0|0:0,0:0:0:0:
117,279,95748,1,2,0:0:0:0:
117,279,95829,1,2,0:0:0:0:
117,279,95911,6,0,P|169:339|247:322,1,167.999994873047,4|0,0:0|0:0,0:0:0:0:
340,244,96400,2,0,P|343:202|351:160,1,83.9999974365235,2|0,0:0|0:0,0:0:0:0:
340,52,96726,2,0,L|292:56,1,41.9999987182618,2|0,0:0|0:0,0:0:0:0:
257,122,96889,2,0,L|220:90,1,41.9999987182618,2|0,0:0|0:0,0:0:0:0:
166,42,97052,2,0,L|134:78,1,41.9999987182618,2|0,0:0|0:0,0:0:0:0:
93,139,97215,6,0,B|81:179|81:179|91:219,1,83.9999974365235,4|0,0:0|0:0,0:0:0:0:
203,299,97541,2,0,B|215:259|215:259|204:218,1,83.9999974365235,8|2,0:0|0:0,0:0:0:0:
257,122,97867,2,0,P|298:127|338:116,1,83.9999974365235,0|2,0:0|0:0,0:0:0:0:
440,180,98193,1,8,0:0:0:0:
440,72,98357,1,2,0:0:0:0:
360,262,98520,6,0,B|328:276|328:276|282:259,1,83.9999974365235,0|2,0:0|0:0,0:0:0:0:
157,328,98846,2,0,B|188:313|188:313|234:330,1,83.9999974365235,8|2,0:0|0:0,0:0:0:0:
360,262,99172,1,0,0:0:0:0:
328,151,99335,1,2,0:0:0:0:
248,235,99498,1,8,0:0:0:0:
216,124,99661,1,0,0:0:0:0:
361,67,99824,6,0,P|397:86|415:123,1,83.9999974365235,4|0,0:0|0:0,0:0:0:0:
360,262,100150,1,8,0:0:0:0:
232,321,100313,2,0,L|148:327,1,83.9999974365235,2|0,0:0|0:0,0:0:0:0:
84,215,100639,2,0,L|167:221,1,83.9999974365235,2|8,0:0|0:0,0:0:0:0:
299,117,100965,6,0,L|216:124,1,83.9999974365235,4|0,0:0|0:0,0:0:0:0:
370,223,101291,1,2,0:0:0:0:
402,113,101454,1,8,0:0:0:0:
455,285,101617,2,0,L|443:368,1,83.9999974365235,4|0,0:0|0:0,0:0:0:0:
370,223,101943,1,2,0:0:0:0:
338,338,102107,1,8,0:0:0:0:
312,348,102188,1,2,0:0:0:0:
284,351,102270,1,2,0:0:0:0:
257,346,102351,1,2,0:0:0:0:
232,334,102433,6,0,P|192:321|151:327,1,83.9999974365235,4|0,0:0|0:0,0:0:0:0:
31,238,102759,1,8,0:0:0:0:
31,238,102922,2,0,P|70:251|111:244,1,83.9999974365235,2|0,0:0|0:0,0:0:0:0:
210,184,103248,1,2,0:0:0:0:
108,128,103411,1,8,0:0:0:0:
312,128,103574,1,0,0:0:0:0:
216,264,103737,6,0,B|203:235|203:235|210:183,1,83.9999974365235,2|0,0:0|0:0,0:0:0:0:
305,47,104063,1,8,0:0:0:0:
305,47,104226,2,0,B|318:76|318:76|311:127,1,83.9999974365235,2|0,0:0|0:0,0:0:0:0:
314,229,104552,1,2,0:0:0:0:
314,229,104715,2,0,B|306:280|306:280|320:309,1,83.9999974365235,8|0,0:0|0:0,0:0:0:0:
436,228,105041,6,0,P|432:189|432:132,1,83.9999974365235,6|0,0:0|0:0,0:0:0:0:
416,36,105367,1,8,0:0:0:0:
416,36,105530,2,0,P|374:36|332:40,1,83.9999974365235,2|0,0:0|0:0,0:0:0:0:
232,88,105857,1,2,0:0:0:0:
232,88,106020,2,0,P|232:129|236:171,1,83.9999974365235,8|0,0:0|0:0,0:0:0:0:
341,276,106346,5,2,0:0:0:0:
341,276,106509,1,2,0:0:0:0:
236,381,106672,1,8,0:0:0:0:
236,381,106835,1,2,0:0:0:0:
133,276,106998,1,8,0:0:0:0:
236,171,107161,1,2,0:0:0:0:
236,171,107242,1,2,0:0:0:0:
236,171,107324,1,8,0:0:0:0:
202,50,107487,1,2,0:0:0:0:
202,50,107568,1,2,0:0:0:0:
202,50,107650,6,0,P|243:49|285:50,1,83.9999974365235,4|0,0:0|0:0,0:0:0:0:
415,88,107976,2,0,P|386:118|356:148,1,83.9999974365235,8|2,0:0|0:0,0:0:0:0:
236,171,108302,2,0,P|265:200|294:231,1,83.9999974365235,0|2,0:0|0:0,0:0:0:0:
361,308,108628,1,8,0:0:0:0:
261,328,108791,1,2,0:0:0:0:
161,308,108954,6,0,B|120:298|120:298|79:310,1,83.9999974365235,0|2,0:0|0:0,0:0:0:0:
0,216,109280,2,0,B|41:226|41:226|81:213,1,83.9999974365235,8|2,0:0|0:0,0:0:0:0:
104,116,109607,1,0,0:0:0:0:
177,186,109770,1,2,0:0:0:0:
275,18,109933,1,8,0:0:0:0:
202,88,110096,1,0,0:0:0:0:
299,117,110259,6,0,P|341:113|383:114,1,83.9999974365235,6|0,0:0|0:0,0:0:0:0:
466,191,110585,1,8,0:0:0:0:
356,299,110748,2,0,P|359:257|358:215,1,83.9999974365235,2|0,0:0|0:0,0:0:0:0:
225,197,111074,2,0,P|221:238|222:280,1,83.9999974365235,2|8,0:0|0:0,0:0:0:0:
299,117,111400,6,0,B|246:85|246:85|196:93|196:93|145:60,1,167.999994873047,4|2,0:0|0:0,0:0:0:0:
56,96,111889,2,0,P|49:137|54:178,1,83.9999974365235,8|0,0:0|0:0,0:0:0:0:
120,268,112215,1,2,0:0:0:0:
188,184,112378,1,2,0:0:0:0:
240,280,112541,2,0,P|281:285|322:277,1,83.9999974365235,8|2,0:0|0:0,0:0:0:0:
394,243,112785,1,2,0:0:0:0:
394,243,112867,6,0,B|407:214|407:214|397:162,1,83.9999974365235,4|0,0:0|0:0,0:0:0:0:
298,97,113193,2,0,B|285:126|285:126|296:177,1,83.9999974365235,8|2,0:0|0:0,0:0:0:0:
188,184,113519,1,0,0:0:0:0:
168,68,113682,1,2,0:0:0:0:
56,108,113845,2,0,P|51:149|59:190,1,83.9999974365235,8|0,0:0|0:0,0:0:0:0:
116,292,114171,6,0,P|157:283|198:288,1,83.9999974365235,2|0,0:0|0:0,0:0:0:0:
306,251,114497,2,0,P|310:209|302:168,1,83.9999974365235,8|0,0:0|0:0,0:0:0:0:
271,63,114823,1,2,0:0:0:0:
363,2,114987,1,2,0:0:0:0:
449,70,115150,1,8,0:0:0:0:
412,172,115313,1,2,0:0:0:0:
303,169,115476,6,0,B|316:207|312:247|312:247|301:288|301:288|296:261|282:247,1,167.999994873047,4|0,0:0|0:0,0:0:0:0:
412,172,115965,2,0,P|421:213|419:254,1,83.9999974365235,2|0,0:0|0:0,0:0:0:0:
449,70,116291,2,0,P|485:92|513:123,1,83.9999974365235,2|0,0:0|0:0,0:0:0:0:
484,301,116617,1,2,0:0:0:0:
484,301,116699,1,2,0:0:0:0:
484,301,116780,6,0,B|432:298|401:330|401:330|379:299|337:286,1,167.999994873047,4|0,0:0|0:0,0:0:0:0:
232,335,117270,2,0,P|190:337|148:331,1,83.9999974365235,2|0,0:0|0:0,0:0:0:0:
47,271,117596,2,0,P|47:251|50:230,1,41.9999987182618,2|0,0:0|0:0,0:0:0:0:
74,158,117759,2,0,P|88:142|105:130,1,41.9999987182618,2|0,0:0|0:0,0:0:0:0:
172,95,117922,2,0,P|192:94|213:97,1,41.9999987182618,2|0,0:0|0:0,0:0:0:0:
285,119,118085,6,0,P|325:129|367:117,1,83.9999974365235,4|0,0:0|0:0,0:0:0:0:
494,189,118411,2,0,P|453:178|412:191,1,83.9999974365235,8|2,0:0|0:0,0:0:0:0:
293,269,118737,2,0,P|333:279|374:266,1,83.9999974365235,0|2,0:0|0:0,0:0:0:0:
204,197,119062,1,8,0:0:0:0:
186,310,119226,1,2,0:0:0:0:
97,237,119389,6,0,P|101:195|92:146,1,83.9999974365235,0|2,0:0|0:0,0:0:0:0:
192,88,119715,2,0,P|229:106|278:115,1,83.9999974365235,8|2,0:0|0:0,0:0:0:0:
368,52,120041,1,0,0:0:0:0:
374,169,120204,1,2,0:0:0:0:
270,115,120367,1,8,0:0:0:0:
264,232,120530,1,0,0:0:0:0:
83,165,120693,6,0,B|124:155|124:155|160:177,1,83.9999974365235,6|0,0:0|0:0,0:0:0:0:
120,328,121020,1,8,0:0:0:0:
119,327,121183,2,0,P|107:286|110:245,1,83.9999974365235,2|0,0:0|0:0,0:0:0:0:
264,232,121509,2,0,P|266:273|255:313,1,83.9999974365235,2|8,0:0|0:0,0:0:0:0:
214,154,121834,6,0,P|252:138|293:145,1,83.9999974365235,4|0,0:0|0:0,0:0:0:0:
389,212,122160,1,2,0:0:0:0:
399,95,122324,1,8,0:0:0:0:
289,49,122487,2,0,P|251:65|210:58,1,83.9999974365235,4|0,0:0|0:0,0:0:0:0:
121,140,122812,1,2,0:0:0:0:
126,273,122976,1,8,0:0:0:0:
153,269,123057,1,2,0:0:0:0:
181,266,123139,1,2,0:0:0:0:
209,262,123220,1,2,0:0:0:0:
237,259,123302,6,0,L|320:271,1,83.9999974365235,4|0,0:0|0:0,0:0:0:0:
297,166,123628,1,8,0:0:0:0:
297,166,123791,2,0,L|380:178,1,83.9999974365235,2|0,0:0|0:0,0:0:0:0:
357,73,124117,1,2,0:0:0:0:
247,68,124280,1,8,0:0:0:0:
187,171,124443,1,0,0:0:0:0:
75,41,124607,6,0,B|61:74|61:74|73:120,1,83.9999974365235,2|0,0:0|0:0,0:0:0:0:
98,219,124933,1,8,0:0:0:0:
98,219,125096,2,0,B|84:252|84:252|96:298,1,83.9999974365235,2|0,0:0|0:0,0:0:0:0:
213,342,125422,1,2,0:0:0:0:
213,342,125585,2,0,B|227:309|227:309|214:262,1,83.9999974365235,8|0,0:0|0:0,0:0:0:0:
187,171,125911,6,0,P|228:177|265:160,1,83.9999974365235,6|0,0:0|0:0,0:0:0:0:
383,87,126237,1,8,0:0:0:0:
383,87,126400,2,0,P|341:93|304:76,1,83.9999974365235,2|0,0:0|0:0,0:0:0:0:
215,54,126726,1,2,0:0:0:0:
215,54,126889,2,0,P|177:71|136:64,1,83.9999974365235,8|0,0:0|0:0,0:0:0:0:
36,104,127215,5,8,0:3:0:0:
263,282,127867,1,2,0:0:0:0:
350,155,128030,1,2,0:0:0:0:
433,305,128193,1,8,0:0:0:0:
306,218,128356,1,2,0:0:0:0:
219,345,128520,5,4,0:0:0:0:
256,192,128601,12,0,130965,0:0:0:0:
247,296,131128,6,0,B|142:283|142:283|171:265,1,140,2|0,0:0|0:0,0:0:0:0:
288,208,131617,1,2,0:0:0:0:
288,208,131780,2,0,L|364:240,1,70,8|0,0:0|0:0,0:0:0:0:
182,164,132107,1,0,0:0:0:0:
182,164,132270,6,0,L|100:180,1,70,2|0,0:0|0:0,0:0:0:0:
273,94,132596,2,0,B|378:81|378:81|348:63,1,140,2|2,0:0|0:0,0:0:0:0:
173,55,133085,1,8,0:0:0:0:
84,112,133248,1,0,0:0:0:0:
84,216,133411,1,0,0:0:0:0:
173,273,133574,1,2,0:0:0:0:
262,216,133737,6,0,B|302:198|302:198|393:228,1,140,4|0,0:0|0:0,0:0:0:0:
484,142,134226,1,2,0:0:0:0:
484,142,134389,2,0,P|449:137|415:146,1,70,8|0,0:0|0:0,0:0:0:0:
265,110,134715,2,0,P|299:105|333:114,1,70,0|2,0:0|0:0,0:0:0:0:
172,139,135041,6,0,P|167:104|176:70,1,70,0|2,0:0|0:0,0:0:0:0:
79,223,135367,2,0,P|83:188|74:154,1,70,0|2,0:0|0:0,0:0:0:0:
170,306,135693,2,0,P|165:271|174:237,1,70,8|0,0:0|0:0,0:0:0:0:
276,208,136020,1,0,0:0:0:0:
340,292,136183,1,0,0:0:0:0:
371,150,136346,6,0,L|359:80,1,70,2|0,0:0|0:0,0:0:0:0:
256,20,136672,1,0,0:0:0:0:
256,20,136835,2,0,B|250:118|250:118|213:91,1,140,2|0,0:0|0:0,0:0:0:0:
210,210,137324,1,0,0:0:0:0:
210,210,137487,6,0,B|181:192|181:192|144:197,1,70,2|0,0:0|0:0,0:0:0:0:
205,308,137813,1,2,0:0:0:0:
205,308,137976,2,0,B|234:326|234:326|270:320,1,70,0|2,0:0|0:0,0:0:0:0:
365,351,138302,2,0,L|407:355,3,35,8|0|2|2,0:0|0:0|0:0|0:0,0:0:0:0:
449,290,138628,2,0,L|481:263,3,35,2|0|2|0,0:0|0:0|0:0|0:0,0:0:0:0:
465,186,138954,6,0,P|475:118|463:49,1,140,4|0,0:0|0:0,0:0:0:0:
360,36,139443,1,2,0:0:0:0:
360,36,139607,2,0,P|363:73|359:121,1,70,8|0,0:0|0:0,0:0:0:0:
245,9,139933,2,0,P|242:46|246:94,1,70,0|2,0:0|0:0,0:0:0:0:
198,170,140259,6,0,B|162:181|162:181|131:170,1,70,0|2,0:0|0:0,0:0:0:0:
0,228,140585,2,0,B|36:217|36:217|66:228,1,70,0|2,0:0|0:0,0:0:0:0:
164,280,140911,2,0,P|233:286|302:276,1,140,8|0,0:0|0:0,0:0:0:0:
420,244,141400,1,0,0:0:0:0:
420,244,141563,6,0,B|401:198|401:198|418:109,1,140,2|0,0:0|0:0,0:0:0:0:
372,16,142052,1,2,0:0:0:0:
372,15,142215,2,0,P|338:25|303:25,1,70,8|0,0:0|0:0,0:0:0:0:
194,101,142541,1,0,0:0:0:0:
194,101,142704,6,0,P|227:110|262:110,1,70,2|0,0:0|0:0,0:0:0:0:
318,203,143030,2,0,B|292:304|292:304|268:277,1,140,2|2,0:0|0:0,0:0:0:0:
192,196,143520,1,8,0:0:0:0:
112,275,143683,1,0,0:0:0:0:
32,196,143846,1,0,0:0:0:0:
111,116,144009,1,2,0:0:0:0:
273,116,144172,6,0,B|344:136|344:136|408:120,1,140,4|0,0:0|0:0,0:0:0:0:
470,195,144661,1,2,0:0:0:0:
470,195,144824,2,0,L|464:264,1,70,8|0,0:0|0:0,0:0:0:0:
362,321,145150,1,0,0:0:0:0:
362,321,145313,6,0,L|356:251,1,70,2|0,0:0|0:0,0:0:0:0:
253,195,145639,2,0,L|247:264,1,70,2|0,0:0|0:0,0:0:0:0:
122,310,145965,1,2,0:0:0:0:
121,309,146128,2,0,P|70:267|82:201,1,140,8|0,0:0|0:0,0:0:0:0:
155,112,146617,1,0,0:0:0:0:
155,112,146780,6,0,B|225:90|225:90|286:119,1,140,2|0,0:0|0:0,0:0:0:0:
327,224,147270,1,2,0:0:0:0:
327,224,147433,2,0,P|361:213|395:208,1,70,8|0,0:0|0:0,0:0:0:0:
479,324,147759,1,0,0:0:0:0:
479,324,147922,6,0,P|445:313|411:308,1,70,2|0,0:0|0:0,0:0:0:0:
305,342,148248,2,0,P|228:344|160:328,1,140,2|2,0:0|0:0,0:0:0:0:
56,304,148737,1,8,0:0:0:0:
199,232,148900,1,2,0:0:0:0:
199,232,148982,1,2,0:0:0:0:
199,232,149063,1,8,0:3:0:0:
66,145,149226,1,2,0:0:0:0:
