osu file format v14

[General]
AudioFilename: audio.mp3
AudioLeadIn: 0
PreviewTime: 61668
Countdown: 0
SampleSet: Soft
StackLeniency: 0.4
Mode: 0
LetterboxInBreaks: 0
EpilepsyWarning: 1
WidescreenStoryboard: 1

[Editor]
Bookmarks: 225668,230168
DistanceSpacing: 1.2
BeatDivisor: 8
GridSize: 32
TimelineZoom: 2.5

[Metadata]
Title:Umiyuri Kaiteitan
TitleUnicode:ウミユリ海底譚
Artist:GEM
ArtistUnicode:ジェム
Creator:Loreley
Version:Insane
Source:初音ミク -Project DIVA- X
Tags:hatsune miku utaite vocaloid n-buna mirash icekalt Sakurauchi Riko Phyloukz [ -Scarlet- ] 619 nattu smau5 Xentaphen delis Tale of the Deep-sea Lily
BeatmapID:1569291
BeatmapSetID:647452

[Difficulty]
HPDrainRate:6.5
CircleSize:3.8
OverallDifficulty:7.5
ApproachRate:9
SliderMultiplier:1.66
SliderTickRate:1

[Events]
//Background and Video events
0,0,"nante.jpg",0,0
//Break Periods
2,94368,101568
2,176368,183568
//Storyboard Layer 0 (Background)
Sprite,Background,Centre,"sb\ring.png",0,0 M,0,144168,,235,247 F,0,144168,145368,0.4,0 S,0,144168,145368,0.5,0.6 M,0,145793,,525,376 F,0,145793,146993,0.4,0 S,0,145793,146993,0.5,0.6 M,0,147043,,325,409 F,0,147043,148243,0.4,0 S,0,147043,148243,0.5,0.6 M,0,148918,,306,86 F,0,148918,150118,0.4,0 S,0,148918,150118,0.5,0.6 M,0,150168,,449,190 F,0,150168,151368,0.4,0 S,0,150168,151368,0.5,0.6 M,0,151418,,157,322 F,0,151418,152618,0.4,0 S,0,151418,152618,0.5,0.6 M,0,152918,,403,56 F,0,152918,154118,0.4,0 S,0,152918,154118,0.5,0.6 M,0,154168,,302,378 F,0,154168,155368,0.4,0 S,0,154168,155368,0.5,0.6 M,0,155543,,418,159 F,0,155543,156743,0.4,0 S,0,155543,156743,0.5,0.6 M,0,157043,,99,241 F,0,157043,158243,0.4,0 S,0,157043,158243,0.5,0.6 M,0,158543,,466,182 F,0,158543,159743,0.4,0 S,0,158543,159743,0.5,0.6
Sprite,Background,Centre,"sb\ring.png",0,0 M,0,144918,,339,142 F,0,144918,146118,0.4,0 S,0,144918,146118,0.5,0.6 M,0,146168,,480,228 F,0,146168,147368,0.4,0 S,0,146168,147368,0.5,0.6 M,0,147543,,73,288 F,0,147543,148743,0.4,0 S,0,147543,148743,0.5,0.6 M,0,149168,,451,128 F,0,149168,150368,0.4,0 S,0,149168,150368,0.5,0.6 M,0,150668,,488,390 F,0,150668,151868,0.4,0 S,0,150668,151868,0.5,0.6 M,0,151918,,174,148 F,0,151918,153118,0.4,0 S,0,151918,153118,0.5,0.6 M,0,153168,,367,197 F,0,153168,154368,0.4,0 S,0,153168,154368,0.5,0.6 M,0,154918,,558,367 F,0,154918,156118,0.4,0 S,0,154918,156118,0.5,0.6 M,0,156168,,216,206 F,0,156168,157368,0.4,0 S,0,156168,157368,0.5,0.6 M,0,158168,,525,361 F,0,158168,159368,0.4,0 S,0,158168,159368,0.5,0.6 M,0,159668,,119,200 F,0,159668,160868,0.4,0 S,0,159668,160868,0.5,0.6
Sprite,Background,Centre,"sb\ring.png",0,0 M,0,145168,,271,272 F,0,145168,146368,0.4,0 S,0,145168,146368,0.5,0.6 M,0,146918,,325,409 F,0,146918,148118,0.4,0 S,0,146918,148118,0.5,0.6 M,0,148168,,242,182 F,0,148168,149368,0.4,0 S,0,148168,149368,0.5,0.6 M,0,149668,,364,175 F,0,149668,150868,0.4,0 S,0,149668,150868,0.5,0.6 M,0,151668,,235,278 F,0,151668,152868,0.4,0 S,0,151668,152868,0.5,0.6 M,0,155043,,558,367 F,0,155043,156243,0.4,0 S,0,155043,156243,0.5,0.6 M,0,156543,,139,125 F,0,156543,157743,0.4,0 S,0,156543,157743,0.5,0.6 M,0,159168,,333,141 F,0,159168,160368,0.4,0 S,0,159168,160368,0.5,0.6
Sprite,Background,Centre,"sb\ring.png",0,0 M,0,145293,,271,272 F,0,145293,146493,0.4,0 S,0,145293,146493,0.5,0.6 M,0,147168,,250,357 F,0,147168,148368,0.4,0 S,0,147168,148368,0.5,0.6 M,0,152168,,263,133 F,0,152168,153368,0.4,0 S,0,152168,153368,0.5,0.6 M,0,155168,,490,308 F,0,155168,156368,0.4,0 S,0,155168,156368,0.5,0.6 M,0,157293,,190,272 F,0,157293,158493,0.4,0 S,0,157293,158493,0.5,0.6 M,0,159293,,333,141 F,0,159293,160493,0.4,0 S,0,159293,160493,0.5,0.6
Sprite,Background,Centre,"sb\ring.png",0,0 M,0,147668,,73,288 F,0,147668,148868,0.4,0 S,0,147668,148868,0.5,0.6 M,0,155668,,418,159 F,0,155668,156868,0.4,0 S,0,155668,156868,0.5,0.6
Sprite,Background,Centre,"sb\bubble.png",0,0 S,0,4168,,0.1558161 M,2,4168,5168,523,307,613,133 F,0,4168,5168,1,0 S,0,5668,,0.1202604 M,2,5668,6668,146,188,-47,-157 F,0,5668,6668,1,0 S,0,8168,,0.1360233 M,2,8168,9168,208,275,254,10 F,0,8168,9168,1,0 S,0,10168,,0.18235 M,2,10168,11168,156,407,322,217 F,0,10168,11168,1,0 S,0,11418,,0.1241179 M,1,11418,12418,458,192,398,-300 F,0,11418,12418,1,0
Sprite,Background,Centre,"sb\bubble.png",0,0 S,0,4168,,0.1442178 M,2,4168,5168,523,307,405,30 F,0,4168,5168,1,0 S,0,5668,,0.196289 M,2,5668,6668,146,188,311,-301 F,0,5668,6668,1,0 S,0,8168,,0.110254 M,1,8168,9168,208,275,310,90 F,0,8168,9168,1,0 S,0,10168,,0.1451056 M,2,10168,11168,156,407,50,242 F,0,10168,11168,1,0 S,0,11418,,0.1433084 M,1,11418,12418,458,192,331,-197 F,0,11418,12418,1,0
Sprite,Background,Centre,"sb\bubble.png",0,0 S,0,4168,,0.1467315 M,1,4168,5168,523,307,714,-84 F,0,4168,5168,1,0 S,0,5668,,0.1278329 M,2,5668,6668,146,188,343,-306 F,0,5668,6668,1,0 S,0,8168,,0.1816208 M,2,8168,9168,208,275,253,29 F,0,8168,9168,1,0 S,0,10168,,0.1062614 M,2,10168,11168,156,407,253,195 F,0,10168,11168,1,0 S,0,11418,,0.192364 M,2,11418,12418,458,192,264,-182 F,0,11418,12418,1,0
Sprite,Background,Centre,"sb\bubble.png",0,0 S,0,4168,,0.1030367 M,2,4168,5168,523,307,576,-6 F,0,4168,5168,1,0 S,0,5668,,0.1324167 M,2,5668,6668,146,188,332,-77 F,0,5668,6668,1,0 S,0,8168,,0.1592747 M,1,8168,9168,208,275,353,-130 F,0,8168,9168,1,0 S,0,10168,,0.1654323 M,2,10168,11168,156,407,29,-77 F,0,10168,11168,1,0 S,0,11418,,0.1015061 M,1,11418,12418,458,192,473,28 F,0,11418,12418,1,0
Sprite,Background,Centre,"sb\bubble.png",0,0 S,0,4168,,0.1314592 M,2,4168,5168,523,307,667,205 F,0,4168,5168,1,0 S,0,5668,,0.1972887 M,2,5668,6668,146,188,114,77 F,0,5668,6668,1,0 S,0,8168,,0.1995221 M,2,8168,9168,208,275,273,-193 F,0,8168,9168,1,0 S,0,10168,,0.1781676 M,2,10168,11168,156,407,50,150 F,0,10168,11168,1,0 S,0,11418,,0.1402978 M,2,11418,12418,458,192,294,-285 F,0,11418,12418,1,0
Sprite,Background,Centre,"sb\bubble.png",0,0 S,0,4168,,0.1032625 M,2,4168,5168,523,307,649,146 F,0,4168,5168,1,0 S,0,5668,,0.1178221 M,2,5668,6668,146,188,48,-260 F,0,5668,6668,1,0 S,0,8168,,0.1152305 M,1,8168,9168,208,275,71,-33 F,0,8168,9168,1,0 S,0,10168,,0.153416 M,2,10168,11168,156,407,329,-75 F,0,10168,11168,1,0 S,0,11418,,0.1129013 M,1,11418,12418,458,192,421,-218 F,0,11418,12418,1,0
Sprite,Background,Centre,"sb\bubble.png",0,0 S,0,4168,,0.168762 M,2,4168,5168,523,307,602,17 F,0,4168,5168,1,0 S,0,5668,,0.1514041 M,2,5668,6668,146,188,299,-95 F,0,5668,6668,1,0 S,0,8168,,0.1034062 M,1,8168,9168,208,275,402,-211 F,0,8168,9168,1,0 S,0,10168,,0.107489 M,1,10168,11168,156,407,58,-87 F,0,10168,11168,1,0 S,0,11418,,0.1554413 M,2,11418,12418,458,192,288,-14 F,0,11418,12418,1,0
Sprite,Background,Centre,"sb\bubble.png",0,0 S,0,4168,,0.1453327 M,1,4168,5168,523,307,541,-161 F,0,4168,5168,1,0 S,0,5668,,0.1691727 M,1,5668,6668,146,188,86,84 F,0,5668,6668,1,0 S,0,8168,,0.1224299 M,2,8168,9168,208,275,214,4 F,0,8168,9168,1,0 S,0,10168,,0.1567671 M,2,10168,11168,156,407,246,11 F,0,10168,11168,1,0 S,0,11418,,0.1126908 M,2,11418,12418,458,192,276,-149 F,0,11418,12418,1,0
Sprite,Background,Centre,"sb\bubble.png",0,0 S,0,4168,,0.1762964 M,2,4168,5168,523,307,441,202 F,0,4168,5168,1,0 S,0,5668,,0.1581289 M,1,5668,6668,146,188,-6,-235 F,0,5668,6668,1,0 S,0,8168,,0.1832899 M,2,8168,9168,208,275,54,-163 F,0,8168,9168,1,0 S,0,10168,,0.1924282 M,2,10168,11168,156,407,201,193 F,0,10168,11168,1,0 S,0,11418,,0.1085728 M,1,11418,12418,458,192,411,-1 F,0,11418,12418,1,0
Sprite,Background,Centre,"sb\bubble.png",0,0 S,0,4168,,0.1957455 M,1,4168,5168,523,307,335,-41 F,0,4168,5168,1,0 S,0,5668,,0.1784076 M,1,5668,6668,146,188,50,-188 F,0,5668,6668,1,0 S,0,8168,,0.1123624 M,1,8168,9168,208,275,309,-129 F,0,8168,9168,1,0 S,0,10168,,0.1680085 M,2,10168,11168,156,407,230,303 F,0,10168,11168,1,0 S,0,11418,,0.1709087 M,2,11418,12418,458,192,396,-57 F,0,11418,12418,1,0
Sprite,Background,Centre,"sb\bubble.png",0,0 S,0,4168,,0.1273451 M,1,4168,5168,523,307,525,93 F,0,4168,5168,1,0 S,0,5668,,0.1655619 M,2,5668,6668,146,188,-1,-67 F,0,5668,6668,1,0 S,0,8168,,0.1829503 M,2,8168,9168,208,275,79,6 F,0,8168,9168,1,0 S,0,10168,,0.1656179 M,2,10168,11168,156,407,206,-70 F,0,10168,11168,1,0 S,0,11418,,0.1249967 M,2,11418,12418,458,192,560,-104 F,0,11418,12418,1,0
Sprite,Background,Centre,"sb\bubble.png",0,0 S,0,4168,,0.1457209 M,1,4168,5168,523,307,685,124 F,0,4168,5168,1,0 S,0,5668,,0.1877911 M,1,5668,6668,146,188,82,-303 F,0,5668,6668,1,0 S,0,8168,,0.1280021 M,1,8168,9168,208,275,99,-65 F,0,8168,9168,1,0 S,0,10168,,0.1790971 M,1,10168,11168,156,407,328,35 F,0,10168,11168,1,0 S,0,11418,,0.1684822 M,2,11418,12418,458,192,364,-23 F,0,11418,12418,1,0
Sprite,Background,Centre,"sb\bubble.png",0,0 S,0,4168,,0.1718727 M,1,4168,5168,523,307,381,-105 F,0,4168,5168,1,0 S,0,5668,,0.1255308 M,2,5668,6668,146,188,230,44 F,0,5668,6668,1,0 S,0,8168,,0.1415991 M,2,8168,9168,208,275,201,-83 F,0,8168,9168,1,0 S,0,10168,,0.1926326 M,1,10168,11168,156,407,318,-64 F,0,10168,11168,1,0 S,0,11418,,0.1881841 M,1,11418,12418,458,192,321,53 F,0,11418,12418,1,0
Sprite,Background,Centre,"sb\bubble.png",0,0 S,0,4168,,0.1878192 M,1,4168,5168,523,307,570,2 F,0,4168,5168,1,0 S,0,5668,,0.1887585 M,1,5668,6668,146,188,51,-123 F,0,5668,6668,1,0 S,0,8168,,0.1134914 M,1,8168,9168,208,275,325,-148 F,0,8168,9168,1,0 S,0,10168,,0.1870886 M,1,10168,11168,156,407,269,24 F,0,10168,11168,1,0 S,0,11418,,0.1124287 M,2,11418,12418,458,192,483,71 F,0,11418,12418,1,0
Sprite,Background,Centre,"sb\bubble.png",0,0 S,0,4168,,0.1679749 M,2,4168,5168,523,307,653,101 F,0,4168,5168,1,0 S,0,5668,,0.1368972 M,1,5668,6668,146,188,142,-57 F,0,5668,6668,1,0 S,0,8168,,0.1720458 M,1,8168,9168,208,275,218,77 F,0,8168,9168,1,0 S,0,10168,,0.1219765 M,2,10168,11168,156,407,48,-46 F,0,10168,11168,1,0 S,0,11418,,0.1447598 M,1,11418,12418,458,192,574,-260 F,0,11418,12418,1,0
Sprite,Background,Centre,"sb\bubble.png",0,0 S,0,4668,,0.189644 M,2,4668,5668,236,388,285,-25 F,0,4668,5668,1,0 S,0,6168,,0.1001825 M,2,6168,7168,208,257,105,155 F,0,6168,7168,1,0 S,0,9168,,0.1040189 M,2,9168,10168,210,131,192,-335 F,0,9168,10168,1,0 S,0,10668,,0.1480845 M,2,10668,11668,362,400,430,93 F,0,10668,11668,1,0
Sprite,Background,Centre,"sb\bubble.png",0,0 S,0,4668,,0.1644115 M,1,4668,5668,236,388,70,223 F,0,4668,5668,1,0 S,0,6168,,0.1772257 M,1,6168,7168,208,257,401,141 F,0,6168,7168,1,0 S,0,9168,,0.1707156 M,2,9168,10168,210,131,321,-231 F,0,9168,10168,1,0 S,0,10668,,0.1466063 M,1,10668,11668,362,400,227,-92 F,0,10668,11668,1,0
Sprite,Background,Centre,"sb\bubble.png",0,0 S,0,4668,,0.1481366 M,2,4668,5668,236,388,366,-25 F,0,4668,5668,1,0 S,0,6168,,0.1110062 M,1,6168,7168,208,257,44,-167 F,0,6168,7168,1,0 S,0,9168,,0.142316 M,2,9168,10168,210,131,195,-152 F,0,9168,10168,1,0 S,0,10668,,0.1243739 M,2,10668,11668,362,400,191,283 F,0,10668,11668,1,0
Sprite,Background,Centre,"sb\bubble.png",0,0 S,0,4668,,0.1100935 M,2,4668,5668,236,388,296,175 F,0,4668,5668,1,0 S,0,6168,,0.1642671 M,2,6168,7168,208,257,301,-203 F,0,6168,7168,1,0 S,0,9168,,0.1581277 M,2,9168,10168,210,131,372,-206 F,0,9168,10168,1,0 S,0,10668,,0.1873887 M,1,10668,11668,362,400,524,284 F,0,10668,11668,1,0
Sprite,Background,Centre,"sb\bubble.png",0,0 S,0,4668,,0.1905176 M,1,4668,5668,236,388,327,175 F,0,4668,5668,1,0 S,0,6168,,0.1859581 M,2,6168,7168,208,257,237,-147 F,0,6168,7168,1,0 S,0,9168,,0.1584561 M,2,9168,10168,210,131,310,-276 F,0,9168,10168,1,0 S,0,10668,,0.1936357 M,2,10668,11668,362,400,323,255 F,0,10668,11668,1,0
Sprite,Background,Centre,"sb\bubble.png",0,0 S,0,4668,,0.1325501 M,2,4668,5668,236,388,111,78 F,0,4668,5668,1,0 S,0,6168,,0.1460244 M,2,6168,7168,208,257,186,119 F,0,6168,7168,1,0 S,0,9168,,0.1160314 M,2,9168,10168,210,131,406,-349 F,0,9168,10168,1,0 S,0,10668,,0.1651656 M,1,10668,11668,362,400,525,50 F,0,10668,11668,1,0
Sprite,Background,Centre,"sb\bubble.png",0,0 S,0,4668,,0.1809204 M,2,4668,5668,236,388,304,75 F,0,4668,5668,1,0 S,0,6168,,0.1647173 M,1,6168,7168,208,257,144,68 F,0,6168,7168,1,0 S,0,9168,,0.192347 M,1,9168,10168,210,131,396,-192 F,0,9168,10168,1,0 S,0,10668,,0.132211 M,2,10668,11668,362,400,199,152 F,0,10668,11668,1,0
Sprite,Background,Centre,"sb\bubble.png",0,0 S,0,4668,,0.1294997 M,2,4668,5668,236,388,353,193 F,0,4668,5668,1,0 S,0,6168,,0.1623841 M,1,6168,7168,208,257,407,0 F,0,6168,7168,1,0 S,0,9168,,0.1999043 M,1,9168,10168,210,131,32,-113 F,0,9168,10168,1,0 S,0,10668,,0.1567461 M,2,10668,11668,362,400,287,-62 F,0,10668,11668,1,0
Sprite,Background,Centre,"sb\bubble.png",0,0 S,0,4668,,0.1286722 M,1,4668,5668,236,388,245,153 F,0,4668,5668,1,0 S,0,6168,,0.1137639 M,2,6168,7168,208,257,404,106 F,0,6168,7168,1,0 S,0,9168,,0.1094391 M,2,9168,10168,210,131,356,-188 F,0,9168,10168,1,0 S,0,10668,,0.1143492 M,1,10668,11668,362,400,332,93 F,0,10668,11668,1,0
Sprite,Background,Centre,"sb\bubble.png",0,0 S,0,4668,,0.1068519 M,1,4668,5668,236,388,364,-23 F,0,4668,5668,1,0 S,0,6168,,0.1379237 M,2,6168,7168,208,257,8,-21 F,0,6168,7168,1,0 S,0,9168,,0.1882428 M,1,9168,10168,210,131,407,-94 F,0,9168,10168,1,0 S,0,10668,,0.1911373 M,1,10668,11668,362,400,295,-36 F,0,10668,11668,1,0
Sprite,Background,Centre,"sb\bubble.png",0,0 S,0,4668,,0.1927637 M,2,4668,5668,236,388,285,165 F,0,4668,5668,1,0 S,0,6168,,0.151996 M,2,6168,7168,208,257,354,-113 F,0,6168,7168,1,0 S,0,9168,,0.1939982 M,2,9168,10168,210,131,290,-235 F,0,9168,10168,1,0 S,0,10668,,0.1947085 M,2,10668,11668,362,400,511,156 F,0,10668,11668,1,0
Sprite,Background,Centre,"sb\bubble.png",0,0 S,0,4668,,0.1900104 M,1,4668,5668,236,388,124,259 F,0,4668,5668,1,0 S,0,6168,,0.1162909 M,2,6168,7168,208,257,339,-27 F,0,6168,7168,1,0 S,0,9168,,0.1384681 M,2,9168,10168,210,131,217,-296 F,0,9168,10168,1,0 S,0,10668,,0.182241 M,1,10668,11668,362,400,204,269 F,0,10668,11668,1,0
Sprite,Background,Centre,"sb\bubble.png",0,0 S,0,4668,,0.1106972 M,1,4668,5668,236,388,307,-75 F,0,4668,5668,1,0 S,0,6168,,0.1249951 M,1,6168,7168,208,257,261,-22 F,0,6168,7168,1,0 S,0,9168,,0.1290793 M,1,9168,10168,210,131,160,-161 F,0,9168,10168,1,0 S,0,10668,,0.1340294 M,1,10668,11668,362,400,216,111 F,0,10668,11668,1,0
Sprite,Background,Centre,"sb\bubble.png",0,0 S,0,4668,,0.1148056 M,1,4668,5668,236,388,279,269 F,0,4668,5668,1,0 S,0,6168,,0.1337397 M,2,6168,7168,208,257,328,-59 F,0,6168,7168,1,0 S,0,9168,,0.1404794 M,2,9168,10168,210,131,342,-53 F,0,9168,10168,1,0 S,0,10668,,0.1296088 M,1,10668,11668,362,400,368,151 F,0,10668,11668,1,0
Sprite,Background,Centre,"sb\bubble.png",0,0 S,0,4668,,0.1618182 M,1,4668,5668,236,388,307,115 F,0,4668,5668,1,0 S,0,6168,,0.1205291 M,2,6168,7168,208,257,84,-183 F,0,6168,7168,1,0 S,0,9168,,0.1334774 M,1,9168,10168,210,131,224,-200 F,0,9168,10168,1,0 S,0,10668,,0.1530327 M,1,10668,11668,362,400,287,-71 F,0,10668,11668,1,0
Sprite,Background,Centre,"sb\bubble.png",0,0 S,0,5168,,0.1062308 M,2,5168,6168,275,230,77,-126 F,0,5168,6168,1,0 S,0,6668,,0.1482344 M,2,6668,7668,431,283,444,-14 F,0,6668,7668,1,0 S,0,11168,,0.1979684 M,1,11168,12168,458,192,352,-258 F,0,11168,12168,1,0
Sprite,Background,Centre,"sb\bubble.png",0,0 S,0,5168,,0.1988812 M,2,5168,6168,275,230,187,11 F,0,5168,6168,1,0 S,0,6668,,0.1859633 M,1,6668,7668,431,283,271,-42 F,0,6668,7668,1,0 S,0,11168,,0.1422871 M,2,11168,12168,458,192,364,-148 F,0,11168,12168,1,0
Sprite,Background,Centre,"sb\bubble.png",0,0 S,0,5168,,0.1506576 M,1,5168,6168,275,230,229,-61 F,0,5168,6168,1,0 S,0,6668,,0.1015509 M,2,6668,7668,431,283,455,63 F,0,6668,7668,1,0 S,0,11168,,0.124247 M,2,11168,12168,458,192,639,-304 F,0,11168,12168,1,0
Sprite,Background,Centre,"sb\bubble.png",0,0 S,0,5168,,0.1496079 M,1,5168,6168,275,230,287,-248 F,0,5168,6168,1,0 S,0,6668,,0.1122342 M,2,6668,7668,431,283,458,-34 F,0,6668,7668,1,0 S,0,11168,,0.1267078 M,1,11168,12168,458,192,416,-32 F,0,11168,12168,1,0
Sprite,Background,Centre,"sb\bubble.png",0,0 S,0,5168,,0.1742329 M,1,5168,6168,275,230,413,-25 F,0,5168,6168,1,0 S,0,6668,,0.179928 M,2,6668,7668,431,283,279,-104 F,0,6668,7668,1,0 S,0,11168,,0.1168425 M,2,11168,12168,458,192,521,-220 F,0,11168,12168,1,0
Sprite,Background,Centre,"sb\bubble.png",0,0 S,0,5168,,0.1699652 M,1,5168,6168,275,230,235,103 F,0,5168,6168,1,0 S,0,6668,,0.1445772 M,1,6668,7668,431,283,333,-112 F,0,6668,7668,1,0 S,0,11168,,0.1787126 M,1,11168,12168,458,192,502,76 F,0,11168,12168,1,0
Sprite,Background,Centre,"sb\bubble.png",0,0 S,0,5168,,0.1569742 M,2,5168,6168,275,230,321,62 F,0,5168,6168,1,0 S,0,6668,,0.153052 M,2,6668,7668,431,283,348,118 F,0,6668,7668,1,0 S,0,11168,,0.1796123 M,1,11168,12168,458,192,509,-167 F,0,11168,12168,1,0
Sprite,Background,Centre,"sb\bubble.png",0,0 S,0,5168,,0.1250748 M,2,5168,6168,275,230,144,-197 F,0,5168,6168,1,0 S,0,6668,,0.1851736 M,2,6668,7668,431,283,611,-137 F,0,6668,7668,1,0 S,0,11168,,0.1260759 M,2,11168,12168,458,192,327,-24 F,0,11168,12168,1,0
Sprite,Background,Centre,"sb\bubble.png",0,0 S,0,5168,,0.1263684 M,1,5168,6168,275,230,473,-43 F,0,5168,6168,1,0 S,0,6668,,0.1356198 M,2,6668,7668,431,283,589,-31 F,0,6668,7668,1,0 S,0,11168,,0.1747003 M,2,11168,12168,458,192,567,77 F,0,11168,12168,1,0
Sprite,Background,Centre,"sb\bubble.png",0,0 S,0,5168,,0.1516366 M,2,5168,6168,275,230,412,-43 F,0,5168,6168,1,0 S,0,6668,,0.1390975 M,1,6668,7668,431,283,451,-96 F,0,6668,7668,1,0 S,0,11168,,0.1703927 M,2,11168,12168,458,192,454,-14 F,0,11168,12168,1,0
Sprite,Background,Centre,"sb\bubble.png",0,0 S,0,5168,,0.1155765 M,2,5168,6168,275,230,463,-239 F,0,5168,6168,1,0 S,0,6668,,0.1931997 M,2,6668,7668,431,283,399,48 F,0,6668,7668,1,0 S,0,11168,,0.112558 M,2,11168,12168,458,192,300,-70 F,0,11168,12168,1,0
Sprite,Background,Centre,"sb\bubble.png",0,0 S,0,5168,,0.1552862 M,2,5168,6168,275,230,400,-13 F,0,5168,6168,1,0 S,0,6668,,0.1342673 M,2,6668,7668,431,283,596,-98 F,0,6668,7668,1,0 S,0,11168,,0.1825591 M,2,11168,12168,458,192,653,-219 F,0,11168,12168,1,0
Sprite,Background,Centre,"sb\bubble.png",0,0 S,0,5168,,0.1064454 M,1,5168,6168,275,230,343,127 F,0,5168,6168,1,0 S,0,6668,,0.1909044 M,1,6668,7668,431,283,417,102 F,0,6668,7668,1,0 S,0,11168,,0.1093488 M,2,11168,12168,458,192,484,-291 F,0,11168,12168,1,0
Sprite,Background,Centre,"sb\bubble.png",0,0 S,0,5168,,0.107169 M,1,5168,6168,275,230,261,-77 F,0,5168,6168,1,0 S,0,6668,,0.1270912 M,2,6668,7668,431,283,438,127 F,0,6668,7668,1,0 S,0,11168,,0.1275329 M,2,11168,12168,458,192,468,-221 F,0,11168,12168,1,0
Sprite,Background,Centre,"sb\bubble.png",0,0 S,0,5168,,0.1451079 M,1,5168,6168,275,230,167,-210 F,0,5168,6168,1,0 S,0,6668,,0.1261453 M,1,6668,7668,431,283,429,-87 F,0,6668,7668,1,0 S,0,11168,,0.191184 M,1,11168,12168,458,192,634,-163 F,0,11168,12168,1,0
Sprite,Background,Centre,"sb\bubble.png",0,0 S,0,11668,,0.1616917 M,1,11668,12668,458,192,476,57 F,0,11668,12668,1,0
Sprite,Background,Centre,"sb\bubble.png",0,0 S,0,11668,,0.1769936 M,2,11668,12668,458,192,462,-49 F,0,11668,12668,1,0
Sprite,Background,Centre,"sb\bubble.png",0,0 S,0,11668,,0.1464302 M,2,11668,12668,458,192,453,82 F,0,11668,12668,1,0
Sprite,Background,Centre,"sb\bubble.png",0,0 S,0,11668,,0.1898948 M,2,11668,12668,458,192,304,-273 F,0,11668,12668,1,0
Sprite,Background,Centre,"sb\bubble.png",0,0 S,0,11668,,0.1363329 M,2,11668,12668,458,192,424,83 F,0,11668,12668,1,0
Sprite,Background,Centre,"sb\bubble.png",0,0 S,0,11668,,0.1142121 M,1,11668,12668,458,192,330,-289 F,0,11668,12668,1,0
Sprite,Background,Centre,"sb\bubble.png",0,0 S,0,11668,,0.1435721 M,2,11668,12668,458,192,344,61 F,0,11668,12668,1,0
Sprite,Background,Centre,"sb\bubble.png",0,0 S,0,11668,,0.1225793 M,1,11668,12668,458,192,365,-217 F,0,11668,12668,1,0
Sprite,Background,Centre,"sb\bubble.png",0,0 S,0,11668,,0.1841409 M,1,11668,12668,458,192,443,-110 F,0,11668,12668,1,0
Sprite,Background,Centre,"sb\bubble.png",0,0 S,0,11668,,0.1618144 M,2,11668,12668,458,192,307,-231 F,0,11668,12668,1,0
Sprite,Background,Centre,"sb\bubble.png",0,0 S,0,11668,,0.1182479 M,1,11668,12668,458,192,327,5 F,0,11668,12668,1,0
Sprite,Background,Centre,"sb\bubble.png",0,0 S,0,11668,,0.1474975 M,2,11668,12668,458,192,351,-21 F,0,11668,12668,1,0
Sprite,Background,Centre,"sb\bubble.png",0,0 S,0,11668,,0.1812178 M,2,11668,12668,458,192,378,-67 F,0,11668,12668,1,0
Sprite,Background,Centre,"sb\bubble.png",0,0 S,0,11668,,0.1496569 M,1,11668,12668,458,192,361,12 F,0,11668,12668,1,0
Sprite,Background,Centre,"sb\bubble.png",0,0 S,0,11668,,0.1586448 M,1,11668,12668,458,192,465,-210 F,0,11668,12668,1,0
Sprite,Background,Centre,"sb\bubble.png",0,0 S,0,228168,,0.1258933 M,2,228168,229168,219,316,53,-143 F,0,228168,229168,1,0 S,0,229668,,0.1007589 M,1,229668,230668,262,110,153,-304 F,0,229668,230668,1,0 S,0,231168,,0.1704244 M,1,231168,232168,417,293,256,-60 F,0,231168,232168,1,0 S,0,232668,,0.1136624 M,1,232668,233668,405,319,287,-48 F,0,232668,233668,1,0 S,0,234168,,0.1492837 M,2,234168,235168,319,92,194,-126 F,0,234168,235168,1,0
Sprite,Background,Centre,"sb\bubble.png",0,0 S,0,228168,,0.1621497 M,1,228168,229168,219,316,291,-8 F,0,228168,229168,1,0 S,0,229668,,0.1072885 M,1,229668,230668,262,110,190,-173 F,0,229668,230668,1,0 S,0,231168,,0.1286134 M,1,231168,232168,417,293,457,-170 F,0,231168,232168,1,0 S,0,232668,,0.1483173 M,2,232668,233668,405,319,346,149 F,0,232668,233668,1,0 S,0,234168,,0.1427275 M,1,234168,235168,319,92,412,-354 F,0,234168,235168,1,0
Sprite,Background,Centre,"sb\bubble.png",0,0 S,0,228168,,0.1223602 M,2,228168,229168,219,316,389,138 F,0,228168,229168,1,0 S,0,229668,,0.1524858 M,1,229668,230668,262,110,198,-201 F,0,229668,230668,1,0 S,0,231168,,0.165331 M,2,231168,232168,417,293,600,51 F,0,231168,232168,1,0 S,0,232668,,0.1569434 M,1,232668,233668,405,319,383,20 F,0,232668,233668,1,0 S,0,234168,,0.1937931 M,2,234168,235168,319,92,202,-408 F,0,234168,235168,1,0
Sprite,Background,Centre,"sb\bubble.png",0,0 S,0,228168,,0.1397571 M,1,228168,229168,219,316,115,-87 F,0,228168,229168,1,0 S,0,229668,,0.1249557 M,1,229668,230668,262,110,95,-180 F,0,229668,230668,1,0 S,0,231168,,0.1059923 M,1,231168,232168,417,293,298,-186 F,0,231168,232168,1,0 S,0,232668,,0.1142658 M,1,232668,233668,405,319,563,206 F,0,232668,233668,1,0 S,0,234168,,0.1299096 M,2,234168,235168,319,92,412,-10 F,0,234168,235168,1,0
Sprite,Background,Centre,"sb\bubble.png",0,0 S,0,228168,,0.1497483 M,2,228168,229168,219,316,359,-99 F,0,228168,229168,1,0 S,0,229668,,0.185505 M,1,229668,230668,262,110,417,-372 F,0,229668,230668,1,0 S,0,231168,,0.1102588 M,2,231168,232168,417,293,514,115 F,0,231168,232168,1,0 S,0,232668,,0.1533588 M,1,232668,233668,405,319,523,-162 F,0,232668,233668,1,0 S,0,234168,,0.1263679 M,2,234168,235168,319,92,265,-198 F,0,234168,235168,1,0
Sprite,Background,Centre,"sb\bubble.png",0,0 S,0,228168,,0.1664536 M,1,228168,229168,219,316,82,-150 F,0,228168,229168,1,0 S,0,229668,,0.1145939 M,2,229668,230668,262,110,86,-249 F,0,229668,230668,1,0 S,0,231168,,0.1781306 M,2,231168,232168,417,293,469,-36 F,0,231168,232168,1,0 S,0,232668,,0.1854759 M,1,232668,233668,405,319,254,-138 F,0,232668,233668,1,0 S,0,234168,,0.1947922 M,2,234168,235168,319,92,196,-127 F,0,234168,235168,1,0
Sprite,Background,Centre,"sb\bubble.png",0,0 S,0,228168,,0.1660709 M,2,228168,229168,219,316,227,8 F,0,228168,229168,1,0 S,0,229668,,0.1111514 M,1,229668,230668,262,110,426,-251 F,0,229668,230668,1,0 S,0,231168,,0.1695133 M,2,231168,232168,417,293,547,167 F,0,231168,232168,1,0 S,0,232668,,0.1858786 M,2,232668,233668,405,319,405,-34 F,0,232668,233668,1,0 S,0,234168,,0.1901603 M,1,234168,235168,319,92,285,-67 F,0,234168,235168,1,0
Sprite,Background,Centre,"sb\bubble.png",0,0 S,0,228168,,0.1877137 M,1,228168,229168,219,316,110,82 F,0,228168,229168,1,0 S,0,229668,,0.1073391 M,2,229668,230668,262,110,268,-182 F,0,229668,230668,1,0 S,0,231168,,0.140074 M,2,231168,232168,417,293,591,-162 F,0,231168,232168,1,0 S,0,232668,,0.1170089 M,1,232668,233668,405,319,353,96 F,0,232668,233668,1,0 S,0,234168,,0.172525 M,2,234168,235168,319,92,199,-210 F,0,234168,235168,1,0
Sprite,Background,Centre,"sb\bubble.png",0,0 S,0,228168,,0.1069991 M,2,228168,229168,219,316,335,-123 F,0,228168,229168,1,0 S,0,229668,,0.1798532 M,2,229668,230668,262,110,65,-302 F,0,229668,230668,1,0 S,0,231168,,0.1172145 M,1,231168,232168,417,293,427,-36 F,0,231168,232168,1,0 S,0,232668,,0.198189 M,2,232668,233668,405,319,227,-20 F,0,232668,233668,1,0 S,0,234168,,0.1347599 M,1,234168,235168,319,92,277,-51 F,0,234168,235168,1,0
Sprite,Background,Centre,"sb\bubble.png",0,0 S,0,228168,,0.1792655 M,2,228168,229168,219,316,131,190 F,0,228168,229168,1,0 S,0,229668,,0.1604057 M,1,229668,230668,262,110,373,-223 F,0,229668,230668,1,0 S,0,231168,,0.1321804 M,2,231168,232168,417,293,532,-41 F,0,231168,232168,1,0 S,0,232668,,0.1245911 M,1,232668,233668,405,319,539,52 F,0,232668,233668,1,0 S,0,234168,,0.1030512 M,1,234168,235168,319,92,252,-175 F,0,234168,235168,1,0
Sprite,Background,Centre,"sb\bubble.png",0,0 S,0,228168,,0.1496177 M,2,228168,229168,219,316,305,-127 F,0,228168,229168,1,0 S,0,229668,,0.1241236 M,2,229668,230668,262,110,69,-137 F,0,229668,230668,1,0 S,0,231168,,0.1176065 M,1,231168,232168,417,293,377,16 F,0,231168,232168,1,0 S,0,232668,,0.1667089 M,1,232668,233668,405,319,389,29 F,0,232668,233668,1,0 S,0,234168,,0.1872541 M,2,234168,235168,319,92,507,-54 F,0,234168,235168,1,0
Sprite,Background,Centre,"sb\bubble.png",0,0 S,0,228168,,0.1016198 M,2,228168,229168,219,316,349,9 F,0,228168,229168,1,0 S,0,229668,,0.1897083 M,2,229668,230668,262,110,286,-249 F,0,229668,230668,1,0 S,0,231168,,0.13519 M,1,231168,232168,417,293,386,-198 F,0,231168,232168,1,0 S,0,232668,,0.1521516 M,1,232668,233668,405,319,267,-81 F,0,232668,233668,1,0 S,0,234168,,0.1939562 M,1,234168,235168,319,92,305,-266 F,0,234168,235168,1,0
Sprite,Background,Centre,"sb\bubble.png",0,0 S,0,228168,,0.1304048 M,2,228168,229168,219,316,263,163 F,0,228168,229168,1,0 S,0,229668,,0.1730434 M,1,229668,230668,262,110,326,-76 F,0,229668,230668,1,0 S,0,231168,,0.1632856 M,1,231168,232168,417,293,474,97 F,0,231168,232168,1,0 S,0,232668,,0.100839 M,2,232668,233668,405,319,340,68 F,0,232668,233668,1,0 S,0,234168,,0.1119334 M,2,234168,235168,319,92,510,-335 F,0,234168,235168,1,0
Sprite,Background,Centre,"sb\bubble.png",0,0 S,0,228168,,0.1000311 M,1,228168,229168,219,316,154,177 F,0,228168,229168,1,0 S,0,229668,,0.1876007 M,1,229668,230668,262,110,416,-287 F,0,229668,230668,1,0 S,0,231168,,0.1670053 M,1,231168,232168,417,293,500,150 F,0,231168,232168,1,0 S,0,232668,,0.1097302 M,2,232668,233668,405,319,384,128 F,0,232668,233668,1,0 S,0,234168,,0.1486051 M,2,234168,235168,319,92,515,-264 F,0,234168,235168,1,0
Sprite,Background,Centre,"sb\bubble.png",0,0 S,0,228168,,0.1199902 M,2,228168,229168,219,316,406,151 F,0,228168,229168,1,0 S,0,229668,,0.1971972 M,1,229668,230668,262,110,234,-288 F,0,229668,230668,1,0 S,0,231168,,0.1665494 M,2,231168,232168,417,293,381,-92 F,0,231168,232168,1,0 S,0,232668,,0.1985441 M,2,232668,233668,405,319,223,-14 F,0,232668,233668,1,0 S,0,234168,,0.1879474 M,1,234168,235168,319,92,127,-105 F,0,234168,235168,1,0
Sprite,Background,Centre,"sb\bubble.png",0,0 S,0,228668,,0.1259093 M,1,228668,229668,258,133,248,-231 F,0,228668,229668,1,0 S,0,230168,,0.1819589 M,2,230168,231168,421,316,321,-151 F,0,230168,231168,1,0 S,0,231668,,0.1844462 M,1,231668,232668,378,110,277,-189 F,0,231668,232668,1,0 S,0,233168,,0.1752683 M,1,233168,234168,214,328,125,-158 F,0,233168,234168,1,0 S,0,234668,,0.1712158 M,1,234668,235668,320,191,129,-197 F,0,234668,235668,1,0
Sprite,Background,Centre,"sb\bubble.png",0,0 S,0,228668,,0.1087311 M,1,228668,229668,258,133,250,-8 F,0,228668,229668,1,0 S,0,230168,,0.1861686 M,2,230168,231168,421,316,518,-93 F,0,230168,231168,1,0 S,0,231668,,0.177475 M,1,231668,232668,378,110,184,-173 F,0,231668,232668,1,0 S,0,233168,,0.149132 M,2,233168,234168,214,328,77,-100 F,0,233168,234168,1,0 S,0,234668,,0.184007 M,2,234668,235668,320,191,175,-264 F,0,234668,235668,1,0
Sprite,Background,Centre,"sb\bubble.png",0,0 S,0,228668,,0.1915051 M,1,228668,229668,258,133,343,-320 F,0,228668,229668,1,0 S,0,230168,,0.1469697 M,1,230168,231168,421,316,491,8 F,0,230168,231168,1,0 S,0,231668,,0.132798 M,1,231668,232668,378,110,494,-5 F,0,231668,232668,1,0 S,0,233168,,0.1214509 M,1,233168,234168,214,328,196,-63 F,0,233168,234168,1,0 S,0,234668,,0.1782231 M,2,234668,235668,320,191,422,-136 F,0,234668,235668,1,0
Sprite,Background,Centre,"sb\bubble.png",0,0 S,0,228668,,0.1015034 M,2,228668,229668,258,133,343,-322 F,0,228668,229668,1,0 S,0,230168,,0.1425997 M,2,230168,231168,421,316,480,39 F,0,230168,231168,1,0 S,0,231668,,0.1071884 M,2,231668,232668,378,110,533,-178 F,0,231668,232668,1,0 S,0,233168,,0.1597854 M,1,233168,234168,214,328,18,-105 F,0,233168,234168,1,0 S,0,234668,,0.1307609 M,1,234668,235668,320,191,201,54 F,0,234668,235668,1,0
Sprite,Background,Centre,"sb\bubble.png",0,0 S,0,228668,,0.1037063 M,2,228668,229668,258,133,273,-112 F,0,228668,229668,1,0 S,0,230168,,0.1555714 M,2,230168,231168,421,316,462,32 F,0,230168,231168,1,0 S,0,231668,,0.1801772 M,1,231668,232668,378,110,564,-78 F,0,231668,232668,1,0 S,0,233168,,0.125004 M,2,233168,234168,214,328,54,75 F,0,233168,234168,1,0 S,0,234668,,0.1058605 M,1,234668,235668,320,191,486,16 F,0,234668,235668,1,0
Sprite,Background,Centre,"sb\bubble.png",0,0 S,0,228668,,0.1360395 M,1,228668,229668,258,133,421,12 F,0,228668,229668,1,0 S,0,230168,,0.1731331 M,1,230168,231168,421,316,499,-25 F,0,230168,231168,1,0 S,0,231668,,0.1175259 M,1,231668,232668,378,110,487,-193 F,0,231668,232668,1,0 S,0,233168,,0.1746849 M,2,233168,234168,214,328,88,-163 F,0,233168,234168,1,0 S,0,234668,,0.1016002 M,2,234668,235668,320,191,332,-241 F,0,234668,235668,1,0
Sprite,Background,Centre,"sb\bubble.png",0,0 S,0,228668,,0.1888587 M,2,228668,229668,258,133,67,-360 F,0,228668,229668,1,0 S,0,230168,,0.1749337 M,1,230168,231168,421,316,366,-184 F,0,230168,231168,1,0 S,0,231668,,0.1632259 M,2,231668,232668,378,110,449,8 F,0,231668,232668,1,0 S,0,233168,,0.1283954 M,2,233168,234168,214,328,77,-38 F,0,233168,234168,1,0 S,0,234668,,0.1033414 M,2,234668,235668,320,191,457,-12 F,0,234668,235668,1,0
Sprite,Background,Centre,"sb\bubble.png",0,0 S,0,228668,,0.1443868 M,1,228668,229668,258,133,348,-155 F,0,228668,229668,1,0 S,0,230168,,0.1522252 M,1,230168,231168,421,316,233,206 F,0,230168,231168,1,0 S,0,231668,,0.149884 M,2,231668,232668,378,110,346,-153 F,0,231668,232668,1,0 S,0,233168,,0.1418203 M,2,233168,234168,214,328,196,-7 F,0,233168,234168,1,0 S,0,234668,,0.1575468 M,1,234668,235668,320,191,223,-7 F,0,234668,235668,1,0
Sprite,Background,Centre,"sb\bubble.png",0,0 S,0,228668,,0.1376209 M,1,228668,229668,258,133,137,-247 F,0,228668,229668,1,0 S,0,230168,,0.193487 M,1,230168,231168,421,316,349,-14 F,0,230168,231168,1,0 S,0,231668,,0.1898835 M,1,231668,232668,378,110,392,-289 F,0,231668,232668,1,0 S,0,233168,,0.1426057 M,2,233168,234168,214,328,392,-152 F,0,233168,234168,1,0 S,0,234668,,0.1689438 M,1,234668,235668,320,191,322,-133 F,0,234668,235668,1,0
Sprite,Background,Centre,"sb\bubble.png",0,0 S,0,228668,,0.19282 M,1,228668,229668,258,133,358,-252 F,0,228668,229668,1,0 S,0,230168,,0.1333184 M,1,230168,231168,421,316,252,188 F,0,230168,231168,1,0 S,0,231668,,0.1880204 M,1,231668,232668,378,110,261,-143 F,0,231668,232668,1,0 S,0,233168,,0.1975071 M,2,233168,234168,214,328,179,-70 F,0,233168,234168,1,0 S,0,234668,,0.135206 M,2,234668,235668,320,191,384,-280 F,0,234668,235668,1,0
Sprite,Background,Centre,"sb\bubble.png",0,0 S,0,228668,,0.1492125 M,1,228668,229668,258,133,79,-174 F,0,228668,229668,1,0 S,0,230168,,0.1180619 M,1,230168,231168,421,316,556,132 F,0,230168,231168,1,0 S,0,231668,,0.1679287 M,2,231668,232668,378,110,536,-235 F,0,231668,232668,1,0 S,0,233168,,0.1063072 M,1,233168,234168,214,328,309,104 F,0,233168,234168,1,0 S,0,234668,,0.1546471 M,1,234668,235668,320,191,446,-117 F,0,234668,235668,1,0
Sprite,Background,Centre,"sb\bubble.png",0,0 S,0,228668,,0.1224119 M,2,228668,229668,258,133,359,-76 F,0,228668,229668,1,0 S,0,230168,,0.1325374 M,1,230168,231168,421,316,346,91 F,0,230168,231168,1,0 S,0,231668,,0.1176512 M,2,231668,232668,378,110,374,-348 F,0,231668,232668,1,0 S,0,233168,,0.1279615 M,2,233168,234168,214,328,141,-43 F,0,233168,234168,1,0 S,0,234668,,0.1084543 M,2,234668,235668,320,191,207,39 F,0,234668,235668,1,0
Sprite,Background,Centre,"sb\bubble.png",0,0 S,0,228668,,0.1331701 M,1,228668,229668,258,133,107,-202 F,0,228668,229668,1,0 S,0,230168,,0.1889492 M,1,230168,231168,421,316,389,121 F,0,230168,231168,1,0 S,0,231668,,0.1630165 M,2,231668,232668,378,110,255,-17 F,0,231668,232668,1,0 S,0,233168,,0.1426534 M,2,233168,234168,214,328,294,-32 F,0,233168,234168,1,0 S,0,234668,,0.1206931 M,2,234668,235668,320,191,147,-178 F,0,234668,235668,1,0
Sprite,Background,Centre,"sb\bubble.png",0,0 S,0,228668,,0.1526143 M,1,228668,229668,258,133,58,-87 F,0,228668,229668,1,0 S,0,230168,,0.1852404 M,1,230168,231168,421,316,489,32 F,0,230168,231168,1,0 S,0,231668,,0.175343 M,2,231668,232668,378,110,551,-360 F,0,231668,232668,1,0 S,0,233168,,0.1255074 M,2,233168,234168,214,328,301,-18 F,0,233168,234168,1,0 S,0,234668,,0.1851931 M,1,234668,235668,320,191,230,-302 F,0,234668,235668,1,0
Sprite,Background,Centre,"sb\bubble.png",0,0 S,0,228668,,0.146296 M,1,228668,229668,258,133,174,-355 F,0,228668,229668,1,0 S,0,230168,,0.1740949 M,1,230168,231168,421,316,474,146 F,0,230168,231168,1,0 S,0,231668,,0.1019978 M,1,231668,232668,378,110,358,-321 F,0,231668,232668,1,0 S,0,233168,,0.1822695 M,2,233168,234168,214,328,219,-27 F,0,233168,234168,1,0 S,0,234668,,0.1392759 M,2,234668,235668,320,191,263,-225 F,0,234668,235668,1,0
Sprite,Background,Centre,"sb\bubble.png",0,0 S,0,229168,,0.1182085 M,1,229168,230168,223,293,167,10 F,0,229168,230168,1,0 S,0,230668,,0.1699289 M,2,230668,231668,382,133,198,-60 F,0,230668,231668,1,0 S,0,232168,,0.1196909 M,1,232168,233168,235,319,375,16 F,0,232168,233168,1,0 S,0,233668,,0.1042873 M,1,233668,234668,181,185,164,-224 F,0,233668,234668,1,0
Sprite,Background,Centre,"sb\bubble.png",0,0 S,0,229168,,0.1412121 M,2,229168,230168,223,293,30,61 F,0,229168,230168,1,0 S,0,230668,,0.1222029 M,1,230668,231668,382,133,227,12 F,0,230668,231668,1,0 S,0,232168,,0.1634621 M,2,232168,233168,235,319,116,127 F,0,232168,233168,1,0 S,0,233668,,0.19585 M,1,233668,234668,181,185,116,40 F,0,233668,234668,1,0
Sprite,Background,Centre,"sb\bubble.png",0,0 S,0,229168,,0.1248622 M,1,229168,230168,223,293,342,-46 F,0,229168,230168,1,0 S,0,230668,,0.1672843 M,1,230668,231668,382,133,264,-7 F,0,230668,231668,1,0 S,0,232168,,0.1347484 M,2,232168,233168,235,319,217,139 F,0,232168,233168,1,0 S,0,233668,,0.184397 M,1,233668,234668,181,185,62,-57 F,0,233668,234668,1,0
Sprite,Background,Centre,"sb\bubble.png",0,0 S,0,229168,,0.1425189 M,2,229168,230168,223,293,272,156 F,0,229168,230168,1,0 S,0,230668,,0.1906092 M,2,230668,231668,382,133,199,-267 F,0,230668,231668,1,0 S,0,232168,,0.1385688 M,2,232168,233168,235,319,283,9 F,0,232168,233168,1,0 S,0,233668,,0.1494765 M,2,233668,234668,181,185,25,-26 F,0,233668,234668,1,0
Sprite,Background,Centre,"sb\bubble.png",0,0 S,0,229168,,0.1293981 M,2,229168,230168,223,293,281,15 F,0,229168,230168,1,0 S,0,230668,,0.1676065 M,1,230668,231668,382,133,252,-260 F,0,230668,231668,1,0 S,0,232168,,0.1571635 M,2,232168,233168,235,319,408,-32 F,0,232168,233168,1,0 S,0,233668,,0.1835187 M,1,233668,234668,181,185,364,-132 F,0,233668,234668,1,0
Sprite,Background,Centre,"sb\bubble.png",0,0 S,0,229168,,0.1312745 M,2,229168,230168,223,293,194,-82 F,0,229168,230168,1,0 S,0,230668,,0.1268878 M,1,230668,231668,382,133,549,-22 F,0,230668,231668,1,0 S,0,232168,,0.1487851 M,1,232168,233168,235,319,136,25 F,0,232168,233168,1,0 S,0,233668,,0.1104822 M,2,233668,234668,181,185,116,-139 F,0,233668,234668,1,0
Sprite,Background,Centre,"sb\bubble.png",0,0 S,0,229168,,0.1499615 M,1,229168,230168,223,293,50,100 F,0,229168,230168,1,0 S,0,230668,,0.1780332 M,2,230668,231668,382,133,463,-177 F,0,230668,231668,1,0 S,0,232168,,0.1458632 M,2,232168,233168,235,319,391,-129 F,0,232168,233168,1,0 S,0,233668,,0.1560661 M,2,233668,234668,181,185,147,-112 F,0,233668,234668,1,0
Sprite,Background,Centre,"sb\bubble.png",0,0 S,0,229168,,0.171907 M,1,229168,230168,223,293,27,109 F,0,229168,230168,1,0 S,0,230668,,0.1253268 M,1,230668,231668,382,133,242,-167 F,0,230668,231668,1,0 S,0,232168,,0.1035553 M,1,232168,233168,235,319,179,-53 F,0,232168,233168,1,0 S,0,233668,,0.1048513 M,2,233668,234668,181,185,81,-31 F,0,233668,234668,1,0
Sprite,Background,Centre,"sb\bubble.png",0,0 S,0,229168,,0.1509572 M,2,229168,230168,223,293,44,13 F,0,229168,230168,1,0 S,0,230668,,0.1070335 M,1,230668,231668,382,133,371,-64 F,0,230668,231668,1,0 S,0,232168,,0.1401095 M,1,232168,233168,235,319,216,-126 F,0,232168,233168,1,0 S,0,233668,,0.1510016 M,2,233668,234668,181,185,245,-42 F,0,233668,234668,1,0
Sprite,Background,Centre,"sb\bubble.png",0,0 S,0,229168,,0.1080516 M,1,229168,230168,223,293,72,-159 F,0,229168,230168,1,0 S,0,230668,,0.1363296 M,1,230668,231668,382,133,566,-158 F,0,230668,231668,1,0 S,0,232168,,0.171763 M,1,232168,233168,235,319,48,-36 F,0,232168,233168,1,0 S,0,233668,,0.1430994 M,2,233668,234668,181,185,243,-307 F,0,233668,234668,1,0
Sprite,Background,Centre,"sb\bubble.png",0,0 S,0,229168,,0.1718694 M,1,229168,230168,223,293,28,-136 F,0,229168,230168,1,0 S,0,230668,,0.1520109 M,1,230668,231668,382,133,397,-24 F,0,230668,231668,1,0 S,0,232168,,0.1391475 M,2,232168,233168,235,319,161,-137 F,0,232168,233168,1,0 S,0,233668,,0.1055886 M,1,233668,234668,181,185,2,-300 F,0,233668,234668,1,0
Sprite,Background,Centre,"sb\bubble.png",0,0 S,0,229168,,0.1091054 M,2,229168,230168,223,293,82,-122 F,0,229168,230168,1,0 S,0,230668,,0.1421344 M,2,230668,231668,382,133,348,-127 F,0,230668,231668,1,0 S,0,232168,,0.1456471 M,1,232168,233168,235,319,63,-39 F,0,232168,233168,1,0 S,0,233668,,0.1995638 M,1,233668,234668,181,185,47,-254 F,0,233668,234668,1,0
Sprite,Background,Centre,"sb\bubble.png",0,0 S,0,229168,,0.1735725 M,2,229168,230168,223,293,309,138 F,0,229168,230168,1,0 S,0,230668,,0.136527 M,2,230668,231668,382,133,511,-220 F,0,230668,231668,1,0 S,0,232168,,0.107874 M,2,232168,233168,235,319,103,21 F,0,232168,233168,1,0 S,0,233668,,0.1056593 M,1,233668,234668,181,185,330,-194 F,0,233668,234668,1,0
Sprite,Background,Centre,"sb\bubble.png",0,0 S,0,229168,,0.1045985 M,1,229168,230168,223,293,192,169 F,0,229168,230168,1,0 S,0,230668,,0.1178316 M,2,230668,231668,382,133,344,-56 F,0,230668,231668,1,0 S,0,232168,,0.1334353 M,2,232168,233168,235,319,230,56 F,0,232168,233168,1,0 S,0,233668,,0.1018649 M,1,233668,234668,181,185,355,-12 F,0,233668,234668,1,0
Sprite,Background,Centre,"sb\bubble.png",0,0 S,0,229168,,0.1250589 M,1,229168,230168,223,293,333,-188 F,0,229168,230168,1,0 S,0,230668,,0.1637601 M,2,230668,231668,382,133,358,-143 F,0,230668,231668,1,0 S,0,232168,,0.107175 M,1,232168,233168,235,319,57,164 F,0,232168,233168,1,0 S,0,233668,,0.1830052 M,2,233668,234668,181,185,239,57 F,0,233668,234668,1,0
//Storyboard Layer 1 (Fail)
//Storyboard Layer 2 (Pass)
//Storyboard Layer 3 (Foreground)
//Storyboard Sound Samples

[TimingPoints]
2168,250,4,2,6,40,1,0
2168,-250,4,2,6,40,0,0
2605,-100,4,2,5,40,0,0
2730,-100,4,2,6,40,0,0
3105,-100,4,2,6,20,0,0
3168,-100,4,3,1,20,0,0
3355,-100,4,3,1,20,0,0
3418,-100,4,3,1,30,0,0
3605,-100,4,3,1,20,0,0
3668,-100,4,3,1,40,0,0
3855,-100,4,3,1,20,0,0
3918,-100,4,3,1,50,0,0
4105,-100,4,2,1,20,0,0
4168,-111.111111111111,4,2,1,50,0,0
7105,-111.111111111111,4,2,1,50,0,0
7168,-111.111111111111,4,2,1,50,0,0
7230,-111.111111111111,4,2,1,50,0,0
7293,-111.111111111111,4,2,1,50,0,0
7355,-111.111111111111,4,2,1,50,0,0
7418,-111.111111111111,4,2,1,50,0,0
9230,-111.111111111111,4,2,1,50,0,0
9293,-111.111111111111,4,2,1,50,0,0
9355,-111.111111111111,4,2,1,50,0,0
9418,-111.111111111111,4,2,1,50,0,0
11168,-100,4,2,1,50,0,0
11230,-100,4,2,1,20,0,0
11293,-100,4,2,1,50,0,0
11480,-100,4,2,1,20,0,0
11543,-100,4,2,1,50,0,0
11730,-100,4,2,1,20,0,0
11793,-100,4,2,1,50,0,0
11918,-133.333333333333,4,2,1,35,0,0
12168,-100,4,2,1,50,0,0
12355,-100,4,2,1,20,0,0
12418,-100,4,2,1,50,0,0
12605,-100,4,2,1,50,0,0
12668,-100,4,2,1,50,0,0
16355,-100,4,2,1,50,0,0
16418,-100,4,2,1,50,0,0
20355,-100,4,2,1,50,0,0
20418,-100,4,2,1,50,0,0
23230,-100,4,2,1,20,0,0
23293,-100,4,2,1,50,0,0
23355,-100,4,2,1,20,0,0
23418,-100,4,2,1,50,0,0
24355,-100,4,2,1,50,0,0
24418,-100,4,2,1,50,0,0
25230,-100,4,2,1,20,0,0
25293,-100,4,2,1,50,0,0
25355,-100,4,2,1,20,0,0
25418,-100,4,2,1,50,0,0
25668,-100,4,2,1,50,0,0
28168,-111.111111111111,4,2,1,50,0,0
34355,-111.111111111111,4,2,1,20,0,0
34418,-111.111111111111,4,2,1,50,0,0
34855,-111.111111111111,4,2,1,20,0,0
34918,-111.111111111111,4,2,1,50,0,0
35355,-111.111111111111,4,2,1,20,0,0
35418,-111.111111111111,4,2,1,50,0,0
35855,-111.111111111111,4,2,1,20,0,0
35918,-111.111111111111,4,2,1,50,0,0
35980,-111.111111111111,4,2,1,20,0,0
36043,-111.111111111111,4,2,1,50,0,0
36105,-111.111111111111,4,2,1,20,0,0
36168,-111.111111111111,4,2,1,50,0,0
36605,-111.111111111111,4,2,1,20,0,0
36668,-111.111111111111,4,2,1,50,0,0
36855,-111.111111111111,4,2,1,20,0,0
36918,-111.111111111111,4,2,1,50,0,0
37105,-111.111111111111,4,2,1,20,0,0
37168,-111.111111111111,4,2,1,50,0,0
37605,-111.111111111111,4,2,1,20,0,0
37668,-111.111111111111,4,2,1,50,0,0
37855,-111.111111111111,4,2,1,20,0,0
37918,-111.111111111111,4,2,1,50,0,0
38105,-111.111111111111,4,2,1,20,0,0
38168,-111.111111111111,4,2,1,50,0,0
38605,-111.111111111111,4,2,1,20,0,0
38668,-111.111111111111,4,2,1,50,0,0
38855,-111.111111111111,4,2,1,20,0,0
38918,-111.111111111111,4,2,1,50,0,0
39105,-111.111111111111,4,2,1,20,0,0
39168,-111.111111111111,4,2,1,50,0,0
40105,-111.111111111111,4,2,1,50,0,0
40168,-111.111111111111,4,2,1,50,0,0
44168,-111.111111111111,4,2,1,40,0,0
50355,-111.111111111111,4,2,1,20,0,0
50418,-111.111111111111,4,2,1,40,0,0
51855,-111.111111111111,4,2,1,20,0,0
51918,-111.111111111111,4,2,1,40,0,0
51980,-111.111111111111,4,2,1,20,0,0
52043,-111.111111111111,4,2,1,40,0,0
52105,-111.111111111111,4,2,1,20,0,0
52168,-111.111111111111,4,2,1,40,0,0
59793,-142.857142857143,4,2,1,50,0,0
60168,-111.111111111111,4,2,1,50,0,0
60355,-111.111111111111,4,2,1,20,0,0
60418,-100,4,2,1,60,0,0
60605,-100,4,2,1,20,0,0
60668,-90.9090909090909,4,2,1,70,0,0
60855,-90.9090909090909,4,2,1,20,0,0
60918,-83.3333333333333,4,2,1,70,0,0
61105,-90.9090909090909,4,2,1,20,0,0
61168,-100,4,2,1,100,0,0
61230,-100,4,2,1,100,0,0
61668,-200,4,2,1,35,0,0
61918,-142.857142857143,4,2,1,35,0,0
62105,-142.857142857143,4,2,1,20,0,0
62168,-100,4,2,1,70,0,1
62418,-100,4,2,1,70,0,1
63355,-100,4,2,1,70,0,1
63418,-100,4,2,1,70,0,1
65605,-100,4,2,1,20,0,1
65668,-100,4,2,1,70,0,1
65793,-100,4,2,1,70,0,1
65855,-100,4,2,1,20,0,1
65918,-100,4,2,1,70,0,1
65980,-100,4,2,1,20,0,1
66043,-100,4,2,1,70,0,1
66105,-100,4,2,1,20,0,1
66168,-100,4,2,1,70,0,1
66355,-100,4,2,1,70,0,1
66418,-100,4,2,1,70,0,1
70168,-100,4,2,1,70,0,1
70355,-100,4,2,1,70,0,1
70418,-100,4,2,1,70,0,1
70855,-100,4,2,1,20,0,1
70918,-100,4,2,1,70,0,1
71355,-100,4,2,1,70,0,1
71418,-100,4,2,1,70,0,1
73605,-100,4,2,1,20,0,1
73668,-100,4,2,1,70,0,1
73793,-100,4,2,1,70,0,1
73855,-100,4,2,1,20,0,1
73918,-100,4,2,1,70,0,1
73980,-100,4,2,1,20,0,1
74043,-100,4,2,1,70,0,1
74105,-100,4,2,1,20,0,1
74168,-100,4,2,1,70,0,1
76355,-100,4,2,1,70,0,1
76418,-100,4,2,1,70,0,1
77793,-100,4,2,1,70,0,0
77918,-133.333333333333,4,2,1,35,0,0
78168,-100,4,2,1,70,0,0
78355,-100,4,2,1,20,0,0
78418,-100,4,2,1,70,0,0
78605,-100,4,2,1,70,0,0
78668,-100,4,2,1,70,0,0
82355,-100,4,2,1,70,0,0
82418,-100,4,2,1,70,0,0
86355,-100,4,2,1,70,0,0
86418,-100,4,2,1,70,0,0
89230,-100,4,2,1,20,0,0
89293,-100,4,2,1,70,0,0
89355,-100,4,2,1,20,0,0
89418,-100,4,2,1,70,0,0
89480,-100,4,2,1,70,0,0
89543,-100,4,2,1,70,0,0
89605,-100,4,2,1,70,0,0
89668,-100,4,2,1,70,0,0
90355,-100,4,2,1,70,0,0
90418,-100,4,2,1,70,0,0
94168,-111.111111111111,4,2,1,80,0,0
94230,-111.111111111111,4,2,1,80,0,0
102168,-111.111111111111,4,2,1,45,0,0
108168,-100,4,2,1,60,0,0
108418,-100,4,2,1,60,0,0
109355,-100,4,2,1,60,0,0
109418,-100,4,2,1,60,0,0
110168,-111.111111111111,4,2,1,60,0,0
118355,-111.111111111111,4,2,1,60,0,0
118418,-111.111111111111,4,2,1,60,0,0
126168,-111.111111111111,4,2,1,60,0,0
126355,-111.111111111111,4,2,1,20,0,0
126418,-100,4,2,1,70,0,0
126605,-100,4,2,1,20,0,0
126668,-90.9090909090909,4,2,1,80,0,0
126855,-90.9090909090909,4,2,1,20,0,0
126918,-83.3333333333333,4,2,1,80,0,0
127105,-90.9090909090909,4,2,1,20,0,0
127168,-111.111111111111,4,2,1,55,0,0
128168,-100,4,2,1,70,0,1
128355,-100,4,2,1,70,0,1
128418,-100,4,2,1,70,0,1
129355,-100,4,2,1,70,0,1
129418,-100,4,2,1,70,0,1
131605,-100,4,2,1,20,0,1
131668,-100,4,2,1,70,0,1
131793,-100,4,2,1,70,0,1
131855,-100,4,2,1,20,0,1
131918,-100,4,2,1,70,0,1
131980,-100,4,2,1,20,0,1
132043,-100,4,2,1,70,0,1
132105,-100,4,2,1,20,0,1
132168,-100,4,2,1,70,0,1
132355,-100,4,2,1,70,0,1
132418,-100,4,2,1,70,0,1
136168,-100,4,2,1,70,0,1
136355,-100,4,2,1,70,0,1
136418,-100,4,2,1,70,0,1
139605,-100,4,2,1,20,0,1
139668,-100,4,2,1,70,0,1
139793,-100,4,2,1,70,0,1
139855,-100,4,2,1,20,0,1
139918,-100,4,2,1,70,0,1
139980,-100,4,2,1,20,0,1
140043,-100,4,2,1,70,0,1
140105,-100,4,2,1,20,0,1
140168,-100,4,2,1,70,0,1
144168,-133.333333333333,4,2,1,40,0,0
153855,-133.333333333333,4,2,1,40,0,0
153918,-133.333333333333,4,2,1,40,0,0
153980,-133.333333333333,4,2,1,40,0,0
154043,-133.333333333333,4,2,1,40,0,0
155355,-133.333333333333,4,2,1,20,0,0
155418,-133.333333333333,4,2,1,40,0,0
155855,-133.333333333333,4,2,1,20,0,0
155918,-133.333333333333,4,2,1,40,0,0
159918,-133.333333333333,4,2,1,35,0,0
160168,-100,4,2,1,70,0,0
163855,-100,4,2,1,20,0,0
163918,-100,4,2,1,70,0,0
163980,-100,4,2,1,20,0,0
164043,-100,4,2,1,70,0,0
164105,-100,4,2,1,20,0,0
164168,-100,4,2,1,70,0,0
164355,-100,4,2,1,70,0,0
164418,-100,4,2,1,70,0,0
172355,-100,4,2,1,70,0,0
172418,-100,4,2,1,70,0,0
172855,-100,4,2,1,70,0,0
172918,-100,4,2,1,70,0,0
174418,-100,4,2,1,60,0,0
176168,-100,4,2,1,60,0,0
183168,-100,4,2,1,60,0,0
184168,-111.111111111111,4,2,1,50,0,0
191168,-100,4,2,1,35,0,0
191418,-100,4,2,1,20,0,0
191668,-111.111111111111,4,2,1,20,0,0
192168,-100,4,2,1,70,0,1
192355,-100,4,2,1,70,0,1
192418,-100,4,2,1,70,0,1
193668,-83.3333333333333,4,2,1,70,0,1
194043,-142.857142857143,4,2,1,70,0,0
194168,-83.3333333333333,4,2,1,20,0,0
195168,-100,4,2,1,80,0,0
195918,-100,4,2,1,35,0,0
196105,-133.333333333333,4,2,1,20,0,0
196168,-90.9090909090909,4,2,1,80,0,1
196355,-90.9090909090909,4,2,1,80,0,1
196418,-90.9090909090909,4,2,1,80,0,1
200168,-90.9090909090909,4,2,1,80,0,1
200355,-90.9090909090909,4,2,1,80,0,1
200418,-90.9090909090909,4,2,1,80,0,1
203168,-83.3333333333333,4,2,1,90,0,1
203668,-83.3333333333333,4,2,1,70,0,1
203855,-90.9090909090909,4,2,1,20,0,1
203918,-83.3333333333333,4,2,1,70,0,1
203980,-90.9090909090909,4,2,1,20,0,1
204043,-83.3333333333333,4,2,1,70,0,1
204105,-90.9090909090909,4,2,1,20,0,1
204168,-90.9090909090909,4,2,1,70,0,1
204418,-90.9090909090909,4,2,1,70,0,1
205605,-90.9090909090909,4,2,1,70,0,1
205668,-90.9090909090909,4,2,1,70,0,1
207168,-90.9090909090909,4,2,1,70,0,1
208168,-133.333333333333,4,2,1,50,0,0
208355,-133.333333333333,4,2,1,20,0,0
208418,-133.333333333333,4,2,1,50,0,0
208855,-133.333333333333,4,2,1,20,0,0
208918,-133.333333333333,4,2,1,50,0,0
209355,-133.333333333333,4,2,1,20,0,0
209418,-133.333333333333,4,2,1,50,0,0
209855,-133.333333333333,4,2,1,20,0,0
209918,-133.333333333333,4,2,1,50,0,0
211168,-100,4,2,1,50,0,0
211230,-100,4,2,1,20,0,0
211293,-100,4,2,1,50,0,0
211480,-100,4,2,1,20,0,0
211543,-100,4,2,1,50,0,0
211730,-100,4,2,1,20,0,0
211793,-100,4,2,1,50,0,0
211918,-133.333333333333,4,2,1,35,0,0
212168,-100,4,2,1,70,0,0
212355,-100,4,2,1,20,0,0
212418,-100,4,2,1,70,0,0
212605,-83.3333333333333,4,2,1,70,0,0
212668,-100,4,2,1,70,0,0
220355,-83.3333333333333,4,2,1,70,0,0
220418,-100,4,2,1,70,0,0
223230,-100,4,2,1,20,0,0
223293,-100,4,2,1,70,0,0
223355,-100,4,2,1,20,0,0
223418,-100,4,2,1,70,0,0
224355,-83.3333333333333,4,2,1,70,0,0
224418,-100,4,2,1,70,0,0
225230,-100,4,2,1,20,0,0
225293,-100,4,2,1,70,0,0
225355,-100,4,2,1,20,0,0
225418,-100,4,2,1,70,0,0
225668,-100,4,2,1,70,0,0
225918,-100,4,2,1,70,0,0
228168,-111.111111111111,4,2,1,50,0,0
228355,-111.111111111111,4,2,1,15,0,0
228418,-111.111111111111,4,2,1,50,0,0
228855,-111.111111111111,4,2,1,15,0,0
228918,-111.111111111111,4,2,1,50,0,0
229355,-111.111111111111,4,2,1,15,0,0
229418,-111.111111111111,4,2,1,50,0,0
229855,-111.111111111111,4,2,1,15,0,0
229918,-111.111111111111,4,2,1,50,0,0
230355,-111.111111111111,4,2,1,15,0,0
230418,-111.111111111111,4,2,1,50,0,0
230855,-111.111111111111,4,2,1,15,0,0
230918,-111.111111111111,4,2,1,50,0,0
231355,-111.111111111111,4,2,1,15,0,0
231418,-111.111111111111,4,2,1,50,0,0
231855,-111.111111111111,4,2,1,15,0,0
231918,-111.111111111111,4,2,1,50,0,0
232355,-111.111111111111,4,2,1,15,0,0
232418,-111.111111111111,4,2,1,50,0,0
232855,-111.111111111111,4,2,1,15,0,0
232918,-111.111111111111,4,2,1,50,0,0
233355,-111.111111111111,4,2,1,15,0,0
233418,-111.111111111111,4,2,1,50,0,0
234168,-133.333333333333,4,2,1,40,0,0
234355,-133.333333333333,4,2,1,10,0,0
234418,-133.333333333333,4,2,1,40,0,0
234855,-133.333333333333,4,2,1,10,0,0
234918,-133.333333333333,4,2,1,40,0,0
235668,-151.515151515152,4,2,1,40,0,0
236043,-151.515151515152,4,2,1,20,0,0

[Colours]
Combo1 : 248,211,171
Combo2 : 171,252,203
Combo3 : 175,221,254
Combo4 : 249,254,186
Combo5 : 240,80,80

[HitObjects]
83,254,2168,6,0,B|69:103|69:103|88:146|127:156,1,232.4,4|0,0:0|0:0,0:0:0:0:
173,243,3168,6,0,L|183:325,1,83,4|0,0:0|0:0,0:0:0:0:
342,198,3418,2,0,L|332:281,1,83,4|0,0:0|0:0,0:0:0:0:
244,76,3668,6,0,L|254:158,1,83,4|0,0:0|0:0,0:0:0:0:
414,22,3918,2,0,L|404:105,1,83,4|0,1:0|0:0,0:0:0:0:
459,251,4168,6,0,P|412:195|340:199,1,149.399995440674,4|8,1:2|0:0,0:0:0:0:
213,261,4543,1,0,0:0:0:0:
172,332,4668,2,0,P|243:336|290:280,1,149.399995440674,0|8,1:0|0:0,0:0:0:0:
211,174,5043,1,0,0:0:0:0:
211,174,5168,6,0,P|173:180|143:203,1,74.699997720337,0|0,1:0|0:0,0:0:0:0:
73,256,5418,1,8,0:0:0:0:
13,189,5543,1,0,0:0:0:0:
82,132,5668,2,0,L|84:58,1,74.699997720337,0|0,1:0|0:0,0:0:0:0:
166,19,5918,2,0,L|164:93,1,74.699997720337,8|0,0:0|0:0,0:0:0:0:
144,201,6168,6,0,L|300:163,1,149.399995440674,0|8,1:0|0:0,0:0:0:0:
367,227,6543,1,8,0:0:0:0:
367,227,6668,2,0,B|379:156|379:156|328:59,1,149.399995440674,4|8,1:2|0:0,0:0:0:0:
237,77,7043,2,0,L|151:96,2,74.699997720337,0|0|0,1:0|1:0|1:0,0:0:0:0:
289,165,7418,6,0,L|287:322,1,149.399995440674,8|0,0:0|1:0,0:0:0:0:
210,362,7793,1,8,0:0:0:0:
121,349,7918,1,8,0:0:0:0:
72,273,8043,1,8,0:0:0:0:
144,219,8168,6,0,L|293:229,2,149.399995440674,4|8|0,1:2|0:0|1:0,0:0:0:0:
71,38,8918,2,0,B|63:75|63:75|71:111,1,74.699997720337,8|0,0:0|0:0,0:0:0:0:
146,75,9168,5,0,1:0:0:0:
146,75,9293,1,0,1:0:0:0:
200,147,9418,2,0,P|229:73|175:-8,1,149.399995440674,8|0,0:0|1:0,0:0:0:0:
32,187,9918,2,0,L|44:270,1,74.699997720337,8|0,0:0|0:0,0:0:0:0:
92,351,10168,6,0,P|149:302|242:315,1,149.399995440674,0|8,1:0|0:0,0:0:0:0:
298,344,10543,1,8,0:0:0:0:
298,344,10668,2,0,L|300:234,1,74.699997720337,0|0,1:0|0:0,0:0:0:0:
387,303,10918,2,0,L|388:228,1,74.699997720337,8|0,0:0|0:0,0:0:0:0:
394,136,11168,5,4,1:3:0:0:
394,136,11418,1,4,1:3:0:0:
394,136,11668,1,4,1:3:0:0:
319,101,11918,6,0,P|311:138|322:180,1,62.2500023746491,2|2,0:0|0:0,0:0:0:0:
462,177,12168,6,0,P|472:111|448:76,1,83,4|0,1:2|0:0,0:0:0:0:
413,17,12418,2,0,L|330:21,1,83,8|0,0:0|0:0,0:0:0:0:
242,68,12668,2,0,L|154:77,1,83,0|0,1:0|0:0,0:0:0:0:
79,118,12918,5,8,0:0:0:0:
86,30,13043,1,0,0:0:0:0:
160,155,13168,6,0,P|170:115|159:75,1,83,0|0,1:0|0:0,0:0:0:0:
4,81,13418,2,0,P|-7:120|3:160,1,83,8|0,0:0|0:0,0:0:0:0:
83,283,13668,2,0,L|78:87,1,166,0|8,1:0|0:0,0:0:0:0:
78,117,14168,6,0,P|39:135|23:175,1,83,0|0,1:0|0:0,0:0:0:0:
22,269,14418,1,8,0:0:0:0:
22,269,14543,1,8,0:0:0:0:
116,300,14668,2,0,L|118:202,1,83,0|0,1:0|0:0,0:0:0:0:
197,153,14918,2,0,P|219:188|216:229,1,83,8|0,0:0|0:0,0:0:0:0:
117,217,15168,5,0,1:0:0:0:
115,117,15293,1,0,1:0:0:0:
197,153,15418,2,0,L|291:159,1,83,8|0,0:0|0:0,0:0:0:0:
300,75,15668,1,0,1:0:0:0:
354,207,15793,2,0,B|366:167|366:167|354:99,2,83,8|8|8,0:0|0:0|0:0,0:0:0:0:
393,372,16168,6,0,P|407:328|393:273,1,83,4|0,1:2|0:0,0:0:0:0:
354,207,16418,2,0,L|443:206,1,83,8|0,0:0|0:0,0:0:0:0:
298,289,16668,2,0,L|215:289,1,83,0|0,1:0|0:0,0:0:0:0:
130,235,16918,1,8,0:0:0:0:
94,328,17043,1,0,0:0:0:0:
215,369,17168,6,0,B|224:326|224:326|214:288,1,83,0|0,1:0|0:0,0:0:0:0:
131,154,17418,2,0,B|121:192|121:192|129:234,1,83,8|0,0:0|0:0,0:0:0:0:
296,150,17668,2,0,B|130:153,1,166,0|8,1:0|0:0,0:0:0:0:
130,153,18168,6,0,P|127:112|150:78,1,83,0|0,1:0|0:0,0:0:0:0:
232,38,18418,1,8,0:0:0:0:
232,38,18543,1,8,0:0:0:0:
150,78,18668,2,0,L|60:77,1,83,0|0,1:0|0:0,0:0:0:0:
20,174,18918,2,0,P|56:192|73:229,1,83,8|0,0:0|0:0,0:0:0:0:
50,326,19168,5,0,1:0:0:0:
143,360,19293,1,0,1:0:0:0:
234,321,19418,2,0,L|241:226,1,83,8|0,0:0|0:0,0:0:0:0:
183,168,19668,1,0,1:0:0:0:
314,177,19793,2,0,L|412:175,2,83,8|8|8,0:0|0:0|0:0,0:0:0:0:
275,85,20168,6,0,L|385:84,1,83,4|0,1:2|0:0,0:0:0:0:
466,135,20418,2,0,B|476:176|476:176|464:215,1,83,8|0,0:0|0:0,0:0:0:0:
315,257,20668,2,0,B|303:217|303:217|313:176,1,83,0|0,1:0|0:0,0:0:0:0:
357,84,20918,1,8,0:0:0:0:
396,175,21043,1,0,0:0:0:0:
293,170,21168,6,0,B|189:182,1,83,0|0,1:0|0:0,0:0:0:0:
139,273,21418,2,0,B|221:263,1,83,8|0,0:0|0:0,0:0:0:0:
112,347,21668,2,0,P|60:287|90:214,1,166,0|8,1:0|0:0,0:0:0:0:
90,214,22168,6,0,P|46:221|18:254,1,83,0|0,1:0|0:0,0:0:0:0:
86,291,22418,1,8,0:0:0:0:
86,291,22543,1,8,0:0:0:0:
161,179,22668,2,0,P|132:144|90:136,1,83,0|0,1:0|0:0,0:0:0:0:
228,218,22918,2,0,P|243:176|229:135,1,83,8|0,0:0|0:0,0:0:0:0:
166,73,23168,5,0,1:0:0:0:
166,73,23293,1,0,1:0:0:0:
266,63,23418,2,0,L|348:74,1,83,8|0,0:0|0:0,0:0:0:0:
347,160,23668,1,0,1:0:0:0:
420,125,23793,2,0,P|430:85|428:44,2,83,8|8|8,0:0|0:0|0:0,0:0:0:0:
402,253,24168,6,0,B|319:246,1,83,4|0,1:2|0:0,0:0:0:0:
271,334,24418,2,0,L|353:338,1,83,8|0,0:0|0:0,0:0:0:0:
320,231,24668,2,0,B|232:225,1,83,0|0,1:0|0:0,0:0:0:0:
150,276,24918,1,8,0:0:0:0:
161,177,25043,1,0,0:0:0:0:
78,217,25168,5,0,1:0:0:0:
78,217,25293,1,0,1:0:0:0:
237,225,25418,2,0,B|250:186|250:186|231:122,1,83,8|0,0:0|0:0,0:0:0:0:
169,82,25668,2,0,P|243:52|309:97,1,166,0|8,1:0|0:0,0:0:0:0:
389,156,26043,1,0,0:0:0:0:
390,263,26168,6,0,B|336:264|336:264|289:227|289:227|236:224,1,166,0|8,1:0|0:0,0:0:0:0:
255,322,26543,1,8,0:0:0:0:
162,284,26668,2,0,L|158:202,1,83,0|0,1:0|0:0,0:0:0:0:
205,113,26918,1,8,0:0:0:0:
106,128,27043,1,0,0:0:0:0:
148,56,27168,5,0,1:0:0:0:
148,56,27293,1,0,1:0:0:0:
30,95,27418,2,0,P|27:136|37:177,1,83,8|0,0:0|0:0,0:0:0:0:
84,261,27668,1,0,1:0:0:0:
157,201,27793,2,0,L|251:190,2,83,8|8|8,0:0|0:0|0:0,0:0:0:0:
173,289,28168,6,0,L|264:278,1,74.699997720337,4|0,1:2|0:0,0:0:0:0:
324,233,28418,2,0,L|415:222,1,74.699997720337,10|0,0:0|0:0,0:0:0:0:
411,307,28668,2,0,L|336:315,1,74.699997720337,0|0,1:0|0:0,0:0:0:0:
260,363,28918,2,0,L|185:371,1,74.699997720337,10|0,0:0|0:0,0:0:0:0:
98,243,29168,6,0,P|121:214|156:200,1,74.699997720337,0|0,1:0|0:0,0:0:0:0:
106,130,29418,2,0,P|71:142|46:169,1,74.699997720337,10|0,0:0|0:0,0:0:0:0:
214,243,29668,6,0,P|190:214|155:200,1,74.699997720337,0|0,1:0|0:0,0:0:0:0:
206,130,29918,2,0,P|240:142|265:169,1,74.699997720337,10|0,0:0|0:0,0:0:0:0:
309,282,30168,6,0,P|375:254|433:295,1,149.399995440674,0|10,1:0|0:0,0:0:0:0:
288,361,30668,2,0,P|231:317|237:246,1,149.399995440674,0|10,1:0|0:0,0:0:0:0:
434,80,31168,6,0,P|407:53|363:31,1,74.699997720337,0|0,1:0|0:0,0:0:0:0:
358,200,31418,2,0,P|395:191|436:164,1,74.699997720337,10|0,0:0|0:0,0:0:0:0:
294,80,31668,2,0,P|285:117|288:166,1,74.699997720337,0|0,1:0|0:0,0:0:0:0:
367,123,31918,5,10,0:0:0:0:
367,123,32043,1,8,0:0:0:0:
285,153,32168,6,0,B|136:140,1,149.399995440674,0|10,1:0|0:0,0:0:0:0:
40,281,32668,2,0,L|214:303,1,149.399995440674,0|10,1:0|0:0,0:0:0:0:
448,250,33168,5,0,1:0:0:0:
448,250,33293,1,0,1:0:0:0:
357,202,33418,2,0,B|351:163|351:163|362:104,1,74.699997720337,10|0,0:0|0:0,0:0:0:0:
440,87,33668,2,0,L|431:191,1,74.699997720337,0|0,1:0|0:0,0:0:0:0:
274,151,33918,2,0,L|283:46,1,74.699997720337,10|0,0:0|0:0,0:0:0:0:
261,322,34168,6,0,L|265:248,1,74.699997720337,0|0,1:0|0:0,0:0:0:0:
356,201,34418,2,0,L|353:276,1,74.699997720337,10|0,0:0|0:0,0:0:0:0:
173,295,34668,2,0,L|176:220,1,74.699997720337,0|0,1:0|0:0,0:0:0:0:
268,173,34918,2,0,L|264:247,1,74.699997720337,10|0,0:0|0:0,0:0:0:0:
191,371,35168,6,0,P|131:364|99:266,1,149.399995440674,0|10,1:0|0:0,0:0:0:0:
82,82,35668,1,0,1:0:0:0:
150,131,35793,2,0,P|162:95|154:38,2,74.699997720337,8|8|8,0:0|0:0|0:0,0:0:0:0:
80,183,36168,5,4,1:2:0:0:
80,183,36418,6,0,L|86:277,1,74.699997720337,8|0,0:0|0:0,0:0:0:0:
182,210,36668,2,0,L|176:304,1,74.699997720337,2|0,1:2|0:0,0:0:0:0:
268,176,36918,2,0,L|274:270,1,74.699997720337,8|0,0:0|0:0,0:0:0:0:
260,348,37168,5,2,1:2:0:0:
260,348,37418,2,0,P|315:331|346:338,1,74.699997720337,8|0,0:0|0:0,0:0:0:0:
320,251,37668,2,0,P|376:263|399:285,1,74.699997720337,2|0,1:2|0:0,0:0:0:0:
423,198,37918,2,0,P|465:237|474:267,1,74.699997720337,8|0,0:0|0:0,0:0:0:0:
468,347,38168,5,2,1:2:0:0:
468,347,38418,2,0,L|474:248,1,74.699997720337,8|0,0:0|0:0,0:0:0:0:
388,273,38668,2,0,L|384:348,1,74.699997720337,2|0,1:2|0:0,0:0:0:0:
301,343,38918,2,0,L|307:244,1,74.699997720337,8|0,0:0|0:0,0:0:0:0:
332,191,39168,5,2,1:2:0:0:
332,191,39418,2,0,P|284:191|245:229,1,74.699997720337,8|0,0:0|0:0,0:0:0:0:
282,335,39668,2,0,P|306:293|292:240,1,74.699997720337,2|0,1:2|0:0,0:0:0:0:
185,220,39918,2,0,P|209:261|261:276,1,74.699997720337,8|0,0:0|0:0,0:0:0:0:
262,204,40168,6,0,B|253:127|276:137|269:54,1,149.399995440674,2|8,1:2|0:0,0:0:0:0:
88,36,40668,2,0,P|21:62|9:132,1,149.399995440674,2|8,1:2|0:0,0:0:0:0:
99,298,41168,5,2,1:2:0:0:
99,298,41293,2,0,L|103:213,1,74.699997720337,0|8,1:0|0:0,0:0:0:0:
102,223,41668,2,0,L|201:221,1,74.699997720337,2|0,1:2|0:0,0:0:0:0:
259,272,41918,2,0,P|266:221|262:173,1,93.3749971504212,8|8,0:0|3:0,0:0:0:0:
264,180,42168,6,0,B|352:173|329:244|420:217,1,149.399995440674,2|8,1:2|0:0,0:0:0:0:
460,44,42668,2,0,P|395:72|393:143,1,149.399995440674,2|8,1:2|0:0,0:0:0:0:
443,324,43168,5,2,1:2:0:0:
443,324,43418,2,0,L|455:222,2,74.699997720337,0|8|0,1:0|0:0|1:0,0:0:0:0:
366,281,43793,2,0,L|291:288,1,74.699997720337,10|2,0:0|0:0,0:0:0:0:
216,328,44043,1,0,1:0:0:0:
216,328,44168,6,0,P|209:291|216:255,1,74.699997720337,4|0,1:2|0:0,0:0:0:0:
217,182,44418,2,0,P|223:218|216:254,1,74.699997720337,2|0,0:0|0:0,0:0:0:0:
143,254,44668,2,0,P|179:247|215:254,1,74.699997720337,0|0,0:0|0:0,0:0:0:0:
289,255,44918,2,0,P|252:261|216:254,1,74.699997720337,10|0,0:0|0:0,0:0:0:0:
106,113,45168,6,0,B|159:125|159:125|196:101|196:101|246:110,1,149.399995440674,0|0,1:0|0:0,0:0:0:0:
246,110,45668,2,0,L|249:35,1,74.699997720337,2|0,0:0|0:0,0:0:0:0:
337,56,45918,5,0,1:0:0:0:
421,26,46043,1,8,0:0:0:0:
417,115,46168,2,0,B|405:263,1,149.399995440674,0|2,1:0|0:0,0:0:0:0:
405,263,46668,2,0,P|395:298|369:324,1,74.699997720337,2|0,0:0|0:0,0:0:0:0:
277,325,46918,2,0,P|250:298|241:263,1,74.699997720337,10|0,0:0|0:0,0:0:0:0:
290,188,47168,6,0,B|214:170|214:170|141:230,1,149.399995440674,0|8,1:0|0:0,0:0:0:0:
82,258,47543,1,0,1:0:0:0:
82,258,47668,2,0,L|77:160,1,74.699997720337,0|0,0:0|1:0,0:0:0:0:
138,117,47918,1,8,0:0:0:0:
92,39,48043,1,8,0:0:0:0:
197,32,48168,6,0,B|265:21|308:60|308:60|281:55|254:75,1,149.399995440674,0|2,1:0|0:0,0:0:0:0:
278,62,48668,2,0,P|279:99|272:135,1,74.699997720337,2|0,0:0|0:0,0:0:0:0:
187,157,48918,2,0,P|207:188|219:223,1,74.699997720337,10|0,0:0|0:0,0:0:0:0:
184,315,49168,6,0,P|259:305|309:243,1,149.399995440674,0|2,1:0|1:2,0:0:0:0:
305,252,49668,2,0,P|335:230|371:223,1,74.699997720337,10|0,0:0|0:0,0:0:0:0:
392,137,49918,2,0,P|428:144|458:166,1,74.699997720337,2|8,0:0|0:0,0:0:0:0:
460,252,50168,6,0,L|452:328,1,74.699997720337,0|0,1:0|0:0,0:0:0:0:
364,297,50418,2,0,L|372:217,1,74.699997720337,10|0,0:0|0:0,0:0:0:0:
452,254,50668,2,0,L|444:330,1,74.699997720337,2|0,1:2|0:0,0:0:0:0:
356,299,50918,2,0,L|364:219,1,74.699997720337,10|0,0:0|0:0,0:0:0:0:
419,152,51168,5,2,1:2:0:0:
419,152,51293,1,0,1:0:0:0:
314,150,51418,2,0,P|250:178|151:166,1,149.399995440674,8|0,0:0|1:0,0:0:0:0:
98,141,51793,2,0,L|91:37,2,74.699997720337,8|8|8,0:0|0:0|0:0,0:0:0:0:
48,215,52168,6,0,L|68:378,2,149.399995440674,4|10|0,1:2|0:0|1:0,0:0:0:0:
48,215,52918,2,0,P|78:235|115:235,1,74.699997720337,10|0,0:0|0:0,0:0:0:0:
215,235,53168,6,0,P|284:251|301:320,1,149.399995440674,2|8,1:2|0:0,0:0:0:0:
300,320,53668,2,0,P|303:283|324:252,1,74.699997720337,2|0,1:2|0:0,0:0:0:0:
406,232,53918,2,0,P|435:254|471:261,1,74.699997720337,8|0,0:0|0:0,0:0:0:0:
468,165,54168,6,0,L|460:89,1,74.699997720337,2|0,1:2|0:0,0:0:0:0:
372,120,54418,2,0,L|380:199,1,74.699997720337,8|0,0:0|0:0,0:0:0:0:
460,163,54668,2,0,L|451:87,1,74.699997720337,2|0,1:2|0:0,0:0:0:0:
364,118,54918,2,0,L|372:198,1,74.699997720337,10|0,0:0|0:0,0:0:0:0:
448,254,55168,5,0,1:0:0:0:
448,254,55293,1,0,1:0:0:0:
397,328,55418,5,8,0:0:0:0:
397,328,55543,1,0,1:0:0:0:
397,328,55668,2,0,L|301:337,1,74.699997720337,0|2,1:0|0:0,0:0:0:0:
240,282,55918,5,8,0:0:0:0:
240,282,56043,1,8,0:0:0:0:
158,343,56168,6,0,P|143:265|170:185,1,149.399995440674,2|8,1:2|0:0,0:0:0:0:
161,198,56668,2,0,P|127:215|91:219,1,74.699997720337,2|0,1:2|0:0,0:0:0:0:
116,132,56918,2,0,P|129:97|133:60,1,74.699997720337,10|0,0:0|0:0,0:0:0:0:
219,35,57168,6,0,L|299:37,1,74.699997720337,2|0,1:2|0:0,0:0:0:0:
372,124,57418,2,0,L|297:122,1,74.699997720337,10|0,0:0|0:0,0:0:0:0:
210,214,57668,2,0,L|290:216,1,74.699997720337,2|0,1:2|0:0,0:0:0:0:
363,303,57918,2,0,L|288:301,1,74.699997720337,10|0,0:0|0:0,0:0:0:0:
417,370,58168,6,0,P|444:289|396:225,1,149.399995440674,2|8,1:2|0:0,0:0:0:0:
215,121,58668,2,0,P|184:186|213:253,1,149.399995440674,0|10,1:0|0:0,0:0:0:0:
288,301,59043,1,0,0:0:0:0:
271,193,59168,5,0,1:0:0:0:
271,193,59293,1,0,1:0:0:0:
213,253,59418,2,0,L|42:249,1,149.399995440674,10|0,0:0|1:0,0:0:0:0:
201,364,59793,2,0,P|220:312|203:233,1,116.199996453858,8|8,0:0|0:0,0:0:0:0:
190,164,60168,6,0,L|192:85,1,74.699997720337,4|0,1:2|0:0,0:0:0:0:
274,75,60418,2,0,L|272:161,1,83,0|0,1:0|0:0,0:0:0:0:
358,166,60668,2,0,L|357:52,1,91.300002786255,0|0,1:0|0:0,0:0:0:0:
438,66,60918,2,0,L|439:184,1,99.5999969604493,0|0,1:0|0:0,0:0:0:0:
404,249,61168,5,0,1:0:0:0:
404,249,61668,2,0,L|316:257,1,83,0|0,1:0|0:0,0:0:0:0:
275,275,62168,6,0,L|450:258,1,166,4|8,1:2|0:0,0:0:0:0:
304,182,62543,1,0,0:0:0:0:
217,208,62668,2,0,P|184:281|229:348,1,166,0|8,1:0|0:0,0:0:0:0:
340,375,63043,1,0,0:0:0:0:
445,338,63168,6,0,P|452:298|431:245,1,83,0|0,1:0|0:0,0:0:0:0:
386,167,63418,1,8,0:0:0:0:
445,87,63543,1,0,0:0:0:0:
345,82,63668,2,0,B|247:92,1,83,0|0,1:0|0:0,0:0:0:0:
172,120,63918,1,8,0:0:0:0:
172,120,64043,1,0,0:0:0:0:
256,169,64168,6,0,P|270:122|247:68,1,83,0|0,1:0|0:0,0:0:0:0:
200,38,64418,1,8,0:0:0:0:
200,38,64543,1,8,0:0:0:0:
131,198,64668,2,0,P|87:131|112:55,1,166,0|8,1:0|0:0,0:0:0:0:
172,120,65043,1,0,0:0:0:0:
224,229,65168,5,0,1:0:0:0:
224,229,65293,1,0,1:0:0:0:
236,319,65418,2,0,B|181:316|181:316|139:281|139:281|83:273,1,166,8|0,0:0|1:0,0:0:0:0:
49,189,65793,5,8,0:0:0:0:
145,162,65918,1,8,0:0:0:0:
36,200,66043,1,8,0:0:0:0:
143,145,66168,6,0,P|234:123|305:148,1,166,4|8,1:2|0:0,0:0:0:0:
377,121,66543,1,0,0:0:0:0:
331,51,66668,2,0,P|304:50|232:15,1,83,0|0,1:0|0:0,0:0:0:0:
145,61,66918,1,8,0:0:0:0:
41,20,67043,1,0,0:0:0:0:
20,135,67168,6,0,L|23:217,1,83,0|0,1:0|0:0,0:0:0:0:
120,273,67418,2,0,L|116:190,1,83,8|0,0:0|0:0,0:0:0:0:
23,217,67668,2,0,L|26:299,1,83,0|0,1:0|0:0,0:0:0:0:
109,355,67918,1,8,0:0:0:0:
198,310,68043,1,0,0:0:0:0:
292,341,68168,6,0,P|355:331|463:369,1,166,0|8,1:0|0:0,0:0:0:0:
493,222,68543,1,0,0:0:0:0:
493,222,68668,2,0,P|415:250|333:241,1,166,0|8,1:0|0:0,0:0:0:0:
283,158,69043,1,0,0:0:0:0:
341,85,69168,5,0,1:0:0:0:
341,85,69293,1,0,1:0:0:0:
283,158,69418,2,0,L|115:135,1,166,8|0,0:0|1:0,0:0:0:0:
29,96,69793,5,8,0:0:0:0:
43,203,69918,1,8,0:0:0:0:
32,82,70043,1,8,0:0:0:0:
43,218,70168,6,0,P|118:245|137:323,1,166,4|8,1:2|0:0,0:0:0:0:
42,301,70543,1,0,0:0:0:0:
137,322,70668,2,0,L|336:281,1,166,0|8,1:0|0:0,0:0:0:0:
372,360,71043,1,0,0:0:0:0:
372,360,71168,6,0,B|393:279|393:279|350:184,1,166,0|8,1:0|0:0,0:0:0:0:
272,199,71543,1,0,0:0:0:0:
272,199,71668,2,0,L|260:108,1,83,0|0,1:0|0:0,0:0:0:0:
334,44,71918,2,0,L|345:134,1,83,8|0,0:0|0:0,0:0:0:0:
359,204,72168,6,0,P|426:187|448:156,1,83,0|0,1:0|0:0,0:0:0:0:
489,126,72418,1,8,0:0:0:0:
489,126,72543,1,0,0:0:0:0:
481,248,72668,2,0,L|479:340,1,83,0|0,1:0|0:0,0:0:0:0:
360,286,72918,2,0,L|358:203,1,83,8|0,0:0|0:0,0:0:0:0:
384,113,73168,5,0,1:0:0:0:
384,113,73293,1,0,1:0:0:0:
281,193,73418,2,0,L|99:145,1,166,8|0,0:0|1:0,0:0:0:0:
60,82,73793,5,8,0:0:0:0:
32,187,73918,1,8,0:0:0:0:
66,65,74043,1,8,0:0:0:0:
29,210,74168,6,0,P|42:288|116:319,1,166,4|8,1:2|0:0,0:0:0:0:
218,238,74543,1,0,0:0:0:0:
137,201,74668,2,0,P|200:153|275:181,1,166,0|8,1:0|0:0,0:0:0:0:
327,289,75043,1,0,0:0:0:0:
383,366,75168,5,0,1:0:0:0:
383,366,75293,1,0,1:0:0:0:
327,289,75418,2,0,L|247:313,1,83,8|0,0:0|0:0,0:0:0:0:
378,212,75668,2,0,L|396:131,1,83,0|0,1:0|0:0,0:0:0:0:
424,294,75918,2,0,L|485:350,1,83,8|0,0:0|0:0,0:0:0:0:
327,289,76168,6,0,L|149:285,1,166,0|8,1:0|0:0,0:0:0:0:
79,313,76543,1,8,0:0:0:0:
151,364,76668,2,0,P|165:324|156:274,1,83,0|0,1:0|0:0,0:0:0:0:
0,281,76918,2,0,P|-5:321|9:360,1,83,8|0,0:0|0:0,0:0:0:0:
85,280,77168,5,0,1:0:0:0:
85,280,77293,1,0,0:0:0:0:
86,196,77418,2,0,P|86:114|61:17,1,166,8|0,0:0|1:0,0:0:0:0:
90,30,77918,6,0,P|97:66|115:109,1,62.2500023746491,0|0,0:0|0:0,0:0:0:0:
183,150,78168,6,0,L|265:140,1,83,4|0,1:2|0:0,0:0:0:0:
394,57,78418,2,0,L|311:61,1,83,8|0,0:0|0:0,0:0:0:0:
318,216,78668,2,0,L|400:207,1,83,0|0,1:0|0:0,0:0:0:0:
480,250,78918,1,8,0:0:0:0:
473,162,79043,1,0,0:0:0:0:
399,287,79168,6,0,P|389:247|400:207,1,83,0|0,1:0|0:0,0:0:0:0:
472,82,79418,2,0,P|483:121|473:161,1,83,8|0,0:0|0:0,0:0:0:0:
399,287,79668,2,0,L|233:288,1,166,0|8,1:0|0:0,0:0:0:0:
233,288,80168,6,0,B|226:248|226:248|237:207,1,83,0|0,1:0|0:0,0:0:0:0:
296,136,80418,1,8,0:0:0:0:
296,136,80543,1,8,0:0:0:0:
194,128,80668,2,0,L|92:122,1,83,0|0,1:0|0:0,0:0:0:0:
28,155,80918,2,0,B|21:115|21:115|32:74,1,83,8|0,0:0|0:0,0:0:0:0:
119,33,81168,5,0,1:0:0:0:
111,123,81293,1,0,1:0:0:0:
213,37,81418,2,0,L|313:34,1,83,8|0,0:0|0:0,0:0:0:0:
317,124,81668,1,0,1:0:0:0:
395,90,81793,2,0,B|403:131|403:131|391:171,2,83,8|8|8,0:0|0:0|0:0,0:0:0:0:
486,30,82168,6,0,L|486:113,1,83,4|0,1:2|0:0,0:0:0:0:
456,212,82417,2,0,P|417:201|390:170,1,83,8|0,0:0|0:0,0:0:0:0:
317,124,82668,2,0,P|277:135|250:166,1,83,0|0,1:0|0:0,0:0:0:0:
271,263,82918,1,8,0:0:0:0:
370,254,83043,1,0,0:0:0:0:
276,345,83168,6,0,B|270:262,1,83,0|0,1:0|0:0,0:0:0:0:
167,209,83418,2,0,B|172:291,1,83,8|0,0:0|0:0,0:0:0:0:
250,166,83668,2,0,B|84:169,1,166,0|8,1:0|0:0,0:0:0:0:
84,168,84168,6,0,P|81:127|104:93,1,83,0|0,1:0|0:0,0:0:0:0:
170,34,84418,1,8,0:0:0:0:
170,34,84543,1,8,0:0:0:0:
246,86,84668,2,0,L|335:88,1,83,0|0,1:0|0:0,0:0:0:0:
415,112,84918,2,0,P|418:71|395:37,1,83,8|0,0:0|0:0,0:0:0:0:
328,87,85168,5,0,1:0:0:0:
344,186,85293,1,0,1:0:0:0:
364,283,85418,2,0,L|260:292,1,83,8|0,0:0|0:0,0:0:0:0:
229,204,85668,1,0,1:0:0:0:
147,261,85793,2,0,P|134:224|146:157,2,83,8|8|8,0:0|0:0|0:0,0:0:0:0:
181,347,86168,6,0,L|98:347,1,83,4|0,1:2|0:0,0:0:0:0:
43,263,86418,2,0,B|31:224|31:224|41:183,1,83,8|0,0:0|0:0,0:0:0:0:
86,90,86668,2,0,B|196:92,1,83,0|0,1:0|0:0,0:0:0:0:
259,133,86918,1,8,0:0:0:0:
243,50,87043,1,0,0:0:0:0:
164,170,87168,6,0,P|155:129|168:91,1,83,0|0,1:0|0:0,0:0:0:0:
341,131,87418,2,0,B|259:133,1,83,8|0,0:0|0:0,0:0:0:0:
373,206,87668,2,0,P|424:146|395:73,1,166,0|8,1:0|0:0,0:0:0:0:
395,73,88168,6,0,P|423:44|464:39,1,83,0|0,1:0|0:0,0:0:0:0:
462,126,88418,1,8,0:0:0:0:
462,126,88543,1,8,0:0:0:0:
368,171,88668,2,0,P|339:136|297:128,1,83,0|0,1:0|0:0,0:0:0:0:
381,276,88918,2,0,P|409:242|452:233,1,83,8|0,0:0|0:0,0:0:0:0:
459,312,89168,5,0,1:0:0:0:
459,312,89293,1,0,1:0:0:0:
387,361,89418,5,8,0:0:0:0:
387,361,89543,1,8,0:0:0:0:
294,346,89668,1,0,1:0:0:0:
227,296,89793,2,0,B|212:333|212:333|215:376,2,83,8|8|8,0:0|0:0|0:0,0:0:0:0:
285,215,90168,6,0,B|202:208,1,83,4|0,1:2|0:0,0:0:0:0:
145,266,90418,2,0,P|109:266|63:246,1,83,8|0,0:0|0:0,0:0:0:0:
96,109,90668,2,0,P|132:109|178:129,1,83,0|0,1:0|0:0,0:0:0:0:
202,208,90918,1,8,0:0:0:0:
261,130,91043,1,0,0:0:0:0:
298,258,91168,5,0,1:0:0:0:
298,258,91293,1,0,0:0:0:0:
339,174,91418,2,0,B|352:135|352:135|333:71,1,83,8|0,0:0|0:0,0:0:0:0:
324,15,91668,2,0,B|421:7|383:82|507:65,1,166,0|8,1:0|0:0,0:0:0:0:
432,154,92043,1,0,0:0:0:0:
340,94,92168,6,0,B|356:259,1,166,0|8,1:0|0:0,0:0:0:0:
291,335,92543,1,8,0:0:0:0:
213,283,92668,2,0,L|203:192,1,83,0|0,1:0|0:0,0:0:0:0:
244,109,92918,1,8,0:0:0:0:
145,124,93043,1,0,0:0:0:0:
186,48,93168,5,0,1:0:0:0:
186,48,93293,1,0,1:0:0:0:
316,159,93418,2,0,P|325:118|322:77,1,83,8|0,0:0|0:0,0:0:0:0:
402,27,93668,1,0,1:0:0:0:
426,125,93793,2,0,L|520:114,2,83,8|8|8,0:0|0:0|0:0,0:0:0:0:
400,211,94168,5,4,1:2:0:0:
131,176,102168,6,0,P|195:222|258:186,1,149.399995440674,4|2,1:2|0:0,0:0:0:0:
374,213,102668,2,0,P|318:168|252:195,1,149.399995440674,0|2,1:0|0:0,0:0:0:0:
233,316,103168,6,0,P|279:251|243:188,1,149.399995440674,0|2,1:0|0:0,0:0:0:0:
270,73,103668,2,0,P|225:128|252:194,1,149.399995440674,0|2,1:0|0:0,0:0:0:0:
351,110,104043,1,8,3:0:0:0:
270,73,104168,6,0,B|108:85,1,149.399995440674,0|2,1:0|0:0,0:0:0:0:
25,227,104668,2,0,B|174:216,1,149.399995440674,0|2,1:0|0:0,0:0:0:0:
349,194,105168,6,0,B|389:255|389:255|369:329,1,149.399995440674,0|2,1:0|0:0,0:0:0:0:
299,268,105543,1,8,3:0:0:0:
208,301,105668,2,0,L|221:152,1,149.399995440674,0|2,1:0|0:0,0:0:0:0:
406,28,106168,6,0,B|399:133|399:133|365:94,1,149.399995440674,0|2,1:0|0:0,0:0:0:0:
221,152,106668,2,0,B|227:46|227:46|262:86,1,149.399995440674,0|2,1:0|0:0,0:0:0:0:
331,253,107168,6,0,B|312:226|284:220|284:220|238:249|197:233,1,149.399995440674,0|2,1:0|0:0,0:0:0:0:
66,252,107668,2,0,L|71:326,2,74.699997720337,0|8|2,0:0|0:0|0:0,0:0:0:0:
59,163,108043,1,8,0:0:0:0:
59,163,108168,6,0,B|118:178|118:178|138:217|138:217|231:242,1,166,4|0,1:2|0:0,0:0:0:0:
321,176,108668,6,0,L|178:149,1,124.5,2|0,1:2|0:0,0:0:0:0:
198,152,108918,2,0,L|215:54,1,83,8|0,0:0|0:0,0:0:0:0:
385,118,109168,6,0,P|402:196|353:260,1,166,8|0,0:0|1:0,0:0:0:0:
271,278,109543,1,8,0:0:0:0:
271,278,109668,2,0,L|177:258,2,83,0|8|0,1:0|0:0|0:0,0:0:0:0:
329,338,110043,1,0,1:0:0:0:
426,272,110168,6,0,L|345:259,1,74.699997720337,6|0,1:2|0:0,0:0:0:0:
449,194,110418,2,0,L|368:181,1,74.699997720337,8|0,0:0|0:0,0:0:0:0:
472,115,110668,2,0,L|391:102,1,74.699997720337,2|0,1:2|0:0,0:0:0:0:
493,36,110918,2,0,L|412:23,1,74.699997720337,8|0,0:0|0:0,0:0:0:0:
336,47,111168,6,0,P|262:49|202:92,1,149.399995440674,2|8,1:2|0:0,0:0:0:0:
202,92,111668,2,0,P|174:70|158:16,1,74.699997720337,2|0,1:2|0:0,0:0:0:0:
244,160,111918,2,0,P|210:173|156:160,1,74.699997720337,8|0,0:0|0:0,0:0:0:0:
325,134,112168,6,0,L|336:230,1,74.699997720337,2|0,0:0|0:0,0:0:0:0:
244,160,112418,2,0,L|255:256,1,74.699997720337,8|0,0:0|0:0,0:0:0:0:
157,185,112668,2,0,L|168:281,1,74.699997720337,2|0,0:0|0:0,0:0:0:0:
75,215,112918,2,0,L|86:311,1,74.699997720337,10|0,0:0|0:0,0:0:0:0:
161,339,113168,6,0,P|215:325|232:287,2,74.699997720337,0|0|10,1:0|1:0|0:0,0:0:0:0:
83,289,113668,1,0,1:0:0:0:
80,190,113793,2,0,L|-3:209,2,74.699997720337,8|10|8,0:0|0:0|0:0,0:0:0:0:
179,136,114168,6,0,P|242:88|315:101,1,149.399995440674,4|10,1:2|0:0,0:0:0:0:
307,96,114668,2,0,P|270:93|239:113,1,74.699997720337,2|0,1:2|0:0,0:0:0:0:
289,180,114918,2,0,P|325:177|356:197,1,74.699997720337,10|0,0:0|0:0,0:0:0:0:
394,299,115168,5,0,1:0:0:0:
394,299,115293,1,0,1:0:0:0:
289,329,115418,2,0,B|288:178,1,149.399995440674,10|0,0:0|1:0,0:0:0:0:
344,108,115793,1,0,0:0:0:0:
227,118,115918,2,0,P|193:103|167:75,1,74.699997720337,10|0,0:0|0:0,0:0:0:0:
69,28,116168,6,0,L|72:105,1,74.699997720337,0|0,1:0|0:0,0:0:0:0:
169,150,116418,2,0,L|166:75,1,74.699997720337,10|0,0:0|0:0,0:0:0:0:
73,185,116668,2,0,L|76:262,1,74.699997720337,0|0,1:0|0:0,0:0:0:0:
173,307,116918,2,0,L|170:232,1,74.699997720337,10|0,0:0|0:0,0:0:0:0:
257,196,117168,5,0,1:0:0:0:
257,196,117293,1,0,1:0:0:0:
341,212,117418,2,0,P|339:174|321:142,2,74.699997720337,8|0|10,0:0|1:0|0:0,0:0:0:0:
303,297,117793,1,0,1:0:0:0:
303,297,117918,2,0,L|403:294,1,74.699997720337,10|0,0:0|0:0,0:0:0:0:
452,339,118168,6,0,B|461:300|461:300|449:237,1,74.699997720337,4|0,1:2|0:0,0:0:0:0:
420,189,118418,2,0,B|411:150|411:150|417:115,1,74.699997720337,10|0,0:0|0:0,0:0:0:0:
323,56,118668,2,0,B|329:90|329:90|320:129,1,74.699997720337,0|0,1:0|0:0,0:0:0:0:
300,223,118918,2,0,B|293:257|293:257|302:296,1,74.699997720337,10|0,0:0|0:0,0:0:0:0:
231,348,119168,6,0,L|81:341,1,149.399995440674,0|10,1:0|0:0,0:0:0:0:
81,340,119668,2,0,P|93:305|89:269,1,74.699997720337,2|0,1:2|0:0,0:0:0:0:
35,206,119918,2,0,P|22:171|28:134,1,74.699997720337,10|0,0:0|0:0,0:0:0:0:
75,48,120168,6,0,B|180:44|180:44|150:84,1,149.399995440674,0|10,1:0|0:0,0:0:0:0:
153,80,120668,2,0,L|230:73,1,74.699997720337,2|0,1:2|0:0,0:0:0:0:
138,162,120918,2,0,L|215:155,1,74.699997720337,8|0,0:0|0:0,0:0:0:0:
297,124,121168,5,2,1:2:0:0:
297,124,121418,2,0,L|290:219,1,74.699997720337,8|0,0:0|0:0,0:0:0:0:
239,264,121668,1,0,1:0:0:0:
239,264,121793,2,0,B|273:280|273:280|322:276,2,74.699997720337,8|10|8,0:0|0:0|0:0,0:0:0:0:
332,353,122168,6,0,P|383:303|371:232,1,149.399995440674,4|10,1:2|0:0,0:0:0:0:
371,232,122668,2,0,L|380:144,1,74.699997720337,0|0,1:0|0:0,0:0:0:0:
468,121,122918,2,0,L|459:209,1,74.699997720337,10|0,0:0|0:0,0:0:0:0:
443,293,123168,5,0,1:0:0:0:
443,293,123293,1,0,0:0:0:0:
371,232,123418,2,0,L|290:231,1,74.699997720337,10|0,0:0|0:0,0:0:0:0:
263,304,123668,2,0,P|230:276|215:243,1,74.699997720337,0|0,1:0|0:0,0:0:0:0:
234,156,123918,2,0,P|273:141|310:144,1,74.699997720337,10|0,0:0|0:0,0:0:0:0:
409,155,124168,6,0,P|474:121|457:53,1,149.399995440674,0|10,1:0|0:0,0:0:0:0:
460,56,124668,2,0,L|373:74,1,74.699997720337,0|0,1:0|0:0,0:0:0:0:
312,31,124918,2,0,L|238:46,1,74.699997720337,10|0,0:0|0:0,0:0:0:0:
163,139,125168,6,0,P|160:175|176:209,1,74.699997720337,0|0,1:0|0:0,0:0:0:0:
252,116,125418,2,0,P|254:79|238:45,1,74.699997720337,8|0,0:0|0:0,0:0:0:0:
145,58,125668,1,2,1:2:0:0:
145,58,125793,2,0,L|-12:100,1,149.399995440674,8|8,0:0|0:0,0:0:0:0:
130,264,126168,6,0,P|161:243|175:208,1,74.699997720337,4|0,1:2|0:0,0:0:0:0:
240,267,126418,2,0,P|257:230|252:189,1,83,8|0,0:0|0:0,0:0:0:0:
333,206,126668,2,0,P|329:161|301:125,1,91.300002786255,8|0,0:0|0:0,0:0:0:0:
384,107,126918,2,0,P|355:65|309:46,1,99.5999969604493,8|0,0:0|0:0,0:0:0:0:
229,85,127168,5,8,0:0:0:0:
153,36,127293,1,0,1:0:0:0:
96,105,127418,2,0,L|-8:95,1,74.699997720337,8|0,0:0|1:0,0:0:0:0:
7,186,127668,2,0,L|81:193,1,74.699997720337,8|0,0:0|1:0,0:0:0:0:
167,246,127918,1,12,0:2:0:0:
91,287,128043,1,8,0:0:0:0:
183,330,128168,6,0,P|242:284|224:187,1,166,4|8,1:2|0:0,0:0:0:0:
297,85,128543,1,0,0:0:0:0:
220,116,128668,2,0,P|160:161|178:258,1,166,0|8,1:0|0:0,0:0:0:0:
262,299,129043,1,0,0:0:0:0:
319,199,129168,6,0,L|225:200,1,83,0|0,1:0|0:0,0:0:0:0:
129,172,129418,1,8,0:0:0:0:
220,116,129543,1,0,0:0:0:0:
123,83,129668,2,0,B|113:41|113:41|121:1,1,83,0|0,1:0|0:0,0:0:0:0:
206,35,129918,1,8,0:0:0:0:
206,35,130043,1,0,0:0:0:0:
291,69,130168,6,0,L|379:65,1,83,0|0,1:0|0:0,0:0:0:0:
450,127,130418,1,8,0:0:0:0:
450,127,130543,1,8,0:0:0:0:
392,208,130668,2,0,P|348:141|373:65,1,166,0|8,1:0|0:0,0:0:0:0:
450,127,131043,1,0,0:0:0:0:
489,213,131168,5,0,1:0:0:0:
489,213,131293,1,0,1:0:0:0:
427,287,131418,2,0,B|371:295|371:295|329:330|329:330|274:333,1,166,8|0,0:0|0:0,0:0:0:0:
177,330,131793,5,8,0:0:0:0:
187,229,131918,1,8,0:0:0:0:
172,346,132043,1,8,0:0:0:0:
202,216,132168,6,0,P|129:182|62:224,1,166,4|8,1:2|0:0,0:0:0:0:
16,130,132543,1,0,0:0:0:0:
100,96,132668,2,0,L|207:103,1,83,0|0,1:0|0:0,0:0:0:0:
277,113,132918,1,8,0:0:0:0:
261,208,133043,1,0,0:0:0:0:
345,247,133168,6,0,P|352:206|340:167,1,83,0|0,1:0|0:0,0:0:0:0:
265,298,133418,2,0,P|296:324|336:334,1,83,8|0,0:0|0:0,0:0:0:0:
261,208,133668,2,0,P|222:221|194:251,1,83,0|0,1:0|0:0,0:0:0:0:
265,298,133918,1,8,0:0:0:0:
345,247,134043,1,0,0:0:0:0:
261,208,134168,6,0,L|78:208,1,166,0|8,1:0|0:0,0:0:0:0:
0,198,134543,1,0,0:0:0:0:
40,276,134668,2,0,P|16:198|52:126,1,166,0|8,1:0|2:0,0:0:0:0:
129,64,135043,1,0,0:0:0:0:
211,113,135168,5,0,1:0:0:0:
211,113,135293,1,0,1:0:0:0:
305,62,135418,2,0,L|296:242,1,166,8|0,0:0|1:0,0:0:0:0:
259,308,135793,5,8,0:0:0:0:
356,281,135918,1,8,0:0:0:0:
246,296,136043,1,8,0:0:0:0:
366,291,136168,6,0,B|482:262|482:262|451:325,1,166,4|8,1:2|0:0,0:0:0:0:
373,374,136543,1,0,0:0:0:0:
466,322,136668,2,0,L|463:131,1,166,0|8,1:0|0:0,0:0:0:0:
451,61,137043,1,0,0:0:0:0:
451,61,137168,6,0,B|370:83|370:83|274:42,1,166,0|8,1:0|0:0,0:0:0:0:
216,118,137543,1,0,0:0:0:0:
216,118,137668,2,0,L|228:208,1,83,0|0,1:0|0:0,0:0:0:0:
154,273,137918,2,0,L|142:183,1,83,8|0,0:0|0:0,0:0:0:0:
44,133,138168,6,0,P|111:116|133:85,1,83,0|0,1:0|0:0,0:0:0:0:
190,40,138418,1,8,0:0:0:0:
190,40,138543,1,0,0:0:0:0:
291,143,138668,2,0,P|224:126|202:95,1,83,0|0,1:0|0:0,0:0:0:0:
289,60,138918,2,0,L|291:143,1,83,8|0,0:0|0:0,0:0:0:0:
260,243,139168,5,0,1:0:0:0:
260,243,139293,1,0,1:0:0:0:
353,214,139418,2,0,B|417:210|417:210|453:237|453:237|509:234,1,166,8|0,0:0|1:0,0:0:0:0:
489,335,139793,5,8,0:0:0:0:
390,290,139918,1,8,0:0:0:0:
490,320,140043,1,8,0:0:0:0:
386,302,140168,6,0,L|221:281,1,166,4|8,1:2|0:0,0:0:0:0:
116,278,140543,1,0,0:0:0:0:
91,186,140668,2,0,P|84:147|94:98,1,83,0|0,1:0|0:0,0:0:0:0:
172,145,140918,1,8,0:0:0:0:
151,44,141043,1,0,0:0:0:0:
242,15,141168,5,0,1:0:0:0:
242,15,141293,1,0,0:0:0:0:
321,51,141418,6,0,B|332:92|332:92|322:131,1,83,8|0,0:0|0:0,0:0:0:0:
172,145,141668,2,0,B|202:114|202:114|240:103,1,83,0|0,1:0|0:0,0:0:0:0:
318,226,141918,2,0,B|276:215|276:215|247:187,1,83,8|0,0:0|0:0,0:0:0:0:
322,131,142168,6,0,L|498:135,1,166,0|8,1:0|0:0,0:0:0:0:
483,229,142543,1,8,0:0:0:0:
483,229,142668,2,0,L|317:225,1,166,0|8,1:0|0:0,0:0:0:0:
85,310,143168,5,0,1:0:0:0:
85,310,143293,1,0,1:0:0:0:
86,215,143418,2,0,L|91:46,1,166,8|0,0:0|1:0,0:0:0:0:
108,48,143918,2,0,L|106:149,1,83,0|0,0:0|0:0,0:0:0:0:
171,191,144168,6,0,B|228:216|228:216|289:210,1,124.500004749298,4|2,1:2|0:0,0:0:0:0:
289,210,144668,6,0,P|313:180|321:134,1,62.2500023746491,8|0,0:0|0:0,0:0:0:0:
275,86,144918,2,0,P|251:116|243:161,1,62.2500023746491,2|0,1:2|0:0,0:0:0:0:
207,216,145168,5,0,1:0:0:0:
207,216,145293,1,0,1:0:0:0:
257,294,145418,2,0,L|385:278,1,124.500004749298,10|2,0:0|0:0,0:0:0:0:
461,320,145793,1,0,1:0:0:0:
461,320,145918,2,0,L|457:235,1,62.2500023746491,10|0,0:0|0:0,0:0:0:0:
416,172,146168,6,0,B|378:203|378:203|380:301,1,124.500004749298,0|2,1:0|0:0,0:0:0:0:
379,278,146668,2,0,P|350:288|327:309,1,62.2500023746491,8|0,0:0|0:0,0:0:0:0:
261,353,146918,1,2,1:2:0:0:
261,353,147043,1,0,1:0:0:0:
186,301,147168,6,0,L|53:289,1,124.500004749298,2|10,1:2|0:0,0:0:0:0:
9,232,147543,1,0,1:0:0:0:
9,232,147668,2,0,L|19:149,1,62.2500023746491,0|0,1:0|0:0,0:0:0:0:
99,133,147918,1,10,0:0:0:0:
99,133,148043,1,8,0:0:0:0:
178,126,148168,6,0,P|149:64|80:57,1,124.500004749298,4|2,1:2|0:2,0:0:0:0:
98,51,148668,2,0,L|167:51,1,62.2500023746491,8|0,0:0|0:0,0:0:0:0:
242,30,148918,2,0,L|311:30,1,62.2500023746491,2|0,1:2|0:0,0:0:0:0:
387,72,149168,6,0,L|385:148,2,62.2500023746491,0|0|10,1:0|1:0|0:0,0:0:0:0:
300,119,149668,2,0,P|302:151|331:197,1,62.2500023746491,0|0,1:0|0:0,0:0:0:0:
460,176,149918,2,0,P|472:147|474:116,1,62.2500023746491,2|0,0:0|0:0,0:0:0:0:
385,134,150168,6,0,L|392:276,1,124.500004749298,0|8,1:0|0:0,0:0:0:0:
424,334,150543,1,8,0:0:0:0:
424,334,150668,2,0,P|379:337|360:329,1,62.2500023746491,2|0,1:2|0:0,0:0:0:0:
311,263,150918,2,0,P|266:260|247:268,1,62.2500023746491,10|0,0:0|0:0,0:0:0:0:
174,308,151168,5,10,0:0:0:0:
174,308,151293,1,0,1:0:0:0:
93,266,151418,2,0,B|84:299|84:299|91:352,1,62.2500023746491,0|0,1:0|0:0,0:0:0:0:
171,222,151668,2,0,B|177:189|177:189|169:159,1,62.2500023746491,2|0,1:2|0:0,0:0:0:0:
110,92,151918,1,2,1:2:0:0:
110,92,152043,1,8,0:0:0:0:
199,77,152168,6,0,B|244:99|244:99|261:120|261:120|303:141,1,124.500004749298,4|2,1:2|0:0,0:0:0:0:
329,62,152543,1,0,0:0:0:0:
403,125,152668,2,0,L|417:46,1,62.2500023746491,8|0,0:0|0:0,0:0:0:0:
339,0,152918,2,0,L|325:79,1,62.2500023746491,2|0,1:2|0:0,0:0:0:0:
303,141,153168,6,0,L|290:216,2,62.2500023746491,2|0|10,1:2|1:0|0:0,0:0:0:0:
364,250,153668,2,0,B|375:217|375:217|373:189,1,62.2500023746491,2|0,1:2|1:0,0:0:0:0:
206,181,153918,2,0,B|204:209|204:209|215:241,1,62.2500023746491,10|0,0:0|0:0,0:0:0:0:
238,322,154168,6,0,P|297:312|347:347,1,124.500004749298,0|2,1:0|0:0,0:0:0:0:
347,347,154668,2,0,L|423:331,1,62.2500023746491,8|0,0:0|0:0,0:0:0:0:
494,311,154918,1,2,1:2:0:0:
494,311,155043,1,0,1:0:0:0:
426,252,155168,6,0,B|418:166|418:166|439:131,1,124.500004749298,0|10,1:0|0:0,0:0:0:0:
354,103,155543,1,0,1:0:0:0:
354,103,155668,2,0,L|219:123,1,124.500004749298,0|10,1:0|0:0,0:0:0:0:
152,150,156043,1,8,0:0:0:0:
152,150,156168,6,0,B|146:108|146:108|162:73|162:73|147:33,1,124.500004749298,4|2,1:2|0:0,0:0:0:0:
75,69,156543,1,0,1:0:0:0:
75,69,156668,2,0,L|13:94,1,62.2500023746491,10|0,0:0|0:0,0:0:0:0:
35,185,156918,1,10,0:0:0:0:
35,185,157043,1,0,1:0:0:0:
63,279,157168,5,2,0:0:0:0:
126,216,157293,1,0,1:0:0:0:
171,299,157418,2,0,L|312:285,1,124.500004749298,10|2,0:0|1:2,0:0:0:0:
294,286,157918,1,10,0:0:0:0:
374,343,158043,1,8,0:0:0:0:
461,305,158168,6,0,B|477:245|477:245|452:180,1,124.500004749298,2|10,1:2|0:0,0:0:0:0:
402,126,158543,1,0,1:0:0:0:
402,126,158668,2,0,L|326:139,1,62.2500023746491,10|0,0:0|1:0,0:0:0:0:
274,196,158918,1,10,0:0:0:0:
206,145,159043,1,8,0:0:0:0:
269,85,159168,5,2,1:2:0:0:
269,85,159293,1,0,1:0:0:0:
206,145,159418,2,0,L|127:143,1,62.2500023746491,10|0,0:0|0:0,0:0:0:0:
55,144,159668,1,2,1:2:0:0:
55,144,159918,6,0,P|50:178|63:224,1,62.2500023746491,2|2,0:0|0:0,0:0:0:0:
144,226,160168,6,0,L|143:142,1,83,4|0,1:2|0:0,0:0:0:0:
223,280,160418,2,0,L|150:322,1,83,8|0,0:0|0:0,0:0:0:0:
230,191,160668,2,0,L|303:232,1,83,0|0,1:0|0:0,0:0:0:0:
350,319,160918,1,8,0:0:0:0:
407,237,161043,1,0,0:0:0:0:
485,293,161168,6,0,P|499:229|489:203,1,83,0|0,1:0|0:0,0:0:0:0:
468,127,161418,2,0,L|273:143,1,166,8|0,0:0|1:0,0:0:0:0:
203,163,161793,1,0,0:0:0:0:
203,163,161918,2,0,L|201:81,1,83,8|0,0:0|0:0,0:0:0:0:
68,32,162168,6,0,L|66:115,1,83,0|0,1:0|0:0,0:0:0:0:
7,196,162418,2,0,P|51:205|89:250,1,83,8|8,0:0|0:0,0:0:0:0:
90,325,162668,1,0,1:0:0:0:
13,287,162793,1,0,0:0:0:0:
155,260,162918,2,0,L|255:259,1,83,8|0,0:0|0:0,0:0:0:0:
163,100,163168,6,0,B|150:144|150:144|153:182,2,83,0|0|8,1:0|1:0|0:0,0:0:0:0:
122,24,163543,2,0,P|162:17|207:31,1,83,0|0,1:0|1:0,0:0:0:0:
327,97,163793,1,8,0:0:0:0:
291,17,163918,1,8,0:0:0:0:
256,149,164043,1,8,0:0:0:0:
388,166,164168,6,0,P|419:88|362:15,1,166,4|8,1:2|0:0,0:0:0:0:
327,97,164543,1,0,0:0:0:0:
388,165,164668,2,0,L|497:150,1,83,0|0,1:0|0:0,0:0:0:0:
256,149,164918,2,0,B|245:189|245:189|255:229,1,83,8|0,0:0|0:0,0:0:0:0:
310,331,165168,5,0,1:0:0:0:
340,247,165293,1,0,0:0:0:0:
255,229,165418,1,8,0:0:0:0:
227,305,165543,2,0,B|185:314|185:314|112:295|112:295|66:305,1,166,0|0,0:0|0:0,0:0:0:0:
14,219,165918,2,0,L|11:136,1,83,8|0,0:0|0:0,0:0:0:0:
103,56,166168,6,0,P|169:100|245:74,1,166,0|8,1:0|0:0,0:0:0:0:
186,17,166543,1,8,0:0:0:0:
186,17,166668,2,0,L|164:104,1,83,0|0,1:0|0:0,0:0:0:0:
240,181,166918,2,0,L|259:94,1,83,8|0,0:0|0:0,0:0:0:0:
349,46,167168,5,0,1:0:0:0:
349,46,167293,1,0,1:0:0:0:
344,146,167418,2,0,P|412:187|414:266,1,166,8|0,0:0|1:0,0:0:0:0:
306,343,167793,5,8,0:0:0:0:
335,238,167918,1,8,0:0:0:0:
299,354,168043,1,8,0:0:0:0:
338,227,168168,6,0,P|297:233|231:219,1,83,4|0,1:2|0:0,0:0:0:0:
141,311,168418,2,0,P|182:302|248:318,1,83,8|0,0:0|0:0,0:0:0:0:
251,201,168668,2,0,P|251:123|287:10,1,166,0|8,1:0|0:0,0:0:0:0:
361,62,169043,1,0,0:0:0:0:
276,23,169168,6,0,L|165:28,1,83,0|0,1:0|0:0,0:0:0:0:
361,62,169418,2,0,P|400:72|433:107,1,83,8|0,0:0|0:0,0:0:0:0:
363,225,169668,2,0,P|352:186|365:140,1,83,0|0,1:0|0:0,0:0:0:0:
451,189,169918,1,8,0:0:0:0:
362,145,170043,1,0,0:0:0:0:
429,101,170168,6,0,L|511:106,1,83,0|0,1:0|0:0,0:0:0:0:
362,39,170418,1,8,0:0:0:0:
362,39,170543,1,8,0:0:0:0:
274,87,170668,2,0,L|177:80,2,83,0|0|8,1:0|0:0|0:0,0:0:0:0:
124,41,171043,1,0,0:0:0:0:
124,41,171168,6,0,P|113:81|129:133,1,83,0|0,1:0|1:0,0:0:0:0:
108,220,171418,2,0,L|26:228,2,83,8|0|0,0:0|0:0|1:0,0:0:0:0:
201,164,171793,5,8,0:0:0:0:
206,267,171918,1,8,0:0:0:0:
200,150,172043,1,8,0:0:0:0:
203,281,172168,6,0,B|265:267|265:267|306:287|306:287|390:274,1,166,4|8,1:2|0:0,0:0:0:0:
478,63,172668,2,0,B|416:49|416:49|375:69|375:69|291:56,1,166,0|8,1:2|0:0,0:0:0:0:
319,61,173168,6,0,L|330:170,1,83,0|0,1:0|0:0,0:0:0:0:
439,218,173418,2,0,L|428:109,1,83,8|0,0:0|0:0,0:0:0:0:
304,240,173668,2,0,P|266:222|245:187,1,83,0|0,1:0|0:0,0:0:0:0:
244,85,173918,2,0,P|277:61|318:60,1,83,8|0,0:0|0:0,0:0:0:0:
327,143,174168,6,0,L|132:148,1,166,0|8,1:0|0:0,0:0:0:0:
53,156,174543,1,8,0:0:0:0:
53,156,174668,2,0,B|40:114|40:114|43:73,1,83,0|0,1:0|0:0,0:0:0:0:
151,66,174918,2,0,B|163:107|163:107|160:148,1,83,8|0,0:0|0:0,0:0:0:0:
155,239,175168,5,0,1:0:0:0:
155,239,175293,1,0,1:0:0:0:
84,300,175418,2,0,B|143:328|143:328|240:304,1,166,8|0,0:0|1:0,0:0:0:0:
314,253,175793,2,0,L|313:142,2,83,8|8|8,0:0|0:0|0:0,0:0:0:0:
342,335,176168,5,4,1:2:0:0:
74,110,184168,6,0,B|139:68|139:68|216:118,1,149.399995440674,4|10,1:2|0:0,0:0:0:0:
203,229,184668,2,0,B|138:271|138:271|61:220,1,149.399995440674,0|10,1:0|0:0,0:0:0:0:
141,166,185168,5,0,1:0:0:0:
141,166,185293,1,0,1:0:0:0:
203,229,185418,2,0,L|205:315,1,74.699997720337,10|0,0:0|0:0,0:0:0:0:
290,326,185668,2,0,L|288:251,1,74.699997720337,0|0,1:0|0:0,0:0:0:0:
297,168,185918,2,0,P|332:179|356:207,1,74.699997720337,10|0,0:0|0:0,0:0:0:0:
437,350,186168,6,0,L|289:325,1,149.399995440674,0|10,1:0|0:0,0:0:0:0:
198,347,186543,1,8,0:0:0:0:
198,347,186668,2,0,L|101:326,1,74.699997720337,2|0,1:2|0:0,0:0:0:0:
53,285,186918,1,10,0:0:0:0:
48,190,187043,1,0,0:0:0:0:
132,225,187168,6,0,P|142:177|123:137,1,74.699997720337,2|0,1:2|1:0,0:0:0:0:
50,118,187418,2,0,P|40:165|59:205,1,74.699997720337,10|0,0:0|0:0,0:0:0:0:
241,71,187668,2,0,P|193:60|153:80,1,74.699997720337,0|8,1:0|0:0,0:0:0:0:
134,153,187918,2,0,P|181:163|222:143,1,74.699997720337,10|8,0:0|0:0,0:0:0:0:
300,139,188168,6,0,B|310:232|310:232|271:271,1,149.399995440674,4|10,1:2|0:0,0:0:0:0:
271,271,188668,2,0,B|371:261,1,74.699997720337,0|0,1:0|0:0,0:0:0:0:
410,314,188918,6,0,P|427:260|419:233,1,74.699997720337,10|0,0:0|0:0,0:0:0:0:
369,181,189168,2,0,P|353:147|355:110,1,74.699997720337,2|0,1:2|0:0,0:0:0:0:
425,61,189418,2,0,L|275:69,2,149.399995440674,10|2|10,0:0|1:2|0:0,0:0:0:0:
464,151,190043,1,0,0:0:0:0:
423,243,190168,6,0,P|346:259|287:202,1,149.399995440674,2|10,1:2|0:0,0:0:0:0:
224,161,190543,1,8,0:0:0:0:
224,161,190668,2,0,L|151:172,1,74.699997720337,2|0,1:2|0:0,0:0:0:0:
55,205,190918,2,0,P|44:173|51:121,1,74.699997720337,10|0,0:0|0:0,0:0:0:0:
132,95,191168,6,0,B|134:268,2,166,0|2|0,1:0|0:0|0:0,0:0:0:0:
132,95,192168,6,0,P|177:54|281:71,1,166,4|8,1:2|0:0,0:0:0:0:
345,134,192543,1,0,0:0:0:0:
345,134,192668,2,0,L|427:124,1,83,0|0,1:0|0:0,0:0:0:0:
438,218,192918,2,0,L|355:227,1,83,8|0,0:0|0:0,0:0:0:0:
270,194,193168,5,0,1:0:0:0:
270,194,193293,1,0,1:0:0:0:
274,293,193418,5,8,0:0:0:0:
186,244,193543,1,0,0:0:0:0:
109,295,193668,6,0,B|92:248|92:248|106:201,1,99.5999969604493,8|0,0:0|0:0,0:0:0:0:
157,122,193918,1,8,0:0:0:0:
157,122,194043,1,0,1:0:0:0:
92,49,194168,5,0,0:0:0:0:
92,49,195043,5,0,1:0:0:0:
208,39,195168,5,4,1:0:0:0:
208,39,195293,1,0,0:0:0:0:
157,122,195418,2,0,L|165:205,1,83,0|8,1:0|0:0,0:0:0:0:
89,245,195668,5,0,1:0:0:0:
89,245,195793,1,8,0:0:0:0:
260,237,195918,2,0,P|227:287|168:287,1,124.5,0|0,0:0|0:0,0:0:0:0:
164,204,196168,6,0,L|345:182,1,182.60000557251,4|8,1:2|0:0,0:0:0:0:
428,211,196543,1,0,0:0:0:0:
370,328,196668,2,0,P|312:262|344:182,1,182.60000557251,0|8,1:0|0:0,0:0:0:0:
421,113,197043,1,0,0:0:0:0:
331,82,197168,6,0,L|214:101,1,91.300002786255,0|0,1:0|0:0,0:0:0:0:
151,159,197418,1,8,0:0:0:0:
140,65,197543,1,0,0:0:0:0:
64,121,197668,2,0,B|56:167|56:167|79:216,1,91.300002786255,0|0,1:0|0:0,0:0:0:0:
133,295,197918,1,8,0:0:0:0:
133,295,198043,1,0,0:0:0:0:
240,139,198168,6,0,L|133:163,1,91.300002786255,0|0,1:0|0:0,0:0:0:0:
223,248,198418,1,8,0:0:0:0:
223,248,198543,1,8,0:0:0:0:
323,192,198668,2,0,B|330:98|330:98|242:31,1,182.60000557251,0|8,1:0|0:0,0:0:0:0:
170,48,199043,1,0,0:0:0:0:
240,139,199168,5,0,1:0:0:0:
240,139,199293,1,0,1:0:0:0:
259,44,199418,2,0,B|323:47|323:47|363:89|363:89|438:89,1,182.60000557251,8|0,0:0|1:0,0:0:0:0:
502,72,199793,5,8,0:0:0:0:
473,165,199918,1,8,0:0:0:0:
509,55,200043,1,8,0:0:0:0:
469,182,200168,6,0,P|406:243|320:223,1,182.60000557251,4|8,1:2|0:0,0:0:0:0:
279,132,200543,1,0,0:0:0:0:
190,174,200668,2,0,L|196:268,1,91.300002786255,0|0,1:0|0:0,0:0:0:0:
181,364,200918,1,8,0:0:0:0:
273,322,201043,1,0,0:0:0:0:
195,266,201168,6,0,L|0:277,1,182.60000557251,0|8,1:0|0:0,0:0:0:0:
7,184,201543,1,0,0:0:0:0:
7,184,201668,2,0,L|189:173,1,182.60000557251,0|8,1:0|0:0,0:0:0:0:
262,221,202043,1,0,0:0:0:0:
267,138,202168,6,0,P|217:146|184:183,1,91.300002786255,0|0,1:0|1:0,0:0:0:0:
174,255,202418,1,8,0:0:0:0:
174,255,202543,1,8,0:0:0:0:
253,301,202668,2,0,P|303:293|336:256,1,91.300002786255,0|0,1:0|0:0,0:0:0:0:
345,102,202918,2,0,P|295:110|262:147,1,91.300002786255,8|0,0:0|0:0,0:0:0:0:
416,232,203168,5,0,1:0:0:0:
335,182,203293,1,0,1:0:0:0:
331,265,203418,2,0,L|323:389,2,99.5999969604493,8|0|0,0:0|0:0|1:0,0:0:0:0:
416,232,203793,5,8,0:0:0:0:
413,125,203918,1,8,0:0:0:0:
425,248,204043,1,8,0:0:0:0:
400,111,204168,6,0,L|215:108,1,182.60000557251,4|8,1:2|0:0,0:0:0:0:
121,45,204543,1,0,0:0:0:0:
121,45,204668,2,0,B|129:107|129:107|109:166|109:166|118:224,1,182.60000557251,0|8,1:0|0:0,0:0:0:0:
107,343,205043,1,0,0:0:0:0:
107,343,205168,6,0,B|238:316|238:316|281:370,1,182.60000557251,0|8,1:0|0:0,0:0:0:0:
357,262,205543,1,0,0:0:0:0:
357,262,205668,2,0,L|357:139,1,91.300002786255,0|0,1:0|0:0,0:0:0:0:
458,77,205918,2,0,L|455:188,1,91.300002786255,8|0,0:0|0:0,0:0:0:0:
452,306,206168,6,0,L|238:273,1,182.60000557251,0|8,1:0|0:0,0:0:0:0:
196,324,206543,1,8,0:0:0:0:
196,324,206668,2,0,P|182:280|191:236,1,91.300002786255,0|0,1:0|0:0,0:0:0:0:
261,167,206918,2,0,P|270:123|257:80,1,91.300002786255,8|0,0:0|0:0,0:0:0:0:
173,35,207168,5,0,1:0:0:0:
174,129,207293,1,0,1:0:0:0:
257,79,207418,2,0,L|439:93,1,182.60000557251,8|0,0:0|1:0,0:0:0:0:
439,93,207918,2,0,L|436:196,1,91.300002786255,8|0,0:0|0:0,0:0:0:0:
473,263,208168,6,0,P|408:265|351:220,1,124.500004749298,4|10,1:2|0:0,0:0:0:0:
247,263,208668,2,0,P|311:265|369:220,1,124.500004749298,0|10,1:0|0:0,0:0:0:0:
257,130,209168,6,0,P|192:132|135:87,1,124.500004749298,0|10,1:0|0:0,0:0:0:0:
31,130,209668,2,0,P|95:132|153:87,1,124.500004749298,0|10,1:0|0:0,0:0:0:0:
343,28,210168,6,0,L|343:170,1,124.500004749298,0|10,1:0|0:0,0:0:0:0:
186,345,210668,2,0,L|186:203,1,124.500004749298,2|10,1:2|0:0,0:0:0:0:
183,137,211168,5,6,1:3:0:0:
183,137,211418,1,6,1:3:0:0:
183,137,211668,1,6,1:3:0:0:
99,112,211918,6,0,P|97:142|106:172,1,62.2500023746491,2|2,0:0|0:0,0:0:0:0:
262,164,212168,6,0,P|259:97|228:67,1,83,4|0,0:0|0:0,0:0:0:0:
183,137,212418,2,0,L|186:233,1,83,8|0,0:0|0:0,0:0:0:0:
276,330,212668,2,0,L|272:233,1,83,0|0,1:0|0:0,0:0:0:0:
346,193,212918,5,8,0:0:0:0:
262,164,213043,1,0,0:0:0:0:
429,153,213168,6,0,P|439:192|429:232,1,83,0|0,1:0|0:0,0:0:0:0:
346,193,213418,2,0,P|335:153|346:113,1,83,8|0,0:0|0:0,0:0:0:0:
444,29,213668,2,0,L|245:46,1,166,0|8,1:0|0:0,0:0:0:0:
278,43,214168,6,0,P|239:61|223:101,1,83,0|0,1:0|0:0,0:0:0:0:
220,191,214418,1,8,0:0:0:0:
220,191,214543,1,8,0:0:0:0:
134,150,214668,2,0,L|136:52,1,83,0|0,1:0|0:0,0:0:0:0:
19,7,214918,2,0,P|41:42|38:83,1,83,8|0,0:0|0:0,0:0:0:0:
31,182,215168,5,0,1:0:0:0:
134,150,215293,1,0,1:0:0:0:
113,255,215418,2,0,B|105:295|105:295|117:335,1,83,8|0,0:0|0:0,0:0:0:0:
220,292,215668,1,0,1:0:0:0:
310,342,215793,2,0,B|322:302|322:302|310:234,2,83,8|8|8,0:0|0:0|0:0,0:0:0:0:
220,292,216168,6,0,L|220:193,1,83,4|0,1:2|0:0,0:0:0:0:
187,122,216418,2,0,P|230:114|276:133,1,83,8|0,0:0|0:0,0:0:0:0:
350,169,216668,2,0,L|350:70,1,83,0|0,1:0|0:0,0:0:0:0:
286,31,216918,1,8,0:0:0:0:
266,126,217043,1,0,0:0:0:0:
350,86,217168,6,0,B|388:76|388:76|431:86,1,83,0|0,1:0|0:0,0:0:0:0:
430,169,217418,2,0,B|391:178|391:178|348:168,1,83,8|0,0:0|0:0,0:0:0:0:
100,129,217668,2,0,B|266:126,1,166,0|8,1:0|0:0,0:0:0:0:
265,125,218168,6,0,P|242:159|246:200,1,83,0|0,1:0|0:0,0:0:0:0:
287,281,218418,1,8,0:0:0:0:
287,281,218543,1,8,0:0:0:0:
189,272,218668,2,0,L|99:271,1,83,0|0,1:0|0:0,0:0:0:0:
267,355,218918,2,0,P|289:321|286:280,1,83,8|0,0:0|0:0,0:0:0:0:
245,199,219168,5,0,1:0:0:0:
338,208,219293,1,0,1:0:0:0:
303,139,219418,2,0,L|310:44,1,83,8|0,0:0|0:0,0:0:0:0:
431,26,219668,1,0,1:0:0:0:
389,101,219793,2,0,P|431:109|487:99,2,83,8|8|8,0:0|0:0|0:0,0:0:0:0:
308,55,220168,6,0,L|226:56,1,83,4|0,1:2|0:0,0:0:0:0:
185,127,220418,2,0,B|175:168|175:168|187:207,1,83,8|0,0:0|0:0,0:0:0:0:
95,316,220668,2,0,B|107:276|107:276|97:235,1,83,0|0,1:0|0:0,0:0:0:0:
102,148,220918,1,8,0:0:0:0:
186,206,221043,1,0,0:0:0:0:
97,235,221168,6,0,B|-7:247,1,83,0|0,1:0|0:0,0:0:0:0:
98,343,221418,2,0,B|180:333,1,83,8|0,0:0|0:0,0:0:0:0:
312,251,221668,2,0,P|261:189|184:206,1,166,0|8,1:0|0:0,0:0:0:0:
185,205,222168,6,0,P|213:176|254:171,1,83,0|0,1:0|0:0,0:0:0:0:
350,156,222418,1,8,0:0:0:0:
350,156,222543,1,8,0:0:0:0:
282,88,222668,2,0,P|253:53|211:45,1,83,0|0,1:0|0:0,0:0:0:0:
381,0,222918,2,0,P|391:39|377:78,1,83,8|0,0:0|0:0,0:0:0:0:
350,156,223168,5,0,1:0:0:0:
350,156,223293,1,0,1:0:0:0:
459,227,223418,2,0,L|466:132,1,83,8|0,0:0|0:0,0:0:0:0:
467,49,223668,1,0,1:0:0:0:
376,78,223793,2,0,P|343:69|292:82,2,83,8|8|8,0:0|0:0|0:0,0:0:0:0:
259,190,224168,6,0,B|176:183,1,83,4|0,1:2|0:0,0:0:0:0:
114,88,224418,2,0,L|196:92,1,83,8|0,0:0|0:0,0:0:0:0:
170,215,224668,2,0,B|82:209,1,83,0|0,1:0|0:0,0:0:0:0:
39,138,224918,1,8,0:0:0:0:
114,88,225043,1,0,0:0:0:0:
41,53,225168,5,0,1:0:0:0:
41,53,225293,1,0,1:0:0:0:
197,12,225418,2,0,B|209:53|209:53|196:92,1,83,8|0,0:0|0:0,0:0:0:0:
170,215,225668,2,0,P|231:163|317:191,1,166,0|8,1:0|0:0,0:0:0:0:
251,244,226043,1,0,0:0:0:0:
207,323,226168,6,0,B|153:324|153:324|106:287|106:287|53:284,1,166,0|8,1:0|0:0,0:0:0:0:
77,367,226543,1,8,0:0:0:0:
32,286,226668,2,0,L|28:204,1,83,0|0,1:0|0:0,0:0:0:0:
38,104,226918,1,8,0:0:0:0:
123,151,227043,1,0,0:0:0:0:
194,82,227168,5,0,1:0:0:0:
194,82,227293,1,0,1:0:0:0:
263,152,227418,2,0,P|266:193|257:234,1,83,8|0,0:0|0:0,0:0:0:0:
226,322,227668,5,0,1:0:0:0:
333,298,227793,2,0,L|415:307,2,83,8|8|8,0:0|0:0|0:0,0:0:0:0:
155,260,228168,6,0,L|-8:282,1,149.399995440674,4|10,1:2|0:0,0:0:0:0:
194,77,228668,2,0,L|31:99,1,149.399995440674,2|10,1:2|0:0,0:0:0:0:
159,237,229168,6,0,L|-4:259,1,149.399995440674,2|10,1:2|0:0,0:0:0:0:
198,54,229668,2,0,L|35:76,1,149.399995440674,2|10,1:2|0:0,0:0:0:0:
357,260,230168,6,0,L|520:282,1,149.399995440674,2|10,1:2|0:0,0:0:0:0:
318,77,230668,2,0,L|481:99,1,149.399995440674,2|10,1:2|0:0,0:0:0:0:
353,237,231168,6,0,L|516:259,1,149.399995440674,2|10,1:2|0:0,0:0:0:0:
314,54,231668,2,0,L|477:76,1,149.399995440674,2|10,1:2|0:0,0:0:0:0:
171,263,232168,6,0,P|143:202|148:101,1,149.399995440674,4|10,1:2|0:0,0:0:0:0:
341,263,232668,2,0,P|369:202|364:101,1,149.399995440674,2|10,1:2|0:0,0:0:0:0:
150,272,233168,6,0,P|120:207|125:100,1,149.399995440674,2|10,1:2|0:0,0:0:0:0:
117,129,233668,2,0,L|43:123,1,74.699997720337,0|10,1:0|0:2,0:0:0:0:
86,33,233918,2,0,L|160:41,1,74.699997720337,8|8,0:3|0:3,0:0:0:0:
255,36,234168,5,2,1:2:0:0:
254,234,234418,1,2,0:0:0:0:
256,135,234668,1,0,1:0:0:0:
253,333,234918,1,2,0:0:0:0:
183,286,235168,6,0,L|172:224,1,62.2500023746491,2|0,0:1|0:0,0:0:0:0:
333,226,235418,2,0,L|322:287,1,62.2500023746491,2|0,0:1|0:0,0:0:0:0:
188,189,235668,6,0,P|257:153|333:201,1,164.339999498474,2|0,0:1|0:0,0:0:0:0:
